  0
SECTION
  2
HEADER
  9
$ACADVER
  1
AC1014
  9
$ACADMAINTVER
 70
     9
  9
$DWGCODEPAGE
  3
ANSI_1252
  9
$INSBASE
 10
0.0
 20
0.0
 30
0.0
  9
$EXTMIN
 10
1.81902
 20
4.043594
 30
0.0
  9
$EXTMAX
 10
27.512258
 20
38.243667
 30
15.0
  9
$LIMMIN
 10
0.0
 20
0.0
  9
$LIMMAX
 10
12.0
 20
9.0
  9
$ORTHOMODE
 70
     1
  9
$REGENMODE
 70
     1
  9
$FILLMODE
 70
     1
  9
$QTEXTMODE
 70
     0
  9
$MIRRTEXT
 70
     1
  9
$DRAGMODE
 70
     2
  9
$LTSCALE
 40
1.0
  9
$OSMODE
 70
     1
  9
$ATTMODE
 70
     1
  9
$TEXTSIZE
 40
0.2
  9
$TRACEWID
 40
0.05
  9
$TEXTSTYLE
  7
STANDARD
  9
$CLAYER
  8
0
  9
$CELTYPE
  6
BYLAYER
  9
$CECOLOR
 62
   256
  9
$CELTSCALE
 40
1.0
  9
$DELOBJ
 70
     1
  9
$DISPSILH
 70
     0
  9
$DIMSCALE
 40
2.0
  9
$DIMASZ
 40
0.18
  9
$DIMEXO
 40
0.0625
  9
$DIMDLI
 40
0.38
  9
$DIMRND
 40
0.0
  9
$DIMDLE
 40
0.0
  9
$DIMEXE
 40
0.18
  9
$DIMTP
 40
0.0
  9
$DIMTM
 40
0.0
  9
$DIMTXT
 40
0.18
  9
$DIMCEN
 40
0.09
  9
$DIMTSZ
 40
0.0
  9
$DIMTOL
 70
     0
  9
$DIMLIM
 70
     0
  9
$DIMTIH
 70
     1
  9
$DIMTOH
 70
     1
  9
$DIMSE1
 70
     0
  9
$DIMSE2
 70
     0
  9
$DIMTAD
 70
     0
  9
$DIMZIN
 70
     0
  9
$DIMBLK
  1

  9
$DIMASO
 70
     1
  9
$DIMSHO
 70
     1
  9
$DIMPOST
  1

  9
$DIMAPOST
  1
mm
  9
$DIMALT
 70
     1
  9
$DIMALTD
 70
     0
  9
$DIMALTF
 40
25.4
  9
$DIMLFAC
 40
1.0
  9
$DIMTOFL
 70
     0
  9
$DIMTVP
 40
0.0
  9
$DIMTIX
 70
     0
  9
$DIMSOXD
 70
     0
  9
$DIMSAH
 70
     0
  9
$DIMBLK1
  1

  9
$DIMBLK2
  1

  9
$DIMSTYLE
  2
STANDARD
  9
$DIMCLRD
 70
     0
  9
$DIMCLRE
 70
     0
  9
$DIMCLRT
 70
     0
  9
$DIMTFAC
 40
1.0
  9
$DIMGAP
 40
0.09
  9
$DIMJUST
 70
     0
  9
$DIMSD1
 70
     0
  9
$DIMSD2
 70
     0
  9
$DIMTOLJ
 70
     1
  9
$DIMTZIN
 70
     0
  9
$DIMALTZ
 70
     0
  9
$DIMALTTZ
 70
     0
  9
$DIMFIT
 70
     3
  9
$DIMUPT
 70
     1
  9
$DIMUNIT
 70
     4
  9
$DIMDEC
 70
     4
  9
$DIMTDEC
 70
     4
  9
$DIMALTU
 70
     2
  9
$DIMALTTD
 70
     0
  9
$DIMTXSTY
  7
STANDARD
  9
$DIMAUNIT
 70
     0
  9
$LUNITS
 70
     2
  9
$LUPREC
 70
     4
  9
$SKETCHINC
 40
0.1
  9
$FILLETRAD
 40
0.5
  9
$AUNITS
 70
     0
  9
$AUPREC
 70
     0
  9
$MENU
  1
.
  9
$ELEVATION
 40
0.0
  9
$PELEVATION
 40
0.0
  9
$THICKNESS
 40
0.0
  9
$LIMCHECK
 70
     0
  9
$BLIPMODE
 70
     0
  9
$CHAMFERA
 40
0.5
  9
$CHAMFERB
 40
0.5
  9
$CHAMFERC
 40
1.0
  9
$CHAMFERD
 40
0.0
  9
$SKPOLY
 70
     0
  9
$TDCREATE
 40
2451964.358028657
  9
$TDUPDATE
 40
2452102.433963461
  9
$TDINDWG
 40
0.0124959491
  9
$TDUSRTIMER
 40
0.0124959491
  9
$USRTIMER
 70
     1
  9
$ANGBASE
 50
0.0
  9
$ANGDIR
 70
     0
  9
$PDMODE
 70
     0
  9
$PDSIZE
 40
0.0
  9
$PLINEWID
 40
0.0
  9
$COORDS
 70
     1
  9
$SPLFRAME
 70
     0
  9
$SPLINETYPE
 70
     6
  9
$SPLINESEGS
 70
     8
  9
$ATTDIA
 70
     0
  9
$ATTREQ
 70
     1
  9
$HANDLING
 70
     1
  9
$HANDSEED
  5
7BF
  9
$SURFTAB1
 70
     6
  9
$SURFTAB2
 70
     6
  9
$SURFTYPE
 70
     6
  9
$SURFU
 70
     6
  9
$SURFV
 70
     6
  9
$UCSNAME
  2
SM-TEMP
  9
$UCSORG
 10
0.0
 20
0.0
 30
0.0
  9
$UCSXDIR
 10
1.0
 20
0.0
 30
0.0
  9
$UCSYDIR
 10
0.0
 20
1.0
 30
0.0
  9
$PUCSNAME
  2

  9
$PUCSORG
 10
0.0
 20
0.0
 30
0.0
  9
$PUCSXDIR
 10
1.0
 20
0.0
 30
0.0
  9
$PUCSYDIR
 10
0.0
 20
1.0
 30
0.0
  9
$USERI1
 70
     0
  9
$USERI2
 70
     0
  9
$USERI3
 70
     0
  9
$USERI4
 70
     0
  9
$USERI5
 70
     0
  9
$USERR1
 40
0.0
  9
$USERR2
 40
0.0
  9
$USERR3
 40
0.0
  9
$USERR4
 40
0.0
  9
$USERR5
 40
0.0
  9
$WORLDVIEW
 70
     1
  9
$SHADEDGE
 70
     3
  9
$SHADEDIF
 70
    70
  9
$TILEMODE
 70
     1
  9
$MAXACTVP
 70
    48
  9
$PINSBASE
 10
0.0
 20
0.0
 30
0.0
  9
$PLIMCHECK
 70
     0
  9
$PEXTMIN
 10
1.000000E+20
 20
1.000000E+20
 30
1.000000E+20
  9
$PEXTMAX
 10
-1.000000E+20
 20
-1.000000E+20
 30
-1.000000E+20
  9
$PLIMMIN
 10
0.0
 20
0.0
  9
$PLIMMAX
 10
12.0
 20
9.0
  9
$UNITMODE
 70
     0
  9
$VISRETAIN
 70
     1
  9
$PLINEGEN
 70
     0
  9
$PSLTSCALE
 70
     1
  9
$TREEDEPTH
 70
  3020
  9
$PICKSTYLE
 70
     1
  9
$CMLSTYLE
  2
STANDARD
  9
$CMLJUST
 70
     0
  9
$CMLSCALE
 40
1.0
  9
$PROXYGRAPHICS
 70
     1
  9
$MEASUREMENT
 70
     0
  0
ENDSEC
  0
SECTION
  2
CLASSES
  0
CLASS
  1
HATCH
  2
AcDbHatch
  3
"ACAD_SEDONA"
 90
        0
280
     0
281
     1
  0
CLASS
  1
LWPOLYLINE
  2
AcDbPolyline
  3
"AutoCAD"
 90
        0
280
     0
281
     1
  0
ENDSEC
  0
SECTION
  2
TABLES
  0
TABLE
  2
VPORT
  5
8
100
AcDbSymbolTable
 70
     1
  0
VPORT
  5
7B7
100
AcDbSymbolTableRecord
100
AcDbViewportTableRecord
  2
*ACTIVE
 70
     0
 10
0.0
 20
0.0
 11
1.0
 21
1.0
 12
14.706009
 22
21.144164
 13
0.0
 23
0.0
 14
0.5
 24
0.5
 15
0.5
 25
0.5
 16
0.0
 26
0.0
 36
1.0
 17
0.0
 27
0.0
 37
0.0
 40
34.575625
 41
1.74735
 42
50.0
 43
0.0
 44
0.0
 50
0.0
 51
0.0
 71
     0
 72
 15000
 73
     1
 74
     1
 75
     0
 76
     0
 77
     0
 78
     0
  0
ENDTAB
  0
TABLE
  2
LTYPE
  5
5
100
AcDbSymbolTable
 70
     2
  0
LTYPE
  5
12
100
AcDbSymbolTableRecord
100
AcDbLinetypeTableRecord
  2
BYBLOCK
 70
     0
  3

 72
    65
 73
     0
 40
0.0
  0
LTYPE
  5
13
100
AcDbSymbolTableRecord
100
AcDbLinetypeTableRecord
  2
BYLAYER
 70
     0
  3

 72
    65
 73
     0
 40
0.0
  0
LTYPE
  5
14
100
AcDbSymbolTableRecord
100
AcDbLinetypeTableRecord
  2
CONTINUOUS
 70
     0
  3
Solid line
 72
    65
 73
     0
 40
0.0
  0
LTYPE
  5
646
100
AcDbSymbolTableRecord
100
AcDbLinetypeTableRecord
  2
HIDDEN
 70
     0
  3
Hidden __ __ __ __ __ __ __ __ __ __ __ __ __ _
 72
    65
 73
     2
 40
0.375
 49
0.25
 74
     0
 49
-0.125
 74
     0
  0
ENDTAB
  0
TABLE
  2
LAYER
  5
2
100
AcDbSymbolTable
 70
    13
  0
LAYER
  5
E
100
AcDbSymbolTableRecord
100
AcDbLayerTableRecord
  2
0
 70
     0
 62
     7
  6
CONTINUOUS
  0
LAYER
  5
79
100
AcDbSymbolTableRecord
100
AcDbLayerTableRecord
  2
DEFPOINTS
 70
     0
 62
     7
  6
CONTINUOUS
  0
LAYER
  5
7A
100
AcDbSymbolTableRecord
100
AcDbLayerTableRecord
  2
DIMN
 70
     0
 62
     4
  6
CONTINUOUS
  0
LAYER
  5
7B
100
AcDbSymbolTableRecord
100
AcDbLayerTableRecord
  2
BORDER
 70
     0
 62
     4
  6
CONTINUOUS
  0
LAYER
  5
7C
100
AcDbSymbolTableRecord
100
AcDbLayerTableRecord
  2
BOARDER
 70
     0
 62
     7
  6
CONTINUOUS
  0
LAYER
  5
7D
100
AcDbSymbolTableRecord
100
AcDbLayerTableRecord
  2
R-DOOR-ANNO
 70
     0
 62
     7
  6
CONTINUOUS
  0
LAYER
  5
7E
100
AcDbSymbolTableRecord
100
AcDbLayerTableRecord
  2
R-DOOR-PATT
 70
     0
 62
     5
  6
CONTINUOUS
  0
LAYER
  5
7F
100
AcDbSymbolTableRecord
100
AcDbLayerTableRecord
  2
R-DOOR-DETL
 70
     0
 62
     3
  6
CONTINUOUS
  0
LAYER
  5
80
100
AcDbSymbolTableRecord
100
AcDbLayerTableRecord
  2
10INCHRAIL
 70
     0
 62
     3
  6
CONTINUOUS
  0
LAYER
  5
81
100
AcDbSymbolTableRecord
100
AcDbLayerTableRecord
  2
CLAMP
 70
     0
 62
     2
  6
CONTINUOUS
  0
LAYER
  5
647
100
AcDbSymbolTableRecord
100
AcDbLayerTableRecord
  2
1
 70
     0
 62
     1
  6
CONTINUOUS
  0
LAYER
  5
648
100
AcDbSymbolTableRecord
100
AcDbLayerTableRecord
  2
2
 70
     0
 62
     2
  6
HIDDEN
  0
LAYER
  5
649
100
AcDbSymbolTableRecord
100
AcDbLayerTableRecord
  2
GREEN
 70
     0
 62
     3
  6
CONTINUOUS
  0
ENDTAB
  0
TABLE
  2
STYLE
  5
3
100
AcDbSymbolTable
 70
     2
  0
STYLE
  5
F
100
AcDbSymbolTableRecord
100
AcDbTextStyleTableRecord
  2
STANDARD
 70
     0
 40
0.0
 41
1.0
 50
0.0
 71
     0
 42
0.2
  3
txt
  4

  0
STYLE
  5
82
100
AcDbSymbolTableRecord
100
AcDbTextStyleTableRecord
  2
ROMANS
 70
     0
 40
0.0
 41
1.0
 50
0.0
 71
     0
 42
0.5
  3
romans
  4

  0
ENDTAB
  0
TABLE
  2
VIEW
  5
6
100
AcDbSymbolTable
 70
     0
  0
ENDTAB
  0
TABLE
  2
UCS
  5
7
100
AcDbSymbolTable
 70
     0
  0
ENDTAB
  0
TABLE
  2
APPID
  5
9
100
AcDbSymbolTable
 70
     1
  0
APPID
  5
10
100
AcDbSymbolTableRecord
100
AcDbRegAppTableRecord
  2
ACAD
 70
     0
  0
ENDTAB
  0
TABLE
  2
DIMSTYLE
  5
A
100
AcDbSymbolTable
 70
     1
  0
DIMSTYLE
105
1D
102
{ACAD_REACTORS
330
2EC
330
78A
330
799
330
7A7
330
7B6
102
}
100
AcDbSymbolTableRecord
100
AcDbDimStyleTableRecord
  2
STANDARD
 70
     0
  3

  4

  5

  6

  7

 40
1.0
 41
0.18
 42
0.0625
 43
0.38
 44
0.18
 45
0.0
 46
0.0
 47
0.0
 48
0.0
140
0.18
141
0.09
142
0.0
143
25.4
144
1.0
145
0.0
146
1.0
147
0.09
 71
     0
 72
     0
 73
     1
 74
     1
 75
     0
 76
     0
 77
     0
 78
     0
170
     0
171
     2
172
     0
173
     0
174
     0
175
     0
176
     0
177
     0
178
     0
270
     2
271
     4
272
     4
273
     2
274
     2
340
F
275
     0
280
     0
281
     0
282
     0
283
     1
284
     0
285
     0
286
     0
287
     3
288
     0
  0
ENDTAB
  0
TABLE
  2
BLOCK_RECORD
  5
1
100
AcDbSymbolTable
 70
    27
  0
BLOCK_RECORD
  5
18
100
AcDbSymbolTableRecord
100
AcDbBlockTableRecord
  2
*MODEL_SPACE
  0
BLOCK_RECORD
  5
15
100
AcDbSymbolTableRecord
100
AcDbBlockTableRecord
  2
*PAPER_SPACE
  0
BLOCK_RECORD
  5
20
100
AcDbSymbolTableRecord
100
AcDbBlockTableRecord
  2
A$C2189253D
  0
BLOCK_RECORD
  5
24
100
AcDbSymbolTableRecord
100
AcDbBlockTableRecord
  2
A$C21405640
  0
BLOCK_RECORD
  5
2C
100
AcDbSymbolTableRecord
100
AcDbBlockTableRecord
  2
A$C35F20450
  0
BLOCK_RECORD
  5
30
100
AcDbSymbolTableRecord
100
AcDbBlockTableRecord
  2
_DOTSMALL
  0
BLOCK_RECORD
  5
37
100
AcDbSymbolTableRecord
100
AcDbBlockTableRecord
  2
*D4
  0
BLOCK_RECORD
  5
44
100
AcDbSymbolTableRecord
100
AcDbBlockTableRecord
  2
*D5
  0
BLOCK_RECORD
  5
51
100
AcDbSymbolTableRecord
100
AcDbBlockTableRecord
  2
*D6
  0
BLOCK_RECORD
  5
5F
100
AcDbSymbolTableRecord
100
AcDbBlockTableRecord
  2
*D7
  0
BLOCK_RECORD
  5
6C
100
AcDbSymbolTableRecord
100
AcDbBlockTableRecord
  2
*D8
  0
BLOCK_RECORD
  5
83
100
AcDbSymbolTableRecord
100
AcDbBlockTableRecord
  2
A$C7FD04009
  0
BLOCK_RECORD
  5
53F
100
AcDbSymbolTableRecord
100
AcDbBlockTableRecord
  2
*D10
  0
BLOCK_RECORD
  5
5C6
100
AcDbSymbolTableRecord
100
AcDbBlockTableRecord
  2
A$C6BE867F4
  0
BLOCK_RECORD
  5
5CE
100
AcDbSymbolTableRecord
100
AcDbBlockTableRecord
  2
A$C0E897680
  0
BLOCK_RECORD
  5
5D2
100
AcDbSymbolTableRecord
100
AcDbBlockTableRecord
  2
A$C60D73A4C
  0
BLOCK_RECORD
  5
5D6
100
AcDbSymbolTableRecord
100
AcDbBlockTableRecord
  2
A$C74654F65
  0
BLOCK_RECORD
  5
5DA
100
AcDbSymbolTableRecord
100
AcDbBlockTableRecord
  2
A$C5FA07A05
  0
BLOCK_RECORD
  5
5DE
100
AcDbSymbolTableRecord
100
AcDbBlockTableRecord
  2
A$C46F93324
  0
BLOCK_RECORD
  5
64A
100
AcDbSymbolTableRecord
100
AcDbBlockTableRecord
  2
A$C0F445EDA
  0
BLOCK_RECORD
  5
760
100
AcDbSymbolTableRecord
100
AcDbBlockTableRecord
  2
A$C433421F4
  0
BLOCK_RECORD
  5
77D
100
AcDbSymbolTableRecord
100
AcDbBlockTableRecord
  2
*D23
  0
BLOCK_RECORD
  5
78B
100
AcDbSymbolTableRecord
100
AcDbBlockTableRecord
  2
*D24
  0
BLOCK_RECORD
  5
79A
100
AcDbSymbolTableRecord
100
AcDbBlockTableRecord
  2
*D25
  0
BLOCK_RECORD
  5
7A8
100
AcDbSymbolTableRecord
100
AcDbBlockTableRecord
  2
*D26
  0
ENDTAB
  0
ENDSEC
  0
SECTION
  2
BLOCKS
  0
BLOCK
  5
19
100
AcDbEntity
  8
0
100
AcDbBlockBegin
  2
*MODEL_SPACE
 70
     0
 10
0.0
 20
0.0
 30
0.0
  3
*MODEL_SPACE
  1

  0
ENDBLK
  5
1A
100
AcDbEntity
  8
0
100
AcDbBlockEnd
  0
BLOCK
  5
16
100
AcDbEntity
 67
     1
  8
0
100
AcDbBlockBegin
  2
*PAPER_SPACE
 70
     0
 10
0.0
 20
0.0
 30
0.0
  3
*PAPER_SPACE
  1

  0
ENDBLK
  5
17
100
AcDbEntity
 67
     1
  8
0
100
AcDbBlockEnd
  0
BLOCK
  5
22
100
AcDbEntity
  8
0
100
AcDbBlockBegin
  2
A$C2189253D
 70
     0
 10
0.0
 20
0.0
 30
0.0
  3
A$C2189253D
  1

  0
HATCH
  5
21
100
AcDbEntity
  8
BOARDER
  6
CONTINUOUS
 62
     4
100
AcDbHatch
 10
0.0
 20
0.0
 30
0.0
210
0.0
220
0.0
230
1.0
  2
ANSI31
 70
     0
 71
     0
 91
        3
 92
        7
 72
     1
 73
     1
 93
        8
 10
0.1273646403742585
 20
0.2547293417921961
 42
1.0
 10
0.1273646403742585
 20
0.0000000027943585
 42
0.0
 10
0.2547293098731842
 20
0.000000002794359
 42
0.0
 10
0.2547293098731842
 20
0.1198050709874456
 42
0.0
 10
0.1273646403742585
 20
0.1198050709874452
 42
-1.0
 10
0.1273646403742585
 20
0.1349242735991094
 42
0.0
 10
0.2547293098731842
 20
0.1349242735991099
 42
0.0
 10
0.2547293098731842
 20
0.2547293417921961
 42
0.0
 97
        0
 92
        7
 72
     1
 73
     1
 93
       12
 10
0.2729453093314724
 20
0.2547293417921956
 42
0.0
 10
0.2729453093314742
 20
0.0000000027943585
 42
0.0
 10
0.3927503775245586
 20
0.0000000027943585
 42
0.0
 10
0.3927503775245586
 20
0.1273646722932775
 42
-1.0
 10
0.4078695801362234
 20
0.1273646722932775
 42
0.0
 10
0.4078695801362234
 20
0.0000000027943581
 42
0.0
 10
0.5276746483293114
 20
0.0000000027943576
 42
0.0
 10
0.5276746483293114
 20
0.1106172266293384
 42
0.4142135623730797
 10
0.5109272026653731
 20
0.1273646722932775
 42
0.4142135623730875
 10
0.5276746483293114
 20
0.1441121179572162
 42
0.0
 10
0.5276746483293114
 20
0.2379818961282574
 42
0.4142135623731106
 10
0.5109272026653713
 20
0.2547293417921961
 42
0.0
 97
        0
 92
        7
 72
     0
 73
     1
 93
        6
 10
0.5458906477876049
 20
0.2547293417921961
 10
0.5458906477876031
 20
0.0000000027943576
 10
0.8006199867854384
 20
0.0000000027943581
 10
0.8006199867854402
 20
0.127364672293278
 10
0.6732553172865199
 20
0.1273646722932771
 10
0.6732553172865181
 20
0.2547293417921961
 97
        0
 75
     0
 76
     1
 52
0.0
 41
0.040373
 77
     0
 78
     1
 53
45.0
 43
-7.406223
 44
-1.968858
 45
-0.0035684948455219
 46
0.0035684948455219
 79
     0
 47
0.0009
 98
        3
 10
0.137804
 20
0.196439
 10
0.137804
 20
0.196439
 10
0.137804
 20
0.196439
  0
ENDBLK
  5
23
100
AcDbEntity
  8
0
100
AcDbBlockEnd
  0
BLOCK
  5
2A
100
AcDbEntity
  8
0
100
AcDbBlockBegin
  2
A$C21405640
 70
     0
 10
0.0
 20
0.0
 30
0.0
  3
A$C21405640
  1

  0
MTEXT
  5
25
100
AcDbEntity
  8
0
100
AcDbMText
 10
0.504549
 20
2.99683
 30
0.0
 40
0.614073
 41
19.242589
 71
     1
 72
     5
  1
\fArial|b0|i1|c0|p34;Phone Orders (800) 421-6144\PFax Orders     (800) 262-3299\PWWW.CRLAURENCE.COM
  0
MTEXT
  5
26
100
AcDbEntity
  8
0
100
AcDbMText
 10
7.702431
 20
6.455969
 30
0.0
 40
0.876824
 41
21.937261
 71
     1
 72
     5
  1
\fArial|b1|i0|c0|p34;DOOR RAIL SYSTEM
  0
LWPOLYLINE
  5
27
100
AcDbEntity
  8
0
100
AcDbPolyline
 90
        2
 70
     0
 43
0.098252
 10
0.440527
 20
5.243578
 10
19.707511
 20
5.243578
  0
MTEXT
  5
28
100
AcDbEntity
  8
0
100
AcDbMText
 10
0.488738
 20
4.418164
 30
0.0
 40
0.776802
 41
19.420041
 71
     1
 72
     5
  1
\fArial|b1|i1|c0|p34;C.R. Laurence Architectural Products
  0
INSERT
  5
29
100
AcDbEntity
  8
0
 62
     7
100
AcDbBlockReference
  2
A$C2189253D
 10
0.460151
 20
5.536767
 30
0.0
 41
8.113806
 42
8.113806
 43
8.113806
  0
ENDBLK
  5
2B
100
AcDbEntity
  8
0
100
AcDbBlockEnd
  0
BLOCK
  5
2E
100
AcDbEntity
  8
0
 62
     3
100
AcDbBlockBegin
  2
A$C35F20450
 70
     0
 10
0.0
 20
0.0
 30
0.0
  3
A$C35F20450
  1

  0
INSERT
  5
2D
100
AcDbEntity
  8
DIMN
100
AcDbBlockReference
  2
A$C21405640
 10
0.0
 20
0.0
 30
0.0
 41
0.5
 42
0.5
 43
0.5
  0
ENDBLK
  5
2F
100
AcDbEntity
  8
0
 62
     3
100
AcDbBlockEnd
  0
BLOCK
  5
35
100
AcDbEntity
  8
0
100
AcDbBlockBegin
  2
_DOTSMALL
 70
     0
 10
0.0
 20
0.0
 30
0.0
  3
_DOTSMALL
  1

  0
POLYLINE
  5
31
100
AcDbEntity
  8
0
  6
BYBLOCK
 62
     0
100
AcDb2dPolyline
 66
     1
 10
0.0
 20
0.0
 30
0.0
 70
     1
 40
0.5
 41
0.5
  0
VERTEX
  5
32
100
AcDbEntity
  8
0
  6
BYBLOCK
 62
     0
100
AcDbVertex
100
AcDb2dVertex
 10
-0.0625
 20
0.0
 30
0.0
 42
1.0
  0
VERTEX
  5
33
100
AcDbEntity
  8
0
  6
BYBLOCK
 62
     0
100
AcDbVertex
100
AcDb2dVertex
 10
0.0625
 20
0.0
 30
0.0
 42
1.0
  0
SEQEND
  5
34
100
AcDbEntity
  8
0
  6
BYBLOCK
 62
     0
  0
ENDBLK
  5
36
100
AcDbEntity
  8
0
100
AcDbBlockEnd
  0
BLOCK
  5
42
100
AcDbEntity
  8
0
100
AcDbBlockBegin
  2
*D4
 70
     1
 10
0.0
 20
0.0
 30
0.0
  3
*D4
  1

  0
LINE
  5
38
100
AcDbEntity
  8
0
  6
BYBLOCK
 62
     0
100
AcDbLine
 10
161.288644
 20
19.353976
 30
0.0
 11
154.88282
 21
19.353976
 31
0.0
  0
LINE
  5
39
100
AcDbEntity
  8
0
  6
BYBLOCK
 62
     0
100
AcDbLine
 10
158.693801
 20
11.31952
 30
0.0
 11
154.88282
 21
11.31952
 31
0.0
  0
LINE
  5
3A
100
AcDbEntity
  8
0
  6
BYBLOCK
 62
     0
100
AcDbLine
 10
155.24282
 20
18.993976
 30
0.0
 11
155.24282
 21
15.996748
 31
0.0
  0
LINE
  5
3B
100
AcDbEntity
  8
0
  6
BYBLOCK
 62
     0
100
AcDbLine
 10
155.24282
 20
11.67952
 30
0.0
 11
155.24282
 21
14.676748
 31
0.0
  0
SOLID
  5
3C
100
AcDbEntity
  8
0
  6
BYBLOCK
 62
     0
100
AcDbTrace
 10
155.18282
 20
18.993976
 30
0.0
 11
155.30282
 21
18.993976
 31
0.0
 12
155.24282
 22
19.353976
 32
0.0
 13
155.24282
 23
19.353976
 33
0.0
  0
SOLID
  5
3D
100
AcDbEntity
  8
0
  6
BYBLOCK
 62
     0
100
AcDbTrace
 10
155.18282
 20
11.67952
 30
0.0
 11
155.30282
 21
11.67952
 31
0.0
 12
155.24282
 22
11.31952
 32
0.0
 13
155.24282
 23
11.31952
 33
0.0
  0
MTEXT
  5
3E
100
AcDbEntity
  8
0
  6
BYBLOCK
 62
     0
100
AcDbMText
 10
155.24282
 20
15.336748
 30
0.0
 40
0.36
 41
0.0
 71
     5
 72
     1
  1
\A1;8 1/16\P[205mm]
  0
POINT
  5
3F
100
AcDbEntity
  8
DEFPOINTS
  6
BYBLOCK
 62
     0
100
AcDbPoint
 10
161.413644
 20
19.353976
 30
0.0
  0
POINT
  5
40
100
AcDbEntity
  8
DEFPOINTS
  6
BYBLOCK
 62
     0
100
AcDbPoint
 10
158.818801
 20
11.31952
 30
0.0
  0
POINT
  5
41
100
AcDbEntity
  8
DEFPOINTS
  6
BYBLOCK
 62
     0
100
AcDbPoint
 10
155.24282
 20
11.31952
 30
0.0
  0
ENDBLK
  5
43
100
AcDbEntity
  8
0
100
AcDbBlockEnd
  0
BLOCK
  5
4F
100
AcDbEntity
  8
0
100
AcDbBlockBegin
  2
*D5
 70
     1
 10
0.0
 20
0.0
 30
0.0
  3
*D5
  1

  0
LINE
  5
45
100
AcDbEntity
  8
0
  6
BYBLOCK
 62
     0
100
AcDbLine
 10
166.368304
 20
28.699136
 30
0.0
 11
171.285583
 21
28.699136
 31
0.0
  0
LINE
  5
46
100
AcDbEntity
  8
0
  6
BYBLOCK
 62
     0
100
AcDbLine
 10
164.943801
 20
11.31952
 30
0.0
 11
171.285583
 21
11.31952
 31
0.0
  0
LINE
  5
47
100
AcDbEntity
  8
0
  6
BYBLOCK
 62
     0
100
AcDbLine
 10
170.925583
 20
28.339136
 30
0.0
 11
170.925583
 21
20.369328
 31
0.0
  0
LINE
  5
48
100
AcDbEntity
  8
0
  6
BYBLOCK
 62
     0
100
AcDbLine
 10
170.925583
 20
11.67952
 30
0.0
 11
170.925583
 21
19.649328
 31
0.0
  0
SOLID
  5
49
100
AcDbEntity
  8
0
  6
BYBLOCK
 62
     0
100
AcDbTrace
 10
170.865583
 20
28.339136
 30
0.0
 11
170.985583
 21
28.339136
 31
0.0
 12
170.925583
 22
28.699136
 32
0.0
 13
170.925583
 23
28.699136
 33
0.0
  0
SOLID
  5
4A
100
AcDbEntity
  8
0
  6
BYBLOCK
 62
     0
100
AcDbTrace
 10
170.865583
 20
11.67952
 30
0.0
 11
170.985583
 21
11.67952
 31
0.0
 12
170.925583
 22
11.31952
 32
0.0
 13
170.925583
 23
11.31952
 33
0.0
  0
MTEXT
  5
4B
100
AcDbEntity
  8
0
  6
BYBLOCK
 62
     0
100
AcDbMText
 10
170.925583
 20
20.009328
 30
0.0
 40
0.36
 41
0.0
 71
     5
 72
     1
  1
\A1;CLEAR OPENING
  0
POINT
  5
4C
100
AcDbEntity
  8
DEFPOINTS
  6
BYBLOCK
 62
     0
100
AcDbPoint
 10
166.243304
 20
28.699136
 30
0.0
  0
POINT
  5
4D
100
AcDbEntity
  8
DEFPOINTS
  6
BYBLOCK
 62
     0
100
AcDbPoint
 10
164.818801
 20
11.31952
 30
0.0
  0
POINT
  5
4E
100
AcDbEntity
  8
DEFPOINTS
  6
BYBLOCK
 62
     0
100
AcDbPoint
 10
170.925583
 20
11.31952
 30
0.0
  0
ENDBLK
  5
50
100
AcDbEntity
  8
0
100
AcDbBlockEnd
  0
BLOCK
  5
5D
100
AcDbEntity
  8
0
100
AcDbBlockBegin
  2
*D6
 70
     1
 10
0.0
 20
0.0
 30
0.0
  3
*D6
  1

  0
LINE
  5
52
100
AcDbEntity
  8
0
  6
BYBLOCK
 62
     0
100
AcDbLine
 10
164.943801
 20
11.31952
 30
0.0
 11
166.803981
 21
11.31952
 31
0.0
  0
LINE
  5
53
100
AcDbEntity
  8
0
  6
BYBLOCK
 62
     0
100
AcDbLine
 10
162.824794
 20
11.56952
 30
0.0
 11
166.803981
 21
11.56952
 31
0.0
  0
LINE
  5
54
100
AcDbEntity
  8
0
  6
BYBLOCK
 62
     0
100
AcDbLine
 10
166.443981
 20
10.95952
 30
0.0
 11
166.443981
 21
10.59952
 31
0.0
  0
LINE
  5
55
100
AcDbEntity
  8
0
  6
BYBLOCK
 62
     0
100
AcDbLine
 10
166.443981
 20
11.92952
 30
0.0
 11
166.443981
 21
12.28952
 31
0.0
  0
LINE
  5
56
100
AcDbEntity
  8
0
  6
BYBLOCK
 62
     0
100
AcDbLine
 10
166.443981
 20
12.28952
 30
0.0
 11
166.803981
 21
12.28952
 31
0.0
  0
SOLID
  5
57
100
AcDbEntity
  8
0
  6
BYBLOCK
 62
     0
100
AcDbTrace
 10
166.383981
 20
10.95952
 30
0.0
 11
166.503981
 21
10.95952
 31
0.0
 12
166.443981
 22
11.31952
 32
0.0
 13
166.443981
 23
11.31952
 33
0.0
  0
SOLID
  5
58
100
AcDbEntity
  8
0
  6
BYBLOCK
 62
     0
100
AcDbTrace
 10
166.383981
 20
11.92952
 30
0.0
 11
166.503981
 21
11.92952
 31
0.0
 12
166.443981
 22
11.56952
 32
0.0
 13
166.443981
 23
11.56952
 33
0.0
  0
MTEXT
  5
59
100
AcDbEntity
  8
0
  6
BYBLOCK
 62
     0
100
AcDbMText
 10
167.703981
 20
12.28952
 30
0.0
 40
0.36
 41
0.0
 71
     5
 72
     1
  1
\A1;1/4\P[6mm]
  0
POINT
  5
5A
100
AcDbEntity
  8
DEFPOINTS
  6
BYBLOCK
 62
     0
100
AcDbPoint
 10
164.818801
 20
11.31952
 30
0.0
  0
POINT
  5
5B
100
AcDbEntity
  8
DEFPOINTS
  6
BYBLOCK
 62
     0
100
AcDbPoint
 10
162.699794
 20
11.56952
 30
0.0
  0
POINT
  5
5C
100
AcDbEntity
  8
DEFPOINTS
  6
BYBLOCK
 62
     0
100
AcDbPoint
 10
166.443981
 20
11.56952
 30
0.0
  0
ENDBLK
  5
5E
100
AcDbEntity
  8
0
100
AcDbBlockEnd
  0
BLOCK
  5
6A
100
AcDbEntity
  8
0
100
AcDbBlockBegin
  2
*D7
 70
     1
 10
0.0
 20
0.0
 30
0.0
  3
*D7
  1

  0
LINE
  5
60
100
AcDbEntity
  8
0
  6
BYBLOCK
 62
     0
100
AcDbLine
 10
161.274275
 20
25.449241
 30
0.0
 11
154.883547
 21
25.449241
 31
0.0
  0
LINE
  5
61
100
AcDbEntity
  8
0
  6
BYBLOCK
 62
     0
100
AcDbLine
 10
161.413644
 20
19.353976
 30
0.0
 11
154.883547
 21
19.353976
 31
0.0
  0
LINE
  5
62
100
AcDbEntity
  8
0
  6
BYBLOCK
 62
     0
100
AcDbLine
 10
155.243547
 20
25.089241
 30
0.0
 11
155.243547
 21
23.661609
 31
0.0
  0
LINE
  5
63
100
AcDbEntity
  8
0
  6
BYBLOCK
 62
     0
100
AcDbLine
 10
155.243547
 20
19.713976
 30
0.0
 11
155.243547
 21
21.141609
 31
0.0
  0
SOLID
  5
64
100
AcDbEntity
  8
0
  6
BYBLOCK
 62
     0
100
AcDbTrace
 10
155.183547
 20
25.089241
 30
0.0
 11
155.303547
 21
25.089241
 31
0.0
 12
155.243547
 22
25.449241
 32
0.0
 13
155.243547
 23
25.449241
 33
0.0
  0
SOLID
  5
65
100
AcDbEntity
  8
0
  6
BYBLOCK
 62
     0
100
AcDbTrace
 10
155.183547
 20
19.713976
 30
0.0
 11
155.303547
 21
19.713976
 31
0.0
 12
155.243547
 22
19.353976
 32
0.0
 13
155.243547
 23
19.353976
 33
0.0
  0
MTEXT
  5
66
100
AcDbEntity
  8
0
  6
BYBLOCK
 62
     0
100
AcDbMText
 10
155.243547
 20
22.401609
 30
0.0
 40
0.36
 41
0.0
 71
     5
 72
     1
  1
\A1;GLASS\PCLEAR OPENING\PLESS 11 5/16\P[287mm]
  0
POINT
  5
67
100
AcDbEntity
  8
DEFPOINTS
  6
BYBLOCK
 62
     0
100
AcDbPoint
 10
161.399275
 20
25.449241
 30
0.0
  0
POINT
  5
68
100
AcDbEntity
  8
DEFPOINTS
  6
BYBLOCK
 62
     0
100
AcDbPoint
 10
161.538644
 20
19.353976
 30
0.0
  0
POINT
  5
69
100
AcDbEntity
  8
DEFPOINTS
  6
BYBLOCK
 62
     0
100
AcDbPoint
 10
155.243547
 20
19.353976
 30
0.0
  0
ENDBLK
  5
6B
100
AcDbEntity
  8
0
100
AcDbBlockEnd
  0
BLOCK
  5
77
100
AcDbEntity
  8
0
100
AcDbBlockBegin
  2
*D8
 70
     1
 10
0.0
 20
0.0
 30
0.0
  3
*D8
  1

  0
LINE
  5
6D
100
AcDbEntity
  8
0
  6
BYBLOCK
 62
     0
100
AcDbLine
 10
158.688997
 20
28.699136
 30
0.0
 11
154.884189
 21
28.699136
 31
0.0
  0
LINE
  5
6E
100
AcDbEntity
  8
0
  6
BYBLOCK
 62
     0
100
AcDbLine
 10
161.399275
 20
25.449241
 30
0.0
 11
154.884189
 21
25.449241
 31
0.0
  0
LINE
  5
6F
100
AcDbEntity
  8
0
  6
BYBLOCK
 62
     0
100
AcDbLine
 10
155.244189
 20
28.339136
 30
0.0
 11
155.244189
 21
27.734189
 31
0.0
  0
LINE
  5
70
100
AcDbEntity
  8
0
  6
BYBLOCK
 62
     0
100
AcDbLine
 10
155.244189
 20
25.809241
 30
0.0
 11
155.244189
 21
26.414189
 31
0.0
  0
SOLID
  5
71
100
AcDbEntity
  8
0
  6
BYBLOCK
 62
     0
100
AcDbTrace
 10
155.184189
 20
28.339136
 30
0.0
 11
155.304189
 21
28.339136
 31
0.0
 12
155.244189
 22
28.699136
 32
0.0
 13
155.244189
 23
28.699136
 33
0.0
  0
SOLID
  5
72
100
AcDbEntity
  8
0
  6
BYBLOCK
 62
     0
100
AcDbTrace
 10
155.184189
 20
25.809241
 30
0.0
 11
155.304189
 21
25.809241
 31
0.0
 12
155.244189
 22
25.449241
 32
0.0
 13
155.244189
 23
25.449241
 33
0.0
  0
MTEXT
  5
73
100
AcDbEntity
  8
0
  6
BYBLOCK
 62
     0
100
AcDbMText
 10
155.244189
 20
27.074189
 30
0.0
 40
0.36
 41
0.0
 71
     5
 72
     1
  1
\A1;3 1/4\P[83mm]
  0
POINT
  5
74
100
AcDbEntity
  8
DEFPOINTS
  6
BYBLOCK
 62
     0
100
AcDbPoint
 10
158.813997
 20
28.699136
 30
0.0
  0
POINT
  5
75
100
AcDbEntity
  8
DEFPOINTS
  6
BYBLOCK
 62
     0
100
AcDbPoint
 10
161.524275
 20
25.449241
 30
0.0
  0
POINT
  5
76
100
AcDbEntity
  8
DEFPOINTS
  6
BYBLOCK
 62
     0
100
AcDbPoint
 10
155.244189
 20
25.449241
 30
0.0
  0
ENDBLK
  5
78
100
AcDbEntity
  8
0
100
AcDbBlockEnd
  0
BLOCK
  5
2DE
100
AcDbEntity
  8
0
100
AcDbBlockBegin
  2
A$C7FD04009
 70
     0
 10
0.0
 20
0.0
 30
0.0
  3
A$C7FD04009
  1

  0
LINE
  5
84
100
AcDbEntity
  8
BORDER
100
AcDbLine
 10
25.693238
 20
0.0
 30
0.0
 11
25.693238
 21
34.200072
 31
0.0
  0
LINE
  5
85
100
AcDbEntity
  8
BORDER
100
AcDbLine
 10
0.0
 20
34.200072
 30
0.0
 11
0.0
 21
0.0
 31
0.0
  0
LWPOLYLINE
  5
86
100
AcDbEntity
  8
R-DOOR-DETL
 62
     3
100
AcDbPolyline
 90
        8
 70
     1
 43
0.0
 10
12.577472
 20
19.129349
 10
12.577472
 20
19.079349
 10
12.085552
 20
19.079349
 42
0.414214
 10
11.929552
 20
18.923349
 10
11.929552
 20
9.129349
 10
11.879552
 20
9.129349
 10
11.879552
 20
18.923349
 42
-0.414214
 10
12.085552
 20
19.129349
  0
LINE
  5
87
100
AcDbEntity
  8
R-DOOR-DETL
 62
     3
100
AcDbLine
 10
11.939552
 20
9.142349
 30
0.0
 11
11.939552
 21
18.915802
 31
0.0
  0
LWPOLYLINE
  5
88
100
AcDbEntity
  8
R-DOOR-DETL
 62
     3
100
AcDbPolyline
 90
        8
 70
     1
 43
0.0
 10
13.163618
 20
19.129349
 10
13.163618
 20
19.079349
 10
13.655538
 20
19.079349
 42
-0.414214
 10
13.811538
 20
18.923349
 10
13.811538
 20
9.129349
 10
13.861538
 20
9.129349
 10
13.861538
 20
18.923349
 42
0.414214
 10
13.655538
 20
19.129349
  0
LINE
  5
89
100
AcDbEntity
  8
R-DOOR-DETL
 62
     3
100
AcDbLine
 10
13.801538
 20
18.915802
 30
0.0
 11
13.801538
 21
9.142349
 31
0.0
  0
MTEXT
  5
8A
100
AcDbEntity
  8
R-DOOR-ANNO
  6
CONTINUOUS
100
AcDbMText
 10
15.154087
 20
16.005304
 30
0.0
 40
0.36
 41
0.0
 71
     4
 72
     1
  1
SHOE
  7
ROMANS
  0
DIMENSION
  5
8B
100
AcDbEntity
  8
DIMN
 62
     7
100
AcDbDimension
  2
*D5
 10
21.977327
 20
8.877349
 30
0.0
 11
21.977327
 21
17.567157
 31
0.0
 12
-148.948256
 22
-2.442171
 32
0.0
  1
CLEAR OPENING
  3
STANDARD
100
AcDbAlignedDimension
 13
17.295048
 23
26.256965
 33
0.0
 14
15.870545
 24
8.877349
 34
0.0
 50
90.0
100
AcDbRotatedDimension
1001
ACAD
1000
DSTYLE
1002
{
1070
   270
1070
     7
1070
    40
1040
2.0
1002
}
  0
DIMENSION
  5
8C
100
AcDbEntity
  8
DIMN
 62
     7
100
AcDbDimension
  2
*D4
 10
6.294564
 20
8.877349
 30
0.0
 11
6.294564
 21
12.894577
 31
0.0
 12
-148.948256
 22
-2.442171
 32
0.0
  1
<>\P[205mm]
  3
STANDARD
100
AcDbAlignedDimension
 13
12.465387
 23
16.911806
 33
0.0
 14
9.870545
 24
8.877349
 34
0.0
 50
90.0
100
AcDbRotatedDimension
1001
ACAD
1000
DSTYLE
1002
{
1070
   270
1070
     7
1070
    40
1040
2.0
1002
}
  0
DIMENSION
  5
8D
100
AcDbEntity
  8
DIMN
 62
     7
100
AcDbDimension
  2
*D6
 10
17.495725
 20
9.127349
 30
0.0
 11
18.755725
 21
9.847349
 31
0.0
 12
-148.948256
 22
-2.442171
 32
0.0
  1
<>\P[6mm]
  3
STANDARD
100
AcDbAlignedDimension
 13
15.870545
 23
8.877349
 33
0.0
 14
13.751538
 24
9.127349
 34
0.0
 50
90.0
100
AcDbRotatedDimension
1001
ACAD
1000
DSTYLE
1002
{
1070
   270
1070
     7
1070
    40
1040
2.0
1002
}
  0
TEXT
  5
8E
100
AcDbEntity
  8
R-DOOR-ANNO
  6
CONTINUOUS
100
AcDbText
 10
4.704843
 20
5.208551
 30
0.0
 40
0.46875
  1
10" SQUARE DOOR RAIL BOTTOM. CLAD ONLY
  7
ROMANS
 72
     1
 11
13.008414
 21
5.208551
 31
0.0
100
AcDbText
  0
TEXT
  5
8F
100
AcDbEntity
  8
R-DOOR-ANNO
  6
CONTINUOUS
100
AcDbText
 10
2.978394
 20
5.98997
 30
0.0
 40
0.46875
  1
CRL 4" SQUARE DOOR RAIL TOP. CLAD OR NON CLAD
  7
ROMANS
 72
     1
 11
12.866787
 21
5.98997
 31
0.0
100
AcDbText
  0
LINE
  5
90
100
AcDbEntity
  8
BORDER
100
AcDbLine
 10
0.0
 20
0.0
 30
0.0
 11
25.693238
 21
0.0
 31
0.0
  0
INSERT
  5
91
100
AcDbEntity
  8
R-DOOR-ANNO
  6
CONTINUOUS
100
AcDbBlockReference
  2
A$C35F20450
 10
0.260404
 20
0.351814
 30
0.0
  0
LINE
  5
92
100
AcDbEntity
  8
R-DOOR-DETL
 62
     3
100
AcDbLine
 10
12.089552
 20
10.206146
 30
0.0
 11
12.089552
 21
9.552349
 31
0.0
  0
LINE
  5
93
100
AcDbEntity
  8
R-DOOR-DETL
 62
     3
100
AcDbLine
 10
13.651538
 20
9.552349
 30
0.0
 11
13.651538
 21
10.206146
 31
0.0
  0
LWPOLYLINE
  5
94
100
AcDbEntity
  8
R-DOOR-DETL
 62
     3
100
AcDbPolyline
 90
       32
 70
     1
 43
0.0
 10
13.550545
 20
10.146349
 10
13.550545
 20
10.416146
 42
-0.414214
 10
13.565545
 20
10.431146
 10
13.631538
 20
10.431146
 42
0.414214
 10
13.646538
 20
10.446146
 10
13.646538
 20
10.676349
 42
0.414214
 10
13.615538
 20
10.707349
 10
13.471926
 20
10.707349
 42
0.267949
 10
13.445079
 20
10.691849
 10
13.339365
 20
10.508747
 42
0.40146
 10
13.349553
 20
10.467104
 42
-3.430162
 10
13.241537
 20
10.467104
 42
0.40146
 10
13.251725
 20
10.508747
 10
13.146011
 20
10.691849
 42
0.267949
 10
13.119164
 20
10.707349
 10
12.621926
 20
10.707349
 42
0.267949
 10
12.595079
 20
10.691849
 10
12.489365
 20
10.508747
 42
0.40146
 10
12.499553
 20
10.467104
 42
-3.430162
 10
12.391537
 20
10.467104
 42
0.40146
 10
12.401725
 20
10.508747
 10
12.296011
 20
10.691849
 42
0.267949
 10
12.269164
 20
10.707349
 10
12.125552
 20
10.707349
 42
0.414214
 10
12.094552
 20
10.676349
 10
12.094552
 20
10.446146
 42
0.414214
 10
12.109552
 20
10.431146
 10
12.175545
 20
10.431146
 42
-0.414214
 10
12.190545
 20
10.416146
 10
12.190545
 20
10.146349
 42
0.414214
 10
12.205545
 20
10.131349
 10
13.535545
 20
10.131349
 42
0.414214
  0
LINE
  5
95
100
AcDbEntity
  8
R-DOOR-PATT
  6
CONTINUOUS
 62
     5
100
AcDbLine
 10
10.470063
 20
6.877349
 30
0.0
 11
9.868067
 21
7.479344
 31
0.0
  0
LINE
  5
96
100
AcDbEntity
  8
R-DOOR-PATT
  6
CONTINUOUS
 62
     5
100
AcDbLine
 10
14.447538
 20
6.877349
 30
0.0
 11
12.447538
 21
8.877349
 31
0.0
  0
LINE
  5
97
100
AcDbEntity
  8
R-DOOR-PATT
  6
CONTINUOUS
 62
     5
100
AcDbLine
 10
14.005597
 20
6.877349
 30
0.0
 11
12.005597
 21
8.877349
 31
0.0
  0
LINE
  5
98
100
AcDbEntity
  8
R-DOOR-PATT
  6
CONTINUOUS
 62
     5
100
AcDbLine
 10
13.563655
 20
6.877349
 30
0.0
 11
11.563655
 21
8.877349
 31
0.0
  0
LINE
  5
99
100
AcDbEntity
  8
R-DOOR-PATT
  6
CONTINUOUS
 62
     5
100
AcDbLine
 10
13.121713
 20
6.877349
 30
0.0
 11
11.121713
 21
8.877349
 31
0.0
  0
LINE
  5
9A
100
AcDbEntity
  8
R-DOOR-PATT
  6
CONTINUOUS
 62
     5
100
AcDbLine
 10
12.679771
 20
6.877349
 30
0.0
 11
10.679771
 21
8.877349
 31
0.0
  0
LINE
  5
9B
100
AcDbEntity
  8
R-DOOR-PATT
  6
CONTINUOUS
 62
     5
100
AcDbLine
 10
12.23783
 20
6.877349
 30
0.0
 11
10.23783
 21
8.877349
 31
0.0
  0
LINE
  5
9C
100
AcDbEntity
  8
R-DOOR-PATT
  6
CONTINUOUS
 62
     5
100
AcDbLine
 10
11.795888
 20
6.877349
 30
0.0
 11
9.868067
 21
8.80517
 31
0.0
  0
LINE
  5
9D
100
AcDbEntity
  8
R-DOOR-PATT
  6
CONTINUOUS
 62
     5
100
AcDbLine
 10
11.353946
 20
6.877349
 30
0.0
 11
9.868067
 21
8.363228
 31
0.0
  0
LINE
  5
9E
100
AcDbEntity
  8
R-DOOR-PATT
  6
CONTINUOUS
 62
     5
100
AcDbLine
 10
10.912004
 20
6.877349
 30
0.0
 11
9.868067
 21
7.921286
 31
0.0
  0
LINE
  5
9F
100
AcDbEntity
  8
R-DOOR-PATT
  6
CONTINUOUS
 62
     5
100
AcDbLine
 10
14.88948
 20
6.877349
 30
0.0
 11
12.88948
 21
8.877349
 31
0.0
  0
LINE
  5
A0
100
AcDbEntity
  8
R-DOOR-PATT
  6
CONTINUOUS
 62
     5
100
AcDbLine
 10
15.868067
 20
7.224587
 30
0.0
 11
14.215305
 21
8.877349
 31
0.0
  0
LINE
  5
A1
100
AcDbEntity
  8
R-DOOR-PATT
  6
CONTINUOUS
 62
     5
100
AcDbLine
 10
15.773364
 20
6.877349
 30
0.0
 11
13.773364
 21
8.877349
 31
0.0
  0
LINE
  5
A2
100
AcDbEntity
  8
R-DOOR-PATT
  6
CONTINUOUS
 62
     5
100
AcDbLine
 10
15.331422
 20
6.877349
 30
0.0
 11
13.331422
 21
8.877349
 31
0.0
  0
LINE
  5
A3
100
AcDbEntity
  8
R-DOOR-PATT
  6
CONTINUOUS
 62
     5
100
AcDbLine
 10
10.028121
 20
6.877349
 30
0.0
 11
9.868067
 21
7.037403
 31
0.0
  0
LINE
  5
A4
100
AcDbEntity
  8
R-DOOR-PATT
  6
CONTINUOUS
 62
     5
100
AcDbLine
 10
15.868067
 20
8.550412
 30
0.0
 11
15.54113
 21
8.877349
 31
0.0
  0
LINE
  5
A5
100
AcDbEntity
  8
R-DOOR-PATT
  6
CONTINUOUS
 62
     5
100
AcDbLine
 10
15.868067
 20
8.10847
 30
0.0
 11
15.099189
 21
8.877349
 31
0.0
  0
LINE
  5
A6
100
AcDbEntity
  8
R-DOOR-PATT
  6
CONTINUOUS
 62
     5
100
AcDbLine
 10
15.868067
 20
7.666529
 30
0.0
 11
14.657247
 21
8.877349
 31
0.0
  0
LINE
  5
A7
100
AcDbEntity
  8
0
100
AcDbLine
 10
9.870545
 20
8.877349
 30
0.0
 11
15.870545
 21
8.877349
 31
0.0
  0
LINE
  5
A8
100
AcDbEntity
  8
R-DOOR-DETL
 62
     3
100
AcDbLine
 10
13.701538
 20
9.142349
 30
0.0
 11
13.701538
 21
9.522349
 31
0.0
  0
LINE
  5
A9
100
AcDbEntity
  8
R-DOOR-DETL
 62
     3
100
AcDbLine
 10
12.039552
 20
9.522349
 30
0.0
 11
12.039552
 21
9.142349
 31
0.0
  0
LINE
  5
AA
100
AcDbEntity
  8
R-DOOR-DETL
 62
     3
100
AcDbLine
 10
13.786538
 20
9.127349
 30
0.0
 11
13.716538
 21
9.127349
 31
0.0
  0
ARC
  5
AB
100
AcDbEntity
  8
R-DOOR-DETL
 62
     3
100
AcDbCircle
 10
13.716538
 20
9.142349
 30
0.0
 40
0.015
100
AcDbArc
 50
180.0
 51
270.0
  0
ARC
  5
AC
100
AcDbEntity
  8
R-DOOR-DETL
 62
     3
100
AcDbCircle
 10
13.786538
 20
9.142349
 30
0.0
 40
0.015
100
AcDbArc
 50
270.0
 51
0.0
  0
LINE
  5
AD
100
AcDbEntity
  8
R-DOOR-DETL
 62
     3
100
AcDbLine
 10
12.024552
 20
9.127349
 30
0.0
 11
11.954552
 21
9.127349
 31
0.0
  0
LINE
  5
AE
100
AcDbEntity
  8
R-DOOR-DETL
 62
     3
100
AcDbLine
 10
12.039552
 20
9.142349
 30
0.0
 11
12.039552
 21
9.127349
 31
0.0
  0
ARC
  5
AF
100
AcDbEntity
  8
R-DOOR-DETL
 62
     3
100
AcDbCircle
 10
11.954552
 20
9.142349
 30
0.0
 40
0.015
100
AcDbArc
 50
180.0
 51
270.0
  0
ARC
  5
B0
100
AcDbEntity
  8
R-DOOR-DETL
 62
     3
100
AcDbCircle
 10
12.024552
 20
9.142349
 30
0.0
 40
0.015
100
AcDbArc
 50
270.0
 51
360.0
  0
ARC
  5
B1
100
AcDbEntity
  8
R-DOOR-DETL
 62
     3
100
AcDbCircle
 10
13.666538
 20
9.552349
 30
0.0
 40
0.015
100
AcDbArc
 50
180.0
 51
270.0
  0
LINE
  5
B2
100
AcDbEntity
  8
R-DOOR-DETL
 62
     3
100
AcDbLine
 10
13.686538
 20
9.537349
 30
0.0
 11
13.666538
 21
9.537349
 31
0.0
  0
ARC
  5
B3
100
AcDbEntity
  8
R-DOOR-DETL
 62
     3
100
AcDbCircle
 10
13.686538
 20
9.522349
 30
0.0
 40
0.015
100
AcDbArc
 50
0.0
 51
90.0
  0
ARC
  5
B4
100
AcDbEntity
  8
R-DOOR-DETL
 62
     3
100
AcDbCircle
 10
12.054552
 20
9.522349
 30
0.0
 40
0.015
100
AcDbArc
 50
90.0
 51
180.0
  0
LINE
  5
B5
100
AcDbEntity
  8
R-DOOR-DETL
 62
     3
100
AcDbLine
 10
12.074552
 20
9.537349
 30
0.0
 11
12.054552
 21
9.537349
 31
0.0
  0
ARC
  5
B6
100
AcDbEntity
  8
R-DOOR-DETL
 62
     3
100
AcDbCircle
 10
12.074552
 20
9.552349
 30
0.0
 40
0.015
100
AcDbArc
 50
270.0
 51
360.0
  0
LWPOLYLINE
  5
B7
100
AcDbEntity
  8
R-DOOR-DETL
 62
     3
100
AcDbPolyline
 90
       17
 70
     1
 43
0.0
 10
12.825647
 20
10.995711
 42
2.169752
 10
12.915443
 20
10.995711
 42
-0.939516
 10
12.999654
 20
11.046291
 42
-0.11093
 10
13.025289
 20
10.98253
 42
0.367717
 10
13.0549
 20
10.957349
 10
13.526538
 20
10.957349
 42
0.414214
 10
13.651538
 20
11.082349
 10
13.651538
 20
13.115802
 42
0.414214
 10
13.526538
 20
13.240802
 10
12.870545
 20
13.240802
 10
12.214552
 20
13.240802
 42
0.414214
 10
12.089552
 20
13.115802
 10
12.089552
 20
11.082349
 42
0.414214
 10
12.214552
 20
10.957349
 10
12.68619
 20
10.957349
 42
0.367717
 10
12.715801
 20
10.98253
 42
-0.11093
 10
12.741436
 20
11.046291
 42
-0.939516
  0
LINE
  5
B8
100
AcDbEntity
  8
R-DOOR-DETL
 62
     3
100
AcDbLine
 10
13.621538
 20
10.707349
 30
0.0
 11
12.870545
 21
10.707349
 31
0.0
  0
LINE
  5
B9
100
AcDbEntity
  8
CLAMP
  6
CONTINUOUS
 62
     2
100
AcDbLine
 10
12.474735
 20
10.486892
 30
0.0
 11
12.550677
 21
10.409341
 31
0.0
  0
LINE
  5
BA
100
AcDbEntity
  8
R-DOOR-DETL
  6
CONTINUOUS
 62
     3
100
AcDbLine
 10
12.816274
 20
10.476349
 30
0.0
 11
12.924816
 21
10.476349
 31
0.0
  0
LINE
  5
BB
100
AcDbEntity
  8
CLAMP
  6
CONTINUOUS
 62
     2
100
AcDbLine
 10
12.369603
 20
10.4599
 30
0.0
 11
12.474735
 21
10.486892
 31
0.0
  0
ARC
  5
BC
100
AcDbEntity
  8
R-DOOR-DETL
 62
     3
100
AcDbCircle
 10
13.621538
 20
10.677349
 30
0.0
 40
0.03
100
AcDbArc
 50
0.0
 51
90.0
  0
ARC
  5
BD
100
AcDbEntity
  8
R-DOOR-DETL
 62
     3
100
AcDbCircle
 10
13.636538
 20
10.436146
 30
0.0
 40
0.015
100
AcDbArc
 50
270.0
 51
0.0
  0
LINE
  5
BE
100
AcDbEntity
  8
R-DOOR-DETL
 62
     3
100
AcDbLine
 10
13.570545
 20
10.421146
 30
0.0
 11
13.636538
 21
10.421146
 31
0.0
  0
ARC
  5
BF
100
AcDbEntity
  8
R-DOOR-DETL
 62
     3
100
AcDbCircle
 10
13.570545
 20
10.406146
 30
0.0
 40
0.015
100
AcDbArc
 50
90.0
 51
180.0
  0
LINE
  5
C0
100
AcDbEntity
  8
R-DOOR-DETL
  6
CONTINUOUS
 62
     3
100
AcDbLine
 10
13.394417
 20
10.427133
 30
0.0
 11
13.306197
 21
10.490367
 31
0.0
  0
LINE
  5
C1
100
AcDbEntity
  8
R-DOOR-DETL
  6
CONTINUOUS
 62
     3
100
AcDbLine
 10
13.306197
 20
10.490367
 30
0.0
 11
13.207325
 21
10.445582
 31
0.0
  0
LINE
  5
C2
100
AcDbEntity
  8
R-DOOR-DETL
 62
     3
100
AcDbLine
 10
13.651538
 20
10.436146
 30
0.0
 11
13.651538
 21
10.677349
 31
0.0
  0
ARC
  5
C3
100
AcDbEntity
  8
R-DOOR-DETL
 62
     3
100
AcDbCircle
 10
12.119552
 20
10.677349
 30
0.0
 40
0.03
100
AcDbArc
 50
90.0
 51
180.0
  0
LINE
  5
C4
100
AcDbEntity
  8
R-DOOR-DETL
 62
     3
100
AcDbLine
 10
12.104552
 20
10.421146
 30
0.0
 11
12.170545
 21
10.421146
 31
0.0
  0
ARC
  5
C5
100
AcDbEntity
  8
R-DOOR-DETL
 62
     3
100
AcDbCircle
 10
12.104552
 20
10.436146
 30
0.0
 40
0.015
100
AcDbArc
 50
180.0
 51
270.0
  0
ARC
  5
C6
100
AcDbEntity
  8
R-DOOR-DETL
 62
     3
100
AcDbCircle
 10
12.170545
 20
10.406146
 30
0.0
 40
0.015
100
AcDbArc
 50
0.0
 51
90.0
  0
LINE
  5
C7
100
AcDbEntity
  8
R-DOOR-DETL
 62
     3
100
AcDbLine
 10
12.089552
 20
10.677349
 30
0.0
 11
12.089552
 21
10.436146
 31
0.0
  0
LINE
  5
C8
100
AcDbEntity
  8
R-DOOR-DETL
  6
CONTINUOUS
 62
     3
100
AcDbLine
 10
12.188045
 20
10.707349
 30
0.0
 11
13.553045
 21
10.707349
 31
0.0
  0
LINE
  5
C9
100
AcDbEntity
  8
R-DOOR-DETL
 62
     3
100
AcDbLine
 10
12.188045
 20
10.582349
 30
0.0
 11
13.553045
 21
10.582349
 31
0.0
  0
LINE
  5
CA
100
AcDbEntity
  8
R-DOOR-DETL
 62
     3
100
AcDbLine
 10
12.870545
 20
10.707349
 30
0.0
 11
12.119552
 21
10.707349
 31
0.0
  0
LINE
  5
CB
100
AcDbEntity
  8
R-DOOR-DETL
  6
CONTINUOUS
 62
     3
100
AcDbLine
 10
12.816274
 20
10.288349
 30
0.0
 11
12.762003
 21
10.382349
 31
0.0
  0
LINE
  5
CC
100
AcDbEntity
  8
R-DOOR-DETL
  6
CONTINUOUS
 62
     3
100
AcDbLine
 10
12.816274
 20
10.288349
 30
0.0
 11
12.924816
 21
10.288349
 31
0.0
  0
LINE
  5
CD
100
AcDbEntity
  8
R-DOOR-DETL
  6
CONTINUOUS
 62
     3
100
AcDbLine
 10
12.924816
 20
10.288349
 30
0.0
 11
12.979087
 21
10.382349
 31
0.0
  0
LINE
  5
CE
100
AcDbEntity
  8
CLAMP
  6
CONTINUOUS
 62
     2
100
AcDbLine
 10
12.340413
 20
10.355357
 30
0.0
 11
12.416355
 21
10.277806
 31
0.0
  0
LINE
  5
CF
100
AcDbEntity
  8
CLAMP
  6
CONTINUOUS
 62
     2
100
AcDbLine
 10
12.416355
 20
10.277806
 30
0.0
 11
12.521487
 21
10.304798
 31
0.0
  0
ARC
  5
D0
100
AcDbEntity
  8
R-DOOR-DETL
 62
     3
100
AcDbCircle
 10
13.570545
 20
10.236146
 30
0.0
 40
0.015
100
AcDbArc
 50
180.0
 51
270.0
  0
LINE
  5
D1
100
AcDbEntity
  8
R-DOOR-DETL
 62
     3
100
AcDbLine
 10
13.636538
 20
10.221146
 30
0.0
 11
13.570545
 21
10.221146
 31
0.0
  0
ARC
  5
D2
100
AcDbEntity
  8
R-DOOR-DETL
 62
     3
100
AcDbCircle
 10
13.636538
 20
10.206146
 30
0.0
 40
0.015
100
AcDbArc
 50
360.0
 51
90.0
  0
LINE
  5
D3
100
AcDbEntity
  8
R-DOOR-DETL
  6
CONTINUOUS
 62
     3
100
AcDbLine
 10
13.284893
 20
10.274331
 30
0.0
 11
13.196673
 21
10.337564
 31
0.0
  0
LINE
  5
D4
100
AcDbEntity
  8
R-DOOR-DETL
  6
CONTINUOUS
 62
     3
100
AcDbLine
 10
13.383765
 20
10.319115
 30
0.0
 11
13.284893
 21
10.274331
 31
0.0
  0
LINE
  5
D5
100
AcDbEntity
  8
R-DOOR-DETL
 62
     3
100
AcDbLine
 10
12.170545
 20
10.221146
 30
0.0
 11
12.104552
 21
10.221146
 31
0.0
  0
ARC
  5
D6
100
AcDbEntity
  8
R-DOOR-DETL
 62
     3
100
AcDbCircle
 10
12.104552
 20
10.206146
 30
0.0
 40
0.015
100
AcDbArc
 50
90.0
 51
180.0
  0
ARC
  5
D7
100
AcDbEntity
  8
R-DOOR-DETL
 62
     3
100
AcDbCircle
 10
12.170545
 20
10.236146
 30
0.0
 40
0.015
100
AcDbArc
 50
270.0
 51
360.0
  0
LINE
  5
D8
100
AcDbEntity
  8
R-DOOR-DETL
 62
     3
100
AcDbLine
 10
12.188045
 20
10.157349
 30
0.0
 11
13.553045
 21
10.157349
 31
0.0
  0
LINE
  5
D9
100
AcDbEntity
  8
R-DOOR-DETL
 62
     3
100
AcDbLine
 10
13.555545
 20
10.236146
 30
0.0
 11
13.555545
 21
10.406146
 31
0.0
  0
LINE
  5
DA
100
AcDbEntity
  8
R-DOOR-DETL
  6
CONTINUOUS
 62
     3
100
AcDbLine
 10
13.394417
 20
10.427133
 30
0.0
 11
13.383765
 21
10.319115
 31
0.0
  0
LINE
  5
DB
100
AcDbEntity
  8
R-DOOR-DETL
  6
CONTINUOUS
 62
     3
100
AcDbLine
 10
13.207325
 20
10.445582
 30
0.0
 11
13.196673
 21
10.337564
 31
0.0
  0
LINE
  5
DC
100
AcDbEntity
  8
CLAMP
  6
CONTINUOUS
 62
     2
100
AcDbLine
 10
12.521487
 20
10.304798
 30
0.0
 11
12.550677
 21
10.409341
 31
0.0
  0
LINE
  5
DD
100
AcDbEntity
  8
R-DOOR-DETL
  6
CONTINUOUS
 62
     3
100
AcDbLine
 10
12.762003
 20
10.382349
 30
0.0
 11
12.816274
 21
10.476349
 31
0.0
  0
LINE
  5
DE
100
AcDbEntity
  8
R-DOOR-DETL
  6
CONTINUOUS
 62
     3
100
AcDbLine
 10
12.979087
 20
10.382349
 30
0.0
 11
12.924816
 21
10.476349
 31
0.0
  0
LINE
  5
DF
100
AcDbEntity
  8
R-DOOR-DETL
 62
     3
100
AcDbLine
 10
12.185545
 20
10.406146
 30
0.0
 11
12.185545
 21
10.236146
 31
0.0
  0
LINE
  5
E0
100
AcDbEntity
  8
CLAMP
  6
CONTINUOUS
 62
     2
100
AcDbLine
 10
12.340413
 20
10.355357
 30
0.0
 11
12.369603
 21
10.4599
 31
0.0
  0
LINE
  5
E1
100
AcDbEntity
  8
R-DOOR-DETL
  6
CONTINUOUS
 62
     3
100
AcDbLine
 10
13.553045
 20
10.157349
 30
0.0
 11
13.553045
 21
10.707349
 31
0.0
  0
CIRCLE
  5
E2
100
AcDbEntity
  8
R-DOOR-DETL
  6
CONTINUOUS
 62
     3
100
AcDbCircle
 10
13.295545
 20
10.382349
 30
0.0
 40
0.1875
  0
CIRCLE
  5
E3
100
AcDbEntity
  8
R-DOOR-DETL
  6
CONTINUOUS
 62
     3
100
AcDbCircle
 10
13.295545
 20
10.382349
 30
0.0
 40
0.1625
  0
CIRCLE
  5
E4
100
AcDbEntity
  8
R-DOOR-DETL
  6
CONTINUOUS
 62
     3
100
AcDbCircle
 10
12.870545
 20
10.382349
 30
0.0
 40
0.1625
  0
CIRCLE
  5
E5
100
AcDbEntity
  8
R-DOOR-DETL
  6
CONTINUOUS
 62
     3
100
AcDbCircle
 10
12.870545
 20
10.382349
 30
0.0
 40
0.1875
  0
LINE
  5
E6
100
AcDbEntity
  8
CLAMP
  6
CONTINUOUS
 62
     2
100
AcDbLine
 10
12.188045
 20
10.157349
 30
0.0
 11
12.188045
 21
10.707349
 31
0.0
  0
CIRCLE
  5
E7
100
AcDbEntity
  8
R-DOOR-DETL
100
AcDbCircle
 10
12.445545
 20
10.382349
 30
0.0
 40
0.1625
  0
CIRCLE
  5
E8
100
AcDbEntity
  8
CLAMP
  6
CONTINUOUS
 62
     2
100
AcDbCircle
 10
12.445545
 20
10.382349
 30
0.0
 40
0.1875
  0
LWPOLYLINE
  5
E9
100
AcDbEntity
  8
R-DOOR-DETL
 62
     3
100
AcDbPolyline
 90
       17
 70
     1
 43
0.0
 10
12.715801
 20
15.649073
 42
0.367717
 10
12.68619
 20
15.674255
 10
12.214552
 20
15.674255
 42
0.414214
 10
12.089552
 20
15.549255
 10
12.089552
 20
13.515802
 42
0.414214
 10
12.214552
 20
13.390802
 10
12.870545
 20
13.390802
 10
13.526538
 20
13.390802
 42
0.414214
 10
13.651538
 20
13.515802
 10
13.651538
 20
15.549255
 42
0.414214
 10
13.526538
 20
15.674255
 10
13.0549
 20
15.674255
 42
0.367717
 10
13.025289
 20
15.649073
 42
-0.11093
 10
12.999654
 20
15.585313
 42
-0.939516
 10
12.915443
 20
15.635893
 42
2.169752
 10
12.825647
 20
15.635893
 42
-0.939516
 10
12.741436
 20
15.585313
 42
-0.11093
  0
TEXT
  5
EA
100
AcDbEntity
  8
R-DOOR-ANNO
  6
CONTINUOUS
100
AcDbText
 10
20.938531
 20
0.5
 30
0.0
 40
0.625
  1
STYLE 06
  7
ROMANS
100
AcDbText
  0
TEXT
  5
EB
100
AcDbEntity
  8
DIMN
100
AcDbText
 10
11.436722
 20
30.761367
 30
0.0
 40
0.375
  1
THE DIMENSION FROM FLOOR
100
AcDbText
  0
TEXT
  5
EC
100
AcDbEntity
  8
DIMN
100
AcDbText
 10
11.436722
 20
32.018894
 30
0.0
 40
0.375
  1
CLAD AND NON-CLAD RAILS
100
AcDbText
  0
TEXT
  5
ED
100
AcDbEntity
  8
DIMN
100
AcDbText
 10
10.565698
 20
31.397004
 30
0.0
 40
0.375
  1
2. IF 1/2" THRESHOLD IS USED, 
100
AcDbText
  0
TEXT
  5
EE
100
AcDbEntity
  8
DIMN
100
AcDbText
 10
11.436722
 20
30.134887
 30
0.0
 40
0.375
  1
TO GLASS INCREASES BY 1/2"
100
AcDbText
  0
LINE
  5
EF
100
AcDbEntity
  8
BORDER
100
AcDbLine
 10
25.693238
 20
34.200072
 30
0.0
 11
0.0
 21
34.200072
 31
0.0
  0
TEXT
  5
F0
100
AcDbEntity
  8
DIMN
100
AcDbText
 10
11.481027
 20
29.515103
 30
0.0
 40
0.375
  1
I.E. GLASS IS CLEAR OPENING LESS 11 13/16
100
AcDbText
  0
TEXT
  5
F1
100
AcDbEntity
  8
DIMN
100
AcDbText
 10
10.66698
 20
32.643894
 30
0.0
 40
0.375
  1
1. DIMENSIONS ARE THE SAME FOR
100
AcDbText
  0
TEXT
  5
F2
100
AcDbEntity
  8
0
100
AcDbText
 10
14.884104
 20
22.23646
 30
0.0
 40
0.36
  1
GLASS CLAMP
  7
ROMANS
100
AcDbText
  0
MTEXT
  5
F3
100
AcDbEntity
  8
R-DOOR-ANNO
  6
CONTINUOUS
100
AcDbMText
 10
15.421922
 20
18.472425
 30
0.0
 40
0.36
 41
0.0
 71
     4
 72
     1
  1
CLADDING
  7
ROMANS
  0
MTEXT
  5
F4
100
AcDbEntity
  8
R-DOOR-ANNO
  6
CONTINUOUS
100
AcDbMText
 10
15.299659
 20
17.261682
 30
0.0
 40
0.36
 41
0.0
 71
     4
 72
     1
  1
GLASS CLAMP
  7
ROMANS
  0
LINE
  5
F5
100
AcDbEntity
  8
R-DOOR-PATT
  6
CONTINUOUS
 62
     5
100
AcDbLine
 10
15.771037
 20
28.256965
 30
0.0
 11
13.771037
 21
26.256965
 31
0.0
  0
LINE
  5
F6
100
AcDbEntity
  8
R-DOOR-PATT
  6
CONTINUOUS
 62
     5
100
AcDbLine
 10
15.865741
 20
27.909727
 30
0.0
 11
14.212979
 21
26.256965
 31
0.0
  0
LINE
  5
F7
100
AcDbEntity
  8
R-DOOR-PATT
  6
CONTINUOUS
 62
     5
100
AcDbLine
 10
15.329096
 20
28.256965
 30
0.0
 11
13.329096
 21
26.256965
 31
0.0
  0
LINE
  5
F8
100
AcDbEntity
  8
R-DOOR-PATT
  6
CONTINUOUS
 62
     5
100
AcDbLine
 10
12.235504
 20
28.256965
 30
0.0
 11
10.235504
 21
26.256965
 31
0.0
  0
LINE
  5
F9
100
AcDbEntity
  8
R-DOOR-PATT
  6
CONTINUOUS
 62
     5
100
AcDbLine
 10
12.677445
 20
28.256965
 30
0.0
 11
10.677445
 21
26.256965
 31
0.0
  0
LINE
  5
FA
100
AcDbEntity
  8
R-DOOR-PATT
  6
CONTINUOUS
 62
     5
100
AcDbLine
 10
11.793562
 20
28.256965
 30
0.0
 11
9.865741
 21
26.329145
 31
0.0
  0
LINE
  5
FB
100
AcDbEntity
  8
R-DOOR-PATT
  6
CONTINUOUS
 62
     5
100
AcDbLine
 10
13.119387
 20
28.256965
 30
0.0
 11
11.119387
 21
26.256965
 31
0.0
  0
LINE
  5
FC
100
AcDbEntity
  8
R-DOOR-PATT
  6
CONTINUOUS
 62
     5
100
AcDbLine
 10
13.561329
 20
28.256965
 30
0.0
 11
11.561329
 21
26.256965
 31
0.0
  0
LINE
  5
FD
100
AcDbEntity
  8
R-DOOR-PATT
  6
CONTINUOUS
 62
     5
100
AcDbLine
 10
14.00327
 20
28.256965
 30
0.0
 11
12.00327
 21
26.256965
 31
0.0
  0
LINE
  5
FE
100
AcDbEntity
  8
R-DOOR-PATT
  6
CONTINUOUS
 62
     5
100
AcDbLine
 10
14.445212
 20
28.256965
 30
0.0
 11
12.445212
 21
26.256965
 31
0.0
  0
LINE
  5
FF
100
AcDbEntity
  8
R-DOOR-PATT
  6
CONTINUOUS
 62
     5
100
AcDbLine
 10
14.887154
 20
28.256965
 30
0.0
 11
12.887154
 21
26.256965
 31
0.0
  0
LINE
  5
100
100
AcDbEntity
  8
R-DOOR-PATT
  6
CONTINUOUS
 62
     5
100
AcDbLine
 10
10.909678
 20
28.256965
 30
0.0
 11
9.865741
 21
27.213028
 31
0.0
  0
LINE
  5
101
100
AcDbEntity
  8
R-DOOR-PATT
  6
CONTINUOUS
 62
     5
100
AcDbLine
 10
11.35162
 20
28.256965
 30
0.0
 11
9.865741
 21
26.771086
 31
0.0
  0
LINE
  5
102
100
AcDbEntity
  8
R-DOOR-PATT
  6
CONTINUOUS
 62
     5
100
AcDbLine
 10
15.865741
 20
27.467785
 30
0.0
 11
14.654921
 21
26.256965
 31
0.0
  0
DIMENSION
  5
103
100
AcDbEntity
  8
DIMN
 62
     7
100
AcDbDimension
  2
*D7
 10
6.295291
 20
16.911806
 30
0.0
 11
6.295291
 21
19.959438
 31
0.0
 12
-148.948256
 22
-2.442171
 32
0.0
  1
GLASS\PCLEAR OPENING\PLESS 11 5/16\P[287mm]
  3
STANDARD
100
AcDbAlignedDimension
 13
12.451019
 23
23.007071
 33
0.0
 14
12.590387
 24
16.911806
 34
0.0
 50
90.0
100
AcDbRotatedDimension
1001
ACAD
1000
DSTYLE
1002
{
1070
   270
1070
     7
1070
    40
1040
2.0
1002
}
  0
LINE
  5
104
100
AcDbEntity
  8
R-DOOR-DETL
100
AcDbLine
 10
12.62094
 20
21.202438
 30
0.0
 11
12.62094
 21
23.007071
 31
0.0
  0
LINE
  5
105
100
AcDbEntity
  8
R-DOOR-DETL
100
AcDbLine
 10
12.680439
 20
21.159965
 30
0.0
 11
12.680439
 21
23.007071
 31
0.0
  0
LINE
  5
106
100
AcDbEntity
  8
R-DOOR-DETL
100
AcDbLine
 10
12.742939
 20
21.171045
 30
0.0
 11
12.742939
 21
23.007071
 31
0.0
  0
LINE
  5
107
100
AcDbEntity
  8
R-DOOR-DETL
100
AcDbLine
 10
12.805439
 20
21.21792
 30
0.0
 11
12.805439
 21
23.007071
 31
0.0
  0
LINE
  5
108
100
AcDbEntity
  8
R-DOOR-DETL
100
AcDbLine
 10
12.930439
 20
21.160849
 30
0.0
 11
12.930439
 21
23.007071
 31
0.0
  0
LINE
  5
109
100
AcDbEntity
  8
R-DOOR-DETL
100
AcDbLine
 10
12.992939
 20
21.19958
 30
0.0
 11
12.992939
 21
23.007071
 31
0.0
  0
LINE
  5
10A
100
AcDbEntity
  8
R-DOOR-DETL
100
AcDbLine
 10
13.055439
 20
21.224272
 30
0.0
 11
13.055439
 21
23.007071
 31
0.0
  0
LINE
  5
10B
100
AcDbEntity
  8
R-DOOR-DETL
100
AcDbLine
 10
13.112939
 20
21.206156
 30
0.0
 11
13.112939
 21
23.007071
 31
0.0
  0
LINE
  5
10C
100
AcDbEntity
  8
R-DOOR-DETL
 62
     3
100
AcDbLine
 10
13.160545
 20
18.866806
 30
0.0
 11
13.160545
 21
16.881648
 31
0.0
  0
LINE
  5
10D
100
AcDbEntity
  8
R-DOOR-DETL
 62
     3
100
AcDbLine
 10
12.580545
 20
18.866806
 30
0.0
 11
12.580545
 21
16.881648
 31
0.0
  0
LINE
  5
10E
100
AcDbEntity
  8
R-DOOR-DETL
  6
CONTINUOUS
 62
     3
100
AcDbLine
 10
12.620545
 20
18.826806
 30
0.0
 11
12.620545
 21
16.951806
 31
0.0
  0
LINE
  5
10F
100
AcDbEntity
  8
R-DOOR-DETL
 62
     3
100
AcDbLine
 10
13.120545
 20
18.826806
 30
0.0
 11
13.120545
 21
16.951806
 31
0.0
  0
LINE
  5
110
100
AcDbEntity
  8
R-DOOR-DETL
100
AcDbLine
 10
13.360545
 20
17.337268
 30
0.0
 11
13.360545
 21
18.854329
 31
0.0
  0
LINE
  5
111
100
AcDbEntity
  8
R-DOOR-DETL
  6
CONTINUOUS
 62
     3
100
AcDbLine
 10
12.380545
 20
17.337268
 30
0.0
 11
12.380545
 21
18.854329
 31
0.0
  0
LWPOLYLINE
  5
112
100
AcDbEntity
  8
R-DOOR-ANNO
  6
CONTINUOUS
100
AcDbPolyline
 90
        3
 70
     0
 43
0.0
 10
13.878522
 20
18.937097
 10
14.811922
 20
18.472425
 10
15.311922
 20
18.472425
1001
ACAD
1000
DSTYLE
1002
{
1070
    40
1040
1.0
1070
    41
1040
0.5
1002
}
  0
LINE
  5
113
100
AcDbEntity
  8
R-DOOR-DETL
 62
     3
100
AcDbLine
 10
12.089552
 20
18.916802
 30
0.0
 11
12.089552
 21
17.34877
 31
0.0
  0
LINE
  5
114
100
AcDbEntity
  8
R-DOOR-DETL
 62
     3
100
AcDbLine
 10
13.651538
 20
17.34877
 30
0.0
 11
13.651538
 21
18.916802
 31
0.0
  0
LINE
  5
115
100
AcDbEntity
  8
R-DOOR-DETL
100
AcDbLine
 10
13.120545
 20
19.928633
 30
0.0
 11
13.120545
 21
18.031657
 31
0.0
  0
LINE
  5
116
100
AcDbEntity
  8
R-DOOR-DETL
100
AcDbLine
 10
12.620545
 20
19.928149
 30
0.0
 11
12.620545
 21
18.031657
 31
0.0
  0
LINE
  5
117
100
AcDbEntity
  8
R-DOOR-DETL
100
AcDbLine
 10
12.934259
 20
19.914428
 30
0.0
 11
12.934259
 21
16.911806
 31
0.0
  0
LINE
  5
118
100
AcDbEntity
  8
R-DOOR-DETL
100
AcDbLine
 10
13.059259
 20
19.972382
 30
0.0
 11
13.059259
 21
16.911806
 31
0.0
  0
LINE
  5
119
100
AcDbEntity
  8
R-DOOR-DETL
100
AcDbLine
 10
12.996759
 20
19.961303
 30
0.0
 11
12.996759
 21
16.911806
 31
0.0
  0
LINE
  5
11A
100
AcDbEntity
  8
R-DOOR-DETL
100
AcDbLine
 10
12.809259
 20
19.971499
 30
0.0
 11
12.809259
 21
16.911806
 31
0.0
  0
LINE
  5
11B
100
AcDbEntity
  8
R-DOOR-DETL
100
AcDbLine
 10
12.746759
 20
19.932767
 30
0.0
 11
12.746759
 21
16.911806
 31
0.0
  0
LINE
  5
11C
100
AcDbEntity
  8
R-DOOR-DETL
100
AcDbLine
 10
12.684259
 20
19.908075
 30
0.0
 11
12.684259
 21
16.911806
 31
0.0
  0
LINE
  5
11D
100
AcDbEntity
  8
R-DOOR-DETL
100
AcDbLine
 10
13.059259
 20
19.972382
 30
0.0
 11
13.059259
 21
18.031657
 31
0.0
  0
LINE
  5
11E
100
AcDbEntity
  8
R-DOOR-DETL
100
AcDbLine
 10
12.996759
 20
19.961303
 30
0.0
 11
12.996759
 21
18.031657
 31
0.0
  0
LINE
  5
11F
100
AcDbEntity
  8
R-DOOR-DETL
100
AcDbLine
 10
12.809259
 20
19.971499
 30
0.0
 11
12.809259
 21
18.031657
 31
0.0
  0
LINE
  5
120
100
AcDbEntity
  8
R-DOOR-DETL
100
AcDbLine
 10
12.746759
 20
19.932767
 30
0.0
 11
12.746759
 21
18.031657
 31
0.0
  0
ARC
  5
121
100
AcDbEntity
  8
R-DOOR-DETL
  6
CONTINUOUS
 62
     3
100
AcDbCircle
 10
12.320545
 20
17.337268
 30
0.0
 40
0.06
100
AcDbArc
 50
301.0
 51
0.0
  0
ARC
  5
122
100
AcDbEntity
  8
R-DOOR-DETL
  6
CONTINUOUS
 62
     3
100
AcDbCircle
 10
13.420545
 20
17.337268
 30
0.0
 40
0.06
100
AcDbArc
 50
180.0
 51
239.0
  0
ARC
  5
123
100
AcDbEntity
  8
R-DOOR-DETL
 62
     3
100
AcDbCircle
 10
13.401538
 20
17.34877
 30
0.0
 40
0.25
100
AcDbArc
 50
330.0
 51
360.0
  0
ARC
  5
124
100
AcDbEntity
  8
R-DOOR-DETL
 62
     3
100
AcDbCircle
 10
12.339552
 20
17.34877
 30
0.0
 40
0.25
100
AcDbArc
 50
180.0
 51
210.0
  0
LWPOLYLINE
  5
125
100
AcDbEntity
  8
R-DOOR-ANNO
  6
CONTINUOUS
100
AcDbPolyline
 90
        3
 70
     0
 43
0.0
 10
13.317
 20
17.871252
 10
14.689659
 20
17.261682
 10
15.189659
 20
17.261682
1001
ACAD
1000
DSTYLE
1002
{
1070
    40
1040
1.0
1070
    41
1040
0.5
1002
}
  0
LWPOLYLINE
  5
126
100
AcDbEntity
  8
R-DOOR-ANNO
  6
CONTINUOUS
100
AcDbPolyline
 90
        3
 70
     0
 43
0.0
 10
13.587208
 20
16.473175
 10
14.544087
 20
16.005304
 10
15.044087
 20
16.005304
1001
ACAD
1000
DSTYLE
1002
{
1070
    40
1040
1.0
1070
    41
1040
0.5
1002
}
  0
LINE
  5
127
100
AcDbEntity
  8
R-DOOR-DETL
  6
CONTINUOUS
 62
     3
100
AcDbLine
 10
13.150409
 20
16.636806
 30
0.0
 11
13.150409
 21
16.409806
 31
0.0
  0
LINE
  5
128
100
AcDbEntity
  8
R-DOOR-DETL
  6
CONTINUOUS
 62
     3
100
AcDbLine
 10
12.590681
 20
16.636806
 30
0.0
 11
12.590681
 21
16.409806
 31
0.0
  0
LINE
  5
129
100
AcDbEntity
  8
R-DOOR-DETL
 62
     3
100
AcDbLine
 10
12.420545
 20
16.700449
 30
0.0
 11
12.420545
 21
16.206513
 31
0.0
  0
LINE
  5
12A
100
AcDbEntity
  8
R-DOOR-DETL
  6
CONTINUOUS
 62
     3
100
AcDbLine
 10
12.445681
 20
16.348806
 30
0.0
 11
12.445681
 21
16.679532
 31
0.0
  0
LINE
  5
12B
100
AcDbEntity
  8
R-DOOR-DETL
 62
     3
100
AcDbLine
 10
12.984545
 20
16.61971
 30
0.0
 11
12.984545
 21
16.146513
 31
0.0
  0
LINE
  5
12C
100
AcDbEntity
  8
R-DOOR-DETL
 62
     3
100
AcDbLine
 10
12.994545
 20
16.597349
 30
0.0
 11
12.994545
 21
16.146513
 31
0.0
  0
LINE
  5
12D
100
AcDbEntity
  8
R-DOOR-DETL
 62
     3
100
AcDbLine
 10
12.746545
 20
16.597349
 30
0.0
 11
12.746545
 21
16.146513
 31
0.0
  0
LINE
  5
12E
100
AcDbEntity
  8
R-DOOR-DETL
 62
     3
100
AcDbLine
 10
12.756545
 20
16.61971
 30
0.0
 11
12.756545
 21
16.146513
 31
0.0
  0
LINE
  5
12F
100
AcDbEntity
  8
R-DOOR-DETL
  6
CONTINUOUS
 62
     3
100
AcDbLine
 10
13.295409
 20
16.348806
 30
0.0
 11
13.295409
 21
16.679532
 31
0.0
  0
LINE
  5
130
100
AcDbEntity
  8
R-DOOR-DETL
 62
     3
100
AcDbLine
 10
13.320545
 20
16.206513
 30
0.0
 11
13.320545
 21
16.700449
 31
0.0
  0
LINE
  5
131
100
AcDbEntity
  8
R-DOOR-DETL
  6
CONTINUOUS
 62
     3
100
AcDbLine
 10
13.057409
 20
16.254806
 30
0.0
 11
13.201409
 21
16.254806
 31
0.0
  0
LINE
  5
132
100
AcDbEntity
  8
R-DOOR-DETL
 62
     3
100
AcDbLine
 10
12.870545
 20
16.146513
 30
0.0
 11
13.260545
 21
16.146513
 31
0.0
  0
ARC
  5
133
100
AcDbEntity
  8
R-DOOR-DETL
  6
CONTINUOUS
 62
     3
100
AcDbCircle
 10
13.140409
 20
16.409806
 30
0.0
 40
0.01
100
AcDbArc
 50
270.0
 51
360.0
  0
LINE
  5
134
100
AcDbEntity
  8
R-DOOR-DETL
 62
     3
100
AcDbLine
 10
13.120545
 20
16.541462
 30
0.0
 11
13.120545
 21
16.416462
 31
0.0
  0
ARC
  5
135
100
AcDbEntity
  8
R-DOOR-DETL
  6
CONTINUOUS
 62
     3
100
AcDbCircle
 10
13.037409
 20
16.389806
 30
0.0
 40
0.01
100
AcDbArc
 50
90.0
 51
180.0
  0
LINE
  5
136
100
AcDbEntity
  8
R-DOOR-DETL
  6
CONTINUOUS
 62
     3
100
AcDbLine
 10
13.027409
 20
16.389806
 30
0.0
 11
13.027409
 21
16.284806
 31
0.0
  0
ARC
  5
137
100
AcDbEntity
  8
R-DOOR-DETL
  6
CONTINUOUS
 62
     3
100
AcDbCircle
 10
13.057409
 20
16.284806
 30
0.0
 40
0.03
100
AcDbArc
 50
180.0
 51
270.0
  0
LINE
  5
138
100
AcDbEntity
  8
R-DOOR-DETL
  6
CONTINUOUS
 62
     3
100
AcDbLine
 10
12.683681
 20
16.254806
 30
0.0
 11
12.539681
 21
16.254806
 31
0.0
  0
HATCH
  5
139
100
AcDbEntity
  8
R-DOOR-DETL
 62
     3
100
AcDbHatch
 10
0.0
 20
0.0
 30
0.0
210
0.0
220
0.0
230
1.0
  2
ANSI31
 70
     0
 71
     0
 91
        1
 92
        7
 72
     0
 73
     1
 93
        4
 10
12.62054499752261
 20
16.54146225117292
 10
12.74654499752259
 20
16.54146225117292
 10
12.74654499752259
 20
16.41646225117292
 10
12.62054499752261
 20
16.41646225117292
 97
        0
 75
     0
 76
     1
 52
90.0
 41
0.2
 77
     0
 78
     1
 53
45.0
 43
48.902742
 44
-14.339334
 45
0.0176776695296637
 46
-0.0176776695296637
 79
     0
 47
0.003428
 98
        1
 10
12.6814
 20
16.485872
  0
LINE
  5
13A
100
AcDbEntity
  8
R-DOOR-DETL
 62
     3
100
AcDbLine
 10
12.964545
 20
16.201903
 30
0.0
 11
12.776545
 21
16.201903
 31
0.0
  0
LINE
  5
13B
100
AcDbEntity
  8
R-DOOR-DETL
 62
     3
100
AcDbLine
 10
12.964545
 20
16.261903
 30
0.0
 11
12.776545
 21
16.261903
 31
0.0
  0
LINE
  5
13C
100
AcDbEntity
  8
R-DOOR-DETL
  6
CONTINUOUS
 62
     3
100
AcDbLine
 10
12.600681
 20
16.399806
 30
0.0
 11
12.703681
 21
16.399806
 31
0.0
  0
ARC
  5
13D
100
AcDbEntity
  8
R-DOOR-DETL
  6
CONTINUOUS
 62
     3
100
AcDbCircle
 10
12.600681
 20
16.409806
 30
0.0
 40
0.01
100
AcDbArc
 50
180.0
 51
270.0
  0
LINE
  5
13E
100
AcDbEntity
  8
R-DOOR-DETL
 62
     3
100
AcDbLine
 10
12.620545
 20
16.541462
 30
0.0
 11
12.620545
 21
16.416462
 31
0.0
  0
LINE
  5
13F
100
AcDbEntity
  8
R-DOOR-DETL
 62
     3
100
AcDbLine
 10
12.964545
 20
16.561903
 30
0.0
 11
12.776545
 21
16.561903
 31
0.0
  0
ARC
  5
140
100
AcDbEntity
  8
R-DOOR-DETL
  6
CONTINUOUS
 62
     3
100
AcDbCircle
 10
12.703681
 20
16.389806
 30
0.0
 40
0.01
100
AcDbArc
 50
360.0
 51
90.0
  0
LINE
  5
141
100
AcDbEntity
  8
R-DOOR-DETL
 62
     3
100
AcDbLine
 10
12.964545
 20
16.501903
 30
0.0
 11
12.776545
 21
16.501903
 31
0.0
  0
LINE
  5
142
100
AcDbEntity
  8
R-DOOR-DETL
 62
     3
100
AcDbLine
 10
12.964545
 20
16.381903
 30
0.0
 11
12.776545
 21
16.381903
 31
0.0
  0
LINE
  5
143
100
AcDbEntity
  8
R-DOOR-DETL
 62
     3
100
AcDbLine
 10
12.964545
 20
16.321903
 30
0.0
 11
12.776545
 21
16.321903
 31
0.0
  0
LINE
  5
144
100
AcDbEntity
  8
R-DOOR-DETL
 62
     3
100
AcDbLine
 10
12.964545
 20
16.441903
 30
0.0
 11
12.776545
 21
16.441903
 31
0.0
  0
LINE
  5
145
100
AcDbEntity
  8
R-DOOR-DETL
 62
     3
100
AcDbLine
 10
12.964545
 20
16.501903
 30
0.0
 11
12.776545
 21
16.501903
 31
0.0
  0
LINE
  5
146
100
AcDbEntity
  8
R-DOOR-DETL
  6
CONTINUOUS
 62
     3
100
AcDbLine
 10
12.713681
 20
16.389806
 30
0.0
 11
12.713681
 21
16.284806
 31
0.0
  0
ARC
  5
147
100
AcDbEntity
  8
R-DOOR-DETL
  6
CONTINUOUS
 62
     3
100
AcDbCircle
 10
12.683681
 20
16.284806
 30
0.0
 40
0.03
100
AcDbArc
 50
270.0
 51
0.0
  0
LINE
  5
148
100
AcDbEntity
  8
R-DOOR-DETL
 62
     3
100
AcDbLine
 10
12.994545
 20
16.231903
 30
0.0
 11
12.746545
 21
16.231903
 31
0.0
  0
LINE
  5
149
100
AcDbEntity
  8
R-DOOR-DETL
 62
     3
100
AcDbLine
 10
12.994545
 20
16.591903
 30
0.0
 11
12.746545
 21
16.591903
 31
0.0
  0
LINE
  5
14A
100
AcDbEntity
  8
R-DOOR-DETL
 62
     3
100
AcDbLine
 10
12.994545
 20
16.531903
 30
0.0
 11
12.746545
 21
16.531903
 31
0.0
  0
LINE
  5
14B
100
AcDbEntity
  8
R-DOOR-DETL
 62
     3
100
AcDbLine
 10
12.994545
 20
16.351903
 30
0.0
 11
12.746545
 21
16.351903
 31
0.0
  0
LINE
  5
14C
100
AcDbEntity
  8
R-DOOR-DETL
 62
     3
100
AcDbLine
 10
12.994545
 20
16.291903
 30
0.0
 11
12.746545
 21
16.291903
 31
0.0
  0
LINE
  5
14D
100
AcDbEntity
  8
R-DOOR-DETL
 62
     3
100
AcDbLine
 10
12.994545
 20
16.411903
 30
0.0
 11
12.746545
 21
16.411903
 31
0.0
  0
LINE
  5
14E
100
AcDbEntity
  8
R-DOOR-DETL
 62
     3
100
AcDbLine
 10
12.994545
 20
16.471903
 30
0.0
 11
12.746545
 21
16.471903
 31
0.0
  0
ARC
  5
14F
100
AcDbEntity
  8
R-DOOR-DETL
  6
CONTINUOUS
 62
     3
100
AcDbCircle
 10
12.539681
 20
16.348806
 30
0.0
 40
0.094
100
AcDbArc
 50
180.0
 51
270.0
  0
HATCH
  5
150
100
AcDbEntity
  8
R-DOOR-DETL
 62
     3
100
AcDbHatch
 10
0.0
 20
0.0
 30
0.0
210
0.0
220
0.0
230
1.0
  2
ANSI31
 70
     0
 71
     0
 91
        1
 92
        7
 72
     0
 73
     1
 93
        4
 10
12.99454499752258
 20
16.54146225117292
 10
12.99454499752258
 20
16.41646225117292
 10
13.12054499752255
 20
16.41646225117292
 10
13.12054499752255
 20
16.54146225117292
 97
        0
 75
     0
 76
     1
 52
90.0
 41
0.2
 77
     0
 78
     1
 53
135.0
 43
-23.161652
 44
-14.339334
 45
-0.0176776695296637
 46
-0.0176776695296637
 79
     0
 47
0.003428
 98
        1
 10
13.05969
 20
16.485872
  0
LINE
  5
151
100
AcDbEntity
  8
R-DOOR-DETL
  6
CONTINUOUS
 62
     3
100
AcDbLine
 10
13.140409
 20
16.399806
 30
0.0
 11
13.037409
 21
16.399806
 31
0.0
  0
LINE
  5
152
100
AcDbEntity
  8
R-DOOR-DETL
 62
     3
100
AcDbLine
 10
13.120545
 20
16.541462
 30
0.0
 11
12.620545
 21
16.541462
 31
0.0
  0
LINE
  5
153
100
AcDbEntity
  8
R-DOOR-DETL
 62
     3
100
AcDbLine
 10
13.120545
 20
16.416462
 30
0.0
 11
12.620545
 21
16.416462
 31
0.0
  0
LINE
  5
154
100
AcDbEntity
  8
R-DOOR-DETL
 62
     3
100
AcDbLine
 10
12.480545
 20
16.146513
 30
0.0
 11
12.870545
 21
16.146513
 31
0.0
  0
LINE
  5
155
100
AcDbEntity
  8
R-DOOR-DETL
 62
     3
100
AcDbLine
 10
12.994545
 20
16.171903
 30
0.0
 11
12.746545
 21
16.171903
 31
0.0
  0
ARC
  5
156
100
AcDbEntity
  8
R-DOOR-DETL
 62
     3
100
AcDbCircle
 10
12.480545
 20
16.206513
 30
0.0
 40
0.06
100
AcDbArc
 50
180.0
 51
270.0
  0
ARC
  5
157
100
AcDbEntity
  8
R-DOOR-DETL
  6
CONTINUOUS
 62
     3
100
AcDbCircle
 10
13.201409
 20
16.348806
 30
0.0
 40
0.094
100
AcDbArc
 50
270.0
 51
360.0
  0
POLYLINE
  5
158
100
AcDbEntity
  8
0
  6
BYBLOCK
 62
     0
100
AcDb2dPolyline
 66
     1
 10
0.0
 20
0.0
 30
0.0
 70
     1
 40
0.09
 41
0.09
  0
VERTEX
  5
159
100
AcDbEntity
  8
0
  6
BYBLOCK
 62
     0
100
AcDbVertex
100
AcDb2dVertex
 10
13.597021
 20
16.467673
 30
0.0
 42
1.0
  0
VERTEX
  5
15A
100
AcDbEntity
  8
0
  6
BYBLOCK
 62
     0
100
AcDbVertex
100
AcDb2dVertex
 10
13.577395
 20
16.478678
 30
0.0
 42
1.0
  0
SEQEND
  5
15B
100
AcDbEntity
  8
0
  6
BYBLOCK
 62
     0
  0
ARC
  5
15C
100
AcDbEntity
  8
R-DOOR-DETL
 62
     3
100
AcDbCircle
 10
13.260545
 20
16.206513
 30
0.0
 40
0.06
100
AcDbArc
 50
270.0
 51
0.0
  0
LINE
  5
15D
100
AcDbEntity
  8
R-DOOR-DETL
  6
CONTINUOUS
 62
     3
100
AcDbLine
 10
13.120545
 20
16.951806
 30
0.0
 11
13.160545
 21
16.951806
 31
0.0
  0
ARC
  5
15E
100
AcDbEntity
  8
R-DOOR-DETL
  6
CONTINUOUS
 62
     3
100
AcDbCircle
 10
13.150702
 20
16.881648
 30
0.0
 40
0.009843
100
AcDbArc
 50
270.0
 51
360.0
  0
LINE
  5
15F
100
AcDbEntity
  8
R-DOOR-DETL
  6
CONTINUOUS
 62
     3
100
AcDbLine
 10
13.150702
 20
16.911806
 30
0.0
 11
13.150702
 21
16.871806
 31
0.0
  0
LINE
  5
160
100
AcDbEntity
  8
R-DOOR-DETL
  6
CONTINUOUS
 62
     3
100
AcDbLine
 10
12.590387
 20
16.911806
 30
0.0
 11
12.802681
 21
16.911806
 31
0.0
  0
LINE
  5
161
100
AcDbEntity
  8
R-DOOR-DETL
  6
CONTINUOUS
 62
     3
100
AcDbLine
 10
12.812681
 20
16.911806
 30
0.0
 11
12.590387
 21
16.911806
 31
0.0
  0
LINE
  5
162
100
AcDbEntity
  8
R-DOOR-DETL
  6
CONTINUOUS
 62
     3
100
AcDbLine
 10
12.620545
 20
16.951806
 30
0.0
 11
12.580545
 21
16.951806
 31
0.0
  0
LINE
  5
163
100
AcDbEntity
  8
R-DOOR-DETL
  6
CONTINUOUS
 62
     3
100
AcDbLine
 10
12.590387
 20
16.871806
 30
0.0
 11
12.802681
 21
16.871806
 31
0.0
  0
LINE
  5
164
100
AcDbEntity
  8
R-DOOR-DETL
  6
CONTINUOUS
 62
     3
100
AcDbLine
 10
12.590387
 20
16.871806
 30
0.0
 11
12.812681
 21
16.871806
 31
0.0
  0
ARC
  5
165
100
AcDbEntity
  8
R-DOOR-DETL
  6
CONTINUOUS
 62
     3
100
AcDbCircle
 10
12.938409
 20
16.861806
 30
0.0
 40
0.01
100
AcDbArc
 50
90.0
 51
180.0
  0
ARC
  5
166
100
AcDbEntity
  8
R-DOOR-DETL
  6
CONTINUOUS
 62
     3
100
AcDbCircle
 10
12.802681
 20
16.861806
 30
0.0
 40
0.01
100
AcDbArc
 50
0.0
 51
90.0
  0
LINE
  5
167
100
AcDbEntity
  8
R-DOOR-DETL
  6
CONTINUOUS
 62
     3
100
AcDbLine
 10
12.590387
 20
16.911806
 30
0.0
 11
12.590387
 21
16.871806
 31
0.0
  0
LINE
  5
168
100
AcDbEntity
  8
R-DOOR-DETL
  6
CONTINUOUS
 62
     3
100
AcDbLine
 10
12.928409
 20
16.871806
 30
0.0
 11
12.928409
 21
16.911806
 31
0.0
  0
LINE
  5
169
100
AcDbEntity
  8
R-DOOR-DETL
  6
CONTINUOUS
 62
     3
100
AcDbLine
 10
12.812681
 20
16.871806
 30
0.0
 11
12.812681
 21
16.911806
 31
0.0
  0
ARC
  5
16A
100
AcDbEntity
  8
R-DOOR-DETL
  6
CONTINUOUS
 62
     3
100
AcDbCircle
 10
12.590387
 20
16.881648
 30
0.0
 40
0.009843
100
AcDbArc
 50
180.0
 51
270.0
  0
LINE
  5
16B
100
AcDbEntity
  8
R-DOOR-DETL
  6
CONTINUOUS
 62
     3
100
AcDbLine
 10
13.150702
 20
16.871806
 30
0.0
 11
12.928409
 21
16.871806
 31
0.0
  0
LINE
  5
16C
100
AcDbEntity
  8
R-DOOR-DETL
  6
CONTINUOUS
 62
     3
100
AcDbLine
 10
13.150702
 20
16.871806
 30
0.0
 11
12.938409
 21
16.871806
 31
0.0
  0
LINE
  5
16D
100
AcDbEntity
  8
R-DOOR-DETL
  6
CONTINUOUS
 62
     3
100
AcDbLine
 10
12.928409
 20
16.911806
 30
0.0
 11
13.150702
 21
16.911806
 31
0.0
  0
LINE
  5
16E
100
AcDbEntity
  8
R-DOOR-DETL
  6
CONTINUOUS
 62
     3
100
AcDbLine
 10
13.150702
 20
16.911806
 30
0.0
 11
12.938409
 21
16.911806
 31
0.0
  0
LINE
  5
16F
100
AcDbEntity
  8
R-DOOR-DETL
  6
CONTINUOUS
100
AcDbLine
 10
12.590387
 20
16.911806
 30
0.0
 11
13.150702
 21
16.911806
 31
0.0
  0
ARC
  5
170
100
AcDbEntity
  8
R-DOOR-DETL
  6
CONTINUOUS
 62
     3
100
AcDbCircle
 10
13.545072
 20
17.157448
 30
0.0
 40
0.03
100
AcDbArc
 50
329.0
 51
59.0
  0
POINT
  5
171
100
AcDbEntity
  8
R-DOOR-DETL
  6
BYBLOCK
 62
     3
100
AcDbPoint
 10
13.570787
 20
17.141997
 30
0.0
  0
POINT
  5
172
100
AcDbEntity
  8
R-DOOR-DETL
  6
BYBLOCK
 62
     3
100
AcDbPoint
 10
13.570787
 20
17.141997
 30
0.0
  0
POINT
  5
173
100
AcDbEntity
  8
R-DOOR-DETL
  6
BYBLOCK
 62
     3
100
AcDbPoint
 10
13.560523
 20
17.183163
 30
0.0
  0
ARC
  5
174
100
AcDbEntity
  8
R-DOOR-DETL
  6
CONTINUOUS
 62
     3
100
AcDbCircle
 10
13.545072
 20
17.157448
 30
0.0
 40
0.03
100
AcDbArc
 50
329.0
 51
59.0
  0
LINE
  5
175
100
AcDbEntity
  8
R-DOOR-DETL
  6
CONTINUOUS
 62
     3
100
AcDbLine
 10
13.560523
 20
17.183163
 30
0.0
 11
13.389643
 21
17.285838
 31
0.0
  0
ARC
  5
176
100
AcDbEntity
  8
R-DOOR-DETL
  6
CONTINUOUS
 62
     3
100
AcDbCircle
 10
12.196018
 20
17.157448
 30
0.0
 40
0.03
100
AcDbArc
 50
121.0
 51
211.0
  0
ARC
  5
177
100
AcDbEntity
  8
R-DOOR-DETL
  6
CONTINUOUS
 62
     3
100
AcDbCircle
 10
12.196018
 20
17.157448
 30
0.0
 40
0.03
100
AcDbArc
 50
121.0
 51
211.0
  0
POINT
  5
178
100
AcDbEntity
  8
R-DOOR-DETL
  6
BYBLOCK
 62
     3
100
AcDbPoint
 10
12.180567
 20
17.183163
 30
0.0
  0
POINT
  5
179
100
AcDbEntity
  8
CLAMP
  6
BYBLOCK
100
AcDbPoint
 10
12.170303
 20
17.141997
 30
0.0
  0
POINT
  5
17A
100
AcDbEntity
  8
CLAMP
  6
BYBLOCK
100
AcDbPoint
 10
12.170303
 20
17.141997
 30
0.0
  0
LINE
  5
17B
100
AcDbEntity
  8
R-DOOR-DETL
  6
CONTINUOUS
 62
     3
100
AcDbLine
 10
12.180567
 20
17.183163
 30
0.0
 11
12.351447
 21
17.285838
 31
0.0
  0
ARC
  5
17C
100
AcDbEntity
  8
R-DOOR-DETL
  6
CONTINUOUS
 62
     3
100
AcDbCircle
 10
13.060409
 20
16.636806
 30
0.0
 40
0.09
100
AcDbArc
 50
360.0
 51
90.0
  0
ARC
  5
17D
100
AcDbEntity
  8
R-DOOR-DETL
  6
CONTINUOUS
 62
     3
100
AcDbCircle
 10
12.680681
 20
16.636806
 30
0.0
 40
0.09
100
AcDbArc
 50
90.0
 51
180.0
  0
ARC
  5
17E
100
AcDbEntity
  8
R-DOOR-DETL
  6
CONTINUOUS
 62
     3
100
AcDbCircle
 10
12.938409
 20
16.736806
 30
0.0
 40
0.01
100
AcDbArc
 50
180.0
 51
270.0
  0
ARC
  5
17F
100
AcDbEntity
  8
R-DOOR-DETL
  6
CONTINUOUS
 62
     3
100
AcDbCircle
 10
12.802681
 20
16.736806
 30
0.0
 40
0.01
100
AcDbArc
 50
270.0
 51
0.0
  0
ARC
  5
180
100
AcDbEntity
  8
R-DOOR-DETL
 62
     3
100
AcDbCircle
 10
12.776545
 20
16.597349
 30
0.0
 40
0.03
100
AcDbArc
 50
90.0
 51
180.0
  0
LINE
  5
181
100
AcDbEntity
  8
R-DOOR-DETL
 62
     3
100
AcDbLine
 10
12.964545
 20
16.627349
 30
0.0
 11
12.776545
 21
16.627349
 31
0.0
  0
LINE
  5
182
100
AcDbEntity
  8
R-DOOR-DETL
  6
CONTINUOUS
 62
     3
100
AcDbLine
 10
12.802681
 20
16.726806
 30
0.0
 11
12.680681
 21
16.726806
 31
0.0
  0
ARC
  5
183
100
AcDbEntity
  8
R-DOOR-DETL
 62
     3
100
AcDbCircle
 10
12.964545
 20
16.597349
 30
0.0
 40
0.03
100
AcDbArc
 50
0.0
 51
90.0
  0
LINE
  5
184
100
AcDbEntity
  8
R-DOOR-DETL
  6
CONTINUOUS
 62
     3
100
AcDbLine
 10
12.938409
 20
16.726806
 30
0.0
 11
13.060409
 21
16.726806
 31
0.0
  0
ARC
  5
185
100
AcDbEntity
  8
R-DOOR-DETL
 62
     3
100
AcDbCircle
 10
12.390545
 20
16.700449
 30
0.0
 40
0.03
100
AcDbArc
 50
0.0
 51
30.0
  0
ARC
  5
186
100
AcDbEntity
  8
CLAMP
  6
CONTINUOUS
100
AcDbCircle
 10
12.430681
 20
16.679532
 30
0.0
 40
0.015
100
AcDbArc
 50
0.0
 51
31.0
  0
ARC
  5
187
100
AcDbEntity
  8
R-DOOR-DETL
  6
CONTINUOUS
 62
     3
100
AcDbCircle
 10
13.310409
 20
16.679532
 30
0.0
 40
0.015
100
AcDbArc
 50
149.0
 51
180.0
  0
ARC
  5
188
100
AcDbEntity
  8
R-DOOR-DETL
 62
     3
100
AcDbCircle
 10
13.350545
 20
16.700449
 30
0.0
 40
0.03
100
AcDbArc
 50
150.0
 51
180.0
  0
LINE
  5
189
100
AcDbEntity
  8
R-DOOR-DETL
  6
CONTINUOUS
 62
     3
100
AcDbLine
 10
12.928409
 20
16.861806
 30
0.0
 11
12.928409
 21
16.736806
 31
0.0
  0
LINE
  5
18A
100
AcDbEntity
  8
R-DOOR-DETL
  6
CONTINUOUS
 62
     3
100
AcDbLine
 10
12.812681
 20
16.861806
 30
0.0
 11
12.812681
 21
16.736806
 31
0.0
  0
LINE
  5
18B
100
AcDbEntity
  8
R-DOOR-DETL
 62
     3
100
AcDbLine
 10
12.123046
 20
17.22377
 30
0.0
 11
12.416526
 21
16.715449
 31
0.0
  0
LINE
  5
18C
100
AcDbEntity
  8
CLAMP
  6
CONTINUOUS
100
AcDbLine
 10
12.443538
 20
16.687257
 30
0.0
 11
12.170303
 21
17.141997
 31
0.0
  0
LINE
  5
18D
100
AcDbEntity
  8
R-DOOR-DETL
  6
CONTINUOUS
 62
     3
100
AcDbLine
 10
13.297552
 20
16.687257
 30
0.0
 11
13.570787
 21
17.141997
 31
0.0
  0
LINE
  5
18E
100
AcDbEntity
  8
R-DOOR-DETL
 62
     3
100
AcDbLine
 10
13.324564
 20
16.715449
 30
0.0
 11
13.618044
 21
17.22377
 31
0.0
  0
POLYLINE
  5
18F
100
AcDbEntity
  8
0
  6
BYBLOCK
 62
     0
100
AcDb2dPolyline
 66
     1
 10
0.0
 20
0.0
 30
0.0
 70
     1
 40
0.09
 41
0.09
  0
VERTEX
  5
190
100
AcDbEntity
  8
0
  6
BYBLOCK
 62
     0
100
AcDbVertex
100
AcDb2dVertex
 10
13.326813
 20
17.865749
 30
0.0
 42
1.0
  0
VERTEX
  5
191
100
AcDbEntity
  8
0
  6
BYBLOCK
 62
     0
100
AcDbVertex
100
AcDb2dVertex
 10
13.307187
 20
17.876754
 30
0.0
 42
1.0
  0
SEQEND
  5
192
100
AcDbEntity
  8
0
  6
BYBLOCK
 62
     0
  0
POLYLINE
  5
193
100
AcDbEntity
  8
0
  6
BYBLOCK
 62
     0
100
AcDb2dPolyline
 66
     1
 10
0.0
 20
0.0
 30
0.0
 70
     1
 40
0.09
 41
0.09
  0
VERTEX
  5
194
100
AcDbEntity
  8
0
  6
BYBLOCK
 62
     0
100
AcDbVertex
100
AcDb2dVertex
 10
13.888335
 20
18.931594
 30
0.0
 42
1.0
  0
VERTEX
  5
195
100
AcDbEntity
  8
0
  6
BYBLOCK
 62
     0
100
AcDbVertex
100
AcDb2dVertex
 10
13.868709
 20
18.942599
 30
0.0
 42
1.0
  0
SEQEND
  5
196
100
AcDbEntity
  8
0
  6
BYBLOCK
 62
     0
  0
LINE
  5
197
100
AcDbEntity
  8
R-DOOR-DETL
 62
     3
100
AcDbLine
 10
13.568618
 20
19.071802
 30
0.0
 11
13.645538
 21
19.071802
 31
0.0
  0
LINE
  5
198
100
AcDbEntity
  8
R-DOOR-DETL
 62
     3
100
AcDbLine
 10
13.621538
 20
18.946802
 30
0.0
 11
13.568618
 21
18.946802
 31
0.0
  0
ARC
  5
199
100
AcDbEntity
  8
R-DOOR-DETL
 62
     3
100
AcDbCircle
 10
13.621538
 20
18.916802
 30
0.0
 40
0.03
100
AcDbArc
 50
0.0
 51
90.0
  0
ARC
  5
19A
100
AcDbEntity
  8
R-DOOR-DETL
 62
     3
100
AcDbCircle
 10
13.645538
 20
18.915802
 30
0.0
 40
0.156
100
AcDbArc
 50
360.0
 51
90.0
  0
LINE
  5
19B
100
AcDbEntity
  8
R-DOOR-DETL
  6
BYBLOCK
 62
     3
100
AcDbLine
 10
13.538618
 20
18.976802
 30
0.0
 11
13.538618
 21
19.041802
 31
0.0
  0
LINE
  5
19C
100
AcDbEntity
  8
R-DOOR-DETL
  6
BYBLOCK
 62
     3
100
AcDbLine
 10
13.300545
 20
18.914329
 30
0.0
 11
13.160545
 21
18.914329
 31
0.0
  0
ARC
  5
19D
100
AcDbEntity
  8
R-DOOR-DETL
  6
BYBLOCK
 62
     3
100
AcDbCircle
 10
13.568618
 20
18.976802
 30
0.0
 40
0.03
100
AcDbArc
 50
180.0
 51
270.0
  0
ARC
  5
19E
100
AcDbEntity
  8
R-DOOR-DETL
  6
BYBLOCK
 62
     3
100
AcDbCircle
 10
13.568618
 20
19.041802
 30
0.0
 40
0.03
100
AcDbArc
 50
90.0
 51
180.0
  0
LINE
  5
19F
100
AcDbEntity
  8
R-DOOR-DETL
  6
BYBLOCK
 62
     3
100
AcDbLine
 10
12.440545
 20
18.914329
 30
0.0
 11
12.580545
 21
18.914329
 31
0.0
  0
LINE
  5
1A0
100
AcDbEntity
  8
R-DOOR-DETL
  6
BYBLOCK
 62
     3
100
AcDbLine
 10
12.202472
 20
19.041802
 30
0.0
 11
12.202472
 21
18.976802
 31
0.0
  0
ARC
  5
1A1
100
AcDbEntity
  8
R-DOOR-DETL
  6
BYBLOCK
 62
     3
100
AcDbCircle
 10
12.095552
 20
18.915802
 30
0.0
 40
0.156
100
AcDbArc
 50
90.0
 51
180.0
  0
ARC
  5
1A2
100
AcDbEntity
  8
R-DOOR-DETL
  6
BYBLOCK
 62
     3
100
AcDbCircle
 10
12.172472
 20
18.976802
 30
0.0
 40
0.03
100
AcDbArc
 50
270.0
 51
0.0
  0
ARC
  5
1A3
100
AcDbEntity
  8
R-DOOR-DETL
  6
BYBLOCK
 62
     3
100
AcDbCircle
 10
12.119552
 20
18.916802
 30
0.0
 40
0.03
100
AcDbArc
 50
90.0
 51
180.0
  0
LINE
  5
1A4
100
AcDbEntity
  8
R-DOOR-DETL
  6
BYBLOCK
 62
     3
100
AcDbLine
 10
12.172472
 20
18.946802
 30
0.0
 11
12.119552
 21
18.946802
 31
0.0
  0
ARC
  5
1A5
100
AcDbEntity
  8
R-DOOR-DETL
  6
BYBLOCK
 62
     3
100
AcDbCircle
 10
12.172472
 20
19.041802
 30
0.0
 40
0.03
100
AcDbArc
 50
0.0
 51
90.0
  0
LINE
  5
1A6
100
AcDbEntity
  8
R-DOOR-DETL
  6
BYBLOCK
 62
     3
100
AcDbLine
 10
12.095552
 20
19.071802
 30
0.0
 11
12.172472
 21
19.071802
 31
0.0
  0
LINE
  5
1A7
100
AcDbEntity
  8
R-DOOR-DETL
  6
BYBLOCK
 62
     3
100
AcDbLine
 10
12.580545
 20
18.826806
 30
0.0
 11
12.620545
 21
18.826806
 31
0.0
  0
ARC
  5
1A8
100
AcDbEntity
  8
R-DOOR-DETL
  6
BYBLOCK
 62
     3
100
AcDbCircle
 10
12.590387
 20
18.866806
 30
0.0
 40
0.009843
100
AcDbArc
 50
109.471221
 51
180.0
  0
LINE
  5
1A9
100
AcDbEntity
  8
R-DOOR-DETL
  6
BYBLOCK
 62
     3
100
AcDbLine
 10
13.160545
 20
18.826806
 30
0.0
 11
13.120545
 21
18.826806
 31
0.0
  0
ARC
  5
1AA
100
AcDbEntity
  8
R-DOOR-DETL
  6
BYBLOCK
 62
     3
100
AcDbCircle
 10
13.150702
 20
18.866806
 30
0.0
 40
0.009843
100
AcDbArc
 50
0.0
 51
70.528779
  0
ARC
  5
1AB
100
AcDbEntity
  8
R-DOOR-DETL
  6
BYBLOCK
 62
     3
100
AcDbCircle
 10
12.440545
 20
18.854329
 30
0.0
 40
0.06
100
AcDbArc
 50
90.0
 51
180.0
  0
ARC
  5
1AC
100
AcDbEntity
  8
R-DOOR-DETL
  6
BYBLOCK
 62
     3
100
AcDbCircle
 10
12.580545
 20
18.894644
 30
0.0
 40
0.019685
100
AcDbArc
 50
289.471221
 51
90.0
  0
ARC
  5
1AD
100
AcDbEntity
  8
R-DOOR-DETL
  6
BYBLOCK
 62
     3
100
AcDbCircle
 10
13.300545
 20
18.854329
 30
0.0
 40
0.06
100
AcDbArc
 50
0.0
 51
90.0
  0
ARC
  5
1AE
100
AcDbEntity
  8
R-DOOR-DETL
  6
BYBLOCK
 62
     3
100
AcDbCircle
 10
13.160545
 20
18.894644
 30
0.0
 40
0.019685
100
AcDbArc
 50
90.0
 51
250.528779
  0
LINE
  5
1AF
100
AcDbEntity
  8
R-DOOR-DETL
100
AcDbLine
 10
12.722306
 20
19.896088
 30
0.0
 11
12.626759
 21
19.926191
 31
0.0
  0
LINE
  5
1B0
100
AcDbEntity
  8
R-DOOR-DETL
100
AcDbLine
 10
12.784806
 20
19.989838
 30
0.0
 11
12.722306
 21
19.896088
 31
0.0
  0
LINE
  5
1B1
100
AcDbEntity
  8
R-DOOR-DETL
100
AcDbLine
 10
12.909806
 20
19.896088
 30
0.0
 11
12.784806
 21
19.989838
 31
0.0
  0
LINE
  5
1B2
100
AcDbEntity
  8
R-DOOR-DETL
100
AcDbLine
 10
13.034806
 20
19.989838
 30
0.0
 11
12.909806
 21
19.896088
 31
0.0
  0
LINE
  5
1B3
100
AcDbEntity
  8
R-DOOR-DETL
100
AcDbLine
 10
12.722306
 20
19.896088
 30
0.0
 11
12.620545
 21
19.928149
 31
0.0
  0
LINE
  5
1B4
100
AcDbEntity
  8
R-DOOR-DETL
100
AcDbLine
 10
13.034806
 20
19.989838
 30
0.0
 11
12.909806
 21
19.896088
 31
0.0
  0
LINE
  5
1B5
100
AcDbEntity
  8
R-DOOR-DETL
100
AcDbLine
 10
12.784806
 20
19.989838
 30
0.0
 11
12.722306
 21
19.896088
 31
0.0
  0
LINE
  5
1B6
100
AcDbEntity
  8
R-DOOR-DETL
100
AcDbLine
 10
12.909806
 20
19.896088
 30
0.0
 11
12.784806
 21
19.989838
 31
0.0
  0
LINE
  5
1B7
100
AcDbEntity
  8
R-DOOR-DETL
100
AcDbLine
 10
13.112185
 20
19.9346
 30
0.0
 11
13.034806
 21
19.989838
 31
0.0
  0
LINE
  5
1B8
100
AcDbEntity
  8
R-DOOR-DETL
100
AcDbLine
 10
13.120545
 20
19.928633
 30
0.0
 11
13.034806
 21
19.989838
 31
0.0
  0
LINE
  5
1B9
100
AcDbEntity
  8
R-DOOR-DETL
100
AcDbLine
 10
12.704892
 20
21.142509
 30
0.0
 11
12.829892
 21
21.236259
 31
0.0
  0
LINE
  5
1BA
100
AcDbEntity
  8
R-DOOR-DETL
100
AcDbLine
 10
12.829892
 20
21.236259
 30
0.0
 11
12.954892
 21
21.142509
 31
0.0
  0
LINE
  5
1BB
100
AcDbEntity
  8
R-DOOR-DETL
100
AcDbLine
 10
12.954892
 20
21.142509
 30
0.0
 11
13.017392
 21
21.236259
 31
0.0
  0
LINE
  5
1BC
100
AcDbEntity
  8
R-DOOR-DETL
100
AcDbLine
 10
13.017392
 20
21.236259
 30
0.0
 11
13.112939
 21
21.206156
 31
0.0
  0
LINE
  5
1BD
100
AcDbEntity
  8
R-DOOR-DETL
100
AcDbLine
 10
12.62094
 20
21.202438
 30
0.0
 11
12.704892
 21
21.142509
 31
0.0
  0
LINE
  5
1BE
100
AcDbEntity
  8
R-DOOR-DETL
100
AcDbLine
 10
13.548241
 20
24.976965
 30
0.0
 11
13.548241
 21
24.426965
 31
0.0
  0
LINE
  5
1BF
100
AcDbEntity
  8
R-DOOR-DETL
100
AcDbLine
 10
12.183241
 20
24.976965
 30
0.0
 11
12.183241
 21
24.426965
 31
0.0
  0
LINE
  5
1C0
100
AcDbEntity
  8
R-DOOR-DETL
100
AcDbLine
 10
12.484561
 20
24.625567
 30
0.0
 11
12.590275
 21
24.442465
 31
0.0
  0
LINE
  5
1C1
100
AcDbEntity
  8
R-DOOR-DETL
100
AcDbLine
 10
12.084749
 20
24.456965
 30
0.0
 11
12.084749
 21
24.698169
 31
0.0
  0
LINE
  5
1C2
100
AcDbEntity
  8
R-DOOR-DETL
100
AcDbLine
 10
12.089749
 20
24.688169
 30
0.0
 11
12.089749
 21
24.457965
 31
0.0
  0
LINE
  5
1C3
100
AcDbEntity
  8
R-DOOR-DETL
100
AcDbLine
 10
12.291207
 20
24.442465
 30
0.0
 11
12.396921
 21
24.625567
 31
0.0
  0
LINE
  5
1C4
100
AcDbEntity
  8
R-DOOR-DETL
100
AcDbLine
 10
13.334561
 20
24.625567
 30
0.0
 11
13.440275
 21
24.442465
 31
0.0
  0
LINE
  5
1C5
100
AcDbEntity
  8
R-DOOR-DETL
100
AcDbLine
 10
13.141207
 20
24.442465
 30
0.0
 11
13.246921
 21
24.625567
 31
0.0
  0
LINE
  5
1C6
100
AcDbEntity
  8
R-DOOR-DETL
100
AcDbLine
 10
13.646734
 20
24.698169
 30
0.0
 11
13.646734
 21
24.456965
 31
0.0
  0
LINE
  5
1C7
100
AcDbEntity
  8
R-DOOR-DETL
100
AcDbLine
 10
13.641734
 20
24.457965
 30
0.0
 11
13.641734
 21
24.688169
 31
0.0
  0
LINE
  5
1C8
100
AcDbEntity
  8
R-DOOR-DETL
  6
CONTINUOUS
 62
     2
100
AcDbLine
 10
13.806734
 20
26.006965
 30
0.0
 11
13.806734
 21
22.132973
 31
0.0
  0
LINE
  5
1C9
100
AcDbEntity
  8
R-DOOR-DETL
  6
CONTINUOUS
 62
     2
100
AcDbLine
 10
13.856734
 20
22.132973
 30
0.0
 11
13.856734
 21
26.006965
 31
0.0
  0
LINE
  5
1CA
100
AcDbEntity
  8
R-DOOR-DETL
100
AcDbLine
 10
13.796734
 20
22.132973
 30
0.0
 11
13.796734
 21
25.991965
 31
0.0
  0
LINE
  5
1CB
100
AcDbEntity
  8
10INCHRAIL
100
AcDbLine
 10
11.934749
 20
22.132973
 30
0.0
 11
11.934749
 21
25.991965
 31
0.0
  0
DIMENSION
  5
1CC
100
AcDbEntity
  8
DIMN
 62
     7
100
AcDbDimension
  2
*D8
 10
6.295932
 20
23.007071
 30
0.0
 11
6.295932
 21
24.632018
 31
0.0
 12
-148.948256
 22
-2.442171
 32
0.0
  1
<>\P[83mm]
  3
STANDARD
100
AcDbAlignedDimension
 13
9.865741
 23
26.256965
 33
0.0
 14
12.576019
 24
23.007071
 34
0.0
 50
90.0
100
AcDbRotatedDimension
1001
ACAD
1000
DSTYLE
1002
{
1070
   270
1070
     7
1070
    40
1040
2.0
1002
}
  0
TEXT
  5
1CD
100
AcDbEntity
  8
0
100
AcDbText
 10
9.291097
 20
23.317656
 30
0.0
 40
0.36
  1
SHOE
  7
ROMANS
100
AcDbText
  0
LINE
  5
1CE
100
AcDbEntity
  8
0
100
AcDbLine
 10
12.826019
 20
23.007071
 30
0.0
 11
12.826019
 21
23.057071
 31
0.0
  0
LINE
  5
1CF
100
AcDbEntity
  8
0
100
AcDbLine
 10
12.576019
 20
23.057071
 30
0.0
 11
12.576019
 21
23.007071
 31
0.0
  0
LINE
  5
1D0
100
AcDbEntity
  8
0
100
AcDbLine
 10
12.903096
 20
23.007071
 30
0.0
 11
12.903096
 21
23.057071
 31
0.0
  0
LINE
  5
1D1
100
AcDbEntity
  8
0
100
AcDbLine
 10
13.153096
 20
23.057071
 30
0.0
 11
13.153096
 21
23.007071
 31
0.0
  0
LINE
  5
1D2
100
AcDbEntity
  8
0
100
AcDbLine
 10
13.162939
 20
22.19536
 30
0.0
 11
13.162939
 21
23.047228
 31
0.0
  0
LINE
  5
1D3
100
AcDbEntity
  8
0
100
AcDbLine
 10
12.57094
 20
22.19536
 30
0.0
 11
12.57094
 21
23.047228
 31
0.0
  0
LINE
  5
1D4
100
AcDbEntity
  8
0
100
AcDbLine
 10
12.448791
 20
23.249703
 30
0.0
 11
12.170698
 21
22.786879
 31
0.0
  0
LINE
  5
1D5
100
AcDbEntity
  8
R-DOOR-DETL
100
AcDbLine
 10
12.118242
 20
22.690005
 30
0.0
 11
12.411722
 21
23.198326
 31
0.0
  0
LINE
  5
1D6
100
AcDbEntity
  8
R-DOOR-DETL
100
AcDbLine
 10
13.31976
 20
23.198326
 30
0.0
 11
13.61324
 21
22.690005
 31
0.0
  0
LINE
  5
1D7
100
AcDbEntity
  8
0
100
AcDbLine
 10
13.285088
 20
23.249703
 30
0.0
 11
13.563181
 21
22.786879
 31
0.0
  0
LWPOLYLINE
  5
1D8
100
AcDbEntity
  8
R-DOOR-ANNO
  6
CONTINUOUS
100
AcDbPolyline
 90
        3
 70
     0
 43
0.0
 10
13.157382
 20
23.149427
 10
14.645533
 20
22.41646
 10
14.825533
 20
22.41646
1001
ACAD
1000
DSTYLE
1002
{
1070
   173
1070
     1
1070
     6
1000
_DOTSMALL
1002
}
  0
ARC
  5
1D9
100
AcDbEntity
  8
R-DOOR-DETL
  6
CONTINUOUS
 62
     2
100
AcDbCircle
 10
13.650734
 20
22.132973
 30
0.0
 40
0.206
100
AcDbArc
 50
270.0
 51
0.0
  0
LINE
  5
1DA
100
AcDbEntity
  8
0
100
AcDbLine
 10
13.112939
 20
22.19536
 30
0.0
 11
13.112939
 21
22.94536
 31
0.0
  0
LINE
  5
1DB
100
AcDbEntity
  8
0
100
AcDbLine
 10
13.162939
 20
22.94536
 30
0.0
 11
13.162939
 21
22.19536
 31
0.0
  0
LINE
  5
1DC
100
AcDbEntity
  8
0
100
AcDbLine
 10
12.62094
 20
22.19536
 30
0.0
 11
12.62094
 21
22.94536
 31
0.0
  0
LINE
  5
1DD
100
AcDbEntity
  8
0
100
AcDbLine
 10
12.57094
 20
22.94536
 30
0.0
 11
12.57094
 21
22.19536
 31
0.0
  0
LINE
  5
1DE
100
AcDbEntity
  8
0
100
AcDbLine
 10
13.331248
 20
22.676743
 30
0.0
 11
13.308857
 21
22.186013
 31
0.0
  0
LINE
  5
1DF
100
AcDbEntity
  8
0
100
AcDbLine
 10
12.402631
 20
22.676743
 30
0.0
 11
12.425022
 21
22.186013
 31
0.0
  0
LINE
  5
1E0
100
AcDbEntity
  8
R-DOOR-DETL
100
AcDbLine
 10
12.084749
 20
22.146641
 30
0.0
 11
12.084749
 21
22.565005
 31
0.0
  0
LINE
  5
1E1
100
AcDbEntity
  8
R-DOOR-DETL
100
AcDbLine
 10
13.646734
 20
22.565005
 30
0.0
 11
13.646734
 21
22.146641
 31
0.0
  0
ARC
  5
1E2
100
AcDbEntity
  8
R-DOOR-DETL
  6
CONTINUOUS
 62
     2
100
AcDbCircle
 10
13.650734
 20
22.132973
 30
0.0
 40
0.156
100
AcDbArc
 50
270.0
 51
0.0
  0
ARC
  5
1E3
100
AcDbEntity
  8
R-DOOR-DETL
100
AcDbCircle
 10
13.640734
 20
22.132973
 30
0.0
 40
0.156
100
AcDbArc
 50
270.0
 51
360.0
  0
LINE
  5
1E4
100
AcDbEntity
  8
R-DOOR-DETL
  6
CONTINUOUS
 62
     2
100
AcDbLine
 10
13.158814
 20
21.976973
 30
0.0
 11
13.158814
 21
21.926973
 31
0.0
  0
LINE
  5
1E5
100
AcDbEntity
  8
R-DOOR-DETL
  6
CONTINUOUS
 62
     2
100
AcDbLine
 10
13.158814
 20
21.926973
 30
0.0
 11
13.650734
 21
21.926973
 31
0.0
  0
LINE
  5
1E6
100
AcDbEntity
  8
R-DOOR-DETL
100
AcDbLine
 10
12.572669
 20
21.986973
 30
0.0
 11
12.572669
 21
22.056186
 31
0.0
  0
ARC
  5
1E7
100
AcDbEntity
  8
R-DOOR-DETL
100
AcDbCircle
 10
12.562669
 20
21.986973
 30
0.0
 40
0.01
100
AcDbArc
 50
270.0
 51
360.0
  0
LINE
  5
1E8
100
AcDbEntity
  8
0
100
AcDbLine
 10
12.57094
 20
22.19536
 30
0.0
 11
12.62094
 21
22.19536
 31
0.0
  0
ARC
  5
1E9
100
AcDbEntity
  8
0
100
AcDbCircle
 10
12.57094
 20
22.167522
 30
0.0
 40
0.019685
100
AcDbArc
 50
270.0
 51
70.528779
  0
LINE
  5
1EA
100
AcDbEntity
  8
0
100
AcDbLine
 10
12.464981
 20
22.147837
 30
0.0
 11
12.57094
 21
22.147837
 31
0.0
  0
ARC
  5
1EB
100
AcDbEntity
  8
0
100
AcDbCircle
 10
12.580783
 20
22.19536
 30
0.0
 40
0.009843
100
AcDbArc
 50
180.0
 51
250.528779
  0
ARC
  5
1EC
100
AcDbEntity
  8
0
100
AcDbCircle
 10
12.464981
 20
22.187837
 30
0.0
 40
0.04
100
AcDbArc
 50
182.612502
 51
270.0
  0
ARC
  5
1ED
100
AcDbEntity
  8
R-DOOR-DETL
100
AcDbCircle
 10
12.562826
 20
22.056186
 30
0.0
 40
0.009843
100
AcDbArc
 50
0.0
 51
90.0
  0
ARC
  5
1EE
100
AcDbEntity
  8
R-DOOR-DETL
100
AcDbCircle
 10
12.401786
 20
22.096028
 30
0.0
 40
0.03
100
AcDbArc
 50
260.0
 51
270.0
  0
LINE
  5
1EF
100
AcDbEntity
  8
R-DOOR-DETL
100
AcDbLine
 10
12.562826
 20
22.066028
 30
0.0
 11
12.401786
 21
22.066028
 31
0.0
  0
LINE
  5
1F0
100
AcDbEntity
  8
R-DOOR-DETL
100
AcDbLine
 10
13.158814
 20
22.056186
 30
0.0
 11
13.158814
 21
21.986973
 31
0.0
  0
LINE
  5
1F1
100
AcDbEntity
  8
R-DOOR-DETL
  6
CONTINUOUS
 62
     2
100
AcDbLine
 10
13.650734
 20
21.976973
 30
0.0
 11
13.158814
 21
21.976973
 31
0.0
  0
LINE
  5
1F2
100
AcDbEntity
  8
R-DOOR-DETL
100
AcDbLine
 10
13.168814
 20
21.976973
 30
0.0
 11
13.640734
 21
21.976973
 31
0.0
  0
ARC
  5
1F3
100
AcDbEntity
  8
R-DOOR-DETL
100
AcDbCircle
 10
13.168814
 20
21.986973
 30
0.0
 40
0.01
100
AcDbArc
 50
180.0
 51
270.0
  0
LINE
  5
1F4
100
AcDbEntity
  8
0
100
AcDbLine
 10
13.162939
 20
22.19536
 30
0.0
 11
13.112939
 21
22.19536
 31
0.0
  0
LINE
  5
1F5
100
AcDbEntity
  8
0
100
AcDbLine
 10
13.268898
 20
22.147837
 30
0.0
 11
13.162939
 21
22.147837
 31
0.0
  0
ARC
  5
1F6
100
AcDbEntity
  8
0
100
AcDbCircle
 10
13.162939
 20
22.167522
 30
0.0
 40
0.019685
100
AcDbArc
 50
109.471221
 51
270.0
  0
ARC
  5
1F7
100
AcDbEntity
  8
0
100
AcDbCircle
 10
13.268898
 20
22.187837
 30
0.0
 40
0.04
100
AcDbArc
 50
270.0
 51
357.387498
  0
ARC
  5
1F8
100
AcDbEntity
  8
0
100
AcDbCircle
 10
13.153096
 20
22.19536
 30
0.0
 40
0.009843
100
AcDbArc
 50
289.471221
 51
0.0
  0
LINE
  5
1F9
100
AcDbEntity
  8
R-DOOR-DETL
100
AcDbLine
 10
13.621943
 20
22.117097
 30
0.0
 11
13.334905
 21
22.066484
 31
0.0
  0
ARC
  5
1FA
100
AcDbEntity
  8
R-DOOR-DETL
100
AcDbCircle
 10
13.168656
 20
22.056186
 30
0.0
 40
0.009843
100
AcDbArc
 50
90.0
 51
180.0
  0
LINE
  5
1FB
100
AcDbEntity
  8
R-DOOR-DETL
100
AcDbLine
 10
13.329696
 20
22.066028
 30
0.0
 11
13.168656
 21
22.066028
 31
0.0
  0
ARC
  5
1FC
100
AcDbEntity
  8
R-DOOR-DETL
100
AcDbCircle
 10
13.329696
 20
22.096028
 30
0.0
 40
0.03
100
AcDbArc
 50
270.0
 51
280.0
  0
ARC
  5
1FD
100
AcDbEntity
  8
R-DOOR-DETL
100
AcDbCircle
 10
13.616734
 20
22.146641
 30
0.0
 40
0.03
100
AcDbArc
 50
280.0
 51
360.0
  0
ARC
  5
1FE
100
AcDbEntity
  8
R-DOOR-DETL
100
AcDbCircle
 10
12.090749
 20
22.132973
 30
0.0
 40
0.156
100
AcDbArc
 50
180.0
 51
270.0
  0
ARC
  5
1FF
100
AcDbEntity
  8
R-DOOR-DETL
100
AcDbCircle
 10
12.114749
 20
22.146641
 30
0.0
 40
0.03
100
AcDbArc
 50
180.0
 51
260.0
  0
LINE
  5
200
100
AcDbEntity
  8
R-DOOR-DETL
100
AcDbLine
 10
12.396577
 20
22.066484
 30
0.0
 11
12.109539
 21
22.117097
 31
0.0
  0
LINE
  5
201
100
AcDbEntity
  8
R-DOOR-DETL
100
AcDbLine
 10
12.090749
 20
21.976973
 30
0.0
 11
12.562669
 21
21.976973
 31
0.0
  0
ARC
  5
202
100
AcDbEntity
  8
R-DOOR-DETL
100
AcDbCircle
 10
13.396734
 20
22.565005
 30
0.0
 40
0.25
100
AcDbArc
 50
360.0
 51
30.0
  0
LINE
  5
203
100
AcDbEntity
  8
R-DOOR-DETL
100
AcDbLine
 10
12.680439
 20
23.007071
 30
0.0
 11
13.055439
 21
23.007071
 31
0.0
  0
LINE
  5
204
100
AcDbEntity
  8
0
100
AcDbLine
 10
13.153096
 20
23.007071
 30
0.0
 11
12.903096
 21
23.007071
 31
0.0
  0
LINE
  5
205
100
AcDbEntity
  8
R-DOOR-DETL
100
AcDbLine
 10
12.622939
 20
23.007071
 30
0.0
 11
13.112939
 21
23.007071
 31
0.0
  0
LINE
  5
206
100
AcDbEntity
  8
0
100
AcDbLine
 10
12.576019
 20
23.007071
 30
0.0
 11
12.826019
 21
23.007071
 31
0.0
  0
LINE
  5
207
100
AcDbEntity
  8
0
100
AcDbLine
 10
12.62094
 20
22.94536
 30
0.0
 11
12.57094
 21
22.94536
 31
0.0
  0
POINT
  5
208
100
AcDbEntity
  8
DEFPOINTS
  6
BYBLOCK
 62
     0
100
AcDbPoint
 10
12.576019
 20
23.007071
 30
0.0
  0
POINT
  5
209
100
AcDbEntity
  8
DEFPOINTS
  6
BYBLOCK
 62
     0
100
AcDbPoint
 10
12.466644
 20
23.007071
 30
0.0
  0
ARC
  5
20A
100
AcDbEntity
  8
0
100
AcDbCircle
 10
12.372662
 20
22.675376
 30
0.0
 40
0.03
100
AcDbArc
 50
2.612502
 51
90.0
  0
LINE
  5
20B
100
AcDbEntity
  8
0
100
AcDbLine
 10
13.552917
 20
22.745713
 30
0.0
 11
13.492915
 21
22.709661
 31
0.0
  0
ARC
  5
20C
100
AcDbEntity
  8
0
100
AcDbCircle
 10
13.361217
 20
22.675376
 30
0.0
 40
0.03
100
AcDbArc
 50
90.0
 51
177.387498
  0
LINE
  5
20D
100
AcDbEntity
  8
0
100
AcDbLine
 10
13.477464
 20
22.705376
 30
0.0
 11
13.361217
 21
22.705376
 31
0.0
  0
ARC
  5
20E
100
AcDbEntity
  8
0
100
AcDbCircle
 10
13.477464
 20
22.735376
 30
0.0
 40
0.03
100
AcDbArc
 50
270.0
 51
301.0
  0
LINE
  5
20F
100
AcDbEntity
  8
0
100
AcDbLine
 10
13.112939
 20
22.94536
 30
0.0
 11
13.162939
 21
22.94536
 31
0.0
  0
ARC
  5
210
100
AcDbEntity
  8
0
100
AcDbCircle
 10
13.537466
 20
22.771428
 30
0.0
 40
0.03
100
AcDbArc
 50
301.0
 51
31.0
  0
ARC
  5
211
100
AcDbEntity
  8
R-DOOR-DETL
100
AcDbCircle
 10
12.334749
 20
22.565005
 30
0.0
 40
0.25
100
AcDbArc
 50
150.0
 51
180.0
  0
LINE
  5
212
100
AcDbEntity
  8
0
100
AcDbLine
 10
12.180962
 20
22.745713
 30
0.0
 11
12.240964
 21
22.709661
 31
0.0
  0
ARC
  5
213
100
AcDbEntity
  8
0
100
AcDbCircle
 10
12.196413
 20
22.771428
 30
0.0
 40
0.03
100
AcDbArc
 50
149.0
 51
239.0
  0
ARC
  5
214
100
AcDbEntity
  8
0
100
AcDbCircle
 10
12.256415
 20
22.735376
 30
0.0
 40
0.03
100
AcDbArc
 50
239.0
 51
270.0
  0
LINE
  5
215
100
AcDbEntity
  8
0
100
AcDbLine
 10
12.256415
 20
22.705376
 30
0.0
 11
12.372662
 21
22.705376
 31
0.0
  0
POLYLINE
  5
216
100
AcDbEntity
  8
0
  6
BYBLOCK
 62
     0
100
AcDb2dPolyline
 66
     1
 10
0.0
 20
0.0
 30
0.0
 70
     1
 40
0.09
 41
0.09
  0
VERTEX
  5
217
100
AcDbEntity
  8
0
  6
BYBLOCK
 62
     0
100
AcDbVertex
100
AcDb2dVertex
 10
13.870111
 20
24.101862
 30
0.0
 42
1.0
  0
VERTEX
  5
218
100
AcDbEntity
  8
0
  6
BYBLOCK
 62
     0
100
AcDbVertex
100
AcDb2dVertex
 10
13.850486
 20
24.112867
 30
0.0
 42
1.0
  0
SEQEND
  5
219
100
AcDbEntity
  8
0
  6
BYBLOCK
 62
     0
  0
LINE
  5
21A
100
AcDbEntity
  8
R-DOOR-ANNO
  6
CONTINUOUS
100
AcDbLine
 10
12.001302
 20
24.100005
 30
0.0
 11
10.930248
 21
23.504115
 31
0.0
1001
ACAD
1000
DSTYLE
1002
{
1070
   173
1070
     1
1070
     6
1000
_DOTSMALL
1002
}
  0
LINE
  5
21B
100
AcDbEntity
  8
R-DOOR-ANNO
  6
CONTINUOUS
100
AcDbLine
 10
10.930248
 20
23.504115
 30
0.0
 11
10.750249
 21
23.504716
 31
0.0
1001
ACAD
1000
DSTYLE
1002
{
1070
   173
1070
     1
1070
     6
1000
_DOTSMALL
1002
}
  0
LINE
  5
21C
100
AcDbEntity
  8
0
100
AcDbLine
 10
13.120724
 20
23.33343
 30
0.0
 11
13.120724
 21
23.45843
 31
0.0
  0
LINE
  5
21D
100
AcDbEntity
  8
0
100
AcDbLine
 10
13.280803
 20
23.520071
 30
0.0
 11
13.280803
 21
23.265154
 31
0.0
  0
LINE
  5
21E
100
AcDbEntity
  8
0
100
AcDbLine
 10
13.135803
 20
23.327071
 30
0.0
 11
13.135803
 21
23.454071
 31
0.0
  0
LINE
  5
21F
100
AcDbEntity
  8
R-DOOR-DETL
100
AcDbLine
 10
13.315741
 20
23.647262
 30
0.0
 11
13.315741
 21
23.213326
 31
0.0
  0
LINE
  5
220
100
AcDbEntity
  8
0
100
AcDbLine
 10
12.620724
 20
23.33343
 30
0.0
 11
12.620724
 21
23.45843
 31
0.0
  0
LINE
  5
221
100
AcDbEntity
  8
0
100
AcDbLine
 10
12.598076
 20
23.327071
 30
0.0
 11
12.598076
 21
23.454071
 31
0.0
  0
LINE
  5
222
100
AcDbEntity
  8
0
100
AcDbLine
 10
12.453076
 20
23.520071
 30
0.0
 11
12.453076
 21
23.265154
 31
0.0
  0
LINE
  5
223
100
AcDbEntity
  8
R-DOOR-DETL
100
AcDbLine
 10
12.415741
 20
23.213326
 30
0.0
 11
12.415741
 21
23.647262
 31
0.0
  0
LINE
  5
224
100
AcDbEntity
  8
0
100
AcDbLine
 10
12.620724
 20
23.33343
 30
0.0
 11
13.120724
 21
23.33343
 31
0.0
  0
ARC
  5
225
100
AcDbEntity
  8
0
100
AcDbCircle
 10
13.010803
 20
23.327071
 30
0.0
 40
0.125
100
AcDbArc
 50
270.0
 51
0.0
  0
LINE
  5
226
100
AcDbEntity
  8
0
100
AcDbLine
 10
12.920803
 20
23.202071
 30
0.0
 11
13.010803
 21
23.202071
 31
0.0
  0
LINE
  5
227
100
AcDbEntity
  8
R-DOOR-DETL
100
AcDbLine
 10
12.746724
 20
23.333295
 30
0.0
 11
12.994724
 21
23.333295
 31
0.0
  0
LINE
  5
228
100
AcDbEntity
  8
R-DOOR-DETL
100
AcDbLine
 10
12.776724
 20
23.363295
 30
0.0
 11
12.964724
 21
23.363295
 31
0.0
  0
LINE
  5
229
100
AcDbEntity
  8
R-DOOR-DETL
100
AcDbLine
 10
12.776724
 20
23.303295
 30
0.0
 11
12.964724
 21
23.303295
 31
0.0
  0
ARC
  5
22A
100
AcDbEntity
  8
0
100
AcDbCircle
 10
12.920803
 20
23.187071
 30
0.0
 40
0.015
100
AcDbArc
 50
90.0
 51
180.0
  0
ARC
  5
22B
100
AcDbEntity
  8
0
100
AcDbCircle
 10
12.813076
 20
23.187071
 30
0.0
 40
0.015
100
AcDbArc
 50
0.0
 51
90.0
  0
LINE
  5
22C
100
AcDbEntity
  8
0
100
AcDbLine
 10
12.813076
 20
23.202071
 30
0.0
 11
12.723076
 21
23.202071
 31
0.0
  0
ARC
  5
22D
100
AcDbEntity
  8
0
100
AcDbCircle
 10
12.723076
 20
23.327071
 30
0.0
 40
0.125
100
AcDbArc
 50
180.0
 51
270.0
  0
ARC
  5
22E
100
AcDbEntity
  8
0
100
AcDbCircle
 10
12.423076
 20
23.265154
 30
0.0
 40
0.03
100
AcDbArc
 50
329.0
 51
0.0
  0
ARC
  5
22F
100
AcDbEntity
  8
R-DOOR-DETL
100
AcDbCircle
 10
12.385741
 20
23.213326
 30
0.0
 40
0.03
100
AcDbArc
 50
330.0
 51
360.0
  0
ARC
  5
230
100
AcDbEntity
  8
0
100
AcDbCircle
 10
13.310803
 20
23.265154
 30
0.0
 40
0.03
100
AcDbArc
 50
180.0
 51
211.0
  0
ARC
  5
231
100
AcDbEntity
  8
R-DOOR-DETL
100
AcDbCircle
 10
13.345741
 20
23.213326
 30
0.0
 40
0.03
100
AcDbArc
 50
180.0
 51
210.0
  0
LINE
  5
232
100
AcDbEntity
  8
0
100
AcDbLine
 10
12.620724
 20
23.45843
 30
0.0
 11
13.120724
 21
23.45843
 31
0.0
  0
LINE
  5
233
100
AcDbEntity
  8
R-DOOR-DETL
100
AcDbLine
 10
12.865741
 20
23.707262
 30
0.0
 11
13.255741
 21
23.707262
 31
0.0
  0
LINE
  5
234
100
AcDbEntity
  8
0
100
AcDbLine
 10
13.034803
 20
23.614071
 30
0.0
 11
13.186803
 21
23.614071
 31
0.0
  0
LINE
  5
235
100
AcDbEntity
  8
0
100
AcDbLine
 10
13.120803
 20
23.469071
 30
0.0
 11
13.034803
 21
23.469071
 31
0.0
  0
LINE
  5
236
100
AcDbEntity
  8
R-DOOR-DETL
100
AcDbLine
 10
12.746724
 20
23.393295
 30
0.0
 11
12.994724
 21
23.393295
 31
0.0
  0
LINE
  5
237
100
AcDbEntity
  8
R-DOOR-DETL
100
AcDbLine
 10
12.776724
 20
23.423295
 30
0.0
 11
12.964724
 21
23.423295
 31
0.0
  0
LINE
  5
238
100
AcDbEntity
  8
R-DOOR-DETL
100
AcDbLine
 10
12.746724
 20
23.693295
 30
0.0
 11
12.994724
 21
23.693295
 31
0.0
  0
LINE
  5
239
100
AcDbEntity
  8
R-DOOR-DETL
100
AcDbLine
 10
12.746724
 20
23.633295
 30
0.0
 11
12.994724
 21
23.633295
 31
0.0
  0
LINE
  5
23A
100
AcDbEntity
  8
R-DOOR-DETL
100
AcDbLine
 10
12.776724
 20
23.663295
 30
0.0
 11
12.964724
 21
23.663295
 31
0.0
  0
LINE
  5
23B
100
AcDbEntity
  8
R-DOOR-DETL
100
AcDbLine
 10
12.776724
 20
23.603295
 30
0.0
 11
12.964724
 21
23.603295
 31
0.0
  0
LINE
  5
23C
100
AcDbEntity
  8
R-DOOR-DETL
100
AcDbLine
 10
12.746724
 20
23.453295
 30
0.0
 11
12.994724
 21
23.453295
 31
0.0
  0
LINE
  5
23D
100
AcDbEntity
  8
R-DOOR-DETL
100
AcDbLine
 10
12.746724
 20
23.573295
 30
0.0
 11
12.994724
 21
23.573295
 31
0.0
  0
LINE
  5
23E
100
AcDbEntity
  8
R-DOOR-DETL
100
AcDbLine
 10
12.746724
 20
23.513295
 30
0.0
 11
12.994724
 21
23.513295
 31
0.0
  0
LINE
  5
23F
100
AcDbEntity
  8
R-DOOR-DETL
100
AcDbLine
 10
12.776724
 20
23.543295
 30
0.0
 11
12.964724
 21
23.543295
 31
0.0
  0
LINE
  5
240
100
AcDbEntity
  8
R-DOOR-DETL
100
AcDbLine
 10
12.776724
 20
23.483295
 30
0.0
 11
12.964724
 21
23.483295
 31
0.0
  0
ARC
  5
241
100
AcDbEntity
  8
0
100
AcDbCircle
 10
12.613076
 20
23.454071
 30
0.0
 40
0.015
100
AcDbArc
 50
90.0
 51
180.0
  0
ARC
  5
242
100
AcDbEntity
  8
0
100
AcDbCircle
 10
12.547076
 20
23.520071
 30
0.0
 40
0.094
100
AcDbArc
 50
90.0
 51
180.0
  0
LINE
  5
243
100
AcDbEntity
  8
0
100
AcDbLine
 10
12.613076
 20
23.469071
 30
0.0
 11
12.699076
 21
23.469071
 31
0.0
  0
LINE
  5
244
100
AcDbEntity
  8
0
100
AcDbLine
 10
12.699076
 20
23.614071
 30
0.0
 11
12.547076
 21
23.614071
 31
0.0
  0
ARC
  5
245
100
AcDbEntity
  8
0
100
AcDbCircle
 10
12.699076
 20
23.484071
 30
0.0
 40
0.015
100
AcDbArc
 50
270.0
 51
0.0
  0
ARC
  5
246
100
AcDbEntity
  8
0
100
AcDbCircle
 10
12.699076
 20
23.599071
 30
0.0
 40
0.015
100
AcDbArc
 50
0.0
 51
90.0
  0
LINE
  5
247
100
AcDbEntity
  8
0
100
AcDbLine
 10
12.714076
 20
23.484071
 30
0.0
 11
12.714076
 21
23.599071
 31
0.0
  0
LINE
  5
248
100
AcDbEntity
  8
R-DOOR-DETL
100
AcDbLine
 10
12.475741
 20
23.707262
 30
0.0
 11
12.865741
 21
23.707262
 31
0.0
  0
ARC
  5
249
100
AcDbEntity
  8
0
100
AcDbCircle
 10
13.034803
 20
23.599071
 30
0.0
 40
0.015
100
AcDbArc
 50
90.0
 51
180.0
  0
ARC
  5
24A
100
AcDbEntity
  8
0
100
AcDbCircle
 10
13.034803
 20
23.484071
 30
0.0
 40
0.015
100
AcDbArc
 50
180.0
 51
270.0
  0
LINE
  5
24B
100
AcDbEntity
  8
0
100
AcDbLine
 10
13.019803
 20
23.484071
 30
0.0
 11
13.019803
 21
23.599071
 31
0.0
  0
ARC
  5
24C
100
AcDbEntity
  8
R-DOOR-DETL
100
AcDbCircle
 10
12.475741
 20
23.647262
 30
0.0
 40
0.06
100
AcDbArc
 50
90.0
 51
180.0
  0
ARC
  5
24D
100
AcDbEntity
  8
0
100
AcDbCircle
 10
13.186803
 20
23.520071
 30
0.0
 40
0.094
100
AcDbArc
 50
0.0
 51
90.0
  0
ARC
  5
24E
100
AcDbEntity
  8
0
100
AcDbCircle
 10
13.120803
 20
23.454071
 30
0.0
 40
0.015
100
AcDbArc
 50
0.0
 51
90.0
  0
ARC
  5
24F
100
AcDbEntity
  8
R-DOOR-DETL
100
AcDbCircle
 10
13.255741
 20
23.647262
 30
0.0
 40
0.06
100
AcDbArc
 50
360.0
 51
90.0
  0
LINE
  5
250
100
AcDbEntity
  8
0
100
AcDbLine
 10
12.903096
 20
23.057071
 30
0.0
 11
13.153096
 21
23.057071
 31
0.0
  0
LINE
  5
251
100
AcDbEntity
  8
0
100
AcDbLine
 10
13.153096
 20
23.057071
 30
0.0
 11
12.920803
 21
23.057071
 31
0.0
  0
LINE
  5
252
100
AcDbEntity
  8
0
100
AcDbLine
 10
12.826019
 20
23.057071
 30
0.0
 11
12.576019
 21
23.057071
 31
0.0
  0
LINE
  5
253
100
AcDbEntity
  8
0
100
AcDbLine
 10
12.580783
 20
23.057071
 30
0.0
 11
12.813076
 21
23.057071
 31
0.0
  0
ARC
  5
254
100
AcDbEntity
  8
0
100
AcDbCircle
 10
12.920803
 20
23.072071
 30
0.0
 40
0.015
100
AcDbArc
 50
180.0
 51
270.0
  0
ARC
  5
255
100
AcDbEntity
  8
0
100
AcDbCircle
 10
12.580783
 20
23.047228
 30
0.0
 40
0.009842
100
AcDbArc
 50
90.0
 51
180.0
  0
ARC
  5
256
100
AcDbEntity
  8
0
100
AcDbCircle
 10
12.813076
 20
23.072071
 30
0.0
 40
0.015
100
AcDbArc
 50
270.0
 51
0.0
  0
ARC
  5
257
100
AcDbEntity
  8
0
100
AcDbCircle
 10
13.153096
 20
23.047228
 30
0.0
 40
0.009842
100
AcDbArc
 50
0.0
 51
90.0
  0
LINE
  5
258
100
AcDbEntity
  8
0
100
AcDbLine
 10
12.905803
 20
23.072071
 30
0.0
 11
12.905803
 21
23.187071
 31
0.0
  0
LINE
  5
259
100
AcDbEntity
  8
0
100
AcDbLine
 10
12.828076
 20
23.072071
 30
0.0
 11
12.828076
 21
23.187071
 31
0.0
  0
INSERT
  5
25A
100
AcDbEntity
  8
R-DOOR-ANNO
  6
CONTINUOUS
100
AcDbBlockReference
  2
_DOTSMALL
 10
13.157382
 20
23.149427
 30
0.0
 41
0.18
 42
0.18
 43
0.18
 50
153.778112
1001
ACAD
1000
DSTYLE
1002
{
1070
   173
1070
     1
1070
     6
1000
_DOTSMALL
1002
}
  0
LINE
  5
25B
100
AcDbEntity
  8
R-DOOR-DETL
100
AcDbLine
 10
13.36903
 20
24.145965
 30
0.0
 11
13.36903
 21
23.985923
 31
0.0
  0
ARC
  5
25C
100
AcDbEntity
  8
R-DOOR-DETL
100
AcDbCircle
 10
12.954324
 20
24.119387
 30
0.0
 40
0.049213
100
AcDbArc
 50
152.582198
 51
325.437475
  0
ARC
  5
25D
100
AcDbEntity
  8
R-DOOR-DETL
100
AcDbCircle
 10
12.777159
 20
24.119387
 30
0.0
 40
0.049213
100
AcDbArc
 50
214.562525
 51
27.417802
  0
LINE
  5
25E
100
AcDbEntity
  8
R-DOOR-DETL
100
AcDbLine
 10
12.362453
 20
23.985923
 30
0.0
 11
12.362453
 21
24.145965
 31
0.0
  0
LINE
  5
25F
100
AcDbEntity
  8
R-DOOR-DETL
100
AcDbLine
 10
13.410846
 20
23.857262
 30
0.0
 11
12.865741
 21
23.857262
 31
0.0
  0
ARC
  5
260
100
AcDbEntity
  8
R-DOOR-DETL
100
AcDbCircle
 10
13.418242
 20
23.985923
 30
0.0
 40
0.049213
100
AcDbArc
 50
180.0
 51
297.721062
  0
ARC
  5
261
100
AcDbEntity
  8
R-DOOR-DETL
100
AcDbCircle
 10
13.049502
 20
24.146965
 30
0.0
 40
0.03
100
AcDbArc
 50
90.0
 51
169.684923
  0
LINE
  5
262
100
AcDbEntity
  8
R-DOOR-DETL
100
AcDbLine
 10
12.617122
 20
24.426965
 30
0.0
 11
13.114361
 21
24.426965
 31
0.0
  0
LINE
  5
263
100
AcDbEntity
  8
R-DOOR-DETL
100
AcDbLine
 10
13.616734
 20
24.426965
 30
0.0
 11
12.865741
 21
24.426965
 31
0.0
  0
ARC
  5
264
100
AcDbEntity
  8
R-DOOR-DETL
100
AcDbCircle
 10
12.865741
 20
24.18041
 30
0.0
 40
0.15678
100
AcDbArc
 50
190.315077
 51
214.562525
  0
ARC
  5
265
100
AcDbEntity
  8
R-DOOR-DETL
100
AcDbCircle
 10
12.865741
 20
24.18041
 30
0.0
 40
0.059055
100
AcDbArc
 50
319.488274
 51
220.511726
  0
ARC
  5
266
100
AcDbEntity
  8
R-DOOR-DETL
100
AcDbCircle
 10
12.865741
 20
24.18041
 30
0.0
 40
0.15678
100
AcDbArc
 50
325.437475
 51
349.684923
  0
ARC
  5
267
100
AcDbEntity
  8
R-DOOR-DETL
100
AcDbCircle
 10
12.68198
 20
24.146965
 30
0.0
 40
0.03
100
AcDbArc
 50
10.315077
 51
90.0
  0
ARC
  5
268
100
AcDbEntity
  8
R-DOOR-DETL
100
AcDbCircle
 10
12.617122
 20
24.457965
 30
0.0
 40
0.031
100
AcDbArc
 50
210.0
 51
270.0
  0
ARC
  5
269
100
AcDbEntity
  8
R-DOOR-DETL
100
AcDbCircle
 10
12.393453
 20
24.145965
 30
0.0
 40
0.031
100
AcDbArc
 50
90.0
 51
180.0
  0
LINE
  5
26A
100
AcDbEntity
  8
R-DOOR-DETL
100
AcDbLine
 10
12.393453
 20
24.176965
 30
0.0
 11
12.68198
 21
24.176965
 31
0.0
  0
ARC
  5
26B
100
AcDbEntity
  8
R-DOOR-DETL
100
AcDbCircle
 10
13.33803
 20
24.145965
 30
0.0
 40
0.031
100
AcDbArc
 50
360.0
 51
90.0
  0
ARC
  5
26C
100
AcDbEntity
  8
R-DOOR-DETL
100
AcDbCircle
 10
13.114361
 20
24.457965
 30
0.0
 40
0.031
100
AcDbArc
 50
270.0
 51
330.0
  0
ARC
  5
26D
100
AcDbEntity
  8
R-DOOR-DETL
100
AcDbCircle
 10
13.616734
 20
24.456965
 30
0.0
 40
0.03
100
AcDbArc
 50
270.0
 51
0.0
  0
ARC
  5
26E
100
AcDbEntity
  8
R-DOOR-DETL
100
AcDbCircle
 10
13.610734
 20
24.457965
 30
0.0
 40
0.031
100
AcDbArc
 50
270.0
 51
0.0
  0
LINE
  5
26F
100
AcDbEntity
  8
R-DOOR-DETL
100
AcDbLine
 10
13.467122
 20
24.426965
 30
0.0
 11
13.610734
 21
24.426965
 31
0.0
  0
ARC
  5
270
100
AcDbEntity
  8
R-DOOR-DETL
100
AcDbCircle
 10
13.467122
 20
24.457965
 30
0.0
 40
0.031
100
AcDbArc
 50
210.0
 51
270.0
  0
LINE
  5
271
100
AcDbEntity
  8
R-DOOR-DETL
100
AcDbLine
 10
13.049502
 20
24.176965
 30
0.0
 11
13.33803
 21
24.176965
 31
0.0
  0
INSERT
  5
272
100
AcDbEntity
  8
R-DOOR-ANNO
  6
CONTINUOUS
100
AcDbBlockReference
  2
_DOTSMALL
 10
12.001302
 20
24.100005
 30
0.0
 41
0.18
 42
0.18
 43
0.18
 50
153.778112
1001
ACAD
1000
DSTYLE
1002
{
1070
   173
1070
     1
1070
     6
1000
_DOTSMALL
1002
}
  0
LINE
  5
273
100
AcDbEntity
  8
R-DOOR-DETL
100
AcDbLine
 10
12.120749
 20
24.426965
 30
0.0
 11
12.264361
 21
24.426965
 31
0.0
  0
ARC
  5
274
100
AcDbEntity
  8
R-DOOR-DETL
100
AcDbCircle
 10
12.114749
 20
24.456965
 30
0.0
 40
0.03
100
AcDbArc
 50
180.0
 51
270.0
  0
ARC
  5
275
100
AcDbEntity
  8
R-DOOR-DETL
100
AcDbCircle
 10
12.120749
 20
24.457965
 30
0.0
 40
0.031
100
AcDbArc
 50
180.0
 51
270.0
  0
ARC
  5
276
100
AcDbEntity
  8
R-DOOR-DETL
100
AcDbCircle
 10
12.264361
 20
24.457965
 30
0.0
 40
0.031
100
AcDbArc
 50
270.0
 51
330.0
  0
ARC
  5
277
100
AcDbEntity
  8
R-DOOR-DETL
100
AcDbCircle
 10
12.31324
 20
23.985923
 30
0.0
 40
0.049213
100
AcDbArc
 50
242.278938
 51
0.0
  0
LINE
  5
278
100
AcDbEntity
  8
R-DOOR-DETL
100
AcDbLine
 10
12.865741
 20
23.857262
 30
0.0
 11
12.320636
 21
23.857262
 31
0.0
  0
LINE
  5
279
100
AcDbEntity
  8
R-DOOR-DETL
100
AcDbLine
 10
13.548241
 20
24.426965
 30
0.0
 11
12.183241
 21
24.426965
 31
0.0
  0
LINE
  5
27A
100
AcDbEntity
  8
R-DOOR-DETL
100
AcDbLine
 10
12.865741
 20
24.426965
 30
0.0
 11
12.114749
 21
24.426965
 31
0.0
  0
ARC
  5
27B
100
AcDbEntity
  8
R-DOOR-DETL
100
AcDbCircle
 10
12.251749
 20
23.897665
 30
0.0
 40
0.059055
100
AcDbArc
 50
49.185014
 51
298.310064
  0
ARC
  5
27C
100
AcDbEntity
  8
R-DOOR-DETL
100
AcDbCircle
 10
12.312302
 20
23.80876
 30
0.0
 40
0.049212
100
AcDbArc
 50
80.249923
 51
131.403987
  0
ARC
  5
27D
100
AcDbEntity
  8
R-DOOR-DETL
100
AcDbCircle
 10
13.479734
 20
23.897665
 30
0.0
 40
0.059055
100
AcDbArc
 50
241.689936
 51
130.814986
  0
ARC
  5
27E
100
AcDbEntity
  8
R-DOOR-DETL
100
AcDbCircle
 10
13.41918
 20
23.80876
 30
0.0
 40
0.049213
100
AcDbArc
 50
48.596013
 51
99.750077
  0
LINE
  5
27F
100
AcDbEntity
  8
R-DOOR-ANNO
  6
CONTINUOUS
100
AcDbLine
 10
13.878522
 20
24.097119
 30
0.0
 11
14.94758
 21
23.497656
 31
0.0
1001
ACAD
1000
DSTYLE
1002
{
1070
   173
1070
     1
1070
     6
1000
_DOTSMALL
1002
}
  0
TEXT
  5
280
100
AcDbEntity
  8
0
100
AcDbText
 10
15.186151
 20
23.317656
 30
0.0
 40
0.36
  1
CLADDING
  7
ROMANS
100
AcDbText
  0
LINE
  5
281
100
AcDbEntity
  8
R-DOOR-ANNO
  6
CONTINUOUS
100
AcDbLine
 10
14.94758
 20
23.497656
 30
0.0
 11
15.12758
 21
23.497656
 31
0.0
1001
ACAD
1000
DSTYLE
1002
{
1070
   173
1070
     1
1070
     6
1000
_DOTSMALL
1002
}
  0
SOLID
  5
282
100
AcDbEntity
  8
0
  6
BYBLOCK
 62
     0
100
AcDbTrace
 10
16.927548
 20
25.691965
 30
0.0
 11
17.032548
 21
25.691965
 31
0.0
 12
16.980048
 22
26.006965
 32
0.0
 13
16.980048
 23
26.006965
 33
0.0
  0
LINE
  5
283
100
AcDbEntity
  8
R-DOOR-DETL
100
AcDbLine
 10
13.696734
 20
25.991965
 30
0.0
 11
13.696734
 21
25.611965
 31
0.0
  0
LINE
  5
284
100
AcDbEntity
  8
R-DOOR-DETL
100
AcDbLine
 10
12.034749
 20
25.611965
 30
0.0
 11
12.034749
 21
25.991965
 31
0.0
  0
LINE
  5
285
100
AcDbEntity
  8
R-DOOR-DETL
100
AcDbLine
 10
13.646734
 20
25.581965
 30
0.0
 11
13.646734
 21
24.928169
 31
0.0
  0
LINE
  5
286
100
AcDbEntity
  8
R-DOOR-DETL
100
AcDbLine
 10
12.084749
 20
24.928169
 30
0.0
 11
12.084749
 21
25.581965
 31
0.0
  0
LINE
  5
287
100
AcDbEntity
  8
0
100
AcDbLine
 10
13.395873
 20
24.778957
 30
0.0
 11
13.319931
 21
24.856508
 31
0.0
  0
ARC
  5
288
100
AcDbEntity
  8
R-DOOR-DETL
100
AcDbCircle
 10
13.290741
 20
24.751965
 30
0.0
 40
0.1005
100
AcDbArc
 50
302.506128
 51
237.493872
  0
CIRCLE
  5
289
100
AcDbEntity
  8
R-DOOR-DETL
100
AcDbCircle
 10
13.290741
 20
24.751965
 30
0.0
 40
0.1625
  0
LINE
  5
28A
100
AcDbEntity
  8
R-DOOR-DETL
100
AcDbLine
 10
13.545741
 20
24.718169
 30
0.0
 11
13.545741
 21
24.987965
 31
0.0
  0
LINE
  5
28B
100
AcDbEntity
  8
R-DOOR-DETL
100
AcDbLine
 10
13.550741
 20
24.898169
 30
0.0
 11
13.550741
 21
24.728169
 31
0.0
  0
CIRCLE
  5
28C
100
AcDbEntity
  8
R-DOOR-DETL
100
AcDbCircle
 10
12.865741
 20
24.751965
 30
0.0
 40
0.1625
  0
ARC
  5
28D
100
AcDbEntity
  8
R-DOOR-DETL
100
AcDbCircle
 10
12.440741
 20
24.751965
 30
0.0
 40
0.1005
100
AcDbArc
 50
302.506128
 51
237.493872
  0
LINE
  5
28E
100
AcDbEntity
  8
0
100
AcDbLine
 10
13.214799
 20
24.829516
 30
0.0
 11
13.185609
 21
24.724973
 31
0.0
  0
LINE
  5
28F
100
AcDbEntity
  8
0
100
AcDbLine
 10
12.920012
 20
24.845965
 30
0.0
 11
12.974283
 21
24.751965
 31
0.0
  0
LINE
  5
290
100
AcDbEntity
  8
0
100
AcDbLine
 10
12.528961
 20
24.688732
 30
0.0
 11
12.539613
 21
24.79675
 31
0.0
  0
LINE
  5
291
100
AcDbEntity
  8
0
100
AcDbLine
 10
12.341869
 20
24.707181
 30
0.0
 11
12.352521
 21
24.815199
 31
0.0
  0
LINE
  5
292
100
AcDbEntity
  8
0
100
AcDbLine
 10
12.81147
 20
24.845965
 30
0.0
 11
12.757199
 21
24.751965
 31
0.0
  0
LINE
  5
293
100
AcDbEntity
  8
0
100
AcDbLine
 10
12.974283
 20
24.751965
 30
0.0
 11
12.920012
 21
24.657965
 31
0.0
  0
LINE
  5
294
100
AcDbEntity
  8
0
100
AcDbLine
 10
12.430089
 20
24.643947
 30
0.0
 11
12.528961
 21
24.688732
 31
0.0
  0
LINE
  5
295
100
AcDbEntity
  8
0
100
AcDbLine
 10
12.757199
 20
24.751965
 30
0.0
 11
12.81147
 21
24.657965
 31
0.0
  0
LINE
  5
296
100
AcDbEntity
  8
0
100
AcDbLine
 10
12.920012
 20
24.657965
 30
0.0
 11
12.81147
 21
24.657965
 31
0.0
  0
ARC
  5
297
100
AcDbEntity
  8
R-DOOR-DETL
100
AcDbCircle
 10
12.511408
 20
24.641067
 30
0.0
 40
0.031
100
AcDbArc
 50
122.506128
 51
210.0
  0
ARC
  5
298
100
AcDbEntity
  8
R-DOOR-DETL
100
AcDbCircle
 10
12.370074
 20
24.641067
 30
0.0
 40
0.031
100
AcDbArc
 50
330.0
 51
57.493872
  0
LINE
  5
299
100
AcDbEntity
  8
0
100
AcDbLine
 10
12.341869
 20
24.707181
 30
0.0
 11
12.430089
 21
24.643947
 31
0.0
  0
LINE
  5
29A
100
AcDbEntity
  8
0
100
AcDbLine
 10
13.261551
 20
24.647422
 30
0.0
 11
13.185609
 21
24.724973
 31
0.0
  0
LINE
  5
29B
100
AcDbEntity
  8
0
100
AcDbLine
 10
13.366683
 20
24.674414
 30
0.0
 11
13.261551
 21
24.647422
 31
0.0
  0
LINE
  5
29C
100
AcDbEntity
  8
0
100
AcDbLine
 10
13.395873
 20
24.778957
 30
0.0
 11
13.366683
 21
24.674414
 31
0.0
  0
ARC
  5
29D
100
AcDbEntity
  8
R-DOOR-DETL
100
AcDbCircle
 10
13.361408
 20
24.641067
 30
0.0
 40
0.031
100
AcDbArc
 50
122.506128
 51
210.0
  0
ARC
  5
29E
100
AcDbEntity
  8
R-DOOR-DETL
100
AcDbCircle
 10
13.220074
 20
24.641067
 30
0.0
 40
0.031
100
AcDbArc
 50
330.0
 51
57.493872
  0
ARC
  5
29F
100
AcDbEntity
  8
R-DOOR-DETL
100
AcDbCircle
 10
13.631734
 20
24.698169
 30
0.0
 40
0.015
100
AcDbArc
 50
0.0
 51
90.0
  0
ARC
  5
2A0
100
AcDbEntity
  8
R-DOOR-DETL
100
AcDbCircle
 10
13.626734
 20
24.688169
 30
0.0
 40
0.015
100
AcDbArc
 50
0.0
 51
90.0
  0
ARC
  5
2A1
100
AcDbEntity
  8
R-DOOR-DETL
100
AcDbCircle
 10
13.565741
 20
24.728169
 30
0.0
 40
0.015
100
AcDbArc
 50
180.0
 51
270.0
  0
LINE
  5
2A2
100
AcDbEntity
  8
R-DOOR-DETL
100
AcDbLine
 10
13.565741
 20
24.713169
 30
0.0
 11
13.631734
 21
24.713169
 31
0.0
  0
ARC
  5
2A3
100
AcDbEntity
  8
R-DOOR-DETL
100
AcDbCircle
 10
13.560741
 20
24.718169
 30
0.0
 40
0.015
100
AcDbArc
 50
180.0
 51
270.0
  0
LINE
  5
2A4
100
AcDbEntity
  8
R-DOOR-DETL
100
AcDbLine
 10
13.626734
 20
24.703169
 30
0.0
 11
13.560741
 21
24.703169
 31
0.0
  0
LINE
  5
2A5
100
AcDbEntity
  8
0
100
AcDbLine
 10
12.451393
 20
24.859983
 30
0.0
 11
12.539613
 21
24.79675
 31
0.0
  0
LINE
  5
2A6
100
AcDbEntity
  8
0
100
AcDbLine
 10
12.920012
 20
24.845965
 30
0.0
 11
12.81147
 21
24.845965
 31
0.0
  0
LINE
  5
2A7
100
AcDbEntity
  8
0
100
AcDbLine
 10
12.352521
 20
24.815199
 30
0.0
 11
12.451393
 21
24.859983
 31
0.0
  0
LINE
  5
2A8
100
AcDbEntity
  8
0
100
AcDbLine
 10
13.319931
 20
24.856508
 30
0.0
 11
13.214799
 21
24.829516
 31
0.0
  0
ARC
  5
2A9
100
AcDbEntity
  8
R-DOOR-DETL
100
AcDbCircle
 10
13.565741
 20
24.898169
 30
0.0
 40
0.015
100
AcDbArc
 50
90.0
 51
180.0
  0
ARC
  5
2AA
100
AcDbEntity
  8
R-DOOR-DETL
100
AcDbCircle
 10
13.631734
 20
24.928169
 30
0.0
 40
0.015
100
AcDbArc
 50
270.0
 51
0.0
  0
LINE
  5
2AB
100
AcDbEntity
  8
R-DOOR-DETL
100
AcDbLine
 10
13.631734
 20
24.913169
 30
0.0
 11
13.565741
 21
24.913169
 31
0.0
  0
ARC
  5
2AC
100
AcDbEntity
  8
R-DOOR-DETL
100
AcDbCircle
 10
13.530741
 20
24.987965
 30
0.0
 40
0.015
100
AcDbArc
 50
360.0
 51
90.0
  0
LINE
  5
2AD
100
AcDbEntity
  8
R-DOOR-DETL
100
AcDbLine
 10
12.185741
 20
24.987965
 30
0.0
 11
12.185741
 21
24.718169
 31
0.0
  0
LINE
  5
2AE
100
AcDbEntity
  8
R-DOOR-DETL
100
AcDbLine
 10
12.180741
 20
24.728169
 30
0.0
 11
12.180741
 21
24.898169
 31
0.0
  0
LINE
  5
2AF
100
AcDbEntity
  8
R-DOOR-DETL
100
AcDbLine
 10
12.099749
 20
24.713169
 30
0.0
 11
12.165741
 21
24.713169
 31
0.0
  0
ARC
  5
2B0
100
AcDbEntity
  8
R-DOOR-DETL
100
AcDbCircle
 10
12.165741
 20
24.728169
 30
0.0
 40
0.015
100
AcDbArc
 50
270.0
 51
0.0
  0
ARC
  5
2B1
100
AcDbEntity
  8
R-DOOR-DETL
100
AcDbCircle
 10
12.170741
 20
24.718169
 30
0.0
 40
0.015
100
AcDbArc
 50
270.0
 51
360.0
  0
LINE
  5
2B2
100
AcDbEntity
  8
R-DOOR-DETL
100
AcDbLine
 10
12.170741
 20
24.703169
 30
0.0
 11
12.104749
 21
24.703169
 31
0.0
  0
ARC
  5
2B3
100
AcDbEntity
  8
R-DOOR-DETL
100
AcDbCircle
 10
12.099749
 20
24.698169
 30
0.0
 40
0.015
100
AcDbArc
 50
90.0
 51
180.0
  0
ARC
  5
2B4
100
AcDbEntity
  8
R-DOOR-DETL
100
AcDbCircle
 10
12.104749
 20
24.688169
 30
0.0
 40
0.015
100
AcDbArc
 50
90.0
 51
180.0
  0
ARC
  5
2B5
100
AcDbEntity
  8
R-DOOR-DETL
100
AcDbCircle
 10
12.200741
 20
24.987965
 30
0.0
 40
0.015
100
AcDbArc
 50
90.0
 51
180.0
  0
ARC
  5
2B6
100
AcDbEntity
  8
R-DOOR-DETL
100
AcDbCircle
 10
12.165741
 20
24.898169
 30
0.0
 40
0.015
100
AcDbArc
 50
0.0
 51
90.0
  0
LINE
  5
2B7
100
AcDbEntity
  8
R-DOOR-DETL
100
AcDbLine
 10
12.165741
 20
24.913169
 30
0.0
 11
12.099749
 21
24.913169
 31
0.0
  0
ARC
  5
2B8
100
AcDbEntity
  8
R-DOOR-DETL
100
AcDbCircle
 10
12.099749
 20
24.928169
 30
0.0
 40
0.015
100
AcDbArc
 50
180.0
 51
270.0
  0
CIRCLE
  5
2B9
100
AcDbEntity
  8
R-DOOR-DETL
100
AcDbCircle
 10
12.440741
 20
24.751965
 30
0.0
 40
0.1625
  0
LINE
  5
2BA
100
AcDbEntity
  8
R-DOOR-DETL
100
AcDbLine
 10
13.548241
 20
24.976965
 30
0.0
 11
12.183241
 21
24.976965
 31
0.0
  0
LINE
  5
2BB
100
AcDbEntity
  8
R-DOOR-DETL
100
AcDbLine
 10
13.530741
 20
25.002965
 30
0.0
 11
12.200741
 21
25.002965
 31
0.0
  0
LINE
  5
2BC
100
AcDbEntity
  8
R-DOOR-DETL
100
AcDbLine
 10
13.548241
 20
24.551965
 30
0.0
 11
12.183241
 21
24.551965
 31
0.0
  0
CIRCLE
  5
2BD
100
AcDbEntity
  8
R-DOOR-DETL
100
AcDbCircle
 10
13.290741
 20
24.751965
 30
0.0
 40
0.1875
  0
CIRCLE
  5
2BE
100
AcDbEntity
  8
R-DOOR-DETL
100
AcDbCircle
 10
12.865741
 20
24.751965
 30
0.0
 40
0.1875
  0
CIRCLE
  5
2BF
100
AcDbEntity
  8
R-DOOR-DETL
100
AcDbCircle
 10
12.440741
 20
24.751965
 30
0.0
 40
0.1875
  0
ARC
  5
2C0
100
AcDbEntity
  8
R-DOOR-DETL
100
AcDbCircle
 10
13.681734
 20
25.611965
 30
0.0
 40
0.015
100
AcDbArc
 50
270.0
 51
0.0
  0
LINE
  5
2C1
100
AcDbEntity
  8
R-DOOR-DETL
100
AcDbLine
 10
13.681734
 20
25.596965
 30
0.0
 11
13.661734
 21
25.596965
 31
0.0
  0
ARC
  5
2C2
100
AcDbEntity
  8
R-DOOR-DETL
100
AcDbCircle
 10
13.661734
 20
25.581965
 30
0.0
 40
0.015
100
AcDbArc
 50
90.0
 51
180.0
  0
ARC
  5
2C3
100
AcDbEntity
  8
R-DOOR-DETL
100
AcDbCircle
 10
12.049749
 20
25.611965
 30
0.0
 40
0.015
100
AcDbArc
 50
180.0
 51
270.0
  0
ARC
  5
2C4
100
AcDbEntity
  8
R-DOOR-DETL
100
AcDbCircle
 10
12.069749
 20
25.581965
 30
0.0
 40
0.015
100
AcDbArc
 50
0.0
 51
90.0
  0
LINE
  5
2C5
100
AcDbEntity
  8
R-DOOR-DETL
100
AcDbLine
 10
12.069749
 20
25.596965
 30
0.0
 11
12.049749
 21
25.596965
 31
0.0
  0
MTEXT
  5
2C6
100
AcDbEntity
  8
0
  6
BYBLOCK
 62
     0
100
AcDbMText
 10
15.877548
 20
25.376965
 30
0.0
 40
0.315
 41
0.0
 71
     5
 72
     1
  1
\A1;1/4\P[6mm]
  0
LINE
  5
2C7
100
AcDbEntity
  8
0
  6
BYBLOCK
 62
     0
100
AcDbLine
 10
16.980048
 20
25.691965
 30
0.0
 11
16.980048
 21
25.376965
 31
0.0
  0
LINE
  5
2C8
100
AcDbEntity
  8
0
  6
BYBLOCK
 62
     0
100
AcDbLine
 10
16.980048
 20
25.376965
 30
0.0
 11
16.665048
 21
25.376965
 31
0.0
  0
LINE
  5
2C9
100
AcDbEntity
  8
0
100
AcDbLine
 10
15.865741
 20
26.256965
 30
0.0
 11
9.865741
 21
26.256965
 31
0.0
  0
LINE
  5
2CA
100
AcDbEntity
  8
0
  6
BYBLOCK
 62
     0
100
AcDbLine
 10
13.856109
 20
26.006965
 30
0.0
 11
17.295048
 21
26.006965
 31
0.0
  0
LINE
  5
2CB
100
AcDbEntity
  8
R-DOOR-DETL
  6
CONTINUOUS
 62
     2
100
AcDbLine
 10
13.856734
 20
26.006965
 30
0.0
 11
13.806734
 21
26.006965
 31
0.0
  0
POINT
  5
2CC
100
AcDbEntity
  8
DEFPOINTS
  6
BYBLOCK
 62
     0
100
AcDbPoint
 10
13.746734
 20
26.006965
 30
0.0
  0
ARC
  5
2CD
100
AcDbEntity
  8
R-DOOR-DETL
100
AcDbCircle
 10
13.781734
 20
25.991965
 30
0.0
 40
0.015
100
AcDbArc
 50
0.0
 51
90.0
  0
LINE
  5
2CE
100
AcDbEntity
  8
R-DOOR-DETL
100
AcDbLine
 10
13.781734
 20
26.006965
 30
0.0
 11
13.711734
 21
26.006965
 31
0.0
  0
ARC
  5
2CF
100
AcDbEntity
  8
R-DOOR-DETL
100
AcDbCircle
 10
13.711734
 20
25.991965
 30
0.0
 40
0.015
100
AcDbArc
 50
90.0
 51
180.0
  0
ARC
  5
2D0
100
AcDbEntity
  8
10INCHRAIL
100
AcDbCircle
 10
11.949749
 20
25.991965
 30
0.0
 40
0.015
100
AcDbArc
 50
90.0
 51
180.0
  0
LINE
  5
2D1
100
AcDbEntity
  8
R-DOOR-DETL
100
AcDbLine
 10
12.019749
 20
26.006965
 30
0.0
 11
11.949749
 21
26.006965
 31
0.0
  0
ARC
  5
2D2
100
AcDbEntity
  8
R-DOOR-DETL
100
AcDbCircle
 10
12.019749
 20
25.991965
 30
0.0
 40
0.015
100
AcDbArc
 50
0.0
 51
90.0
  0
LINE
  5
2D3
100
AcDbEntity
  8
R-DOOR-PATT
  6
CONTINUOUS
 62
     5
100
AcDbLine
 10
15.865741
 20
27.025844
 30
0.0
 11
15.096863
 21
26.256965
 31
0.0
  0
LINE
  5
2D4
100
AcDbEntity
  8
0
  6
BYBLOCK
 62
     0
100
AcDbLine
 10
16.980048
 20
26.571965
 30
0.0
 11
16.980048
 21
26.886965
 31
0.0
  0
POINT
  5
2D5
100
AcDbEntity
  8
DEFPOINTS
  6
BYBLOCK
 62
     0
100
AcDbPoint
 10
15.865741
 20
26.256965
 30
0.0
  0
LINE
  5
2D6
100
AcDbEntity
  8
R-DOOR-PATT
  6
CONTINUOUS
 62
     5
100
AcDbLine
 10
15.865741
 20
26.583902
 30
0.0
 11
15.538804
 21
26.256965
 31
0.0
  0
LINE
  5
2D7
100
AcDbEntity
  8
0
  6
BYBLOCK
 62
     0
100
AcDbLine
 10
15.975116
 20
26.256965
 30
0.0
 11
17.295048
 21
26.256965
 31
0.0
  0
POINT
  5
2D8
100
AcDbEntity
  8
DEFPOINTS
  6
BYBLOCK
 62
     0
100
AcDbPoint
 10
16.980048
 20
26.006965
 30
0.0
  0
LINE
  5
2D9
100
AcDbEntity
  8
0
  6
BYBLOCK
 62
     0
100
AcDbLine
 10
15.975116
 20
26.256965
 30
0.0
 11
17.295048
 21
26.256965
 31
0.0
  0
SOLID
  5
2DA
100
AcDbEntity
  8
0
  6
BYBLOCK
 62
     0
100
AcDbTrace
 10
16.927548
 20
26.571965
 30
0.0
 11
17.032548
 21
26.571965
 31
0.0
 12
16.980048
 22
26.256965
 32
0.0
 13
16.980048
 23
26.256965
 33
0.0
  0
LINE
  5
2DB
100
AcDbEntity
  8
R-DOOR-PATT
  6
CONTINUOUS
 62
     5
100
AcDbLine
 10
10.467737
 20
28.256965
 30
0.0
 11
9.865741
 21
27.65497
 31
0.0
  0
LINE
  5
2DC
100
AcDbEntity
  8
R-DOOR-PATT
  6
CONTINUOUS
 62
     5
100
AcDbLine
 10
10.025795
 20
28.256965
 30
0.0
 11
9.865741
 21
28.096911
 31
0.0
  0
TEXT
  5
2DD
100
AcDbEntity
  8
DIMN
100
AcDbText
 10
10.66698
 20
33.268894
 30
0.0
 40
0.375
  1
NOTES:
100
AcDbText
  0
ENDBLK
  5
2DF
100
AcDbEntity
  8
0
100
AcDbBlockEnd
  0
BLOCK
  5
581
100
AcDbEntity
  8
0
100
AcDbBlockBegin
  2
*D10
 70
     1
 10
0.0
 20
0.0
 30
0.0
  3
*D10
  1

  0
LINE
  5
582
100
AcDbEntity
  8
0
  6
BYBLOCK
 62
     0
100
AcDbLine
 10
19.239068
 20
30.30056
 30
0.0
 11
24.156347
 21
30.30056
 31
0.0
  0
LINE
  5
583
100
AcDbEntity
  8
0
  6
BYBLOCK
 62
     0
100
AcDbLine
 10
17.814565
 20
12.920943
 30
0.0
 11
24.156347
 21
12.920943
 31
0.0
  0
LINE
  5
584
100
AcDbEntity
  8
0
  6
BYBLOCK
 62
     0
100
AcDbLine
 10
23.796347
 20
29.94056
 30
0.0
 11
23.796347
 21
21.970751
 31
0.0
  0
LINE
  5
585
100
AcDbEntity
  8
0
  6
BYBLOCK
 62
     0
100
AcDbLine
 10
23.796347
 20
13.280943
 30
0.0
 11
23.796347
 21
21.250751
 31
0.0
  0
SOLID
  5
586
100
AcDbEntity
  8
0
  6
BYBLOCK
 62
     0
100
AcDbTrace
 10
23.736347
 20
29.94056
 30
0.0
 11
23.856347
 21
29.94056
 31
0.0
 12
23.796347
 22
30.30056
 32
0.0
 13
23.796347
 23
30.30056
 33
0.0
  0
SOLID
  5
587
100
AcDbEntity
  8
0
  6
BYBLOCK
 62
     0
100
AcDbTrace
 10
23.736347
 20
13.280943
 30
0.0
 11
23.856347
 21
13.280943
 31
0.0
 12
23.796347
 22
12.920943
 32
0.0
 13
23.796347
 23
12.920943
 33
0.0
  0
MTEXT
  5
588
100
AcDbEntity
  8
0
  6
BYBLOCK
 62
     0
100
AcDbMText
 10
23.796347
 20
21.610751
 30
0.0
 40
0.36
 41
0.0
 71
     5
 72
     1
  1
\A1;CLEAR OPENING
  0
POINT
  5
589
100
AcDbEntity
  8
DEFPOINTS
  6
BYBLOCK
 62
     0
100
AcDbPoint
 10
19.114068
 20
30.30056
 30
0.0
  0
POINT
  5
58A
100
AcDbEntity
  8
DEFPOINTS
  6
BYBLOCK
 62
     0
100
AcDbPoint
 10
17.689565
 20
12.920943
 30
0.0
  0
POINT
  5
58B
100
AcDbEntity
  8
DEFPOINTS
  6
BYBLOCK
 62
     0
100
AcDbPoint
 10
23.796347
 20
12.920943
 30
0.0
  0
ENDBLK
  5
58C
100
AcDbEntity
  8
0
100
AcDbBlockEnd
  0
BLOCK
  5
5CC
100
AcDbEntity
  8
0
100
AcDbBlockBegin
  2
A$C6BE867F4
 70
     0
 10
0.0
 20
0.0
 30
0.0
  3
A$C6BE867F4
  1

  0
MTEXT
  5
5C7
100
AcDbEntity
  8
0
 62
     4
100
AcDbMText
 10
2.434972
 20
2.319778
 30
0.0
 40
0.274008
 41
6.855394
 71
     1
 72
     5
  1
\fArial|b1|i0|c0|p34;DOOR RAIL SYSTEM
  0
LWPOLYLINE
  5
5C8
100
AcDbEntity
  8
0
 62
     4
100
AcDbPolyline
 90
        2
 70
     0
 43
0.030704
 10
0.137665
 20
1.940905
 10
6.158597
 20
1.940905
  0
MTEXT
  5
5C9
100
AcDbEntity
  8
0
 62
     4
100
AcDbMText
 10
0.152731
 20
1.682964
 30
0.0
 40
0.242751
 41
6.068763
 71
     1
 72
     5
  1
\fArial|b1|i1|c0|p34;C.R. Laurence Architectural Products
  0
MTEXT
  5
5CA
100
AcDbEntity
  8
0
 62
     4
100
AcDbMText
 10
0.157672
 20
1.238797
 30
0.0
 40
0.191898
 41
6.0133
 71
     1
 72
     5
  1
\fArial|b0|i1|c0|p34;Phone Orders (800) 421-6144\PFax Orders     (800) 262-3299\PWWW.CRLAURENCE.COM\PPatent Pending
  0
INSERT
  5
5CB
100
AcDbEntity
  8
0
 62
     4
100
AcDbBlockReference
  2
A$C2189253D
 10
0.143797
 20
2.032527
 30
0.0
 41
2.535564
 42
2.535564
 43
2.535564
  0
ENDBLK
  5
5CD
100
AcDbEntity
  8
0
100
AcDbBlockEnd
  0
BLOCK
  5
5D0
100
AcDbEntity
  8
0
100
AcDbBlockBegin
  2
A$C0E897680
 70
     0
 10
0.0
 20
0.0
 30
0.0
  3
A$C0E897680
  1

  0
INSERT
  5
5CF
100
AcDbEntity
  8
0
100
AcDbBlockReference
  2
A$C6BE867F4
 10
0.0
 20
0.0
 30
0.0
  0
ENDBLK
  5
5D1
100
AcDbEntity
  8
0
100
AcDbBlockEnd
  0
BLOCK
  5
5D4
100
AcDbEntity
  8
0
100
AcDbBlockBegin
  2
A$C60D73A4C
 70
     0
 10
0.0
 20
0.0
 30
0.0
  3
A$C60D73A4C
  1

  0
INSERT
  5
5D3
100
AcDbEntity
  8
R-DOOR-DETL
100
AcDbBlockReference
  2
A$C0E897680
 10
0.0
 20
0.0
 30
0.0
  0
ENDBLK
  5
5D5
100
AcDbEntity
  8
0
100
AcDbBlockEnd
  0
BLOCK
  5
5D8
100
AcDbEntity
  8
0
100
AcDbBlockBegin
  2
A$C74654F65
 70
     0
 10
0.0
 20
0.0
 30
0.0
  3
A$C74654F65
  1

  0
INSERT
  5
5D7
100
AcDbEntity
  8
R-DOOR-ANNO
100
AcDbBlockReference
  2
A$C60D73A4C
 10
0.0
 20
0.0
 30
0.0
  0
ENDBLK
  5
5D9
100
AcDbEntity
  8
0
100
AcDbBlockEnd
  0
BLOCK
  5
5DC
100
AcDbEntity
  8
0
100
AcDbBlockBegin
  2
A$C5FA07A05
 70
     0
 10
0.0
 20
0.0
 30
0.0
  3
A$C5FA07A05
  1

  0
INSERT
  5
5DB
100
AcDbEntity
  8
0
100
AcDbBlockReference
  2
A$C74654F65
 10
0.0
 20
0.0
 30
0.0
  0
ENDBLK
  5
5DD
100
AcDbEntity
  8
0
100
AcDbBlockEnd
  0
BLOCK
  5
5E0
100
AcDbEntity
  8
0
100
AcDbBlockBegin
  2
A$C46F93324
 70
     0
 10
0.0
 20
0.0
 30
0.0
  3
A$C46F93324
  1

  0
INSERT
  5
5DF
100
AcDbEntity
  8
0
100
AcDbBlockReference
  2
A$C5FA07A05
 10
0.0
 20
0.0
 30
0.0
 41
1.5
 42
1.5
 43
1.5
  0
ENDBLK
  5
5E1
100
AcDbEntity
  8
0
100
AcDbBlockEnd
  0
BLOCK
  5
6CC
100
AcDbEntity
  8
0
100
AcDbBlockBegin
  2
A$C0F445EDA
 70
     0
 10
0.0
 20
0.0
 30
0.0
  3
A$C0F445EDA
  1

  0
LINE
  5
64B
100
AcDbEntity
  8
0
100
AcDbLine
 10
1.638399
 20
4.3848
 30
0.0
 11
0.0
 21
4.3848
 31
0.0
  0
LINE
  5
64C
100
AcDbEntity
  8
0
100
AcDbLine
 10
25.693238
 20
6.388388
 30
0.0
 11
23.44161
 21
3.231049
 31
0.0
  0
ARC
  5
64D
100
AcDbEntity
  8
GREEN
  6
CONTINUOUS
100
AcDbCircle
 39
1.8
 10
21.3923
 20
1.96531
 30
0.0
 40
0.016501
100
AcDbArc
 50
252.745313
 51
1.373158
  0
LINE
  5
64E
100
AcDbEntity
  8
GREEN
  6
CONTINUOUS
100
AcDbLine
 39
1.8
 10
21.408796
 20
2.567805
 30
0.0
 11
21.408796
 21
1.965705
 31
0.0
  0
ARC
  5
64F
100
AcDbEntity
  8
GREEN
  6
CONTINUOUS
100
AcDbCircle
 39
1.8
 10
21.359819
 20
2.584217
 30
0.0
 40
0.051654
100
AcDbArc
 50
341.47451
 51
98.091202
  0
LINE
  5
650
100
AcDbEntity
  8
GREEN
  6
CONTINUOUS
100
AcDbLine
 39
1.8
 10
21.278357
 20
2.65744
 30
0.0
 11
21.352548
 21
2.635357
 31
0.0
  0
ARC
  5
651
100
AcDbEntity
  8
GREEN
  6
CONTINUOUS
100
AcDbCircle
 39
1.8
 10
21.278357
 20
2.667565
 30
0.0
 40
0.010125
100
AcDbArc
 50
90.0
 51
270.0
  0
LINE
  5
652
100
AcDbEntity
  8
GREEN
  6
CONTINUOUS
100
AcDbLine
 39
1.8
 10
21.292982
 20
2.67769
 30
0.0
 11
21.278357
 21
2.67769
 31
0.0
  0
LINE
  5
653
100
AcDbEntity
  8
GREEN
  6
CONTINUOUS
100
AcDbLine
 39
1.8
 10
21.334269
 20
2.696906
 30
0.0
 11
21.292982
 21
2.67769
 31
0.0
  0
LINE
  5
654
100
AcDbEntity
  8
GREEN
  6
CONTINUOUS
100
AcDbLine
 39
1.8
 10
21.322325
 20
2.702476
 30
0.0
 11
21.334269
 21
2.696906
 31
0.0
  0
ARC
  5
655
100
AcDbEntity
  8
GREEN
  6
CONTINUOUS
100
AcDbCircle
 39
1.8
 10
21.326129
 20
2.710632
 30
0.0
 40
0.009
100
AcDbArc
 50
90.0
 51
245.0
  0
LINE
  5
656
100
AcDbEntity
  8
GREEN
  6
CONTINUOUS
100
AcDbLine
 39
1.8
 10
21.439674
 20
2.654077
 30
0.0
 11
21.326129
 21
2.719632
 31
0.0
  0
ARC
  5
657
100
AcDbEntity
  8
GREEN
  6
CONTINUOUS
100
AcDbCircle
 39
1.8
 10
21.42568
 20
2.640083
 30
0.0
 40
0.01979
100
AcDbArc
 50
15.0
 51
45.0
  0
LINE
  5
658
100
AcDbEntity
  8
GREEN
  6
CONTINUOUS
100
AcDbLine
 39
1.8
 10
21.444796
 20
1.864455
 30
0.0
 11
21.444796
 21
2.645205
 31
0.0
  0
LINE
  5
659
100
AcDbEntity
  8
GREEN
  6
CONTINUOUS
100
AcDbLine
 39
1.8
 10
19.691094
 20
2.876955
 30
0.0
 11
21.444796
 21
1.864455
 31
0.0
  0
LINE
  5
65A
100
AcDbEntity
  8
GREEN
  6
CONTINUOUS
100
AcDbLine
 39
1.8
 10
21.387405
 20
1.949552
 30
0.0
 11
19.793485
 21
2.869802
 31
0.0
  0
LINE
  5
65B
100
AcDbEntity
  8
GREEN
  6
CONTINUOUS
100
AcDbLine
 39
1.8
 10
19.691094
 20
3.657705
 30
0.0
 11
19.691094
 21
2.876955
 31
0.0
  0
ARC
  5
65C
100
AcDbEntity
  8
GREEN
  6
CONTINUOUS
100
AcDbCircle
 39
1.8
 10
19.697844
 20
3.657705
 30
0.0
 40
0.00675
100
AcDbArc
 50
90.0
 51
180.0
  0
LINE
  5
65D
100
AcDbEntity
  8
GREEN
  6
CONTINUOUS
100
AcDbLine
 39
1.8
 10
19.810359
 20
3.59787
 30
0.0
 11
19.697844
 21
3.664455
 31
0.0
  0
ARC
  5
65E
100
AcDbEntity
  8
GREEN
  6
CONTINUOUS
100
AcDbCircle
 39
1.8
 10
19.805859
 20
3.590076
 30
0.0
 40
0.009
100
AcDbArc
 50
265.0
 51
60.0
  0
LINE
  5
65F
100
AcDbEntity
  8
GREEN
  6
CONTINUOUS
100
AcDbLine
 39
1.8
 10
19.791946
 20
3.582259
 30
0.0
 11
19.805074
 21
3.58111
 31
0.0
  0
LINE
  5
660
100
AcDbEntity
  8
GREEN
  6
CONTINUOUS
100
AcDbLine
 39
1.8
 10
19.783278
 20
3.564108
 30
0.0
 11
19.791946
 21
3.582259
 31
0.0
  0
LINE
  5
661
100
AcDbEntity
  8
GREEN
  6
CONTINUOUS
100
AcDbLine
 39
1.8
 10
19.795944
 20
3.540025
 30
0.0
 11
19.783278
 21
3.564108
 31
0.0
  0
ARC
  5
662
100
AcDbEntity
  8
GREEN
  6
CONTINUOUS
100
AcDbCircle
 39
1.8
 10
19.790881
 20
3.531256
 30
0.0
 40
0.010125
100
AcDbArc
 50
240.0
 51
60.0
  0
LINE
  5
663
100
AcDbEntity
  8
GREEN
  6
CONTINUOUS
100
AcDbLine
 39
1.8
 10
19.740344
 20
3.564619
 30
0.0
 11
19.785819
 21
3.522488
 31
0.0
  0
ARC
  5
664
100
AcDbEntity
  8
GREEN
  6
CONTINUOUS
100
AcDbCircle
 39
1.8
 10
19.733715
 20
3.563159
 30
0.0
 40
0.006787
100
AcDbArc
 50
12.423788
 51
197.604591
  0
LINE
  5
665
100
AcDbEntity
  8
GREEN
  6
CONTINUOUS
100
AcDbLine
 39
1.8
 10
19.727094
 20
2.978205
 30
0.0
 11
19.727246
 21
3.561106
 31
0.0
  0
ARC
  5
666
100
AcDbEntity
  8
GREEN
  6
CONTINUOUS
100
AcDbCircle
 39
1.8
 10
19.866844
 20
2.989261
 30
0.0
 40
0.140186
100
AcDbArc
 50
184.523413
 51
238.446514
  0
LINE
  5
667
100
AcDbEntity
  8
2
  6
CONTINUOUS
 62
     4
100
AcDbLine
 10
20.805052
 20
3.064776
 30
0.0
 11
21.194764
 21
2.839776
 31
0.0
  0
LINE
  5
668
100
AcDbEntity
  8
2
  6
CONTINUOUS
 62
     4
100
AcDbLine
 10
20.805052
 20
3.055776
 30
0.0
 11
21.194764
 21
2.830776
 31
0.0
  0
LINE
  5
669
100
AcDbEntity
  8
2
  6
CONTINUOUS
 62
     4
100
AcDbLine
 10
21.387601
 20
3.40111
 30
0.0
 11
20.805052
 21
3.064776
 31
0.0
  0
MTEXT
  5
66A
100
AcDbEntity
  8
2
  6
CONTINUOUS
 62
     9
100
AcDbMText
 10
19.651664
 20
0.951607
 30
0.0
 40
0.6939
 41
4.9041
 71
     1
 72
     5
  1
\fArial|b1|i0|c0|p34;\C7;C L A D
  7
ROMANS
  0
LWPOLYLINE
  5
66B
102
{ACAD_REACTORS
330
6A7
102
}
100
AcDbEntity
  8
1
  6
CONTINUOUS
 62
     5
100
AcDbPolyline
 90
        2
 70
     0
 43
0.0225
 10
21.588903
 20
5.328591
 42
70374.114908
 10
21.589022
 20
5.328576
 42
70374.114908
  0
HATCH
  5
66C
100
AcDbEntity
  8
1
  6
CONTINUOUS
 62
     5
100
AcDbHatch
 10
0.0
 20
0.0
 30
0.0
210
0.0
220
0.0
230
1.0
  2
SOLID
 70
     1
 71
     0
 91
        7
 92
        7
 72
     1
 73
     1
 93
        4
 10
21.60585326212248
 20
5.326078100398461
 42
0.003817909443379
 10
21.57382352059691
 20
5.330085720506588
 42
0.0
 10
19.71910411333799
 20
4.259262971454432
 42
0.0
 10
19.73858968492314
 20
4.248012971454429
 42
0.0
 97
        0
 92
        7
 72
     0
 73
     1
 93
        4
 10
19.73858968492314
 20
4.248012971454429
 10
19.71910411333799
 20
4.259262971454432
 10
19.71910411333799
 20
3.676729693997028
 10
19.73858968492314
 20
3.687979693997032
 97
        0
 92
        7
 72
     0
 73
     1
 93
        4
 10
20.05673455325222
 20
4.191442614075484
 10
20.05673455325222
 20
4.168942614075479
 10
21.84161291045195
 20
3.14969261407548
 10
21.84161291045195
 20
3.160942614075477
 97
        0
 92
        7
 72
     1
 73
     1
 93
        4
 10
23.30306120600615
 20
3.982210180920422
 42
0.002332807343841
 10
23.29596351849317
 20
4.000612329124169
 42
0.0
 10
21.84161291045195
 20
3.160942614075477
 42
0.0
 10
21.84161291045195
 20
3.138442614075483
 42
0.0
 97
        0
 92
        7
 72
     1
 73
     1
 93
        4
 10
23.41669871948504
 20
3.551282903668347
 42
0.0024685623280776
 10
23.41343217423948
 20
3.571896962891496
 42
0.0
 10
22.16154456890215
 20
2.849119316954837
 42
0.0
 10
22.1810301404873
 20
2.837869316954833
 42
0.0
 97
        0
 92
        7
 72
     1
 73
     1
 93
        8
 10
22.1810301404873
 20
2.837869316954833
 42
0.0
 10
22.16154456890215
 20
2.849119316954837
 42
0.0
 10
22.16154456890215
 20
2.017502002857018
 42
-0.5773502691896262
 10
22.14129456890216
 20
2.005810659905922
 42
0.0
 10
21.99007153895284
 20
2.093119316954837
 42
0.0
 10
21.99007153895284
 20
2.070619316954836
 42
0.0
 10
22.1371551404873
 20
1.985700560015526
 42
0.577350269189633
 10
22.1810301404873
 20
2.011031803076217
 42
0.0
 97
        0
 92
        7
 72
     0
 73
     1
 93
        3
 10
20.05673455325224
 20
4.168942614075465
 10
21.84161291045195
 20
3.138442614075483
 10
21.84161291045195
 20
3.14969261407548
 97
        0
 75
     0
 76
     1
 47
0.006507
 98
        7
 10
19.761165
 20
4.274654
 10
19.728486
 20
4.222121
 10
20.069487
 20
4.176688
 10
21.976246
 20
3.231378
 10
22.348417
 20
2.950256
 10
22.172588
 20
2.78334
 10
21.785765
 20
3.178667
  0
HATCH
  5
66D
100
AcDbEntity
  8
1
  6
CONTINUOUS
 62
     5
100
AcDbHatch
 10
0.0
 20
0.0
 30
0.0
210
0.0
220
0.0
230
1.0
  2
SOLID
 70
     1
 71
     0
 91
        7
 92
        7
 72
     1
 73
     1
 93
        4
 10
21.60585326212248
 20
5.326078100398461
 42
0.003817909443379
 10
21.57382352059691
 20
5.330085720506588
 42
0.0
 10
19.71910411333799
 20
4.259262971454432
 42
0.0
 10
19.73858968492314
 20
4.248012971454429
 42
0.0
 97
        0
 92
        7
 72
     0
 73
     1
 93
        4
 10
19.73858968492314
 20
4.248012971454429
 10
19.71910411333799
 20
4.259262971454432
 10
19.71910411333799
 20
3.676729693997028
 10
19.73858968492314
 20
3.687979693997025
 97
        0
 92
        7
 72
     0
 73
     1
 93
        4
 10
20.05673455325222
 20
4.191442614075484
 10
20.05673455325222
 20
4.168942614075479
 10
21.84161291045195
 20
3.14969261407548
 10
21.84161291045195
 20
3.160942614075477
 97
        0
 92
        7
 72
     1
 73
     1
 93
        4
 10
23.30306120600615
 20
3.982210180920422
 42
0.002332807343841
 10
23.29596351849317
 20
4.000612329124169
 42
0.0
 10
21.84161291045195
 20
3.160942614075477
 42
0.0
 10
21.84161291045195
 20
3.138442614075483
 42
0.0
 97
        0
 92
        7
 72
     1
 73
     1
 93
        4
 10
23.41669871948504
 20
3.551282903668347
 42
0.0024685623280776
 10
23.41343217423948
 20
3.571896962891496
 42
0.0
 10
22.16154456890215
 20
2.84911931695483
 42
0.0
 10
22.1810301404873
 20
2.837869316954833
 42
0.0
 97
        0
 92
        7
 72
     1
 73
     1
 93
        8
 10
22.1810301404873
 20
2.837869316954833
 42
0.0
 10
22.16154456890215
 20
2.849119316954837
 42
0.0
 10
22.16154456890215
 20
2.017502002857018
 42
-0.5773502691896262
 10
22.14129456890216
 20
2.005810659905922
 42
0.0
 10
21.99007153895284
 20
2.093119316954837
 42
0.0
 10
21.99007153895284
 20
2.070619316954836
 42
0.0
 10
22.1371551404873
 20
1.985700560015526
 42
0.577350269189633
 10
22.1810301404873
 20
2.011031803076217
 42
0.0
 97
        0
 92
        7
 72
     0
 73
     1
 93
        3
 10
20.05673455325224
 20
4.168942614075465
 10
21.84161291045195
 20
3.138442614075483
 10
21.84161291045195
 20
3.14969261407548
 97
        0
 75
     0
 76
     1
 47
0.006507
 98
        7
 10
19.761165
 20
4.274654
 10
19.728486
 20
4.222121
 10
20.069487
 20
4.176688
 10
21.976246
 20
3.231378
 10
22.348417
 20
2.950256
 10
22.172588
 20
2.78334
 10
21.785765
 20
3.178667
  0
HATCH
  5
66E
100
AcDbEntity
  8
2
  6
CONTINUOUS
 62
     9
100
AcDbHatch
 10
0.0
 20
0.0
 30
0.0
210
0.0
220
0.0
230
1.0
  2
SOLID
 70
     1
 71
     0
 91
        2
 92
       23
 72
     1
 73
     1
 93
       20
 10
21.28016299545672
 20
2.704473499270743
 42
0.0
 10
21.27464585260337
 20
2.69491752753613
 42
0.6681786379192962
 10
21.28730035265335
 20
2.67842586199038
 42
0.0
 10
21.3149968946894
 20
2.685847128062068
 42
0.6681786379192695
 10
21.31716752328348
 20
2.70233468913273
 42
0.0
 10
21.31015353709835
 20
2.706384215944819
 42
-0.6681786379192408
 10
21.31123885139539
 20
2.71462799648015
 42
0.0
 10
21.32316019501902
 20
2.717822310876794
 42
0.6681786379193185
 10
21.32370285216754
 20
2.721944201144463
 42
0.0
 10
20.97740414295099
 20
2.921879854130654
 42
0.0
 10
19.81582911861178
 20
3.592515507116846
 42
0.668178637919208
 10
19.81253078550263
 20
3.589984607106853
 42
0.0
 10
19.81572509989927
 20
3.578063263483212
 42
-0.6681786379193225
 10
19.80912843368097
 20
3.573001463463224
 42
0.0
 10
19.80211444749583
 20
3.577050990275306
 42
0.6681786379193126
 10
19.78892111505924
 20
3.566927390235324
 42
0.0
 10
19.79634238113093
 20
3.53923084819927
 42
0.6681786379193007
 10
19.81695183246926
 20
3.536517562456676
 42
0.0
 10
19.82246897532261
 20
3.546073534191283
 42
0.0
 10
20.00221257812015
 20
3.442298516731003
 42
0.0
 97
        0
 92
        7
 72
     1
 73
     1
 93
       37
 10
19.69784448504629
 20
3.66445544187994
 42
0.4142135623731299
 10
19.69109448504628
 20
3.657705441879951
 42
0.0
 10
19.69109448504628
 20
2.876955441879946
 42
0.0
 10
21.44479592770977
 20
1.86445544187995
 42
0.0
 10
21.44479592770978
 20
2.645205441879948
 42
0.1316524975873667
 10
21.43967389915533
 20
2.65407705557406
 42
0.0
 10
21.32612879131154
 20
2.719632354152832
 42
0.0376464264871547
 10
21.32477926866284
 20
2.719530600531793
 42
-0.2823673447488831
 10
21.32316019501902
 20
2.717822310876794
 42
0.0
 10
21.31965309959276
 20
2.716882587489553
 42
0.5149511874561723
 10
21.32232522695588
 20
2.702475584069507
 42
0.0
 10
21.33426928733808
 20
2.696905977243819
 42
0.0
 10
21.32077034477878
 20
2.690623282456332
 42
-0.2180320882791709
 10
21.3149968946894
 20
2.685847128062068
 42
0.0
 10
21.30441783869354
 20
2.683012478551301
 42
0.0
 10
21.29298200060297
 20
2.677689996434896
 42
0.0
 10
21.27835700060297
 20
2.677689996434896
 42
1.0
 10
21.27835700060297
 20
2.657439996434899
 42
0.0
 10
21.35254844011421
 20
2.635356863309393
 42
-0.5578319223640622
 10
21.40879592770978
 20
2.567805441879958
 42
0.0
 10
21.40879592770978
 20
1.965705441879944
 42
-0.5129809895031772
 10
21.38740508421066
 20
1.94955158505024
 42
0.0
 10
19.7934853285454
 20
2.86980158505025
 42
-0.2397239142270584
 10
19.72709448504629
 20
2.978205441879946
 42
0.0
 10
19.7272456973191
 20
3.561106063595655
 42
-1.046264757040728
 10
19.74034355840388
 20
3.564619101705343
 42
0.0
 10
19.78581892373069
 20
3.522487846090992
 42
0.6309633877406034
 10
19.80088172115385
 20
3.532840549140832
 42
-0.1798205534880095
 10
19.79634238113093
 20
3.53923084819927
 42
0.0
 10
19.79632251605983
 20
3.53930498565391
 42
0.0
 10
19.78327830220034
 20
3.564107922617051
 42
0.0
 10
19.79194557313423
 20
3.582258581358299
 42
0.0
 10
19.8050742362624
 20
3.581109972167336
 42
0.293926452988122
 10
19.81369321794001
 20
3.585646350190177
 42
0.0
 10
19.81253078550263
 20
3.589984607106853
 42
-0.4565659268922137
 10
19.81443612248446
 20
3.592800932517743
 42
0.1814616707363846
 10
19.81052542178983
 20
3.597771250979615
 42
0.0
 97
        0
 75
     0
 76
     1
 47
0.011788
 98
        2
 10
20.031861
 20
3.442229
 10
19.761143
 20
3.601363
  0
LINE
  5
66F
100
AcDbEntity
  8
1
  6
CONTINUOUS
100
AcDbLine
 39
0.09
 10
20.056735
 20
4.191443
 30
0.0
 11
21.841613
 21
3.160943
 31
0.0
  0
LINE
  5
670
100
AcDbEntity
  8
1
  6
CONTINUOUS
100
AcDbLine
 39
0.09
 10
20.056735
 20
4.168943
 30
0.0
 11
21.841613
 21
3.138443
 31
0.0
  0
LINE
  5
671
100
AcDbEntity
  8
1
  6
CONTINUOUS
100
AcDbLine
 10
20.056735
 20
4.168943
 30
0.0
 11
21.841613
 21
3.149693
 31
0.0
  0
LINE
  5
672
100
AcDbEntity
  8
1
  6
CONTINUOUS
 62
     5
100
AcDbLine
 39
0.09
 10
20.056735
 20
4.191443
 30
0.0
 11
21.841613
 21
3.160943
 31
0.0
  0
LINE
  5
673
100
AcDbEntity
  8
1
  6
CONTINUOUS
 62
     5
100
AcDbLine
 39
0.09
 10
20.056735
 20
4.168943
 30
0.0
 11
21.841613
 21
3.138443
 31
0.0
  0
LINE
  5
674
100
AcDbEntity
  8
1
  6
CONTINUOUS
 62
     5
100
AcDbLine
 10
19.719104
 20
4.259263
 30
0.0
 11
21.573824
 21
5.330086
 31
0.0
  0
LINE
  5
675
100
AcDbEntity
  8
1
  6
CONTINUOUS
100
AcDbLine
 10
19.73859
 20
4.248013
 30
0.0
 11
21.605853
 21
5.326078
 31
0.0
  0
LINE
  5
676
100
AcDbEntity
  8
1
  6
CONTINUOUS
 62
     5
100
AcDbLine
 10
19.719104
 20
4.259263
 30
0.0
 11
21.573824
 21
5.330086
 31
0.0
  0
LINE
  5
677
100
AcDbEntity
  8
1
  6
CONTINUOUS
 62
     5
100
AcDbLine
 10
19.73859
 20
4.248013
 30
0.0
 11
21.605853
 21
5.326078
 31
0.0
  0
LINE
  5
678
100
AcDbEntity
  8
1
  6
CONTINUOUS
 62
     5
100
AcDbLine
 10
20.058985
 20
4.187545
 30
0.0
 11
21.913639
 21
5.258331
 31
0.0
  0
HATCH
  5
679
100
AcDbEntity
  8
2
  6
CONTINUOUS
 62
     9
100
AcDbHatch
 10
0.0
 20
0.0
 30
0.0
210
0.0
220
0.0
230
1.0
  2
ANSI31
 70
     0
 71
     0
 91
        1
 92
        7
 72
     1
 73
     1
 93
        8
 10
21.91605995788215
 20
5.261287330253779
 42
0.0
 10
21.91296377957397
 20
5.259499750874098
 42
0.0
 10
21.91318877957397
 20
5.25911003944239
 42
0.0
 10
21.91341377957397
 20
5.258720328010696
 42
0.0
 10
21.91363877957397
 20
5.258330616578987
 42
0.0
 10
20.06123455325223
 20
4.188844537864127
 42
0.0
 10
21.84161291045195
 20
3.160942614075477
 42
0.0
 10
23.29643425489513
 20
4.000884108912561
 42
0.2330962772361932
 97
        0
 75
     0
 76
     1
 52
0.0
 41
0.05
 77
     0
 78
     1
 53
45.0
 43
-2.869635
 44
-30.099459
 45
-0.0044194173824159
 46
0.0044194173824159
 79
     0
 47
0.017346
 98
        1
 10
21.723074
 20
4.322023
  0
HATCH
  5
67A
100
AcDbEntity
  8
2
  6
CONTINUOUS
 62
     9
100
AcDbHatch
 10
0.0
 20
0.0
 30
0.0
210
0.0
220
0.0
230
1.0
  2
ANSI31
 70
     0
 71
     0
 91
        1
 92
        7
 72
     1
 73
     1
 93
        7
 10
20.05673455325222
 20
4.168942614075479
 42
0.0
 10
20.05673455325222
 20
4.191442614075484
 42
0.0
 10
21.91185951597585
 20
5.262499510684364
 42
0.0369683020279065
 10
21.60632399852467
 20
5.326349880186981
 42
0.0
 10
19.73858968492314
 20
4.248012971454429
 42
0.0
 10
19.73858968492314
 20
3.687979693997025
 42
0.0
 10
20.31418822615397
 20
4.020301666721803
 42
0.0
 97
        0
 75
     0
 76
     1
 52
0.0
 41
0.05
 77
     0
 78
     1
 53
45.0
 43
-2.869635
 44
-30.099459
 45
-0.0044194173824159
 46
0.0044194173824159
 79
     0
 47
0.022773
 98
        1
 10
20.009169
 20
4.120982
  0
LINE
  5
67B
100
AcDbEntity
  8
1
  6
CONTINUOUS
100
AcDbLine
 10
20.056735
 20
4.168943
 30
0.0
 11
21.841613
 21
3.149693
 31
0.0
  0
LWPOLYLINE
  5
67C
100
AcDbEntity
  8
1
100
AcDbPolyline
 90
        2
 70
     0
 43
0.01
 10
20.056735
 20
4.191443
 10
21.911389
 20
5.262228
  0
LINE
  5
67D
100
AcDbEntity
  8
0
 62
     3
100
AcDbLine
 10
19.815829
 20
3.592516
 30
0.0
 11
20.977404
 21
2.92188
 31
0.0
  0
LINE
  5
67E
100
AcDbEntity
  8
2
  6
CONTINUOUS
 62
     4
100
AcDbLine
 10
20.997889
 20
3.62611
 30
0.0
 11
20.415341
 21
3.289776
 31
0.0
  0
LINE
  5
67F
100
AcDbEntity
  8
2
  6
CONTINUOUS
 62
     4
100
AcDbLine
 10
21.005684
 20
3.62161
 30
0.0
 11
20.415341
 21
3.280776
 31
0.0
  0
LINE
  5
680
100
AcDbEntity
  8
0
 62
     3
100
AcDbLine
 10
21.280163
 20
2.704473
 30
0.0
 11
20.002213
 21
3.442299
 31
0.0
  0
LINE
  5
681
100
AcDbEntity
  8
1
  6
CONTINUOUS
 62
     5
100
AcDbLine
 39
0.09
 10
20.056735
 20
4.191443
 30
0.0
 11
20.056735
 21
4.168943
 31
0.0
  0
LINE
  5
682
100
AcDbEntity
  8
1
  6
CONTINUOUS
 62
     5
100
AcDbLine
 39
0.09
 10
20.056735
 20
4.191443
 30
0.0
 11
20.056735
 21
4.168943
 31
0.0
  0
LINE
  5
683
100
AcDbEntity
  8
GREEN
100
AcDbLine
 10
19.813938
 20
3.594041
 30
0.0
 11
20.433686
 21
3.951853
 31
0.0
  0
LINE
  5
684
100
AcDbEntity
  8
GREEN
100
AcDbLine
 10
19.697844
 20
3.664455
 30
0.0
 11
20.314659
 21
4.020573
 31
0.0
  0
LINE
  5
685
100
AcDbEntity
  8
0
 62
     3
100
AcDbLine
 10
20.002213
 20
3.442299
 30
0.0
 11
19.822469
 21
3.546074
 31
0.0
  0
LINE
  5
686
100
AcDbEntity
  8
1
  6
CONTINUOUS
 62
     5
100
AcDbLine
 10
19.719104
 20
3.67673
 30
0.0
 11
19.719104
 21
4.259263
 31
0.0
  0
LINE
  5
687
100
AcDbEntity
  8
1
  6
CONTINUOUS
 62
     5
100
AcDbLine
 10
19.719104
 20
3.67673
 30
0.0
 11
19.719104
 21
4.259263
 31
0.0
  0
LINE
  5
688
100
AcDbEntity
  8
1
  6
CONTINUOUS
 62
     5
100
AcDbLine
 10
19.73859
 20
3.68798
 30
0.0
 11
19.73859
 21
4.248013
 31
0.0
  0
LINE
  5
689
100
AcDbEntity
  8
1
  6
CONTINUOUS
 62
     5
100
AcDbLine
 10
19.73859
 20
3.68798
 30
0.0
 11
19.73859
 21
4.248013
 31
0.0
  0
LINE
  5
68A
100
AcDbEntity
  8
0
 62
     3
100
AcDbLine
 10
19.815725
 20
3.578063
 30
0.0
 11
19.812531
 21
3.589985
 31
0.0
  0
LINE
  5
68B
100
AcDbEntity
  8
0
 62
     3
100
AcDbLine
 10
19.822469
 20
3.546074
 30
0.0
 11
19.816952
 21
3.536518
 31
0.0
  0
ARC
  5
68C
100
AcDbEntity
  8
0
 62
     3
100
AcDbCircle
 10
19.811378
 20
3.576899
 30
0.0
 40
0.0045
100
AcDbArc
 50
240.0
 51
15.0
  0
ARC
  5
68D
100
AcDbEntity
  8
0
 62
     3
100
AcDbCircle
 10
19.814704
 20
3.590567
 30
0.0
 40
0.00225
100
AcDbArc
 50
60.0
 51
195.0
  0
LINE
  5
68E
100
AcDbEntity
  8
0
 62
     3
100
AcDbLine
 10
19.796342
 20
3.539231
 30
0.0
 11
19.788921
 21
3.566927
 31
0.0
  0
ARC
  5
68F
100
AcDbEntity
  8
0
 62
     3
100
AcDbCircle
 10
19.797614
 20
3.569257
 30
0.0
 40
0.009
100
AcDbArc
 50
60.0
 51
195.0
  0
ARC
  5
690
100
AcDbEntity
  8
0
 62
     3
100
AcDbCircle
 10
19.807209
 20
3.542143
 30
0.0
 40
0.01125
100
AcDbArc
 50
195.0
 51
330.0
  0
LINE
  5
691
100
AcDbEntity
  8
0
 62
     3
100
AcDbLine
 10
19.802114
 20
3.577051
 30
0.0
 11
19.809128
 21
3.573001
 31
0.0
  0
LINE
  5
692
100
AcDbEntity
  8
1
  6
CONTINUOUS
 62
     5
100
AcDbLine
 10
19.719104
 20
4.259263
 30
0.0
 11
19.73859
 21
4.248013
 31
0.0
  0
LINE
  5
693
100
AcDbEntity
  8
1
  6
CONTINUOUS
 62
     5
100
AcDbLine
 10
19.719104
 20
4.259263
 30
0.0
 11
19.73859
 21
4.248013
 31
0.0
  0
LINE
  5
694
100
AcDbEntity
  8
2
  6
CONTINUOUS
 62
     4
100
AcDbLine
 10
20.025629
 20
3.514776
 30
0.0
 11
20.415341
 21
3.289776
 31
0.0
  0
LINE
  5
695
100
AcDbEntity
  8
2
  6
CONTINUOUS
 62
     4
100
AcDbLine
 10
20.025629
 20
3.505776
 30
0.0
 11
20.415341
 21
3.280776
 31
0.0
  0
LINE
  5
696
100
AcDbEntity
  8
2
  6
CONTINUOUS
 62
     4
100
AcDbLine
 10
20.608178
 20
3.85111
 30
0.0
 11
20.025629
 21
3.514776
 31
0.0
  0
LINE
  5
697
100
AcDbEntity
  8
2
  6
CONTINUOUS
 62
     4
100
AcDbLine
 10
20.025629
 20
3.514776
 30
0.0
 11
20.025629
 21
3.505776
 31
0.0
  0
LINE
  5
698
100
AcDbEntity
  8
2
  6
CONTINUOUS
 62
     4
100
AcDbLine
 10
20.415341
 20
3.289776
 30
0.0
 11
20.415341
 21
3.280776
 31
0.0
  0
LINE
  5
699
100
AcDbEntity
  8
2
  6
CONTINUOUS
 62
     4
100
AcDbLine
 10
20.805052
 20
3.064776
 30
0.0
 11
20.805052
 21
3.055776
 31
0.0
  0
LINE
  5
69A
100
AcDbEntity
  8
1
  6
CONTINUOUS
 62
     5
100
AcDbLine
 10
20.056735
 20
4.191443
 30
0.0
 11
20.056735
 21
4.168943
 31
0.0
  0
LINE
  5
69B
100
AcDbEntity
  8
1
  6
CONTINUOUS
 62
     5
100
AcDbLine
 10
20.056735
 20
4.191443
 30
0.0
 11
20.056735
 21
4.168943
 31
0.0
  0
LINE
  5
69C
100
AcDbEntity
  8
1
  6
CONTINUOUS
100
AcDbLine
 39
0.09
 10
21.841613
 20
3.160943
 30
0.0
 11
21.841613
 21
3.138443
 31
0.0
  0
LINE
  5
69D
100
AcDbEntity
  8
GREEN
100
AcDbLine
 10
21.321763
 20
2.718503
 30
0.0
 11
23.338583
 21
3.882914
 31
0.0
  0
LINE
  5
69E
100
AcDbEntity
  8
1
  6
CONTINUOUS
 62
     5
100
AcDbLine
 10
22.161545
 20
2.849119
 30
0.0
 11
23.413432
 21
3.571897
 31
0.0
  0
LINE
  5
69F
102
{ACAD_REACTORS
330
6A7
102
}
100
AcDbEntity
  8
1
  6
CONTINUOUS
 62
     5
100
AcDbLine
 10
22.18103
 20
2.837869
 30
0.0
 11
23.416699
 21
3.551283
 31
0.0
  0
LINE
  5
6A0
100
AcDbEntity
  8
2
  6
CONTINUOUS
 62
     4
100
AcDbLine
 10
21.480488
 20
2.489229
 30
0.0
 11
23.408717
 21
3.602492
 31
0.0
  0
LINE
  5
6A1
100
AcDbEntity
  8
2
  6
CONTINUOUS
 62
     4
100
AcDbLine
 10
21.496077
 20
2.480229
 30
0.0
 11
23.41157
 21
3.586139
 31
0.0
  0
LINE
  5
6A2
100
AcDbEntity
  8
GREEN
100
AcDbLine
 10
21.444796
 20
2.645205
 30
0.0
 11
23.374527
 21
3.759336
 31
0.0
  0
LINE
  5
6A3
100
AcDbEntity
  8
1
  6
CONTINUOUS
100
AcDbLine
 10
21.841613
 20
3.138443
 30
0.0
 11
23.303061
 21
3.98221
 31
0.0
  0
LINE
  5
6A4
100
AcDbEntity
  8
1
  6
CONTINUOUS
100
AcDbLine
 10
21.841613
 20
3.160943
 30
0.0
 11
23.295964
 21
4.000612
 31
0.0
  0
LINE
  5
6A5
100
AcDbEntity
  8
1
  6
CONTINUOUS
 62
     5
100
AcDbLine
 10
22.166405
 20
1.985701
 30
0.0
 11
23.367963
 21
2.67942
 31
0.0
  0
LWPOLYLINE
  5
6A6
102
{ACAD_REACTORS
330
6A7
102
}
100
AcDbEntity
  8
1
  6
CONTINUOUS
 62
     5
100
AcDbPolyline
 90
        2
 70
     0
 43
0.009
 10
22.165916
 20
1.990589
 10
23.367473
 20
2.684309
  0
HATCH
  5
6A7
100
AcDbEntity
  8
2
  6
CONTINUOUS
 62
     9
100
AcDbHatch
 10
0.0
 20
0.0
 30
0.0
210
0.0
220
0.0
230
1.0
  2
ANSI31
 70
     0
 71
     1
 91
        2
 92
        7
 72
     1
 73
     1
 93
        5
 10
22.1810301404873
 20
2.837869316954833
 42
0.0
 10
22.1810301404873
 20
2.011031803076225
 42
-0.1222318301882331
 10
22.17763620785308
 20
1.997356047873076
 42
0.0
 10
23.37007731747883
 20
2.685812243508284
 42
0.1036486555291187
 10
23.41716945584155
 20
3.551554683430499
 42
0.0
 97
        5
330
69F
330
6AB
330
6B3
330
6A6
330
66B
 92
        7
 72
     1
 73
     1
 93
        4
 10
22.14129456890215
 20
2.005810659905925
 42
0.5773502691893225
 10
22.16154456890215
 20
2.017502002857014
 42
0.0
 10
22.16154456890214
 20
2.186949339013072
 42
0.0
 10
21.99454887118741
 20
2.090534327983952
 42
0.0
 97
        4
330
6B9
330
6B7
330
6BD
330
6A9
 75
     0
 76
     1
 52
0.0
 41
0.05
 77
     0
 78
     1
 53
45.0
 43
-2.869635
 44
-30.099459
 45
-0.0044194173824159
 46
0.0044194173824159
 79
     0
 47
0.022773
 98
        2
 10
22.788245
 20
2.809286
 10
22.101167
 20
2.081704
  0
LINE
  5
6A8
100
AcDbEntity
  8
1
  6
CONTINUOUS
 62
     5
100
AcDbLine
 10
22.161545
 20
2.017502
 30
0.0
 11
22.161545
 21
2.849119
 31
0.0
  0
LINE
  5
6A9
102
{ACAD_REACTORS
330
6A7
102
}
100
AcDbEntity
  8
1
  6
CONTINUOUS
 62
     5
100
AcDbLine
 10
22.161545
 20
2.017502
 30
0.0
 11
22.161545
 21
2.849119
 31
0.0
  0
LINE
  5
6AA
100
AcDbEntity
  8
1
  6
CONTINUOUS
 62
     5
100
AcDbLine
 10
22.18103
 20
2.011032
 30
0.0
 11
22.18103
 21
2.837869
 31
0.0
  0
LINE
  5
6AB
102
{ACAD_REACTORS
330
6A7
102
}
100
AcDbEntity
  8
1
  6
CONTINUOUS
 62
     5
100
AcDbLine
 10
22.18103
 20
2.011032
 30
0.0
 11
22.18103
 21
2.837869
 31
0.0
  0
LINE
  5
6AC
100
AcDbEntity
  8
GREEN
100
AcDbLine
 10
21.444796
 20
1.864455
 30
0.0
 11
22.162015
 21
2.278542
 31
0.0
  0
LINE
  5
6AD
100
AcDbEntity
  8
2
  6
CONTINUOUS
 62
     4
100
AcDbLine
 10
21.496077
 20
2.030229
 30
0.0
 11
22.162015
 21
2.414708
 31
0.0
  0
LINE
  5
6AE
100
AcDbEntity
  8
2
  6
CONTINUOUS
 62
     4
100
AcDbLine
 10
21.480488
 20
2.489229
 30
0.0
 11
21.496077
 21
2.480229
 31
0.0
  0
LINE
  5
6AF
100
AcDbEntity
  8
2
  6
CONTINUOUS
 62
     4
100
AcDbLine
 10
21.480488
 20
2.039229
 30
0.0
 11
21.496077
 21
2.030229
 31
0.0
  0
LINE
  5
6B0
100
AcDbEntity
  8
2
  6
CONTINUOUS
 62
     4
100
AcDbLine
 10
21.480488
 20
2.489229
 30
0.0
 11
21.480488
 21
2.039229
 31
0.0
  0
LINE
  5
6B1
100
AcDbEntity
  8
2
  6
CONTINUOUS
 62
     4
100
AcDbLine
 10
21.496077
 20
2.480229
 30
0.0
 11
21.496077
 21
2.030229
 31
0.0
  0
ARC
  5
6B2
100
AcDbEntity
  8
1
  6
CONTINUOUS
 62
     5
100
AcDbCircle
 10
22.15178
 20
2.011032
 30
0.0
 40
0.02925
100
AcDbArc
 50
240.0
 51
0.0
  0
ARC
  5
6B3
102
{ACAD_REACTORS
330
6A7
102
}
100
AcDbEntity
  8
1
  6
CONTINUOUS
 62
     5
100
AcDbCircle
 10
22.15178
 20
2.011032
 30
0.0
 40
0.02925
100
AcDbArc
 50
240.0
 51
0.0
  0
LINE
  5
6B4
100
AcDbEntity
  8
1
  6
CONTINUOUS
 62
     5
100
AcDbLine
 10
22.137155
 20
1.985701
 30
0.0
 11
21.990072
 21
2.070619
 31
0.0
  0
LINE
  5
6B5
100
AcDbEntity
  8
1
  6
CONTINUOUS
 62
     5
100
AcDbLine
 10
22.137155
 20
1.985701
 30
0.0
 11
21.990072
 21
2.070619
 31
0.0
  0
LINE
  5
6B6
100
AcDbEntity
  8
1
  6
CONTINUOUS
 62
     5
100
AcDbLine
 10
22.141295
 20
2.005811
 30
0.0
 11
21.990072
 21
2.093119
 31
0.0
  0
LINE
  5
6B7
102
{ACAD_REACTORS
330
6A7
102
}
100
AcDbEntity
  8
1
  6
CONTINUOUS
 62
     5
100
AcDbLine
 10
22.141295
 20
2.005811
 30
0.0
 11
21.990072
 21
2.093119
 31
0.0
  0
LINE
  5
6B8
100
AcDbEntity
  8
1
  6
CONTINUOUS
 62
     5
100
AcDbLine
 10
21.990072
 20
2.093119
 30
0.0
 11
22.161545
 21
2.192119
 31
0.0
  0
LWPOLYLINE
  5
6B9
102
{ACAD_REACTORS
330
6A7
102
}
100
AcDbEntity
  8
1
  6
CONTINUOUS
 62
     5
100
AcDbPolyline
 90
        2
 70
     0
 43
0.009
 10
21.992345
 20
2.089262
 10
22.163818
 20
2.188262
  0
LINE
  5
6BA
100
AcDbEntity
  8
1
  6
CONTINUOUS
 62
     5
100
AcDbLine
 10
21.990072
 20
2.093119
 30
0.0
 11
21.990072
 21
2.070619
 31
0.0
  0
LINE
  5
6BB
100
AcDbEntity
  8
1
  6
CONTINUOUS
 62
     5
100
AcDbLine
 10
21.990072
 20
2.093119
 30
0.0
 11
21.990072
 21
2.070619
 31
0.0
  0
ARC
  5
6BC
100
AcDbEntity
  8
1
  6
CONTINUOUS
 62
     5
100
AcDbCircle
 10
22.148045
 20
2.017502
 30
0.0
 40
0.0135
100
AcDbArc
 50
240.0
 51
0.0
  0
ARC
  5
6BD
102
{ACAD_REACTORS
330
6A7
102
}
100
AcDbEntity
  8
1
  6
CONTINUOUS
 62
     5
100
AcDbCircle
 10
22.148045
 20
2.017502
 30
0.0
 40
0.0135
100
AcDbArc
 50
240.0
 51
0.0
  0
LINE
  5
6BE
100
AcDbEntity
  8
2
  6
CONTINUOUS
 62
     4
100
AcDbLine
 10
21.777312
 20
3.17611
 30
0.0
 11
21.194764
 21
2.839776
 31
0.0
  0
LINE
  5
6BF
100
AcDbEntity
  8
2
  6
CONTINUOUS
 62
     4
100
AcDbLine
 10
21.785106
 20
3.17161
 30
0.0
 11
21.194764
 21
2.830776
 31
0.0
  0
LINE
  5
6C0
100
AcDbEntity
  8
0
 62
     3
100
AcDbLine
 10
20.977404
 20
2.92188
 30
0.0
 11
21.323703
 21
2.721944
 31
0.0
  0
LINE
  5
6C1
100
AcDbEntity
  8
0
 62
     3
100
AcDbLine
 10
21.32316
 20
2.717822
 30
0.0
 11
21.311239
 21
2.714628
 31
0.0
  0
ARC
  5
6C2
100
AcDbEntity
  8
0
 62
     3
100
AcDbCircle
 10
21.312668
 20
2.69454
 30
0.0
 40
0.009
100
AcDbArc
 50
285.0
 51
60.0
  0
ARC
  5
6C3
100
AcDbEntity
  8
0
 62
     3
100
AcDbCircle
 10
21.322578
 20
2.719996
 30
0.0
 40
0.00225
100
AcDbArc
 50
285.0
 51
60.0
  0
LINE
  5
6C4
100
AcDbEntity
  8
0
 62
     3
100
AcDbLine
 10
21.274646
 20
2.694918
 30
0.0
 11
21.280163
 21
2.704473
 31
0.0
  0
ARC
  5
6C5
100
AcDbEntity
  8
0
 62
     3
100
AcDbCircle
 10
21.284389
 20
2.689293
 30
0.0
 40
0.01125
100
AcDbArc
 50
150.0
 51
285.0
  0
LINE
  5
6C6
100
AcDbEntity
  8
0
 62
     3
100
AcDbLine
 10
21.314997
 20
2.685847
 30
0.0
 11
21.2873
 21
2.678426
 31
0.0
  0
LINE
  5
6C7
100
AcDbEntity
  8
0
 62
     3
100
AcDbLine
 10
21.310154
 20
2.706384
 30
0.0
 11
21.317168
 21
2.702335
 31
0.0
  0
ARC
  5
6C8
100
AcDbEntity
  8
0
 62
     3
100
AcDbCircle
 10
21.312404
 20
2.710281
 30
0.0
 40
0.0045
100
AcDbArc
 50
105.0
 51
240.0
  0
LINE
  5
6C9
100
AcDbEntity
  8
2
  6
CONTINUOUS
 62
     4
100
AcDbLine
 10
21.194764
 20
2.839776
 30
0.0
 11
21.194764
 21
2.830776
 31
0.0
  0
LINE
  5
6CA
100
AcDbEntity
  8
1
  6
CONTINUOUS
 62
     5
100
AcDbLine
 10
22.161545
 20
2.849119
 30
0.0
 11
22.18103
 21
2.837869
 31
0.0
  0
LINE
  5
6CB
100
AcDbEntity
  8
1
  6
CONTINUOUS
 62
     5
100
AcDbLine
 10
22.161545
 20
2.849119
 30
0.0
 11
22.18103
 21
2.837869
 31
0.0
  0
ENDBLK
  5
6CD
100
AcDbEntity
  8
0
100
AcDbBlockEnd
  0
BLOCK
  5
76B
100
AcDbEntity
  8
0
100
AcDbBlockBegin
  2
A$C433421F4
 70
     0
 10
0.0
 20
0.0
 30
0.0
  3
A$C433421F4
  1

  0
LINE
  5
761
100
AcDbEntity
  8
R-DOOR-ANNO
100
AcDbLine
 10
3.154888
 20
0.993017
 30
0.0
 11
3.112969
 21
0.897275
 31
0.0
  0
LINE
  5
762
100
AcDbEntity
  8
R-DOOR-ANNO
100
AcDbLine
 10
3.095004
 20
0.993017
 30
0.0
 11
3.053086
 21
0.897275
 31
0.0
  0
TEXT
  5
763
100
AcDbEntity
  8
R-DOOR-ANNO
 62
     0
100
AcDbText
 10
0.690214
 20
0.669488
 30
0.0
 40
0.315
  1
LESS 
100
AcDbText
  0
TEXT
  5
764
100
AcDbEntity
  8
R-DOOR-ANNO
100
AcDbText
 10
2.175729
 20
0.710621
 30
0.0
 40
0.3
  1
6
100
AcDbText
  0
TEXT
  5
765
100
AcDbEntity
  8
R-DOOR-ANNO
 62
     0
100
AcDbText
 10
1.05
 20
0.0
 30
0.0
 40
0.315
  1
[165mm]
100
AcDbText
  0
LINE
  5
766
100
AcDbEntity
  8
R-DOOR-ANNO
100
AcDbLine
 10
2.544988
 20
0.848675
 30
0.0
 11
2.884447
 21
0.848675
 31
0.0
  0
TEXT
  5
767
100
AcDbEntity
  8
R-DOOR-ANNO
100
AcDbText
 10
2.64173
 20
0.496296
 30
0.0
 40
0.27
  1
2
100
AcDbText
  0
TEXT
  5
768
100
AcDbEntity
  8
R-DOOR-ANNO
 62
     0
100
AcDbText
 10
0.0
 20
1.338976
 30
0.0
 40
0.315
  1
CLEAR OPENING
100
AcDbText
  0
TEXT
  5
769
100
AcDbEntity
  8
R-DOOR-ANNO
 62
     0
100
AcDbText
 10
1.2075
 20
1.863976
 30
0.0
 40
0.315
  1
GLASS 
100
AcDbText
  0
TEXT
  5
76A
100
AcDbEntity
  8
R-DOOR-ANNO
100
AcDbText
 10
2.688322
 20
0.946296
 30
0.0
 40
0.27
  1
1
100
AcDbText
  0
ENDBLK
  5
76C
100
AcDbEntity
  8
0
100
AcDbBlockEnd
  0
BLOCK
  5
77E
100
AcDbEntity
  8
0
100
AcDbBlockBegin
  2
*D23
 70
     1
 10
0.0
 20
0.0
 30
0.0
  3
*D23
  1

  0
LINE
  5
77F
100
AcDbEntity
  8
0
  6
BYBLOCK
 62
     0
100
AcDbLine
 10
14.270039
 20
27.050665
 30
0.0
 11
7.762336
 21
27.050665
 31
0.0
  0
LINE
  5
780
100
AcDbEntity
  8
0
  6
BYBLOCK
 62
     0
100
AcDbLine
 10
11.559761
 20
30.30056
 30
0.0
 11
7.762336
 21
30.30056
 31
0.0
  0
LINE
  5
781
100
AcDbEntity
  8
0
  6
BYBLOCK
 62
     0
100
AcDbLine
 10
8.122336
 20
27.410665
 30
0.0
 11
8.122336
 21
28.077032
 31
0.0
  0
LINE
  5
782
100
AcDbEntity
  8
0
  6
BYBLOCK
 62
     0
100
AcDbLine
 10
8.122336
 20
29.94056
 30
0.0
 11
8.122336
 21
29.277032
 31
0.0
  0
SOLID
  5
783
100
AcDbEntity
  8
0
  6
BYBLOCK
 62
     0
100
AcDbTrace
 10
8.062336
 20
27.410665
 30
0.0
 11
8.182336
 21
27.410665
 31
0.0
 12
8.122336
 22
27.050665
 32
0.0
 13
8.122336
 23
27.050665
 33
0.0
  0
SOLID
  5
784
100
AcDbEntity
  8
0
  6
BYBLOCK
 62
     0
100
AcDbTrace
 10
8.062336
 20
29.94056
 30
0.0
 11
8.182336
 21
29.94056
 31
0.0
 12
8.122336
 22
30.30056
 32
0.0
 13
8.122336
 23
30.30056
 33
0.0
  0
MTEXT
  5
785
100
AcDbEntity
  8
0
  6
BYBLOCK
 62
     0
100
AcDbMText
 10
8.122336
 20
28.677032
 30
0.0
 40
0.36
 41
0.0
 71
     5
 72
     1
  1
\A1;3{\H1.000000x;\S1/4;}" [83mm]
  0
POINT
  5
786
100
AcDbEntity
  8
DEFPOINTS
  6
BYBLOCK
 62
     0
100
AcDbPoint
 10
14.395039
 20
27.050665
 30
0.0
  0
POINT
  5
787
100
AcDbEntity
  8
DEFPOINTS
  6
BYBLOCK
 62
     0
100
AcDbPoint
 10
11.684761
 20
30.30056
 30
0.0
  0
POINT
  5
788
100
AcDbEntity
  8
DEFPOINTS
  6
BYBLOCK
 62
     0
100
AcDbPoint
 10
8.122336
 20
30.30056
 30
0.0
  0
ENDBLK
  5
789
100
AcDbEntity
  8
0
100
AcDbBlockEnd
  0
BLOCK
  5
78C
100
AcDbEntity
  8
0
100
AcDbBlockBegin
  2
*D24
 70
     1
 10
0.0
 20
0.0
 30
0.0
  3
*D24
  1

  0
LINE
  5
78D
100
AcDbEntity
  8
0
  6
BYBLOCK
 62
     0
100
AcDbLine
 10
15.800754
 20
30.05056
 30
0.0
 11
21.605054
 21
30.05056
 31
0.0
  0
LINE
  5
78E
100
AcDbEntity
  8
0
  6
BYBLOCK
 62
     0
100
AcDbLine
 10
17.482824
 20
30.30056
 30
0.0
 11
21.605054
 21
30.30056
 31
0.0
  0
LINE
  5
78F
100
AcDbEntity
  8
0
  6
BYBLOCK
 62
     0
100
AcDbLine
 10
21.245054
 20
30.66056
 30
0.0
 11
21.245054
 21
31.02056
 31
0.0
  0
LINE
  5
790
100
AcDbEntity
  8
0
  6
BYBLOCK
 62
     0
100
AcDbLine
 10
21.245054
 20
29.69056
 30
0.0
 11
21.245054
 21
28.992652
 31
0.0
  0
LINE
  5
791
100
AcDbEntity
  8
0
  6
BYBLOCK
 62
     0
100
AcDbLine
 10
21.245054
 20
28.992652
 30
0.0
 11
20.885054
 21
28.992652
 31
0.0
  0
SOLID
  5
792
100
AcDbEntity
  8
0
  6
BYBLOCK
 62
     0
100
AcDbTrace
 10
21.185054
 20
30.66056
 30
0.0
 11
21.305054
 21
30.66056
 31
0.0
 12
21.245054
 22
30.30056
 32
0.0
 13
21.245054
 23
30.30056
 33
0.0
  0
SOLID
  5
793
100
AcDbEntity
  8
0
  6
BYBLOCK
 62
     0
100
AcDbTrace
 10
21.185054
 20
29.69056
 30
0.0
 11
21.305054
 21
29.69056
 31
0.0
 12
21.245054
 22
30.05056
 32
0.0
 13
21.245054
 23
30.05056
 33
0.0
  0
MTEXT
  5
794
100
AcDbEntity
  8
0
  6
BYBLOCK
 62
     0
100
AcDbMText
 10
19.505054
 20
28.992652
 30
0.0
 40
0.36
 41
0.0
 71
     5
 72
     1
  1
\A1;{\H1.000000x;\S1/4;}" [6mm]
  0
POINT
  5
795
100
AcDbEntity
  8
DEFPOINTS
  6
BYBLOCK
 62
     0
100
AcDbPoint
 10
15.675754
 20
30.05056
 30
0.0
  0
POINT
  5
796
100
AcDbEntity
  8
DEFPOINTS
  6
BYBLOCK
 62
     0
100
AcDbPoint
 10
17.357824
 20
30.30056
 30
0.0
  0
POINT
  5
797
100
AcDbEntity
  8
DEFPOINTS
  6
BYBLOCK
 62
     0
100
AcDbPoint
 10
21.245054
 20
30.30056
 30
0.0
  0
ENDBLK
  5
798
100
AcDbEntity
  8
0
100
AcDbBlockEnd
  0
BLOCK
  5
79B
100
AcDbEntity
  8
0
100
AcDbBlockBegin
  2
*D25
 70
     1
 10
0.0
 20
0.0
 30
0.0
  3
*D25
  1

  0
LINE
  5
79C
100
AcDbEntity
  8
0
  6
BYBLOCK
 62
     0
100
AcDbLine
 10
14.284408
 20
20.9554
 30
0.0
 11
7.752152
 21
20.9554
 31
0.0
  0
LINE
  5
79D
100
AcDbEntity
  8
0
  6
BYBLOCK
 62
     0
100
AcDbLine
 10
12.373791
 20
12.920943
 30
0.0
 11
7.752152
 21
12.920943
 31
0.0
  0
LINE
  5
79E
100
AcDbEntity
  8
0
  6
BYBLOCK
 62
     0
100
AcDbLine
 10
8.112152
 20
20.5954
 30
0.0
 11
8.112152
 21
17.717455
 31
0.0
  0
LINE
  5
79F
100
AcDbEntity
  8
0
  6
BYBLOCK
 62
     0
100
AcDbLine
 10
8.112152
 20
13.280943
 30
0.0
 11
8.112152
 21
16.517455
 31
0.0
  0
SOLID
  5
7A0
100
AcDbEntity
  8
0
  6
BYBLOCK
 62
     0
100
AcDbTrace
 10
8.052152
 20
20.5954
 30
0.0
 11
8.172152
 21
20.5954
 31
0.0
 12
8.112152
 22
20.9554
 32
0.0
 13
8.112152
 23
20.9554
 33
0.0
  0
SOLID
  5
7A1
100
AcDbEntity
  8
0
  6
BYBLOCK
 62
     0
100
AcDbTrace
 10
8.052152
 20
13.280943
 30
0.0
 11
8.172152
 21
13.280943
 31
0.0
 12
8.112152
 22
12.920943
 32
0.0
 13
8.112152
 23
12.920943
 33
0.0
  0
MTEXT
  5
7A2
100
AcDbEntity
  8
0
  6
BYBLOCK
 62
     0
100
AcDbMText
 10
8.112152
 20
17.117455
 30
0.0
 40
0.36
 41
0.0
 71
     5
 72
     1
  1
\A1;8{\H1.000000x;\S1/16;}" [204mm]
  0
POINT
  5
7A3
100
AcDbEntity
  8
DEFPOINTS
  6
BYBLOCK
 62
     0
100
AcDbPoint
 10
14.409408
 20
20.9554
 30
0.0
  0
POINT
  5
7A4
100
AcDbEntity
  8
DEFPOINTS
  6
BYBLOCK
 62
     0
100
AcDbPoint
 10
12.498791
 20
12.920943
 30
0.0
  0
POINT
  5
7A5
100
AcDbEntity
  8
DEFPOINTS
  6
BYBLOCK
 62
     0
100
AcDbPoint
 10
8.112152
 20
12.920943
 30
0.0
  0
ENDBLK
  5
7A6
100
AcDbEntity
  8
0
100
AcDbBlockEnd
  0
BLOCK
  5
7A9
100
AcDbEntity
  8
0
100
AcDbBlockBegin
  2
*D26
 70
     1
 10
0.0
 20
0.0
 30
0.0
  3
*D26
  1

  0
LINE
  5
7AA
100
AcDbEntity
  8
0
  6
BYBLOCK
 62
     0
100
AcDbLine
 10
15.805558
 20
13.172943
 30
0.0
 11
20.55361
 21
13.172943
 31
0.0
  0
LINE
  5
7AB
100
AcDbEntity
  8
0
  6
BYBLOCK
 62
     0
100
AcDbLine
 10
17.814565
 20
12.920943
 30
0.0
 11
20.55361
 21
12.920943
 31
0.0
  0
LINE
  5
7AC
100
AcDbEntity
  8
0
  6
BYBLOCK
 62
     0
100
AcDbLine
 10
20.19361
 20
12.560943
 30
0.0
 11
20.19361
 21
12.200943
 31
0.0
  0
LINE
  5
7AD
100
AcDbEntity
  8
0
  6
BYBLOCK
 62
     0
100
AcDbLine
 10
20.19361
 20
13.532943
 30
0.0
 11
20.19361
 21
14.224604
 31
0.0
  0
LINE
  5
7AE
100
AcDbEntity
  8
0
  6
BYBLOCK
 62
     0
100
AcDbLine
 10
20.19361
 20
14.224604
 30
0.0
 11
20.55361
 21
14.224604
 31
0.0
  0
SOLID
  5
7AF
100
AcDbEntity
  8
0
  6
BYBLOCK
 62
     0
100
AcDbTrace
 10
20.13361
 20
12.560943
 30
0.0
 11
20.25361
 21
12.560943
 31
0.0
 12
20.19361
 22
12.920943
 32
0.0
 13
20.19361
 23
12.920943
 33
0.0
  0
SOLID
  5
7B0
100
AcDbEntity
  8
0
  6
BYBLOCK
 62
     0
100
AcDbTrace
 10
20.13361
 20
13.532943
 30
0.0
 11
20.25361
 21
13.532943
 31
0.0
 12
20.19361
 22
13.172943
 32
0.0
 13
20.19361
 23
13.172943
 33
0.0
  0
MTEXT
  5
7B1
100
AcDbEntity
  8
0
  6
BYBLOCK
 62
     0
100
AcDbMText
 10
21.93361
 20
14.224604
 30
0.0
 40
0.36
 41
0.0
 71
     5
 72
     1
  1
\A1;{\H1.000000x;\S1/4;}" [6mm]
  0
POINT
  5
7B2
100
AcDbEntity
  8
DEFPOINTS
  6
BYBLOCK
 62
     0
100
AcDbPoint
 10
15.680558
 20
13.172943
 30
0.0
  0
POINT
  5
7B3
100
AcDbEntity
  8
DEFPOINTS
  6
BYBLOCK
 62
     0
100
AcDbPoint
 10
17.689565
 20
12.920943
 30
0.0
  0
POINT
  5
7B4
100
AcDbEntity
  8
DEFPOINTS
  6
BYBLOCK
 62
     0
100
AcDbPoint
 10
20.19361
 20
12.920943
 30
0.0
  0
ENDBLK
  5
7B5
100
AcDbEntity
  8
0
100
AcDbBlockEnd
  0
ENDSEC
  0
SECTION
  2
ENTITIES
  0
LINE
  5
2E5
100
AcDbEntity
  8
BORDER
 62
     7
100
AcDbLine
 39
15.0
 10
27.512258
 20
4.043594
 30
0.0
 11
27.512258
 21
38.243667
 31
0.0
  0
LINE
  5
2E6
100
AcDbEntity
  8
BORDER
 62
     7
100
AcDbLine
 39
15.0
 10
1.81902
 20
38.243667
 30
0.0
 11
1.81902
 21
4.043594
 31
0.0
  0
LWPOLYLINE
  5
2E7
100
AcDbEntity
  8
R-DOOR-DETL
 62
     3
100
AcDbPolyline
 90
        8
 70
     1
 43
0.0
 10
14.396493
 20
23.172943
 10
14.396493
 20
23.122943
 10
13.904573
 20
23.122943
 42
0.414214
 10
13.748573
 20
22.966943
 10
13.748573
 20
13.172943
 10
13.698573
 20
13.172943
 10
13.698573
 20
22.966943
 42
-0.414214
 10
13.904573
 20
23.172943
  0
LINE
  5
2E8
100
AcDbEntity
  8
R-DOOR-DETL
 62
     3
100
AcDbLine
 10
13.758573
 20
13.185943
 30
0.0
 11
13.758573
 21
22.959396
 31
0.0
  0
LWPOLYLINE
  5
2E9
100
AcDbEntity
  8
R-DOOR-DETL
 62
     3
100
AcDbPolyline
 90
        8
 70
     1
 43
0.0
 10
14.982638
 20
23.172943
 10
14.982638
 20
23.122943
 10
15.474558
 20
23.122943
 42
-0.414214
 10
15.630558
 20
22.966943
 10
15.630558
 20
13.172943
 10
15.680558
 20
13.172943
 10
15.680558
 20
22.966943
 42
0.414214
 10
15.474558
 20
23.172943
  0
LINE
  5
2EA
100
AcDbEntity
  8
R-DOOR-DETL
 62
     3
100
AcDbLine
 10
15.620558
 20
22.959396
 30
0.0
 11
15.620558
 21
13.185943
 31
0.0
  0
MTEXT
  5
2EB
100
AcDbEntity
  8
R-DOOR-ANNO
  6
CONTINUOUS
100
AcDbMText
 10
16.973107
 20
20.048899
 30
0.0
 40
0.36
 41
0.0
 71
     4
 72
     1
  1
SHOE
  7
ROMANS
  0
DIMENSION
  5
2EC
100
AcDbEntity
  8
DIMN
 62
     7
100
AcDbDimension
  2
*D10
 10
23.796347
 20
12.920943
 30
0.0
 11
23.796347
 21
21.610751
 31
0.0
 70
    32
  1
CLEAR OPENING
  3
STANDARD
100
AcDbAlignedDimension
 13
19.114068
 23
30.30056
 33
0.0
 14
17.689565
 24
12.920943
 34
0.0
 50
90.0
100
AcDbRotatedDimension
1001
ACAD
1000
DSTYLE
1002
{
1070
   270
1070
     7
1070
    40
1040
2.0
1002
}
  0
TEXT
  5
2EF
100
AcDbEntity
  8
R-DOOR-ANNO
  6
CONTINUOUS
100
AcDbText
 10
6.523863
 20
9.252145
 30
0.0
 40
0.46875
  1
10" SQUARE DOOR RAIL BOTTOM. CLAD ONLY
  7
ROMANS
 72
     1
 11
14.827434
 21
9.252145
 31
0.0
100
AcDbText
  0
TEXT
  5
2F0
100
AcDbEntity
  8
R-DOOR-ANNO
  6
CONTINUOUS
100
AcDbText
 10
5.690271
 20
10.033564
 30
0.0
 40
0.46875
  1
4" SQUARE DOOR RAIL TOP. CLAD OR NON CLAD
  7
ROMANS
 72
     1
 11
14.685807
 21
10.033564
 31
0.0
100
AcDbText
  0
LINE
  5
2F1
100
AcDbEntity
  8
BORDER
 62
     7
100
AcDbLine
 39
15.0
 10
1.81902
 20
4.043594
 30
0.0
 11
27.512258
 21
4.043594
 31
0.0
  0
LINE
  5
2F3
100
AcDbEntity
  8
R-DOOR-DETL
 62
     3
100
AcDbLine
 10
13.908573
 20
14.24974
 30
0.0
 11
13.908573
 21
13.595943
 31
0.0
  0
LINE
  5
2F4
100
AcDbEntity
  8
R-DOOR-DETL
 62
     3
100
AcDbLine
 10
15.470558
 20
13.595943
 30
0.0
 11
15.470558
 21
14.24974
 31
0.0
  0
LWPOLYLINE
  5
2F5
100
AcDbEntity
  8
R-DOOR-DETL
 62
     3
100
AcDbPolyline
 90
       32
 70
     1
 43
0.0
 10
15.369565
 20
14.189943
 10
15.369565
 20
14.45974
 42
-0.414214
 10
15.384565
 20
14.47474
 10
15.450558
 20
14.47474
 42
0.414214
 10
15.465558
 20
14.48974
 10
15.465558
 20
14.719943
 42
0.414214
 10
15.434558
 20
14.750943
 10
15.290946
 20
14.750943
 42
0.267949
 10
15.264099
 20
14.735443
 10
15.158385
 20
14.552342
 42
0.40146
 10
15.168573
 20
14.510698
 42
-3.430162
 10
15.060557
 20
14.510698
 42
0.40146
 10
15.070745
 20
14.552342
 10
14.965031
 20
14.735443
 42
0.267949
 10
14.938185
 20
14.750943
 10
14.440946
 20
14.750943
 42
0.267949
 10
14.414099
 20
14.735443
 10
14.308385
 20
14.552342
 42
0.40146
 10
14.318573
 20
14.510698
 42
-3.430162
 10
14.210557
 20
14.510698
 42
0.40146
 10
14.220745
 20
14.552342
 10
14.115031
 20
14.735443
 42
0.267949
 10
14.088185
 20
14.750943
 10
13.944573
 20
14.750943
 42
0.414214
 10
13.913573
 20
14.719943
 10
13.913573
 20
14.48974
 42
0.414214
 10
13.928573
 20
14.47474
 10
13.994565
 20
14.47474
 42
-0.414214
 10
14.009565
 20
14.45974
 10
14.009565
 20
14.189943
 42
0.414214
 10
14.024565
 20
14.174943
 10
15.354565
 20
14.174943
 42
0.414214
  0
LINE
  5
2F6
100
AcDbEntity
  8
R-DOOR-PATT
  6
CONTINUOUS
 62
     5
100
AcDbLine
 10
12.289083
 20
10.920943
 30
0.0
 11
11.687087
 21
11.522939
 31
0.0
  0
LINE
  5
2F7
100
AcDbEntity
  8
R-DOOR-PATT
  6
CONTINUOUS
 62
     5
100
AcDbLine
 10
16.266558
 20
10.920943
 30
0.0
 11
14.266558
 21
12.920943
 31
0.0
  0
LINE
  5
2F8
100
AcDbEntity
  8
R-DOOR-PATT
  6
CONTINUOUS
 62
     5
100
AcDbLine
 10
15.824617
 20
10.920943
 30
0.0
 11
13.824617
 21
12.920943
 31
0.0
  0
LINE
  5
2F9
100
AcDbEntity
  8
R-DOOR-PATT
  6
CONTINUOUS
 62
     5
100
AcDbLine
 10
15.382675
 20
10.920943
 30
0.0
 11
13.382675
 21
12.920943
 31
0.0
  0
LINE
  5
2FA
100
AcDbEntity
  8
R-DOOR-PATT
  6
CONTINUOUS
 62
     5
100
AcDbLine
 10
14.940733
 20
10.920943
 30
0.0
 11
12.940733
 21
12.920943
 31
0.0
  0
LINE
  5
2FB
100
AcDbEntity
  8
R-DOOR-PATT
  6
CONTINUOUS
 62
     5
100
AcDbLine
 10
14.498791
 20
10.920943
 30
0.0
 11
12.498791
 21
12.920943
 31
0.0
  0
LINE
  5
2FC
100
AcDbEntity
  8
R-DOOR-PATT
  6
CONTINUOUS
 62
     5
100
AcDbLine
 10
14.05685
 20
10.920943
 30
0.0
 11
12.05685
 21
12.920943
 31
0.0
  0
LINE
  5
2FD
100
AcDbEntity
  8
R-DOOR-PATT
  6
CONTINUOUS
 62
     5
100
AcDbLine
 10
13.614908
 20
10.920943
 30
0.0
 11
11.687087
 21
12.848764
 31
0.0
  0
LINE
  5
2FE
100
AcDbEntity
  8
R-DOOR-PATT
  6
CONTINUOUS
 62
     5
100
AcDbLine
 10
13.172966
 20
10.920943
 30
0.0
 11
11.687087
 21
12.406822
 31
0.0
  0
LINE
  5
2FF
100
AcDbEntity
  8
R-DOOR-PATT
  6
CONTINUOUS
 62
     5
100
AcDbLine
 10
12.731024
 20
10.920943
 30
0.0
 11
11.687087
 21
11.96488
 31
0.0
  0
LINE
  5
300
100
AcDbEntity
  8
R-DOOR-PATT
  6
CONTINUOUS
 62
     5
100
AcDbLine
 10
16.7085
 20
10.920943
 30
0.0
 11
14.7085
 21
12.920943
 31
0.0
  0
LINE
  5
301
100
AcDbEntity
  8
R-DOOR-PATT
  6
CONTINUOUS
 62
     5
100
AcDbLine
 10
17.687087
 20
11.268181
 30
0.0
 11
16.034325
 21
12.920943
 31
0.0
  0
LINE
  5
302
100
AcDbEntity
  8
R-DOOR-PATT
  6
CONTINUOUS
 62
     5
100
AcDbLine
 10
17.592384
 20
10.920943
 30
0.0
 11
15.592384
 21
12.920943
 31
0.0
  0
LINE
  5
303
100
AcDbEntity
  8
R-DOOR-PATT
  6
CONTINUOUS
 62
     5
100
AcDbLine
 10
17.150442
 20
10.920943
 30
0.0
 11
15.150442
 21
12.920943
 31
0.0
  0
LINE
  5
304
100
AcDbEntity
  8
R-DOOR-PATT
  6
CONTINUOUS
 62
     5
100
AcDbLine
 10
11.847141
 20
10.920943
 30
0.0
 11
11.687087
 21
11.080997
 31
0.0
  0
LINE
  5
305
100
AcDbEntity
  8
R-DOOR-PATT
  6
CONTINUOUS
 62
     5
100
AcDbLine
 10
17.687087
 20
12.594006
 30
0.0
 11
17.360151
 21
12.920943
 31
0.0
  0
LINE
  5
306
100
AcDbEntity
  8
R-DOOR-PATT
  6
CONTINUOUS
 62
     5
100
AcDbLine
 10
17.687087
 20
12.152065
 30
0.0
 11
16.918209
 21
12.920943
 31
0.0
  0
LINE
  5
307
100
AcDbEntity
  8
R-DOOR-PATT
  6
CONTINUOUS
 62
     5
100
AcDbLine
 10
17.687087
 20
11.710123
 30
0.0
 11
16.476267
 21
12.920943
 31
0.0
  0
LINE
  5
308
100
AcDbEntity
  8
0
100
AcDbLine
 10
11.689565
 20
12.920943
 30
0.0
 11
17.689565
 21
12.920943
 31
0.0
  0
LINE
  5
309
100
AcDbEntity
  8
R-DOOR-DETL
 62
     3
100
AcDbLine
 10
15.520558
 20
13.185943
 30
0.0
 11
15.520558
 21
13.565943
 31
0.0
  0
LINE
  5
30A
100
AcDbEntity
  8
R-DOOR-DETL
 62
     3
100
AcDbLine
 10
13.858573
 20
13.565943
 30
0.0
 11
13.858573
 21
13.185943
 31
0.0
  0
LINE
  5
30B
100
AcDbEntity
  8
R-DOOR-DETL
 62
     3
100
AcDbLine
 10
15.605558
 20
13.170943
 30
0.0
 11
15.535558
 21
13.170943
 31
0.0
  0
ARC
  5
30C
100
AcDbEntity
  8
R-DOOR-DETL
 62
     3
100
AcDbCircle
 10
15.535558
 20
13.185943
 30
0.0
 40
0.015
100
AcDbArc
 50
180.0
 51
270.0
  0
ARC
  5
30D
100
AcDbEntity
  8
R-DOOR-DETL
 62
     3
100
AcDbCircle
 10
15.605558
 20
13.185943
 30
0.0
 40
0.015
100
AcDbArc
 50
270.0
 51
0.0
  0
LINE
  5
30E
100
AcDbEntity
  8
R-DOOR-DETL
 62
     3
100
AcDbLine
 10
13.843573
 20
13.170943
 30
0.0
 11
13.773573
 21
13.170943
 31
0.0
  0
ARC
  5
310
100
AcDbEntity
  8
R-DOOR-DETL
 62
     3
100
AcDbCircle
 10
13.773573
 20
13.185943
 30
0.0
 40
0.015
100
AcDbArc
 50
180.0
 51
270.0
  0
ARC
  5
311
100
AcDbEntity
  8
R-DOOR-DETL
 62
     3
100
AcDbCircle
 10
13.843573
 20
13.185943
 30
0.0
 40
0.015
100
AcDbArc
 50
270.0
 51
360.0
  0
ARC
  5
312
100
AcDbEntity
  8
R-DOOR-DETL
 62
     3
100
AcDbCircle
 10
15.485558
 20
13.595943
 30
0.0
 40
0.015
100
AcDbArc
 50
180.0
 51
270.0
  0
LINE
  5
313
100
AcDbEntity
  8
R-DOOR-DETL
 62
     3
100
AcDbLine
 10
15.505558
 20
13.580943
 30
0.0
 11
15.485558
 21
13.580943
 31
0.0
  0
ARC
  5
314
100
AcDbEntity
  8
R-DOOR-DETL
 62
     3
100
AcDbCircle
 10
15.505558
 20
13.565943
 30
0.0
 40
0.015
100
AcDbArc
 50
0.0
 51
90.0
  0
ARC
  5
315
100
AcDbEntity
  8
R-DOOR-DETL
 62
     3
100
AcDbCircle
 10
13.873573
 20
13.565943
 30
0.0
 40
0.015
100
AcDbArc
 50
90.0
 51
180.0
  0
LINE
  5
316
100
AcDbEntity
  8
R-DOOR-DETL
 62
     3
100
AcDbLine
 10
13.893573
 20
13.580943
 30
0.0
 11
13.873573
 21
13.580943
 31
0.0
  0
ARC
  5
317
100
AcDbEntity
  8
R-DOOR-DETL
 62
     3
100
AcDbCircle
 10
13.893573
 20
13.595943
 30
0.0
 40
0.015
100
AcDbArc
 50
270.0
 51
360.0
  0
LWPOLYLINE
  5
318
100
AcDbEntity
  8
R-DOOR-DETL
 62
     3
100
AcDbPolyline
 90
       17
 70
     1
 43
0.0
 10
14.644667
 20
15.039305
 42
2.169752
 10
14.734463
 20
15.039305
 42
-0.939516
 10
14.818674
 20
15.089885
 42
-0.11093
 10
14.844309
 20
15.026125
 42
0.367717
 10
14.87392
 20
15.000943
 10
15.345558
 20
15.000943
 42
0.414214
 10
15.470558
 20
15.125943
 10
15.470558
 20
17.159396
 42
0.414214
 10
15.345558
 20
17.284396
 10
14.689565
 20
17.284396
 10
14.033573
 20
17.284396
 42
0.414214
 10
13.908573
 20
17.159396
 10
13.908573
 20
15.125943
 42
0.414214
 10
14.033573
 20
15.000943
 10
14.50521
 20
15.000943
 42
0.367717
 10
14.534821
 20
15.026125
 42
-0.11093
 10
14.560456
 20
15.089885
 42
-0.939516
  0
LINE
  5
319
100
AcDbEntity
  8
R-DOOR-DETL
 62
     3
100
AcDbLine
 10
15.440558
 20
14.750943
 30
0.0
 11
14.689565
 21
14.750943
 31
0.0
  0
LINE
  5
31A
100
AcDbEntity
  8
R-DOOR-DETL
 62
     3
100
AcDbLine
 10
14.293755
 20
14.530486
 30
0.0
 11
14.369697
 21
14.452935
 31
0.0
  0
LINE
  5
31B
100
AcDbEntity
  8
R-DOOR-DETL
 62
     3
100
AcDbLine
 10
14.635294
 20
14.519943
 30
0.0
 11
14.743836
 21
14.519943
 31
0.0
  0
LINE
  5
31C
100
AcDbEntity
  8
R-DOOR-DETL
 62
     3
100
AcDbLine
 10
14.188623
 20
14.503494
 30
0.0
 11
14.293755
 21
14.530486
 31
0.0
  0
ARC
  5
31D
100
AcDbEntity
  8
R-DOOR-DETL
 62
     3
100
AcDbCircle
 10
15.440558
 20
14.720943
 30
0.0
 40
0.03
100
AcDbArc
 50
0.0
 51
90.0
  0
ARC
  5
31E
100
AcDbEntity
  8
R-DOOR-DETL
 62
     3
100
AcDbCircle
 10
15.455558
 20
14.47974
 30
0.0
 40
0.015
100
AcDbArc
 50
270.0
 51
0.0
  0
LINE
  5
31F
100
AcDbEntity
  8
R-DOOR-DETL
 62
     3
100
AcDbLine
 10
15.389565
 20
14.46474
 30
0.0
 11
15.455558
 21
14.46474
 31
0.0
  0
ARC
  5
320
100
AcDbEntity
  8
R-DOOR-DETL
 62
     3
100
AcDbCircle
 10
15.389565
 20
14.44974
 30
0.0
 40
0.015
100
AcDbArc
 50
90.0
 51
180.0
  0
LINE
  5
321
100
AcDbEntity
  8
R-DOOR-DETL
 62
     3
100
AcDbLine
 10
15.213437
 20
14.470728
 30
0.0
 11
15.125217
 21
14.533961
 31
0.0
  0
LINE
  5
322
100
AcDbEntity
  8
R-DOOR-DETL
 62
     3
100
AcDbLine
 10
15.125217
 20
14.533961
 30
0.0
 11
15.026345
 21
14.489177
 31
0.0
  0
LINE
  5
323
100
AcDbEntity
  8
R-DOOR-DETL
 62
     3
100
AcDbLine
 10
15.470558
 20
14.47974
 30
0.0
 11
15.470558
 21
14.720943
 31
0.0
  0
ARC
  5
324
100
AcDbEntity
  8
R-DOOR-DETL
 62
     3
100
AcDbCircle
 10
13.938573
 20
14.720943
 30
0.0
 40
0.03
100
AcDbArc
 50
90.0
 51
180.0
  0
LINE
  5
325
100
AcDbEntity
  8
R-DOOR-DETL
 62
     3
100
AcDbLine
 10
13.923573
 20
14.46474
 30
0.0
 11
13.989565
 21
14.46474
 31
0.0
  0
ARC
  5
326
100
AcDbEntity
  8
R-DOOR-DETL
 62
     3
100
AcDbCircle
 10
13.923573
 20
14.47974
 30
0.0
 40
0.015
100
AcDbArc
 50
180.0
 51
270.0
  0
ARC
  5
327
100
AcDbEntity
  8
R-DOOR-DETL
 62
     3
100
AcDbCircle
 10
13.989565
 20
14.44974
 30
0.0
 40
0.015
100
AcDbArc
 50
0.0
 51
90.0
  0
LINE
  5
328
100
AcDbEntity
  8
R-DOOR-DETL
 62
     3
100
AcDbLine
 10
13.908573
 20
14.720943
 30
0.0
 11
13.908573
 21
14.47974
 31
0.0
  0
LINE
  5
329
100
AcDbEntity
  8
R-DOOR-DETL
 62
     3
100
AcDbLine
 10
14.007065
 20
14.750943
 30
0.0
 11
15.372065
 21
14.750943
 31
0.0
  0
LINE
  5
32A
100
AcDbEntity
  8
R-DOOR-DETL
 62
     3
100
AcDbLine
 10
14.007065
 20
14.625943
 30
0.0
 11
15.372065
 21
14.625943
 31
0.0
  0
LINE
  5
32B
100
AcDbEntity
  8
R-DOOR-DETL
 62
     3
100
AcDbLine
 10
14.689565
 20
14.750943
 30
0.0
 11
13.938573
 21
14.750943
 31
0.0
  0
LINE
  5
32C
100
AcDbEntity
  8
R-DOOR-DETL
 62
     3
100
AcDbLine
 10
14.635294
 20
14.331943
 30
0.0
 11
14.581023
 21
14.425943
 31
0.0
  0
LINE
  5
32D
100
AcDbEntity
  8
R-DOOR-DETL
 62
     3
100
AcDbLine
 10
14.635294
 20
14.331943
 30
0.0
 11
14.743836
 21
14.331943
 31
0.0
  0
LINE
  5
32E
100
AcDbEntity
  8
R-DOOR-DETL
 62
     3
100
AcDbLine
 10
14.743836
 20
14.331943
 30
0.0
 11
14.798107
 21
14.425943
 31
0.0
  0
LINE
  5
32F
100
AcDbEntity
  8
R-DOOR-DETL
 62
     3
100
AcDbLine
 10
14.159433
 20
14.398951
 30
0.0
 11
14.235375
 21
14.3214
 31
0.0
  0
LINE
  5
330
100
AcDbEntity
  8
R-DOOR-DETL
 62
     3
100
AcDbLine
 10
14.235375
 20
14.3214
 30
0.0
 11
14.340507
 21
14.348392
 31
0.0
  0
ARC
  5
331
100
AcDbEntity
  8
R-DOOR-DETL
 62
     3
100
AcDbCircle
 10
15.389565
 20
14.27974
 30
0.0
 40
0.015
100
AcDbArc
 50
180.0
 51
270.0
  0
LINE
  5
332
100
AcDbEntity
  8
R-DOOR-DETL
 62
     3
100
AcDbLine
 10
15.455558
 20
14.26474
 30
0.0
 11
15.389565
 21
14.26474
 31
0.0
  0
ARC
  5
333
100
AcDbEntity
  8
R-DOOR-DETL
 62
     3
100
AcDbCircle
 10
15.455558
 20
14.24974
 30
0.0
 40
0.015
100
AcDbArc
 50
360.0
 51
90.0
  0
LINE
  5
334
100
AcDbEntity
  8
R-DOOR-DETL
 62
     3
100
AcDbLine
 10
15.103913
 20
14.317925
 30
0.0
 11
15.015693
 21
14.381159
 31
0.0
  0
LINE
  5
335
100
AcDbEntity
  8
R-DOOR-DETL
 62
     3
100
AcDbLine
 10
15.202786
 20
14.36271
 30
0.0
 11
15.103913
 21
14.317925
 31
0.0
  0
LINE
  5
336
100
AcDbEntity
  8
R-DOOR-DETL
 62
     3
100
AcDbLine
 10
13.989565
 20
14.26474
 30
0.0
 11
13.923573
 21
14.26474
 31
0.0
  0
ARC
  5
337
100
AcDbEntity
  8
R-DOOR-DETL
 62
     3
100
AcDbCircle
 10
13.923573
 20
14.24974
 30
0.0
 40
0.015
100
AcDbArc
 50
90.0
 51
180.0
  0
ARC
  5
338
100
AcDbEntity
  8
R-DOOR-DETL
 62
     3
100
AcDbCircle
 10
13.989565
 20
14.27974
 30
0.0
 40
0.015
100
AcDbArc
 50
270.0
 51
360.0
  0
LINE
  5
339
100
AcDbEntity
  8
R-DOOR-DETL
 62
     3
100
AcDbLine
 10
14.007065
 20
14.200943
 30
0.0
 11
15.372065
 21
14.200943
 31
0.0
  0
LINE
  5
33A
100
AcDbEntity
  8
R-DOOR-DETL
 62
     3
100
AcDbLine
 10
15.374565
 20
14.27974
 30
0.0
 11
15.374565
 21
14.44974
 31
0.0
  0
LINE
  5
33B
100
AcDbEntity
  8
R-DOOR-DETL
 62
     3
100
AcDbLine
 10
15.213437
 20
14.470728
 30
0.0
 11
15.202786
 21
14.36271
 31
0.0
  0
LINE
  5
33C
100
AcDbEntity
  8
R-DOOR-DETL
 62
     3
100
AcDbLine
 10
15.026345
 20
14.489177
 30
0.0
 11
15.015693
 21
14.381159
 31
0.0
  0
LINE
  5
33D
100
AcDbEntity
  8
R-DOOR-DETL
 62
     3
100
AcDbLine
 10
14.340507
 20
14.348392
 30
0.0
 11
14.369697
 21
14.452935
 31
0.0
  0
LINE
  5
33E
100
AcDbEntity
  8
R-DOOR-DETL
 62
     3
100
AcDbLine
 10
14.581023
 20
14.425943
 30
0.0
 11
14.635294
 21
14.519943
 31
0.0
  0
LINE
  5
33F
100
AcDbEntity
  8
R-DOOR-DETL
 62
     3
100
AcDbLine
 10
14.798107
 20
14.425943
 30
0.0
 11
14.743836
 21
14.519943
 31
0.0
  0
LINE
  5
340
100
AcDbEntity
  8
R-DOOR-DETL
 62
     3
100
AcDbLine
 10
14.004565
 20
14.44974
 30
0.0
 11
14.004565
 21
14.27974
 31
0.0
  0
LINE
  5
341
100
AcDbEntity
  8
R-DOOR-DETL
 62
     3
100
AcDbLine
 10
14.159433
 20
14.398951
 30
0.0
 11
14.188623
 21
14.503494
 31
0.0
  0
LINE
  5
342
100
AcDbEntity
  8
R-DOOR-DETL
 62
     3
100
AcDbLine
 10
15.372065
 20
14.200943
 30
0.0
 11
15.372065
 21
14.750943
 31
0.0
  0
CIRCLE
  5
343
100
AcDbEntity
  8
R-DOOR-DETL
 62
     3
100
AcDbCircle
 10
15.114565
 20
14.425943
 30
0.0
 40
0.1875
  0
CIRCLE
  5
344
100
AcDbEntity
  8
R-DOOR-DETL
 62
     3
100
AcDbCircle
 10
15.114565
 20
14.425943
 30
0.0
 40
0.1625
  0
CIRCLE
  5
345
100
AcDbEntity
  8
R-DOOR-DETL
 62
     3
100
AcDbCircle
 10
14.689565
 20
14.425943
 30
0.0
 40
0.1625
  0
CIRCLE
  5
346
100
AcDbEntity
  8
R-DOOR-DETL
 62
     3
100
AcDbCircle
 10
14.689565
 20
14.425943
 30
0.0
 40
0.1875
  0
LINE
  5
347
100
AcDbEntity
  8
R-DOOR-DETL
 62
     3
100
AcDbLine
 10
14.007065
 20
14.200943
 30
0.0
 11
14.007065
 21
14.750943
 31
0.0
  0
CIRCLE
  5
348
100
AcDbEntity
  8
R-DOOR-DETL
 62
     3
100
AcDbCircle
 10
14.264565
 20
14.425943
 30
0.0
 40
0.1625
  0
CIRCLE
  5
349
100
AcDbEntity
  8
R-DOOR-DETL
 62
     3
100
AcDbCircle
 10
14.264565
 20
14.425943
 30
0.0
 40
0.1875
  0
LWPOLYLINE
  5
34A
100
AcDbEntity
  8
R-DOOR-DETL
 62
     3
100
AcDbPolyline
 90
       17
 70
     1
 43
0.0
 10
14.534821
 20
19.692668
 42
0.367717
 10
14.50521
 20
19.717849
 10
14.033573
 20
19.717849
 42
0.414214
 10
13.908573
 20
19.592849
 10
13.908573
 20
17.559396
 42
0.414214
 10
14.033573
 20
17.434396
 10
14.689565
 20
17.434396
 10
15.345558
 20
17.434396
 42
0.414214
 10
15.470558
 20
17.559396
 10
15.470558
 20
19.592849
 42
0.414214
 10
15.345558
 20
19.717849
 10
14.87392
 20
19.717849
 42
0.367717
 10
14.844309
 20
19.692668
 42
-0.11093
 10
14.818674
 20
19.628907
 42
-0.939516
 10
14.734463
 20
19.679487
 42
2.169752
 10
14.644667
 20
19.679487
 42
-0.939516
 10
14.560456
 20
19.628907
 42
-0.11093
  0
TEXT
  5
34B
100
AcDbEntity
  8
R-DOOR-ANNO
  6
CONTINUOUS
100
AcDbText
 10
22.757551
 20
4.543594
 30
0.0
 40
0.625
  1
STYLE 06
  7
ROMANS
100
AcDbText
  0
TEXT
  5
34C
100
AcDbEntity
  8
DIMN
100
AcDbText
 10
4.433084
 20
34.804962
 30
0.0
 40
0.375
  1
THE DIMENSION FROM FLOOR TO GLASS
100
AcDbText
  0
TEXT
  5
34D
100
AcDbEntity
  8
DIMN
100
AcDbText
 10
4.433084
 20
36.062488
 30
0.0
 40
0.375
  1
CLAD AND NON-CLAD RAILS
100
AcDbText
  0
TEXT
  5
34E
100
AcDbEntity
  8
DIMN
100
AcDbText
 10
3.56206
 20
35.440599
 30
0.0
 40
0.375
  1
2. IF 1/2"[13mm] THRESHOLD IS USED, 
100
AcDbText
  0
TEXT
  5
34F
100
AcDbEntity
  8
DIMN
100
AcDbText
 10
4.433084
 20
34.178482
 30
0.0
 40
0.375
  1
INCREASES BY 1/2"[13mm] I.E. GLASS
100
AcDbText
  0
LINE
  5
350
100
AcDbEntity
  8
BORDER
 62
     7
100
AcDbLine
 39
15.0
 10
27.512258
 20
38.243667
 30
0.0
 11
1.81902
 21
38.243667
 31
0.0
  0
TEXT
  5
351
100
AcDbEntity
  8
DIMN
100
AcDbText
 10
4.477388
 20
33.558697
 30
0.0
 40
0.375
  1
IS CLEAR OPENING LESS 11-13/16"[300mm]
100
AcDbText
  0
TEXT
  5
352
100
AcDbEntity
  8
DIMN
100
AcDbText
 10
3.663342
 20
36.687488
 30
0.0
 40
0.375
  1
1. DIMENSIONS ARE THE SAME FOR
100
AcDbText
  0
TEXT
  5
353
100
AcDbEntity
  8
0
100
AcDbText
 10
16.703124
 20
26.280054
 30
0.0
 40
0.36
  1
GLASS CLAMP
  7
ROMANS
100
AcDbText
  0
MTEXT
  5
354
100
AcDbEntity
  8
R-DOOR-ANNO
  6
CONTINUOUS
100
AcDbMText
 10
17.240942
 20
22.516019
 30
0.0
 40
0.36
 41
0.0
 71
     4
 72
     1
  1
CLADDING
  7
ROMANS
  0
MTEXT
  5
355
100
AcDbEntity
  8
R-DOOR-ANNO
  6
CONTINUOUS
100
AcDbMText
 10
17.118679
 20
21.305276
 30
0.0
 40
0.36
 41
0.0
 71
     4
 72
     1
  1
GLASS CLAMP
  7
ROMANS
  0
LINE
  5
356
100
AcDbEntity
  8
R-DOOR-PATT
  6
CONTINUOUS
 62
     5
100
AcDbLine
 10
17.590057
 20
32.30056
 30
0.0
 11
15.590057
 21
30.30056
 31
0.0
  0
LINE
  5
357
100
AcDbEntity
  8
R-DOOR-PATT
  6
CONTINUOUS
 62
     5
100
AcDbLine
 10
17.684761
 20
31.953321
 30
0.0
 11
16.031999
 21
30.30056
 31
0.0
  0
LINE
  5
358
100
AcDbEntity
  8
R-DOOR-PATT
  6
CONTINUOUS
 62
     5
100
AcDbLine
 10
17.148116
 20
32.30056
 30
0.0
 11
15.148116
 21
30.30056
 31
0.0
  0
LINE
  5
359
100
AcDbEntity
  8
R-DOOR-PATT
  6
CONTINUOUS
 62
     5
100
AcDbLine
 10
14.054524
 20
32.30056
 30
0.0
 11
12.054524
 21
30.30056
 31
0.0
  0
LINE
  5
35A
100
AcDbEntity
  8
R-DOOR-PATT
  6
CONTINUOUS
 62
     5
100
AcDbLine
 10
14.496465
 20
32.30056
 30
0.0
 11
12.496465
 21
30.30056
 31
0.0
  0
LINE
  5
35B
100
AcDbEntity
  8
R-DOOR-PATT
  6
CONTINUOUS
 62
     5
100
AcDbLine
 10
13.612582
 20
32.30056
 30
0.0
 11
11.684761
 21
30.372739
 31
0.0
  0
LINE
  5
35C
100
AcDbEntity
  8
R-DOOR-PATT
  6
CONTINUOUS
 62
     5
100
AcDbLine
 10
14.938407
 20
32.30056
 30
0.0
 11
12.938407
 21
30.30056
 31
0.0
  0
LINE
  5
35D
100
AcDbEntity
  8
R-DOOR-PATT
  6
CONTINUOUS
 62
     5
100
AcDbLine
 10
15.380349
 20
32.30056
 30
0.0
 11
13.380349
 21
30.30056
 31
0.0
  0
LINE
  5
35E
100
AcDbEntity
  8
R-DOOR-PATT
  6
CONTINUOUS
 62
     5
100
AcDbLine
 10
15.822291
 20
32.30056
 30
0.0
 11
13.822291
 21
30.30056
 31
0.0
  0
LINE
  5
35F
100
AcDbEntity
  8
R-DOOR-PATT
  6
CONTINUOUS
 62
     5
100
AcDbLine
 10
16.264232
 20
32.30056
 30
0.0
 11
14.264232
 21
30.30056
 31
0.0
  0
LINE
  5
360
100
AcDbEntity
  8
R-DOOR-PATT
  6
CONTINUOUS
 62
     5
100
AcDbLine
 10
16.706174
 20
32.30056
 30
0.0
 11
14.706174
 21
30.30056
 31
0.0
  0
LINE
  5
361
100
AcDbEntity
  8
R-DOOR-PATT
  6
CONTINUOUS
 62
     5
100
AcDbLine
 10
12.728698
 20
32.30056
 30
0.0
 11
11.684761
 21
31.256622
 31
0.0
  0
LINE
  5
362
100
AcDbEntity
  8
R-DOOR-PATT
  6
CONTINUOUS
 62
     5
100
AcDbLine
 10
13.17064
 20
32.30056
 30
0.0
 11
11.684761
 21
30.814681
 31
0.0
  0
LINE
  5
363
100
AcDbEntity
  8
R-DOOR-PATT
  6
CONTINUOUS
 62
     5
100
AcDbLine
 10
17.684761
 20
31.51138
 30
0.0
 11
16.473941
 21
30.30056
 31
0.0
  0
LINE
  5
365
100
AcDbEntity
  8
R-DOOR-DETL
100
AcDbLine
 10
14.43996
 20
25.246033
 30
0.0
 11
14.43996
 21
27.050665
 31
0.0
  0
LINE
  5
366
100
AcDbEntity
  8
R-DOOR-DETL
100
AcDbLine
 10
14.499459
 20
25.203559
 30
0.0
 11
14.499459
 21
27.050665
 31
0.0
  0
LINE
  5
367
100
AcDbEntity
  8
R-DOOR-DETL
100
AcDbLine
 10
14.561959
 20
25.214639
 30
0.0
 11
14.561959
 21
27.050665
 31
0.0
  0
LINE
  5
368
100
AcDbEntity
  8
R-DOOR-DETL
100
AcDbLine
 10
14.624459
 20
25.261514
 30
0.0
 11
14.624459
 21
27.050665
 31
0.0
  0
LINE
  5
369
100
AcDbEntity
  8
R-DOOR-DETL
100
AcDbLine
 10
14.749459
 20
25.204443
 30
0.0
 11
14.749459
 21
27.050665
 31
0.0
  0
LINE
  5
36A
100
AcDbEntity
  8
R-DOOR-DETL
100
AcDbLine
 10
14.811959
 20
25.243174
 30
0.0
 11
14.811959
 21
27.050665
 31
0.0
  0
LINE
  5
36B
100
AcDbEntity
  8
R-DOOR-DETL
100
AcDbLine
 10
14.874459
 20
25.267867
 30
0.0
 11
14.874459
 21
27.050665
 31
0.0
  0
LINE
  5
36C
100
AcDbEntity
  8
R-DOOR-DETL
100
AcDbLine
 10
14.931959
 20
25.249751
 30
0.0
 11
14.931959
 21
27.050665
 31
0.0
  0
LINE
  5
36D
100
AcDbEntity
  8
R-DOOR-DETL
 62
     3
100
AcDbLine
 10
14.979565
 20
22.9104
 30
0.0
 11
14.979565
 21
20.925242
 31
0.0
  0
LINE
  5
36E
100
AcDbEntity
  8
R-DOOR-DETL
 62
     3
100
AcDbLine
 10
14.399565
 20
22.9104
 30
0.0
 11
14.399565
 21
20.925242
 31
0.0
  0
LINE
  5
36F
100
AcDbEntity
  8
R-DOOR-DETL
  6
CONTINUOUS
 62
     3
100
AcDbLine
 10
14.439565
 20
22.8704
 30
0.0
 11
14.439565
 21
20.9954
 31
0.0
  0
LINE
  5
370
100
AcDbEntity
  8
R-DOOR-DETL
 62
     3
100
AcDbLine
 10
14.939565
 20
22.8704
 30
0.0
 11
14.939565
 21
20.9954
 31
0.0
  0
LINE
  5
371
100
AcDbEntity
  8
R-DOOR-DETL
100
AcDbLine
 10
15.179565
 20
21.380862
 30
0.0
 11
15.179565
 21
22.897924
 31
0.0
  0
LINE
  5
372
100
AcDbEntity
  8
R-DOOR-DETL
  6
CONTINUOUS
 62
     3
100
AcDbLine
 10
14.199565
 20
21.380862
 30
0.0
 11
14.199565
 21
22.897924
 31
0.0
  0
LWPOLYLINE
  5
373
100
AcDbEntity
  8
R-DOOR-ANNO
  6
CONTINUOUS
100
AcDbPolyline
 90
        3
 70
     0
 43
0.0
 10
15.697542
 20
22.980691
 10
16.630942
 20
22.516019
 10
17.130942
 20
22.516019
1001
ACAD
1000
DSTYLE
1002
{
1070
    40
1040
1.0
1070
    41
1040
0.5
1002
}
  0
LINE
  5
374
100
AcDbEntity
  8
R-DOOR-DETL
 62
     3
100
AcDbLine
 10
13.908573
 20
22.960396
 30
0.0
 11
13.908573
 21
21.392365
 31
0.0
  0
LINE
  5
375
100
AcDbEntity
  8
R-DOOR-DETL
 62
     3
100
AcDbLine
 10
15.470558
 20
21.392365
 30
0.0
 11
15.470558
 21
22.960396
 31
0.0
  0
LINE
  5
376
100
AcDbEntity
  8
R-DOOR-DETL
100
AcDbLine
 10
14.939565
 20
23.972227
 30
0.0
 11
14.939565
 21
22.075251
 31
0.0
  0
LINE
  5
377
100
AcDbEntity
  8
R-DOOR-DETL
100
AcDbLine
 10
14.439565
 20
23.971743
 30
0.0
 11
14.439565
 21
22.075251
 31
0.0
  0
LINE
  5
378
100
AcDbEntity
  8
R-DOOR-DETL
100
AcDbLine
 10
14.753279
 20
23.958022
 30
0.0
 11
14.753279
 21
20.9554
 31
0.0
  0
LINE
  5
379
100
AcDbEntity
  8
R-DOOR-DETL
100
AcDbLine
 10
14.878279
 20
24.015977
 30
0.0
 11
14.878279
 21
20.9554
 31
0.0
  0
LINE
  5
37A
100
AcDbEntity
  8
R-DOOR-DETL
100
AcDbLine
 10
14.815779
 20
24.004897
 30
0.0
 11
14.815779
 21
20.9554
 31
0.0
  0
LINE
  5
37B
100
AcDbEntity
  8
R-DOOR-DETL
100
AcDbLine
 10
14.628279
 20
24.015093
 30
0.0
 11
14.628279
 21
20.9554
 31
0.0
  0
LINE
  5
37C
100
AcDbEntity
  8
R-DOOR-DETL
100
AcDbLine
 10
14.565779
 20
23.976362
 30
0.0
 11
14.565779
 21
20.9554
 31
0.0
  0
LINE
  5
37D
100
AcDbEntity
  8
R-DOOR-DETL
100
AcDbLine
 10
14.503279
 20
23.951669
 30
0.0
 11
14.503279
 21
20.9554
 31
0.0
  0
LINE
  5
37E
100
AcDbEntity
  8
R-DOOR-DETL
100
AcDbLine
 10
14.878279
 20
24.015977
 30
0.0
 11
14.878279
 21
22.075251
 31
0.0
  0
LINE
  5
37F
100
AcDbEntity
  8
R-DOOR-DETL
100
AcDbLine
 10
14.815779
 20
24.004897
 30
0.0
 11
14.815779
 21
22.075251
 31
0.0
  0
LINE
  5
380
100
AcDbEntity
  8
R-DOOR-DETL
100
AcDbLine
 10
14.628279
 20
24.015093
 30
0.0
 11
14.628279
 21
22.075251
 31
0.0
  0
LINE
  5
381
100
AcDbEntity
  8
R-DOOR-DETL
100
AcDbLine
 10
14.565779
 20
23.976362
 30
0.0
 11
14.565779
 21
22.075251
 31
0.0
  0
ARC
  5
382
100
AcDbEntity
  8
R-DOOR-DETL
  6
CONTINUOUS
 62
     3
100
AcDbCircle
 10
14.139565
 20
21.380862
 30
0.0
 40
0.06
100
AcDbArc
 50
301.0
 51
0.0
  0
ARC
  5
383
100
AcDbEntity
  8
R-DOOR-DETL
  6
CONTINUOUS
 62
     3
100
AcDbCircle
 10
15.239565
 20
21.380862
 30
0.0
 40
0.06
100
AcDbArc
 50
180.0
 51
239.0
  0
ARC
  5
384
100
AcDbEntity
  8
R-DOOR-DETL
 62
     3
100
AcDbCircle
 10
15.220558
 20
21.392365
 30
0.0
 40
0.25
100
AcDbArc
 50
330.0
 51
360.0
  0
ARC
  5
385
100
AcDbEntity
  8
R-DOOR-DETL
 62
     3
100
AcDbCircle
 10
14.158573
 20
21.392365
 30
0.0
 40
0.25
100
AcDbArc
 50
180.0
 51
210.0
  0
LWPOLYLINE
  5
386
100
AcDbEntity
  8
R-DOOR-ANNO
  6
CONTINUOUS
100
AcDbPolyline
 90
        3
 70
     0
 43
0.0
 10
15.13602
 20
21.914846
 10
16.508679
 20
21.305276
 10
17.008679
 20
21.305276
1001
ACAD
1000
DSTYLE
1002
{
1070
    40
1040
1.0
1070
    41
1040
0.5
1002
}
  0
LWPOLYLINE
  5
387
100
AcDbEntity
  8
R-DOOR-ANNO
  6
CONTINUOUS
100
AcDbPolyline
 90
        3
 70
     0
 43
0.0
 10
15.406228
 20
20.51677
 10
16.363107
 20
20.048899
 10
16.863107
 20
20.048899
1001
ACAD
1000
DSTYLE
1002
{
1070
    40
1040
1.0
1070
    41
1040
0.5
1002
}
  0
LINE
  5
388
100
AcDbEntity
  8
R-DOOR-DETL
  6
CONTINUOUS
 62
     3
100
AcDbLine
 10
14.96943
 20
20.6804
 30
0.0
 11
14.96943
 21
20.4534
 31
0.0
  0
LINE
  5
389
100
AcDbEntity
  8
R-DOOR-DETL
  6
CONTINUOUS
 62
     3
100
AcDbLine
 10
14.409701
 20
20.6804
 30
0.0
 11
14.409701
 21
20.4534
 31
0.0
  0
LINE
  5
38A
100
AcDbEntity
  8
R-DOOR-DETL
 62
     3
100
AcDbLine
 10
14.239565
 20
20.744043
 30
0.0
 11
14.239565
 21
20.250107
 31
0.0
  0
LINE
  5
38B
100
AcDbEntity
  8
R-DOOR-DETL
  6
CONTINUOUS
 62
     3
100
AcDbLine
 10
14.264701
 20
20.3924
 30
0.0
 11
14.264701
 21
20.723126
 31
0.0
  0
LINE
  5
38C
100
AcDbEntity
  8
R-DOOR-DETL
 62
     3
100
AcDbLine
 10
14.803565
 20
20.663304
 30
0.0
 11
14.803565
 21
20.190107
 31
0.0
  0
LINE
  5
38D
100
AcDbEntity
  8
R-DOOR-DETL
 62
     3
100
AcDbLine
 10
14.813565
 20
20.640943
 30
0.0
 11
14.813565
 21
20.190107
 31
0.0
  0
LINE
  5
38E
100
AcDbEntity
  8
R-DOOR-DETL
 62
     3
100
AcDbLine
 10
14.565565
 20
20.640943
 30
0.0
 11
14.565565
 21
20.190107
 31
0.0
  0
LINE
  5
38F
100
AcDbEntity
  8
R-DOOR-DETL
 62
     3
100
AcDbLine
 10
14.575565
 20
20.663304
 30
0.0
 11
14.575565
 21
20.190107
 31
0.0
  0
LINE
  5
390
100
AcDbEntity
  8
R-DOOR-DETL
  6
CONTINUOUS
 62
     3
100
AcDbLine
 10
15.11443
 20
20.3924
 30
0.0
 11
15.11443
 21
20.723126
 31
0.0
  0
LINE
  5
391
100
AcDbEntity
  8
R-DOOR-DETL
 62
     3
100
AcDbLine
 10
15.139565
 20
20.250107
 30
0.0
 11
15.139565
 21
20.744043
 31
0.0
  0
LINE
  5
392
100
AcDbEntity
  8
R-DOOR-DETL
  6
CONTINUOUS
 62
     3
100
AcDbLine
 10
14.87643
 20
20.2984
 30
0.0
 11
15.02043
 21
20.2984
 31
0.0
  0
LINE
  5
393
100
AcDbEntity
  8
R-DOOR-DETL
 62
     3
100
AcDbLine
 10
14.689565
 20
20.190107
 30
0.0
 11
15.079565
 21
20.190107
 31
0.0
  0
ARC
  5
394
100
AcDbEntity
  8
R-DOOR-DETL
  6
CONTINUOUS
 62
     3
100
AcDbCircle
 10
14.95943
 20
20.4534
 30
0.0
 40
0.01
100
AcDbArc
 50
270.0
 51
360.0
  0
LINE
  5
395
100
AcDbEntity
  8
R-DOOR-DETL
 62
     3
100
AcDbLine
 10
14.939565
 20
20.585057
 30
0.0
 11
14.939565
 21
20.460057
 31
0.0
  0
ARC
  5
396
100
AcDbEntity
  8
R-DOOR-DETL
  6
CONTINUOUS
 62
     3
100
AcDbCircle
 10
14.85643
 20
20.4334
 30
0.0
 40
0.01
100
AcDbArc
 50
90.0
 51
180.0
  0
LINE
  5
397
100
AcDbEntity
  8
R-DOOR-DETL
  6
CONTINUOUS
 62
     3
100
AcDbLine
 10
14.84643
 20
20.4334
 30
0.0
 11
14.84643
 21
20.3284
 31
0.0
  0
ARC
  5
398
100
AcDbEntity
  8
R-DOOR-DETL
  6
CONTINUOUS
 62
     3
100
AcDbCircle
 10
14.87643
 20
20.3284
 30
0.0
 40
0.03
100
AcDbArc
 50
180.0
 51
270.0
  0
LINE
  5
399
100
AcDbEntity
  8
R-DOOR-DETL
  6
CONTINUOUS
 62
     3
100
AcDbLine
 10
14.502701
 20
20.2984
 30
0.0
 11
14.358701
 21
20.2984
 31
0.0
  0
HATCH
  5
39A
100
AcDbEntity
  8
R-DOOR-DETL
 62
     3
100
AcDbHatch
 10
0.0
 20
0.0
 30
0.0
210
0.0
220
0.0
230
1.0
  2
ANSI31
 70
     0
 71
     0
 91
        1
 92
        7
 72
     0
 73
     1
 93
        4
 10
14.43956504595591
 20
20.58505654846798
 10
14.56556504595589
 20
20.58505654846798
 10
14.56556504595589
 20
20.46005654846798
 10
14.43956504595591
 20
20.46005654846798
 97
        0
 75
     0
 76
     1
 52
90.0
 41
0.2
 77
     0
 78
     1
 53
45.0
 43
50.721762
 44
-10.295739
 45
0.0176776695296637
 46
-0.0176776695296637
 79
     0
 47
0.003428
 98
        1
 10
14.50042
 20
20.529467
  0
LINE
  5
39B
100
AcDbEntity
  8
R-DOOR-DETL
 62
     3
100
AcDbLine
 10
14.783565
 20
20.245498
 30
0.0
 11
14.595565
 21
20.245498
 31
0.0
  0
LINE
  5
39C
100
AcDbEntity
  8
R-DOOR-DETL
 62
     3
100
AcDbLine
 10
14.783565
 20
20.305498
 30
0.0
 11
14.595565
 21
20.305498
 31
0.0
  0
LINE
  5
39D
100
AcDbEntity
  8
R-DOOR-DETL
  6
CONTINUOUS
 62
     3
100
AcDbLine
 10
14.419701
 20
20.4434
 30
0.0
 11
14.522701
 21
20.4434
 31
0.0
  0
ARC
  5
39E
100
AcDbEntity
  8
R-DOOR-DETL
  6
CONTINUOUS
 62
     3
100
AcDbCircle
 10
14.419701
 20
20.4534
 30
0.0
 40
0.01
100
AcDbArc
 50
180.0
 51
270.0
  0
LINE
  5
39F
100
AcDbEntity
  8
R-DOOR-DETL
 62
     3
100
AcDbLine
 10
14.439565
 20
20.585057
 30
0.0
 11
14.439565
 21
20.460057
 31
0.0
  0
LINE
  5
3A0
100
AcDbEntity
  8
R-DOOR-DETL
 62
     3
100
AcDbLine
 10
14.783565
 20
20.605498
 30
0.0
 11
14.595565
 21
20.605498
 31
0.0
  0
ARC
  5
3A1
100
AcDbEntity
  8
R-DOOR-DETL
  6
CONTINUOUS
 62
     3
100
AcDbCircle
 10
14.522701
 20
20.4334
 30
0.0
 40
0.01
100
AcDbArc
 50
360.0
 51
90.0
  0
LINE
  5
3A2
100
AcDbEntity
  8
R-DOOR-DETL
 62
     3
100
AcDbLine
 10
14.783565
 20
20.545498
 30
0.0
 11
14.595565
 21
20.545498
 31
0.0
  0
LINE
  5
3A3
100
AcDbEntity
  8
R-DOOR-DETL
 62
     3
100
AcDbLine
 10
14.783565
 20
20.425498
 30
0.0
 11
14.595565
 21
20.425498
 31
0.0
  0
LINE
  5
3A4
100
AcDbEntity
  8
R-DOOR-DETL
 62
     3
100
AcDbLine
 10
14.783565
 20
20.365498
 30
0.0
 11
14.595565
 21
20.365498
 31
0.0
  0
LINE
  5
3A5
100
AcDbEntity
  8
R-DOOR-DETL
 62
     3
100
AcDbLine
 10
14.783565
 20
20.485498
 30
0.0
 11
14.595565
 21
20.485498
 31
0.0
  0
LINE
  5
3A6
100
AcDbEntity
  8
R-DOOR-DETL
 62
     3
100
AcDbLine
 10
14.783565
 20
20.545498
 30
0.0
 11
14.595565
 21
20.545498
 31
0.0
  0
LINE
  5
3A7
100
AcDbEntity
  8
R-DOOR-DETL
  6
CONTINUOUS
 62
     3
100
AcDbLine
 10
14.532701
 20
20.4334
 30
0.0
 11
14.532701
 21
20.3284
 31
0.0
  0
ARC
  5
3A8
100
AcDbEntity
  8
R-DOOR-DETL
  6
CONTINUOUS
 62
     3
100
AcDbCircle
 10
14.502701
 20
20.3284
 30
0.0
 40
0.03
100
AcDbArc
 50
270.0
 51
0.0
  0
LINE
  5
3A9
100
AcDbEntity
  8
R-DOOR-DETL
 62
     3
100
AcDbLine
 10
14.813565
 20
20.275498
 30
0.0
 11
14.565565
 21
20.275498
 31
0.0
  0
LINE
  5
3AA
100
AcDbEntity
  8
R-DOOR-DETL
 62
     3
100
AcDbLine
 10
14.813565
 20
20.635498
 30
0.0
 11
14.565565
 21
20.635498
 31
0.0
  0
LINE
  5
3AB
100
AcDbEntity
  8
R-DOOR-DETL
 62
     3
100
AcDbLine
 10
14.813565
 20
20.575498
 30
0.0
 11
14.565565
 21
20.575498
 31
0.0
  0
LINE
  5
3AC
100
AcDbEntity
  8
R-DOOR-DETL
 62
     3
100
AcDbLine
 10
14.813565
 20
20.395498
 30
0.0
 11
14.565565
 21
20.395498
 31
0.0
  0
LINE
  5
3AD
100
AcDbEntity
  8
R-DOOR-DETL
 62
     3
100
AcDbLine
 10
14.813565
 20
20.335498
 30
0.0
 11
14.565565
 21
20.335498
 31
0.0
  0
LINE
  5
3AE
100
AcDbEntity
  8
R-DOOR-DETL
 62
     3
100
AcDbLine
 10
14.813565
 20
20.455498
 30
0.0
 11
14.565565
 21
20.455498
 31
0.0
  0
LINE
  5
3AF
100
AcDbEntity
  8
R-DOOR-DETL
 62
     3
100
AcDbLine
 10
14.813565
 20
20.515498
 30
0.0
 11
14.565565
 21
20.515498
 31
0.0
  0
ARC
  5
3B0
100
AcDbEntity
  8
R-DOOR-DETL
  6
CONTINUOUS
 62
     3
100
AcDbCircle
 10
14.358701
 20
20.3924
 30
0.0
 40
0.094
100
AcDbArc
 50
180.0
 51
270.0
  0
HATCH
  5
3B1
100
AcDbEntity
  8
R-DOOR-DETL
 62
     3
100
AcDbHatch
 10
0.0
 20
0.0
 30
0.0
210
0.0
220
0.0
230
1.0
  2
ANSI31
 70
     0
 71
     0
 91
        1
 92
        7
 72
     0
 73
     1
 93
        4
 10
14.81356504595588
 20
20.58505654846798
 10
14.81356504595588
 20
20.46005654846798
 10
14.93956504595585
 20
20.46005654846798
 10
14.93956504595585
 20
20.58505654846798
 97
        0
 75
     0
 76
     1
 52
90.0
 41
0.2
 77
     0
 78
     1
 53
135.0
 43
-21.342632
 44
-10.295739
 45
-0.0176776695296637
 46
-0.0176776695296637
 79
     0
 47
0.003428
 98
        1
 10
14.87871
 20
20.529467
  0
LINE
  5
3B2
100
AcDbEntity
  8
R-DOOR-DETL
  6
CONTINUOUS
 62
     3
100
AcDbLine
 10
14.95943
 20
20.4434
 30
0.0
 11
14.85643
 21
20.4434
 31
0.0
  0
LINE
  5
3B3
100
AcDbEntity
  8
R-DOOR-DETL
 62
     3
100
AcDbLine
 10
14.939565
 20
20.585057
 30
0.0
 11
14.439565
 21
20.585057
 31
0.0
  0
LINE
  5
3B4
100
AcDbEntity
  8
R-DOOR-DETL
 62
     3
100
AcDbLine
 10
14.939565
 20
20.460057
 30
0.0
 11
14.439565
 21
20.460057
 31
0.0
  0
LINE
  5
3B5
100
AcDbEntity
  8
R-DOOR-DETL
 62
     3
100
AcDbLine
 10
14.299565
 20
20.190107
 30
0.0
 11
14.689565
 21
20.190107
 31
0.0
  0
LINE
  5
3B6
100
AcDbEntity
  8
R-DOOR-DETL
 62
     3
100
AcDbLine
 10
14.813565
 20
20.215498
 30
0.0
 11
14.565565
 21
20.215498
 31
0.0
  0
ARC
  5
3B7
100
AcDbEntity
  8
R-DOOR-DETL
 62
     3
100
AcDbCircle
 10
14.299565
 20
20.250107
 30
0.0
 40
0.06
100
AcDbArc
 50
180.0
 51
270.0
  0
ARC
  5
3B8
100
AcDbEntity
  8
R-DOOR-DETL
  6
CONTINUOUS
 62
     3
100
AcDbCircle
 10
15.02043
 20
20.3924
 30
0.0
 40
0.094
100
AcDbArc
 50
270.0
 51
360.0
  0
POLYLINE
  5
3B9
100
AcDbEntity
  8
0
  6
BYBLOCK
 62
     0
100
AcDb2dPolyline
 66
     1
 10
0.0
 20
0.0
 30
0.0
 70
     1
 40
0.09
 41
0.09
  0
VERTEX
  5
3BA
100
AcDbEntity
  8
0
  6
BYBLOCK
 62
     0
100
AcDbVertex
100
AcDb2dVertex
 10
15.416041
 20
20.511267
 30
0.0
 42
1.0
  0
VERTEX
  5
3BB
100
AcDbEntity
  8
0
  6
BYBLOCK
 62
     0
100
AcDbVertex
100
AcDb2dVertex
 10
15.396415
 20
20.522272
 30
0.0
 42
1.0
  0
SEQEND
  5
3BC
100
AcDbEntity
  8
0
  6
BYBLOCK
 62
     0
  0
ARC
  5
3BD
100
AcDbEntity
  8
R-DOOR-DETL
 62
     3
100
AcDbCircle
 10
15.079565
 20
20.250107
 30
0.0
 40
0.06
100
AcDbArc
 50
270.0
 51
0.0
  0
LINE
  5
3BE
100
AcDbEntity
  8
R-DOOR-DETL
  6
CONTINUOUS
 62
     3
100
AcDbLine
 10
14.939565
 20
20.9954
 30
0.0
 11
14.979565
 21
20.9954
 31
0.0
  0
ARC
  5
3BF
100
AcDbEntity
  8
R-DOOR-DETL
  6
CONTINUOUS
 62
     3
100
AcDbCircle
 10
14.969723
 20
20.925242
 30
0.0
 40
0.009843
100
AcDbArc
 50
270.0
 51
360.0
  0
LINE
  5
3C0
100
AcDbEntity
  8
R-DOOR-DETL
  6
CONTINUOUS
 62
     3
100
AcDbLine
 10
14.969723
 20
20.9554
 30
0.0
 11
14.969723
 21
20.9154
 31
0.0
  0
LINE
  5
3C1
100
AcDbEntity
  8
R-DOOR-DETL
  6
CONTINUOUS
 62
     3
100
AcDbLine
 10
14.409408
 20
20.9554
 30
0.0
 11
14.621701
 21
20.9554
 31
0.0
  0
LINE
  5
3C2
100
AcDbEntity
  8
R-DOOR-DETL
  6
CONTINUOUS
 62
     3
100
AcDbLine
 10
14.631701
 20
20.9554
 30
0.0
 11
14.409408
 21
20.9554
 31
0.0
  0
LINE
  5
3C3
100
AcDbEntity
  8
R-DOOR-DETL
  6
CONTINUOUS
 62
     3
100
AcDbLine
 10
14.439565
 20
20.9954
 30
0.0
 11
14.399565
 21
20.9954
 31
0.0
  0
LINE
  5
3C4
100
AcDbEntity
  8
R-DOOR-DETL
  6
CONTINUOUS
 62
     3
100
AcDbLine
 10
14.409408
 20
20.9154
 30
0.0
 11
14.621701
 21
20.9154
 31
0.0
  0
LINE
  5
3C5
100
AcDbEntity
  8
R-DOOR-DETL
  6
CONTINUOUS
 62
     3
100
AcDbLine
 10
14.409408
 20
20.9154
 30
0.0
 11
14.631701
 21
20.9154
 31
0.0
  0
ARC
  5
3C6
100
AcDbEntity
  8
R-DOOR-DETL
  6
CONTINUOUS
 62
     3
100
AcDbCircle
 10
14.75743
 20
20.9054
 30
0.0
 40
0.01
100
AcDbArc
 50
90.0
 51
180.0
  0
ARC
  5
3C7
100
AcDbEntity
  8
R-DOOR-DETL
  6
CONTINUOUS
 62
     3
100
AcDbCircle
 10
14.621701
 20
20.9054
 30
0.0
 40
0.01
100
AcDbArc
 50
0.0
 51
90.0
  0
LINE
  5
3C8
100
AcDbEntity
  8
R-DOOR-DETL
  6
CONTINUOUS
 62
     3
100
AcDbLine
 10
14.409408
 20
20.9554
 30
0.0
 11
14.409408
 21
20.9154
 31
0.0
  0
LINE
  5
3C9
100
AcDbEntity
  8
R-DOOR-DETL
  6
CONTINUOUS
 62
     3
100
AcDbLine
 10
14.74743
 20
20.9154
 30
0.0
 11
14.74743
 21
20.9554
 31
0.0
  0
LINE
  5
3CA
100
AcDbEntity
  8
R-DOOR-DETL
  6
CONTINUOUS
 62
     3
100
AcDbLine
 10
14.631701
 20
20.9154
 30
0.0
 11
14.631701
 21
20.9554
 31
0.0
  0
ARC
  5
3CB
100
AcDbEntity
  8
R-DOOR-DETL
  6
CONTINUOUS
 62
     3
100
AcDbCircle
 10
14.409408
 20
20.925242
 30
0.0
 40
0.009843
100
AcDbArc
 50
180.0
 51
270.0
  0
LINE
  5
3CC
100
AcDbEntity
  8
R-DOOR-DETL
  6
CONTINUOUS
 62
     3
100
AcDbLine
 10
14.969723
 20
20.9154
 30
0.0
 11
14.74743
 21
20.9154
 31
0.0
  0
LINE
  5
3CD
100
AcDbEntity
  8
R-DOOR-DETL
  6
CONTINUOUS
 62
     3
100
AcDbLine
 10
14.969723
 20
20.9154
 30
0.0
 11
14.75743
 21
20.9154
 31
0.0
  0
LINE
  5
3CE
100
AcDbEntity
  8
R-DOOR-DETL
  6
CONTINUOUS
 62
     3
100
AcDbLine
 10
14.74743
 20
20.9554
 30
0.0
 11
14.969723
 21
20.9554
 31
0.0
  0
LINE
  5
3CF
100
AcDbEntity
  8
R-DOOR-DETL
  6
CONTINUOUS
 62
     3
100
AcDbLine
 10
14.969723
 20
20.9554
 30
0.0
 11
14.75743
 21
20.9554
 31
0.0
  0
LINE
  5
3D0
100
AcDbEntity
  8
R-DOOR-DETL
  6
CONTINUOUS
100
AcDbLine
 10
14.409408
 20
20.9554
 30
0.0
 11
14.969723
 21
20.9554
 31
0.0
  0
ARC
  5
3D1
100
AcDbEntity
  8
R-DOOR-DETL
  6
CONTINUOUS
 62
     3
100
AcDbCircle
 10
15.364092
 20
21.201042
 30
0.0
 40
0.03
100
AcDbArc
 50
329.0
 51
59.0
  0
POINT
  5
3D2
100
AcDbEntity
  8
R-DOOR-DETL
  6
BYBLOCK
 62
     3
100
AcDbPoint
 10
15.389807
 20
21.185591
 30
0.0
  0
POINT
  5
3D3
100
AcDbEntity
  8
R-DOOR-DETL
  6
BYBLOCK
 62
     3
100
AcDbPoint
 10
15.389807
 20
21.185591
 30
0.0
  0
POINT
  5
3D4
100
AcDbEntity
  8
R-DOOR-DETL
  6
BYBLOCK
 62
     3
100
AcDbPoint
 10
15.379543
 20
21.226757
 30
0.0
  0
ARC
  5
3D5
100
AcDbEntity
  8
R-DOOR-DETL
  6
CONTINUOUS
 62
     3
100
AcDbCircle
 10
15.364092
 20
21.201042
 30
0.0
 40
0.03
100
AcDbArc
 50
329.0
 51
59.0
  0
LINE
  5
3D6
100
AcDbEntity
  8
R-DOOR-DETL
  6
CONTINUOUS
 62
     3
100
AcDbLine
 10
15.379543
 20
21.226757
 30
0.0
 11
15.208663
 21
21.329432
 31
0.0
  0
ARC
  5
3D7
100
AcDbEntity
  8
R-DOOR-DETL
  6
CONTINUOUS
 62
     3
100
AcDbCircle
 10
14.015038
 20
21.201042
 30
0.0
 40
0.03
100
AcDbArc
 50
121.0
 51
211.0
  0
ARC
  5
3D8
100
AcDbEntity
  8
R-DOOR-DETL
  6
CONTINUOUS
 62
     3
100
AcDbCircle
 10
14.015038
 20
21.201042
 30
0.0
 40
0.03
100
AcDbArc
 50
121.0
 51
211.0
  0
POINT
  5
3D9
100
AcDbEntity
  8
R-DOOR-DETL
  6
CONTINUOUS
 62
     3
100
AcDbPoint
 10
13.999587
 20
21.226757
 30
0.0
  0
POINT
  5
3DA
100
AcDbEntity
  8
R-DOOR-DETL
  6
CONTINUOUS
 62
     3
100
AcDbPoint
 10
13.989323
 20
21.185591
 30
0.0
  0
POINT
  5
3DB
100
AcDbEntity
  8
R-DOOR-DETL
  6
CONTINUOUS
 62
     3
100
AcDbPoint
 10
13.989323
 20
21.185591
 30
0.0
  0
LINE
  5
3DC
100
AcDbEntity
  8
R-DOOR-DETL
  6
CONTINUOUS
 62
     3
100
AcDbLine
 10
13.999587
 20
21.226757
 30
0.0
 11
14.170467
 21
21.329432
 31
0.0
  0
ARC
  5
3DD
100
AcDbEntity
  8
R-DOOR-DETL
  6
CONTINUOUS
 62
     3
100
AcDbCircle
 10
14.87943
 20
20.6804
 30
0.0
 40
0.09
100
AcDbArc
 50
360.0
 51
90.0
  0
ARC
  5
3DE
100
AcDbEntity
  8
R-DOOR-DETL
  6
CONTINUOUS
 62
     3
100
AcDbCircle
 10
14.499701
 20
20.6804
 30
0.0
 40
0.09
100
AcDbArc
 50
90.0
 51
180.0
  0
ARC
  5
3DF
100
AcDbEntity
  8
R-DOOR-DETL
  6
CONTINUOUS
 62
     3
100
AcDbCircle
 10
14.75743
 20
20.7804
 30
0.0
 40
0.01
100
AcDbArc
 50
180.0
 51
270.0
  0
ARC
  5
3E0
100
AcDbEntity
  8
R-DOOR-DETL
  6
CONTINUOUS
 62
     3
100
AcDbCircle
 10
14.621701
 20
20.7804
 30
0.0
 40
0.01
100
AcDbArc
 50
270.0
 51
0.0
  0
ARC
  5
3E1
100
AcDbEntity
  8
R-DOOR-DETL
 62
     3
100
AcDbCircle
 10
14.595565
 20
20.640943
 30
0.0
 40
0.03
100
AcDbArc
 50
90.0
 51
180.0
  0
LINE
  5
3E2
100
AcDbEntity
  8
R-DOOR-DETL
 62
     3
100
AcDbLine
 10
14.783565
 20
20.670943
 30
0.0
 11
14.595565
 21
20.670943
 31
0.0
  0
LINE
  5
3E3
100
AcDbEntity
  8
R-DOOR-DETL
  6
CONTINUOUS
 62
     3
100
AcDbLine
 10
14.621701
 20
20.7704
 30
0.0
 11
14.499701
 21
20.7704
 31
0.0
  0
ARC
  5
3E4
100
AcDbEntity
  8
R-DOOR-DETL
 62
     3
100
AcDbCircle
 10
14.783565
 20
20.640943
 30
0.0
 40
0.03
100
AcDbArc
 50
0.0
 51
90.0
  0
LINE
  5
3E5
100
AcDbEntity
  8
R-DOOR-DETL
  6
CONTINUOUS
 62
     3
100
AcDbLine
 10
14.75743
 20
20.7704
 30
0.0
 11
14.87943
 21
20.7704
 31
0.0
  0
ARC
  5
3E6
100
AcDbEntity
  8
R-DOOR-DETL
  6
CONTINUOUS
 62
     3
100
AcDbCircle
 10
14.209565
 20
20.744043
 30
0.0
 40
0.03
100
AcDbArc
 50
0.0
 51
30.0
  0
ARC
  5
3E7
100
AcDbEntity
  8
R-DOOR-DETL
  6
CONTINUOUS
 62
     3
100
AcDbCircle
 10
14.249701
 20
20.723126
 30
0.0
 40
0.015
100
AcDbArc
 50
0.0
 51
31.0
  0
ARC
  5
3E8
100
AcDbEntity
  8
R-DOOR-DETL
  6
CONTINUOUS
 62
     3
100
AcDbCircle
 10
15.12943
 20
20.723126
 30
0.0
 40
0.015
100
AcDbArc
 50
149.0
 51
180.0
  0
ARC
  5
3E9
100
AcDbEntity
  8
R-DOOR-DETL
 62
     3
100
AcDbCircle
 10
15.169565
 20
20.744043
 30
0.0
 40
0.03
100
AcDbArc
 50
150.0
 51
180.0
  0
LINE
  5
3EA
100
AcDbEntity
  8
R-DOOR-DETL
  6
CONTINUOUS
 62
     3
100
AcDbLine
 10
14.74743
 20
20.9054
 30
0.0
 11
14.74743
 21
20.7804
 31
0.0
  0
LINE
  5
3EB
100
AcDbEntity
  8
R-DOOR-DETL
  6
CONTINUOUS
 62
     3
100
AcDbLine
 10
14.631701
 20
20.9054
 30
0.0
 11
14.631701
 21
20.7804
 31
0.0
  0
LINE
  5
3EC
100
AcDbEntity
  8
R-DOOR-DETL
 62
     3
100
AcDbLine
 10
13.942066
 20
21.267365
 30
0.0
 11
14.235546
 21
20.759043
 31
0.0
  0
LINE
  5
3ED
100
AcDbEntity
  8
R-DOOR-DETL
  6
CONTINUOUS
 62
     3
100
AcDbLine
 10
14.262558
 20
20.730852
 30
0.0
 11
13.989323
 21
21.185591
 31
0.0
  0
LINE
  5
3EE
100
AcDbEntity
  8
R-DOOR-DETL
  6
CONTINUOUS
 62
     3
100
AcDbLine
 10
15.116572
 20
20.730852
 30
0.0
 11
15.389807
 21
21.185591
 31
0.0
  0
LINE
  5
3EF
100
AcDbEntity
  8
R-DOOR-DETL
 62
     3
100
AcDbLine
 10
15.143584
 20
20.759043
 30
0.0
 11
15.437064
 21
21.267365
 31
0.0
  0
POLYLINE
  5
3F0
100
AcDbEntity
  8
0
  6
BYBLOCK
 62
     0
100
AcDb2dPolyline
 66
     1
 10
0.0
 20
0.0
 30
0.0
 70
     1
 40
0.09
 41
0.09
  0
VERTEX
  5
3F1
100
AcDbEntity
  8
0
  6
BYBLOCK
 62
     0
100
AcDbVertex
100
AcDb2dVertex
 10
15.145833
 20
21.909344
 30
0.0
 42
1.0
  0
VERTEX
  5
3F2
100
AcDbEntity
  8
0
  6
BYBLOCK
 62
     0
100
AcDbVertex
100
AcDb2dVertex
 10
15.126207
 20
21.920348
 30
0.0
 42
1.0
  0
SEQEND
  5
3F3
100
AcDbEntity
  8
0
  6
BYBLOCK
 62
     0
  0
POLYLINE
  5
3F4
100
AcDbEntity
  8
0
  6
BYBLOCK
 62
     0
100
AcDb2dPolyline
 66
     1
 10
0.0
 20
0.0
 30
0.0
 70
     1
 40
0.09
 41
0.09
  0
VERTEX
  5
3F5
100
AcDbEntity
  8
0
  6
BYBLOCK
 62
     0
100
AcDbVertex
100
AcDb2dVertex
 10
15.707355
 20
22.975189
 30
0.0
 42
1.0
  0
VERTEX
  5
3F6
100
AcDbEntity
  8
0
  6
BYBLOCK
 62
     0
100
AcDbVertex
100
AcDb2dVertex
 10
15.68773
 20
22.986193
 30
0.0
 42
1.0
  0
SEQEND
  5
3F7
100
AcDbEntity
  8
0
  6
BYBLOCK
 62
     0
  0
LINE
  5
3F8
100
AcDbEntity
  8
R-DOOR-DETL
 62
     3
100
AcDbLine
 10
15.387638
 20
23.115396
 30
0.0
 11
15.464558
 21
23.115396
 31
0.0
  0
LINE
  5
3F9
100
AcDbEntity
  8
R-DOOR-DETL
 62
     3
100
AcDbLine
 10
15.440558
 20
22.990396
 30
0.0
 11
15.387638
 21
22.990396
 31
0.0
  0
ARC
  5
3FA
100
AcDbEntity
  8
R-DOOR-DETL
 62
     3
100
AcDbCircle
 10
15.440558
 20
22.960396
 30
0.0
 40
0.03
100
AcDbArc
 50
0.0
 51
90.0
  0
ARC
  5
3FB
100
AcDbEntity
  8
R-DOOR-DETL
 62
     3
100
AcDbCircle
 10
15.464558
 20
22.959396
 30
0.0
 40
0.156
100
AcDbArc
 50
360.0
 51
90.0
  0
LINE
  5
3FC
100
AcDbEntity
  8
R-DOOR-DETL
  6
BYBLOCK
 62
     3
100
AcDbLine
 10
15.357638
 20
23.020396
 30
0.0
 11
15.357638
 21
23.085396
 31
0.0
  0
LINE
  5
3FD
100
AcDbEntity
  8
R-DOOR-DETL
  6
BYBLOCK
 62
     3
100
AcDbLine
 10
15.119565
 20
22.957924
 30
0.0
 11
14.979565
 21
22.957924
 31
0.0
  0
ARC
  5
3FE
100
AcDbEntity
  8
R-DOOR-DETL
  6
BYBLOCK
 62
     3
100
AcDbCircle
 10
15.387638
 20
23.020396
 30
0.0
 40
0.03
100
AcDbArc
 50
180.0
 51
270.0
  0
ARC
  5
3FF
100
AcDbEntity
  8
R-DOOR-DETL
  6
BYBLOCK
 62
     3
100
AcDbCircle
 10
15.387638
 20
23.085396
 30
0.0
 40
0.03
100
AcDbArc
 50
90.0
 51
180.0
  0
LINE
  5
400
100
AcDbEntity
  8
R-DOOR-DETL
  6
BYBLOCK
 62
     3
100
AcDbLine
 10
14.259565
 20
22.957924
 30
0.0
 11
14.399565
 21
22.957924
 31
0.0
  0
LINE
  5
401
100
AcDbEntity
  8
R-DOOR-DETL
  6
BYBLOCK
 62
     3
100
AcDbLine
 10
14.021493
 20
23.085396
 30
0.0
 11
14.021493
 21
23.020396
 31
0.0
  0
ARC
  5
402
100
AcDbEntity
  8
R-DOOR-DETL
  6
BYBLOCK
 62
     3
100
AcDbCircle
 10
13.914573
 20
22.959396
 30
0.0
 40
0.156
100
AcDbArc
 50
90.0
 51
180.0
  0
ARC
  5
403
100
AcDbEntity
  8
R-DOOR-DETL
  6
BYBLOCK
 62
     3
100
AcDbCircle
 10
13.991493
 20
23.020396
 30
0.0
 40
0.03
100
AcDbArc
 50
270.0
 51
0.0
  0
ARC
  5
404
100
AcDbEntity
  8
R-DOOR-DETL
  6
BYBLOCK
 62
     3
100
AcDbCircle
 10
13.938573
 20
22.960396
 30
0.0
 40
0.03
100
AcDbArc
 50
90.0
 51
180.0
  0
LINE
  5
405
100
AcDbEntity
  8
R-DOOR-DETL
  6
BYBLOCK
 62
     3
100
AcDbLine
 10
13.991493
 20
22.990396
 30
0.0
 11
13.938573
 21
22.990396
 31
0.0
  0
ARC
  5
406
100
AcDbEntity
  8
R-DOOR-DETL
  6
BYBLOCK
 62
     3
100
AcDbCircle
 10
13.991493
 20
23.085396
 30
0.0
 40
0.03
100
AcDbArc
 50
0.0
 51
90.0
  0
LINE
  5
407
100
AcDbEntity
  8
R-DOOR-DETL
  6
BYBLOCK
 62
     3
100
AcDbLine
 10
13.914573
 20
23.115396
 30
0.0
 11
13.991493
 21
23.115396
 31
0.0
  0
LINE
  5
408
100
AcDbEntity
  8
R-DOOR-DETL
  6
BYBLOCK
 62
     3
100
AcDbLine
 10
14.399565
 20
22.8704
 30
0.0
 11
14.439565
 21
22.8704
 31
0.0
  0
ARC
  5
409
100
AcDbEntity
  8
R-DOOR-DETL
  6
BYBLOCK
 62
     3
100
AcDbCircle
 10
14.409408
 20
22.9104
 30
0.0
 40
0.009843
100
AcDbArc
 50
109.471221
 51
180.0
  0
LINE
  5
40A
100
AcDbEntity
  8
R-DOOR-DETL
  6
BYBLOCK
 62
     3
100
AcDbLine
 10
14.979565
 20
22.8704
 30
0.0
 11
14.939565
 21
22.8704
 31
0.0
  0
ARC
  5
40B
100
AcDbEntity
  8
R-DOOR-DETL
  6
BYBLOCK
 62
     3
100
AcDbCircle
 10
14.969723
 20
22.9104
 30
0.0
 40
0.009843
100
AcDbArc
 50
0.0
 51
70.528779
  0
ARC
  5
40C
100
AcDbEntity
  8
R-DOOR-DETL
  6
BYBLOCK
 62
     3
100
AcDbCircle
 10
14.259565
 20
22.897924
 30
0.0
 40
0.06
100
AcDbArc
 50
90.0
 51
180.0
  0
ARC
  5
40D
100
AcDbEntity
  8
R-DOOR-DETL
  6
BYBLOCK
 62
     3
100
AcDbCircle
 10
14.399565
 20
22.938239
 30
0.0
 40
0.019685
100
AcDbArc
 50
289.471221
 51
90.0
  0
ARC
  5
40E
100
AcDbEntity
  8
R-DOOR-DETL
  6
BYBLOCK
 62
     3
100
AcDbCircle
 10
15.119565
 20
22.897924
 30
0.0
 40
0.06
100
AcDbArc
 50
0.0
 51
90.0
  0
ARC
  5
40F
100
AcDbEntity
  8
R-DOOR-DETL
  6
BYBLOCK
 62
     3
100
AcDbCircle
 10
14.979565
 20
22.938239
 30
0.0
 40
0.019685
100
AcDbArc
 50
90.0
 51
250.528779
  0
LINE
  5
410
100
AcDbEntity
  8
R-DOOR-DETL
100
AcDbLine
 10
14.541326
 20
23.939682
 30
0.0
 11
14.445779
 21
23.969785
 31
0.0
  0
LINE
  5
411
100
AcDbEntity
  8
R-DOOR-DETL
100
AcDbLine
 10
14.603826
 20
24.033432
 30
0.0
 11
14.541326
 21
23.939682
 31
0.0
  0
LINE
  5
412
100
AcDbEntity
  8
R-DOOR-DETL
100
AcDbLine
 10
14.728826
 20
23.939682
 30
0.0
 11
14.603826
 21
24.033432
 31
0.0
  0
LINE
  5
413
100
AcDbEntity
  8
R-DOOR-DETL
100
AcDbLine
 10
14.853826
 20
24.033432
 30
0.0
 11
14.728826
 21
23.939682
 31
0.0
  0
LINE
  5
414
100
AcDbEntity
  8
R-DOOR-DETL
100
AcDbLine
 10
14.541326
 20
23.939682
 30
0.0
 11
14.439565
 21
23.971743
 31
0.0
  0
LINE
  5
415
100
AcDbEntity
  8
R-DOOR-DETL
100
AcDbLine
 10
14.853826
 20
24.033432
 30
0.0
 11
14.728826
 21
23.939682
 31
0.0
  0
LINE
  5
416
100
AcDbEntity
  8
R-DOOR-DETL
100
AcDbLine
 10
14.603826
 20
24.033432
 30
0.0
 11
14.541326
 21
23.939682
 31
0.0
  0
LINE
  5
417
100
AcDbEntity
  8
R-DOOR-DETL
100
AcDbLine
 10
14.728826
 20
23.939682
 30
0.0
 11
14.603826
 21
24.033432
 31
0.0
  0
LINE
  5
418
100
AcDbEntity
  8
R-DOOR-DETL
100
AcDbLine
 10
14.931205
 20
23.978195
 30
0.0
 11
14.853826
 21
24.033432
 31
0.0
  0
LINE
  5
419
100
AcDbEntity
  8
R-DOOR-DETL
100
AcDbLine
 10
14.939565
 20
23.972227
 30
0.0
 11
14.853826
 21
24.033432
 31
0.0
  0
LINE
  5
41A
100
AcDbEntity
  8
R-DOOR-DETL
100
AcDbLine
 10
14.523912
 20
25.186104
 30
0.0
 11
14.648912
 21
25.279854
 31
0.0
  0
LINE
  5
41B
100
AcDbEntity
  8
R-DOOR-DETL
100
AcDbLine
 10
14.648912
 20
25.279854
 30
0.0
 11
14.773912
 21
25.186104
 31
0.0
  0
LINE
  5
41C
100
AcDbEntity
  8
R-DOOR-DETL
100
AcDbLine
 10
14.773912
 20
25.186104
 30
0.0
 11
14.836412
 21
25.279854
 31
0.0
  0
LINE
  5
41D
100
AcDbEntity
  8
R-DOOR-DETL
100
AcDbLine
 10
14.836412
 20
25.279854
 30
0.0
 11
14.931959
 21
25.249751
 31
0.0
  0
LINE
  5
41E
100
AcDbEntity
  8
R-DOOR-DETL
100
AcDbLine
 10
14.43996
 20
25.246033
 30
0.0
 11
14.523912
 21
25.186104
 31
0.0
  0
LINE
  5
41F
100
AcDbEntity
  8
R-DOOR-DETL
100
AcDbLine
 10
15.367261
 20
29.02056
 30
0.0
 11
15.367261
 21
28.47056
 31
0.0
  0
LINE
  5
420
100
AcDbEntity
  8
R-DOOR-DETL
100
AcDbLine
 10
14.002261
 20
29.02056
 30
0.0
 11
14.002261
 21
28.47056
 31
0.0
  0
LINE
  5
421
100
AcDbEntity
  8
R-DOOR-DETL
100
AcDbLine
 10
14.303581
 20
28.669161
 30
0.0
 11
14.409295
 21
28.48606
 31
0.0
  0
LINE
  5
422
100
AcDbEntity
  8
R-DOOR-DETL
100
AcDbLine
 10
13.903769
 20
28.50056
 30
0.0
 11
13.903769
 21
28.741763
 31
0.0
  0
LINE
  5
423
100
AcDbEntity
  8
R-DOOR-DETL
100
AcDbLine
 10
13.908769
 20
28.731763
 30
0.0
 11
13.908769
 21
28.50156
 31
0.0
  0
LINE
  5
424
100
AcDbEntity
  8
R-DOOR-DETL
100
AcDbLine
 10
14.110227
 20
28.48606
 30
0.0
 11
14.215941
 21
28.669161
 31
0.0
  0
LINE
  5
425
100
AcDbEntity
  8
R-DOOR-DETL
100
AcDbLine
 10
15.153581
 20
28.669161
 30
0.0
 11
15.259295
 21
28.48606
 31
0.0
  0
LINE
  5
426
100
AcDbEntity
  8
R-DOOR-DETL
100
AcDbLine
 10
14.960227
 20
28.48606
 30
0.0
 11
15.065941
 21
28.669161
 31
0.0
  0
LINE
  5
427
100
AcDbEntity
  8
R-DOOR-DETL
100
AcDbLine
 10
15.465754
 20
28.741763
 30
0.0
 11
15.465754
 21
28.50056
 31
0.0
  0
LINE
  5
428
100
AcDbEntity
  8
R-DOOR-DETL
100
AcDbLine
 10
15.460754
 20
28.50156
 30
0.0
 11
15.460754
 21
28.731763
 31
0.0
  0
LINE
  5
429
100
AcDbEntity
  8
R-DOOR-DETL
  6
CONTINUOUS
 62
     2
100
AcDbLine
 10
15.625754
 20
30.05056
 30
0.0
 11
15.625754
 21
26.176568
 31
0.0
  0
LINE
  5
42A
100
AcDbEntity
  8
R-DOOR-DETL
  6
CONTINUOUS
 62
     2
100
AcDbLine
 10
15.675754
 20
26.176568
 30
0.0
 11
15.675754
 21
30.05056
 31
0.0
  0
LINE
  5
42B
100
AcDbEntity
  8
R-DOOR-DETL
100
AcDbLine
 10
15.615754
 20
26.176568
 30
0.0
 11
15.615754
 21
30.03556
 31
0.0
  0
LINE
  5
42C
100
AcDbEntity
  8
10INCHRAIL
100
AcDbLine
 10
13.753769
 20
26.176568
 30
0.0
 11
13.753769
 21
30.03556
 31
0.0
  0
TEXT
  5
42E
100
AcDbEntity
  8
0
100
AcDbText
 10
11.110117
 20
27.36125
 30
0.0
 40
0.36
  1
SHOE
  7
ROMANS
100
AcDbText
  0
LINE
  5
42F
100
AcDbEntity
  8
R-DOOR-DETL
100
AcDbLine
 10
14.645039
 20
27.050665
 30
0.0
 11
14.645039
 21
27.100665
 31
0.0
  0
LINE
  5
430
100
AcDbEntity
  8
R-DOOR-DETL
100
AcDbLine
 10
14.395039
 20
27.100665
 30
0.0
 11
14.395039
 21
27.050665
 31
0.0
  0
LINE
  5
431
100
AcDbEntity
  8
R-DOOR-DETL
100
AcDbLine
 10
14.722116
 20
27.050665
 30
0.0
 11
14.722116
 21
27.100665
 31
0.0
  0
LINE
  5
432
100
AcDbEntity
  8
R-DOOR-DETL
100
AcDbLine
 10
14.972116
 20
27.100665
 30
0.0
 11
14.972116
 21
27.050665
 31
0.0
  0
LINE
  5
433
100
AcDbEntity
  8
R-DOOR-DETL
100
AcDbLine
 10
14.981959
 20
26.238955
 30
0.0
 11
14.981959
 21
27.090822
 31
0.0
  0
LINE
  5
434
100
AcDbEntity
  8
R-DOOR-DETL
100
AcDbLine
 10
14.38996
 20
26.238955
 30
0.0
 11
14.38996
 21
27.090822
 31
0.0
  0
LINE
  5
435
100
AcDbEntity
  8
R-DOOR-DETL
100
AcDbLine
 10
14.267811
 20
27.293297
 30
0.0
 11
13.989719
 21
26.830474
 31
0.0
  0
LINE
  5
436
100
AcDbEntity
  8
R-DOOR-DETL
100
AcDbLine
 10
13.937262
 20
26.733599
 30
0.0
 11
14.230742
 21
27.241921
 31
0.0
  0
LINE
  5
437
100
AcDbEntity
  8
R-DOOR-DETL
100
AcDbLine
 10
15.13878
 20
27.241921
 30
0.0
 11
15.43226
 21
26.733599
 31
0.0
  0
LINE
  5
438
100
AcDbEntity
  8
R-DOOR-DETL
100
AcDbLine
 10
15.104108
 20
27.293297
 30
0.0
 11
15.382201
 21
26.830474
 31
0.0
  0
LWPOLYLINE
  5
439
100
AcDbEntity
  8
R-DOOR-ANNO
  6
CONTINUOUS
100
AcDbPolyline
 90
        3
 70
     0
 43
0.0
 10
14.976402
 20
27.193021
 10
16.464553
 20
26.460054
 10
16.644553
 20
26.460054
1001
ACAD
1000
DSTYLE
1002
{
1070
   173
1070
     1
1070
     6
1000
_DOTSMALL
1002
}
  0
ARC
  5
43A
100
AcDbEntity
  8
R-DOOR-DETL
  6
CONTINUOUS
 62
     2
100
AcDbCircle
 10
15.469754
 20
26.176568
 30
0.0
 40
0.206
100
AcDbArc
 50
270.0
 51
0.0
  0
LINE
  5
43B
100
AcDbEntity
  8
R-DOOR-DETL
100
AcDbLine
 10
14.931959
 20
26.238955
 30
0.0
 11
14.931959
 21
26.988955
 31
0.0
  0
LINE
  5
43C
100
AcDbEntity
  8
R-DOOR-DETL
100
AcDbLine
 10
14.981959
 20
26.988955
 30
0.0
 11
14.981959
 21
26.238955
 31
0.0
  0
LINE
  5
43D
100
AcDbEntity
  8
R-DOOR-DETL
100
AcDbLine
 10
14.43996
 20
26.238955
 30
0.0
 11
14.43996
 21
26.988955
 31
0.0
  0
LINE
  5
43E
100
AcDbEntity
  8
R-DOOR-DETL
100
AcDbLine
 10
14.38996
 20
26.988955
 30
0.0
 11
14.38996
 21
26.238955
 31
0.0
  0
LINE
  5
43F
100
AcDbEntity
  8
R-DOOR-DETL
100
AcDbLine
 10
15.150268
 20
26.720337
 30
0.0
 11
15.127877
 21
26.229608
 31
0.0
  0
LINE
  5
440
100
AcDbEntity
  8
R-DOOR-DETL
100
AcDbLine
 10
14.221651
 20
26.720337
 30
0.0
 11
14.244042
 21
26.229608
 31
0.0
  0
LINE
  5
441
100
AcDbEntity
  8
R-DOOR-DETL
100
AcDbLine
 10
13.903769
 20
26.190235
 30
0.0
 11
13.903769
 21
26.608599
 31
0.0
  0
LINE
  5
442
100
AcDbEntity
  8
R-DOOR-DETL
100
AcDbLine
 10
15.465754
 20
26.608599
 30
0.0
 11
15.465754
 21
26.190235
 31
0.0
  0
ARC
  5
443
100
AcDbEntity
  8
R-DOOR-DETL
  6
CONTINUOUS
 62
     2
100
AcDbCircle
 10
15.469754
 20
26.176568
 30
0.0
 40
0.156
100
AcDbArc
 50
270.0
 51
0.0
  0
ARC
  5
444
100
AcDbEntity
  8
R-DOOR-DETL
100
AcDbCircle
 10
15.459754
 20
26.176568
 30
0.0
 40
0.156
100
AcDbArc
 50
270.0
 51
360.0
  0
LINE
  5
445
100
AcDbEntity
  8
R-DOOR-DETL
  6
CONTINUOUS
 62
     2
100
AcDbLine
 10
14.977834
 20
26.020568
 30
0.0
 11
14.977834
 21
25.970568
 31
0.0
  0
LINE
  5
446
100
AcDbEntity
  8
R-DOOR-DETL
  6
CONTINUOUS
 62
     2
100
AcDbLine
 10
14.977834
 20
25.970568
 30
0.0
 11
15.469754
 21
25.970568
 31
0.0
  0
LINE
  5
447
100
AcDbEntity
  8
R-DOOR-DETL
100
AcDbLine
 10
14.391689
 20
26.030568
 30
0.0
 11
14.391689
 21
26.09978
 31
0.0
  0
ARC
  5
448
100
AcDbEntity
  8
R-DOOR-DETL
100
AcDbCircle
 10
14.381689
 20
26.030568
 30
0.0
 40
0.01
100
AcDbArc
 50
270.0
 51
360.0
  0
LINE
  5
449
100
AcDbEntity
  8
R-DOOR-DETL
100
AcDbLine
 10
14.38996
 20
26.238955
 30
0.0
 11
14.43996
 21
26.238955
 31
0.0
  0
ARC
  5
44A
100
AcDbEntity
  8
R-DOOR-DETL
100
AcDbCircle
 10
14.38996
 20
26.211116
 30
0.0
 40
0.019685
100
AcDbArc
 50
270.0
 51
70.528779
  0
LINE
  5
44B
100
AcDbEntity
  8
R-DOOR-DETL
100
AcDbLine
 10
14.284001
 20
26.191431
 30
0.0
 11
14.38996
 21
26.191431
 31
0.0
  0
ARC
  5
44C
100
AcDbEntity
  8
R-DOOR-DETL
100
AcDbCircle
 10
14.399803
 20
26.238955
 30
0.0
 40
0.009843
100
AcDbArc
 50
180.0
 51
250.528779
  0
ARC
  5
44D
100
AcDbEntity
  8
R-DOOR-DETL
100
AcDbCircle
 10
14.284001
 20
26.231431
 30
0.0
 40
0.04
100
AcDbArc
 50
182.612502
 51
270.0
  0
ARC
  5
44E
100
AcDbEntity
  8
R-DOOR-DETL
100
AcDbCircle
 10
14.381846
 20
26.09978
 30
0.0
 40
0.009843
100
AcDbArc
 50
0.0
 51
90.0
  0
ARC
  5
44F
100
AcDbEntity
  8
R-DOOR-DETL
100
AcDbCircle
 10
14.220806
 20
26.139623
 30
0.0
 40
0.03
100
AcDbArc
 50
260.0
 51
270.0
  0
LINE
  5
450
100
AcDbEntity
  8
R-DOOR-DETL
100
AcDbLine
 10
14.381846
 20
26.109623
 30
0.0
 11
14.220806
 21
26.109623
 31
0.0
  0
LINE
  5
451
100
AcDbEntity
  8
R-DOOR-DETL
100
AcDbLine
 10
14.977834
 20
26.09978
 30
0.0
 11
14.977834
 21
26.030568
 31
0.0
  0
LINE
  5
452
100
AcDbEntity
  8
R-DOOR-DETL
  6
CONTINUOUS
 62
     2
100
AcDbLine
 10
15.469754
 20
26.020568
 30
0.0
 11
14.977834
 21
26.020568
 31
0.0
  0
LINE
  5
453
100
AcDbEntity
  8
R-DOOR-DETL
100
AcDbLine
 10
14.987834
 20
26.020568
 30
0.0
 11
15.459754
 21
26.020568
 31
0.0
  0
ARC
  5
454
100
AcDbEntity
  8
R-DOOR-DETL
100
AcDbCircle
 10
14.987834
 20
26.030568
 30
0.0
 40
0.01
100
AcDbArc
 50
180.0
 51
270.0
  0
LINE
  5
455
100
AcDbEntity
  8
R-DOOR-DETL
100
AcDbLine
 10
14.981959
 20
26.238955
 30
0.0
 11
14.931959
 21
26.238955
 31
0.0
  0
LINE
  5
456
100
AcDbEntity
  8
R-DOOR-DETL
100
AcDbLine
 10
15.087918
 20
26.191431
 30
0.0
 11
14.981959
 21
26.191431
 31
0.0
  0
ARC
  5
457
100
AcDbEntity
  8
R-DOOR-DETL
100
AcDbCircle
 10
14.981959
 20
26.211116
 30
0.0
 40
0.019685
100
AcDbArc
 50
109.471221
 51
270.0
  0
ARC
  5
458
100
AcDbEntity
  8
R-DOOR-DETL
100
AcDbCircle
 10
15.087918
 20
26.231431
 30
0.0
 40
0.04
100
AcDbArc
 50
270.0
 51
357.387498
  0
ARC
  5
459
100
AcDbEntity
  8
R-DOOR-DETL
100
AcDbCircle
 10
14.972116
 20
26.238955
 30
0.0
 40
0.009843
100
AcDbArc
 50
289.471221
 51
0.0
  0
LINE
  5
45A
100
AcDbEntity
  8
R-DOOR-DETL
100
AcDbLine
 10
15.440963
 20
26.160691
 30
0.0
 11
15.153925
 21
26.110078
 31
0.0
  0
ARC
  5
45B
100
AcDbEntity
  8
R-DOOR-DETL
100
AcDbCircle
 10
14.987676
 20
26.09978
 30
0.0
 40
0.009843
100
AcDbArc
 50
90.0
 51
180.0
  0
LINE
  5
45C
100
AcDbEntity
  8
R-DOOR-DETL
100
AcDbLine
 10
15.148716
 20
26.109623
 30
0.0
 11
14.987676
 21
26.109623
 31
0.0
  0
ARC
  5
45D
100
AcDbEntity
  8
R-DOOR-DETL
100
AcDbCircle
 10
15.148716
 20
26.139623
 30
0.0
 40
0.03
100
AcDbArc
 50
270.0
 51
280.0
  0
ARC
  5
45E
100
AcDbEntity
  8
R-DOOR-DETL
100
AcDbCircle
 10
15.435754
 20
26.190235
 30
0.0
 40
0.03
100
AcDbArc
 50
280.0
 51
360.0
  0
ARC
  5
45F
100
AcDbEntity
  8
R-DOOR-DETL
100
AcDbCircle
 10
13.909769
 20
26.176568
 30
0.0
 40
0.156
100
AcDbArc
 50
180.0
 51
270.0
  0
ARC
  5
460
100
AcDbEntity
  8
R-DOOR-DETL
100
AcDbCircle
 10
13.933769
 20
26.190235
 30
0.0
 40
0.03
100
AcDbArc
 50
180.0
 51
260.0
  0
LINE
  5
461
100
AcDbEntity
  8
R-DOOR-DETL
100
AcDbLine
 10
14.215597
 20
26.110078
 30
0.0
 11
13.928559
 21
26.160691
 31
0.0
  0
LINE
  5
462
100
AcDbEntity
  8
R-DOOR-DETL
100
AcDbLine
 10
13.909769
 20
26.020568
 30
0.0
 11
14.381689
 21
26.020568
 31
0.0
  0
ARC
  5
463
100
AcDbEntity
  8
R-DOOR-DETL
100
AcDbCircle
 10
15.215754
 20
26.608599
 30
0.0
 40
0.25
100
AcDbArc
 50
360.0
 51
30.0
  0
LINE
  5
464
100
AcDbEntity
  8
R-DOOR-DETL
100
AcDbLine
 10
14.499459
 20
27.050665
 30
0.0
 11
14.874459
 21
27.050665
 31
0.0
  0
LINE
  5
465
100
AcDbEntity
  8
R-DOOR-DETL
100
AcDbLine
 10
14.972116
 20
27.050665
 30
0.0
 11
14.722116
 21
27.050665
 31
0.0
  0
LINE
  5
466
100
AcDbEntity
  8
R-DOOR-DETL
100
AcDbLine
 10
14.441959
 20
27.050665
 30
0.0
 11
14.931959
 21
27.050665
 31
0.0
  0
LINE
  5
467
100
AcDbEntity
  8
R-DOOR-DETL
100
AcDbLine
 10
14.395039
 20
27.050665
 30
0.0
 11
14.645039
 21
27.050665
 31
0.0
  0
LINE
  5
468
100
AcDbEntity
  8
R-DOOR-DETL
100
AcDbLine
 10
14.43996
 20
26.988955
 30
0.0
 11
14.38996
 21
26.988955
 31
0.0
  0
POINT
  5
469
100
AcDbEntity
  8
R-DOOR-DETL
  6
BYBLOCK
 62
     0
100
AcDbPoint
 10
14.395039
 20
27.050665
 30
0.0
  0
POINT
  5
46A
100
AcDbEntity
  8
R-DOOR-DETL
  6
BYBLOCK
 62
     0
100
AcDbPoint
 10
14.285664
 20
27.050665
 30
0.0
  0
ARC
  5
46B
100
AcDbEntity
  8
R-DOOR-DETL
100
AcDbCircle
 10
14.191682
 20
26.71897
 30
0.0
 40
0.03
100
AcDbArc
 50
2.612502
 51
90.0
  0
LINE
  5
46C
100
AcDbEntity
  8
R-DOOR-DETL
100
AcDbLine
 10
15.371937
 20
26.789308
 30
0.0
 11
15.311935
 21
26.753255
 31
0.0
  0
ARC
  5
46D
100
AcDbEntity
  8
R-DOOR-DETL
100
AcDbCircle
 10
15.180237
 20
26.71897
 30
0.0
 40
0.03
100
AcDbArc
 50
90.0
 51
177.387498
  0
LINE
  5
46E
100
AcDbEntity
  8
R-DOOR-DETL
100
AcDbLine
 10
15.296484
 20
26.74897
 30
0.0
 11
15.180237
 21
26.74897
 31
0.0
  0
ARC
  5
46F
100
AcDbEntity
  8
R-DOOR-DETL
100
AcDbCircle
 10
15.296484
 20
26.77897
 30
0.0
 40
0.03
100
AcDbArc
 50
270.0
 51
301.0
  0
LINE
  5
470
100
AcDbEntity
  8
R-DOOR-DETL
100
AcDbLine
 10
14.931959
 20
26.988955
 30
0.0
 11
14.981959
 21
26.988955
 31
0.0
  0
ARC
  5
471
100
AcDbEntity
  8
R-DOOR-DETL
100
AcDbCircle
 10
15.356486
 20
26.815023
 30
0.0
 40
0.03
100
AcDbArc
 50
301.0
 51
31.0
  0
ARC
  5
472
100
AcDbEntity
  8
R-DOOR-DETL
100
AcDbCircle
 10
14.153769
 20
26.608599
 30
0.0
 40
0.25
100
AcDbArc
 50
150.0
 51
180.0
  0
LINE
  5
473
100
AcDbEntity
  8
R-DOOR-DETL
100
AcDbLine
 10
13.999982
 20
26.789308
 30
0.0
 11
14.059984
 21
26.753255
 31
0.0
  0
ARC
  5
474
100
AcDbEntity
  8
R-DOOR-DETL
100
AcDbCircle
 10
14.015434
 20
26.815023
 30
0.0
 40
0.03
100
AcDbArc
 50
149.0
 51
239.0
  0
ARC
  5
475
100
AcDbEntity
  8
R-DOOR-DETL
100
AcDbCircle
 10
14.075435
 20
26.77897
 30
0.0
 40
0.03
100
AcDbArc
 50
239.0
 51
270.0
  0
LINE
  5
476
100
AcDbEntity
  8
R-DOOR-DETL
100
AcDbLine
 10
14.075435
 20
26.74897
 30
0.0
 11
14.191682
 21
26.74897
 31
0.0
  0
POLYLINE
  5
477
100
AcDbEntity
  8
0
  6
BYBLOCK
 62
     0
100
AcDb2dPolyline
 66
     1
 10
0.0
 20
0.0
 30
0.0
 70
     1
 40
0.09
 41
0.09
  0
VERTEX
  5
478
100
AcDbEntity
  8
0
  6
BYBLOCK
 62
     0
100
AcDbVertex
100
AcDb2dVertex
 10
15.689131
 20
28.145457
 30
0.0
 42
1.0
  0
VERTEX
  5
479
100
AcDbEntity
  8
0
  6
BYBLOCK
 62
     0
100
AcDbVertex
100
AcDb2dVertex
 10
15.669506
 20
28.156461
 30
0.0
 42
1.0
  0
SEQEND
  5
47A
100
AcDbEntity
  8
0
  6
BYBLOCK
 62
     0
  0
LINE
  5
47B
100
AcDbEntity
  8
R-DOOR-ANNO
  6
CONTINUOUS
100
AcDbLine
 10
13.820322
 20
28.143599
 30
0.0
 11
12.749268
 21
27.547709
 31
0.0
1001
ACAD
1000
DSTYLE
1002
{
1070
   173
1070
     1
1070
     6
1000
_DOTSMALL
1002
}
  0
LINE
  5
47C
100
AcDbEntity
  8
R-DOOR-ANNO
  6
CONTINUOUS
100
AcDbLine
 10
12.749268
 20
27.547709
 30
0.0
 11
12.569269
 21
27.54831
 31
0.0
1001
ACAD
1000
DSTYLE
1002
{
1070
   173
1070
     1
1070
     6
1000
_DOTSMALL
1002
}
  0
LINE
  5
47D
100
AcDbEntity
  8
R-DOOR-DETL
100
AcDbLine
 10
14.939744
 20
27.377024
 30
0.0
 11
14.939744
 21
27.502024
 31
0.0
  0
LINE
  5
47E
100
AcDbEntity
  8
R-DOOR-DETL
100
AcDbLine
 10
15.099823
 20
27.563665
 30
0.0
 11
15.099823
 21
27.308748
 31
0.0
  0
LINE
  5
47F
100
AcDbEntity
  8
R-DOOR-DETL
100
AcDbLine
 10
14.954823
 20
27.370665
 30
0.0
 11
14.954823
 21
27.497665
 31
0.0
  0
LINE
  5
480
100
AcDbEntity
  8
R-DOOR-DETL
100
AcDbLine
 10
15.134761
 20
27.690856
 30
0.0
 11
15.134761
 21
27.256921
 31
0.0
  0
LINE
  5
481
100
AcDbEntity
  8
R-DOOR-DETL
100
AcDbLine
 10
14.439744
 20
27.377024
 30
0.0
 11
14.439744
 21
27.502024
 31
0.0
  0
LINE
  5
482
100
AcDbEntity
  8
R-DOOR-DETL
100
AcDbLine
 10
14.417096
 20
27.370665
 30
0.0
 11
14.417096
 21
27.497665
 31
0.0
  0
LINE
  5
483
100
AcDbEntity
  8
R-DOOR-DETL
100
AcDbLine
 10
14.272096
 20
27.563665
 30
0.0
 11
14.272096
 21
27.308748
 31
0.0
  0
LINE
  5
484
100
AcDbEntity
  8
R-DOOR-DETL
100
AcDbLine
 10
14.234761
 20
27.256921
 30
0.0
 11
14.234761
 21
27.690856
 31
0.0
  0
LINE
  5
485
100
AcDbEntity
  8
R-DOOR-DETL
100
AcDbLine
 10
14.439744
 20
27.377024
 30
0.0
 11
14.939744
 21
27.377024
 31
0.0
  0
ARC
  5
486
100
AcDbEntity
  8
R-DOOR-DETL
100
AcDbCircle
 10
14.829823
 20
27.370665
 30
0.0
 40
0.125
100
AcDbArc
 50
270.0
 51
0.0
  0
LINE
  5
487
100
AcDbEntity
  8
R-DOOR-DETL
100
AcDbLine
 10
14.739823
 20
27.245665
 30
0.0
 11
14.829823
 21
27.245665
 31
0.0
  0
LINE
  5
488
100
AcDbEntity
  8
R-DOOR-DETL
100
AcDbLine
 10
14.565744
 20
27.37689
 30
0.0
 11
14.813744
 21
27.37689
 31
0.0
  0
LINE
  5
489
100
AcDbEntity
  8
R-DOOR-DETL
100
AcDbLine
 10
14.595744
 20
27.40689
 30
0.0
 11
14.783744
 21
27.40689
 31
0.0
  0
LINE
  5
48A
100
AcDbEntity
  8
R-DOOR-DETL
100
AcDbLine
 10
14.595744
 20
27.34689
 30
0.0
 11
14.783744
 21
27.34689
 31
0.0
  0
ARC
  5
48B
100
AcDbEntity
  8
R-DOOR-DETL
100
AcDbCircle
 10
14.739823
 20
27.230665
 30
0.0
 40
0.015
100
AcDbArc
 50
90.0
 51
180.0
  0
ARC
  5
48C
100
AcDbEntity
  8
R-DOOR-DETL
100
AcDbCircle
 10
14.632096
 20
27.230665
 30
0.0
 40
0.015
100
AcDbArc
 50
0.0
 51
90.0
  0
LINE
  5
48D
100
AcDbEntity
  8
R-DOOR-DETL
100
AcDbLine
 10
14.632096
 20
27.245665
 30
0.0
 11
14.542096
 21
27.245665
 31
0.0
  0
ARC
  5
48E
100
AcDbEntity
  8
R-DOOR-DETL
100
AcDbCircle
 10
14.542096
 20
27.370665
 30
0.0
 40
0.125
100
AcDbArc
 50
180.0
 51
270.0
  0
ARC
  5
48F
100
AcDbEntity
  8
R-DOOR-DETL
100
AcDbCircle
 10
14.242096
 20
27.308748
 30
0.0
 40
0.03
100
AcDbArc
 50
329.0
 51
0.0
  0
ARC
  5
490
100
AcDbEntity
  8
R-DOOR-DETL
100
AcDbCircle
 10
14.204761
 20
27.256921
 30
0.0
 40
0.03
100
AcDbArc
 50
330.0
 51
360.0
  0
ARC
  5
491
100
AcDbEntity
  8
R-DOOR-DETL
100
AcDbCircle
 10
15.129823
 20
27.308748
 30
0.0
 40
0.03
100
AcDbArc
 50
180.0
 51
211.0
  0
ARC
  5
492
100
AcDbEntity
  8
R-DOOR-DETL
100
AcDbCircle
 10
15.164761
 20
27.256921
 30
0.0
 40
0.03
100
AcDbArc
 50
180.0
 51
210.0
  0
LINE
  5
493
100
AcDbEntity
  8
R-DOOR-DETL
100
AcDbLine
 10
14.439744
 20
27.502024
 30
0.0
 11
14.939744
 21
27.502024
 31
0.0
  0
LINE
  5
494
100
AcDbEntity
  8
R-DOOR-DETL
100
AcDbLine
 10
14.684761
 20
27.750856
 30
0.0
 11
15.074761
 21
27.750856
 31
0.0
  0
LINE
  5
495
100
AcDbEntity
  8
R-DOOR-DETL
100
AcDbLine
 10
14.853823
 20
27.657665
 30
0.0
 11
15.005823
 21
27.657665
 31
0.0
  0
LINE
  5
496
100
AcDbEntity
  8
R-DOOR-DETL
100
AcDbLine
 10
14.939823
 20
27.512665
 30
0.0
 11
14.853823
 21
27.512665
 31
0.0
  0
LINE
  5
497
100
AcDbEntity
  8
R-DOOR-DETL
100
AcDbLine
 10
14.565744
 20
27.43689
 30
0.0
 11
14.813744
 21
27.43689
 31
0.0
  0
LINE
  5
498
100
AcDbEntity
  8
R-DOOR-DETL
100
AcDbLine
 10
14.595744
 20
27.46689
 30
0.0
 11
14.783744
 21
27.46689
 31
0.0
  0
LINE
  5
499
100
AcDbEntity
  8
R-DOOR-DETL
100
AcDbLine
 10
14.565744
 20
27.73689
 30
0.0
 11
14.813744
 21
27.73689
 31
0.0
  0
LINE
  5
49A
100
AcDbEntity
  8
R-DOOR-DETL
100
AcDbLine
 10
14.565744
 20
27.67689
 30
0.0
 11
14.813744
 21
27.67689
 31
0.0
  0
LINE
  5
49B
100
AcDbEntity
  8
R-DOOR-DETL
100
AcDbLine
 10
14.595744
 20
27.70689
 30
0.0
 11
14.783744
 21
27.70689
 31
0.0
  0
LINE
  5
49C
100
AcDbEntity
  8
R-DOOR-DETL
100
AcDbLine
 10
14.595744
 20
27.64689
 30
0.0
 11
14.783744
 21
27.64689
 31
0.0
  0
LINE
  5
49D
100
AcDbEntity
  8
R-DOOR-DETL
100
AcDbLine
 10
14.565744
 20
27.49689
 30
0.0
 11
14.813744
 21
27.49689
 31
0.0
  0
LINE
  5
49E
100
AcDbEntity
  8
R-DOOR-DETL
100
AcDbLine
 10
14.565744
 20
27.61689
 30
0.0
 11
14.813744
 21
27.61689
 31
0.0
  0
LINE
  5
49F
100
AcDbEntity
  8
R-DOOR-DETL
100
AcDbLine
 10
14.565744
 20
27.55689
 30
0.0
 11
14.813744
 21
27.55689
 31
0.0
  0
LINE
  5
4A0
100
AcDbEntity
  8
R-DOOR-DETL
100
AcDbLine
 10
14.595744
 20
27.58689
 30
0.0
 11
14.783744
 21
27.58689
 31
0.0
  0
LINE
  5
4A1
100
AcDbEntity
  8
R-DOOR-DETL
100
AcDbLine
 10
14.595744
 20
27.52689
 30
0.0
 11
14.783744
 21
27.52689
 31
0.0
  0
ARC
  5
4A2
100
AcDbEntity
  8
R-DOOR-DETL
100
AcDbCircle
 10
14.432096
 20
27.497665
 30
0.0
 40
0.015
100
AcDbArc
 50
90.0
 51
180.0
  0
ARC
  5
4A3
100
AcDbEntity
  8
R-DOOR-DETL
100
AcDbCircle
 10
14.366096
 20
27.563665
 30
0.0
 40
0.094
100
AcDbArc
 50
90.0
 51
180.0
  0
LINE
  5
4A4
100
AcDbEntity
  8
R-DOOR-DETL
100
AcDbLine
 10
14.432096
 20
27.512665
 30
0.0
 11
14.518096
 21
27.512665
 31
0.0
  0
LINE
  5
4A5
100
AcDbEntity
  8
R-DOOR-DETL
100
AcDbLine
 10
14.518096
 20
27.657665
 30
0.0
 11
14.366096
 21
27.657665
 31
0.0
  0
ARC
  5
4A6
100
AcDbEntity
  8
R-DOOR-DETL
100
AcDbCircle
 10
14.518096
 20
27.527665
 30
0.0
 40
0.015
100
AcDbArc
 50
270.0
 51
0.0
  0
ARC
  5
4A7
100
AcDbEntity
  8
R-DOOR-DETL
100
AcDbCircle
 10
14.518096
 20
27.642665
 30
0.0
 40
0.015
100
AcDbArc
 50
0.0
 51
90.0
  0
LINE
  5
4A8
100
AcDbEntity
  8
R-DOOR-DETL
100
AcDbLine
 10
14.533096
 20
27.527665
 30
0.0
 11
14.533096
 21
27.642665
 31
0.0
  0
LINE
  5
4A9
100
AcDbEntity
  8
R-DOOR-DETL
100
AcDbLine
 10
14.294761
 20
27.750856
 30
0.0
 11
14.684761
 21
27.750856
 31
0.0
  0
ARC
  5
4AA
100
AcDbEntity
  8
R-DOOR-DETL
100
AcDbCircle
 10
14.853823
 20
27.642665
 30
0.0
 40
0.015
100
AcDbArc
 50
90.0
 51
180.0
  0
ARC
  5
4AB
100
AcDbEntity
  8
R-DOOR-DETL
100
AcDbCircle
 10
14.853823
 20
27.527665
 30
0.0
 40
0.015
100
AcDbArc
 50
180.0
 51
270.0
  0
LINE
  5
4AC
100
AcDbEntity
  8
R-DOOR-DETL
100
AcDbLine
 10
14.838823
 20
27.527665
 30
0.0
 11
14.838823
 21
27.642665
 31
0.0
  0
ARC
  5
4AD
100
AcDbEntity
  8
R-DOOR-DETL
100
AcDbCircle
 10
14.294761
 20
27.690856
 30
0.0
 40
0.06
100
AcDbArc
 50
90.0
 51
180.0
  0
ARC
  5
4AE
100
AcDbEntity
  8
R-DOOR-DETL
100
AcDbCircle
 10
15.005823
 20
27.563665
 30
0.0
 40
0.094
100
AcDbArc
 50
0.0
 51
90.0
  0
ARC
  5
4AF
100
AcDbEntity
  8
R-DOOR-DETL
100
AcDbCircle
 10
14.939823
 20
27.497665
 30
0.0
 40
0.015
100
AcDbArc
 50
0.0
 51
90.0
  0
ARC
  5
4B0
100
AcDbEntity
  8
R-DOOR-DETL
100
AcDbCircle
 10
15.074761
 20
27.690856
 30
0.0
 40
0.06
100
AcDbArc
 50
360.0
 51
90.0
  0
LINE
  5
4B1
100
AcDbEntity
  8
R-DOOR-DETL
100
AcDbLine
 10
14.722116
 20
27.100665
 30
0.0
 11
14.972116
 21
27.100665
 31
0.0
  0
LINE
  5
4B2
100
AcDbEntity
  8
R-DOOR-DETL
100
AcDbLine
 10
14.972116
 20
27.100665
 30
0.0
 11
14.739823
 21
27.100665
 31
0.0
  0
LINE
  5
4B3
100
AcDbEntity
  8
R-DOOR-DETL
100
AcDbLine
 10
14.645039
 20
27.100665
 30
0.0
 11
14.395039
 21
27.100665
 31
0.0
  0
LINE
  5
4B4
100
AcDbEntity
  8
R-DOOR-DETL
100
AcDbLine
 10
14.399803
 20
27.100665
 30
0.0
 11
14.632096
 21
27.100665
 31
0.0
  0
ARC
  5
4B5
100
AcDbEntity
  8
R-DOOR-DETL
100
AcDbCircle
 10
14.739823
 20
27.115665
 30
0.0
 40
0.015
100
AcDbArc
 50
180.0
 51
270.0
  0
ARC
  5
4B6
100
AcDbEntity
  8
R-DOOR-DETL
100
AcDbCircle
 10
14.399803
 20
27.090822
 30
0.0
 40
0.009842
100
AcDbArc
 50
90.0
 51
180.0
  0
ARC
  5
4B7
100
AcDbEntity
  8
R-DOOR-DETL
100
AcDbCircle
 10
14.632096
 20
27.115665
 30
0.0
 40
0.015
100
AcDbArc
 50
270.0
 51
0.0
  0
ARC
  5
4B8
100
AcDbEntity
  8
R-DOOR-DETL
100
AcDbCircle
 10
14.972116
 20
27.090822
 30
0.0
 40
0.009842
100
AcDbArc
 50
0.0
 51
90.0
  0
LINE
  5
4B9
100
AcDbEntity
  8
R-DOOR-DETL
100
AcDbLine
 10
14.724823
 20
27.115665
 30
0.0
 11
14.724823
 21
27.230665
 31
0.0
  0
LINE
  5
4BA
100
AcDbEntity
  8
R-DOOR-DETL
100
AcDbLine
 10
14.647096
 20
27.115665
 30
0.0
 11
14.647096
 21
27.230665
 31
0.0
  0
INSERT
  5
4BB
100
AcDbEntity
  8
R-DOOR-DETL
  6
CONTINUOUS
100
AcDbBlockReference
  2
_DOTSMALL
 10
14.976402
 20
27.193021
 30
0.0
 41
0.18
 42
0.18
 43
0.18
 50
153.778112
1001
ACAD
1000
DSTYLE
1002
{
1070
   173
1070
     1
1070
     6
1000
_DOTSMALL
1002
}
  0
LINE
  5
4BC
100
AcDbEntity
  8
R-DOOR-DETL
100
AcDbLine
 10
15.18805
 20
28.18956
 30
0.0
 11
15.18805
 21
28.029517
 31
0.0
  0
ARC
  5
4BD
100
AcDbEntity
  8
R-DOOR-DETL
100
AcDbCircle
 10
14.773344
 20
28.162981
 30
0.0
 40
0.049213
100
AcDbArc
 50
152.582198
 51
325.437475
  0
ARC
  5
4BE
100
AcDbEntity
  8
R-DOOR-DETL
100
AcDbCircle
 10
14.596179
 20
28.162981
 30
0.0
 40
0.049213
100
AcDbArc
 50
214.562525
 51
27.417802
  0
LINE
  5
4BF
100
AcDbEntity
  8
R-DOOR-DETL
100
AcDbLine
 10
14.181473
 20
28.029517
 30
0.0
 11
14.181473
 21
28.18956
 31
0.0
  0
LINE
  5
4C0
100
AcDbEntity
  8
R-DOOR-DETL
100
AcDbLine
 10
15.229866
 20
27.900856
 30
0.0
 11
14.684761
 21
27.900856
 31
0.0
  0
ARC
  5
4C1
100
AcDbEntity
  8
R-DOOR-DETL
100
AcDbCircle
 10
15.237262
 20
28.029517
 30
0.0
 40
0.049213
100
AcDbArc
 50
180.0
 51
297.721062
  0
ARC
  5
4C2
100
AcDbEntity
  8
R-DOOR-DETL
100
AcDbCircle
 10
14.868522
 20
28.19056
 30
0.0
 40
0.03
100
AcDbArc
 50
90.0
 51
169.684923
  0
LINE
  5
4C3
100
AcDbEntity
  8
R-DOOR-DETL
100
AcDbLine
 10
14.436142
 20
28.47056
 30
0.0
 11
14.933381
 21
28.47056
 31
0.0
  0
LINE
  5
4C4
100
AcDbEntity
  8
R-DOOR-DETL
100
AcDbLine
 10
15.435754
 20
28.47056
 30
0.0
 11
14.684761
 21
28.47056
 31
0.0
  0
ARC
  5
4C5
100
AcDbEntity
  8
R-DOOR-DETL
100
AcDbCircle
 10
14.684761
 20
28.224005
 30
0.0
 40
0.15678
100
AcDbArc
 50
190.315077
 51
214.562525
  0
ARC
  5
4C6
100
AcDbEntity
  8
R-DOOR-DETL
100
AcDbCircle
 10
14.684761
 20
28.224005
 30
0.0
 40
0.059055
100
AcDbArc
 50
319.488274
 51
220.511726
  0
ARC
  5
4C7
100
AcDbEntity
  8
R-DOOR-DETL
100
AcDbCircle
 10
14.684761
 20
28.224005
 30
0.0
 40
0.15678
100
AcDbArc
 50
325.437475
 51
349.684923
  0
ARC
  5
4C8
100
AcDbEntity
  8
R-DOOR-DETL
100
AcDbCircle
 10
14.501
 20
28.19056
 30
0.0
 40
0.03
100
AcDbArc
 50
10.315077
 51
90.0
  0
ARC
  5
4C9
100
AcDbEntity
  8
R-DOOR-DETL
100
AcDbCircle
 10
14.436142
 20
28.50156
 30
0.0
 40
0.031
100
AcDbArc
 50
210.0
 51
270.0
  0
ARC
  5
4CA
100
AcDbEntity
  8
R-DOOR-DETL
100
AcDbCircle
 10
14.212473
 20
28.18956
 30
0.0
 40
0.031
100
AcDbArc
 50
90.0
 51
180.0
  0
LINE
  5
4CB
100
AcDbEntity
  8
R-DOOR-DETL
100
AcDbLine
 10
14.212473
 20
28.22056
 30
0.0
 11
14.501
 21
28.22056
 31
0.0
  0
ARC
  5
4CC
100
AcDbEntity
  8
R-DOOR-DETL
100
AcDbCircle
 10
15.15705
 20
28.18956
 30
0.0
 40
0.031
100
AcDbArc
 50
360.0
 51
90.0
  0
ARC
  5
4CD
100
AcDbEntity
  8
R-DOOR-DETL
100
AcDbCircle
 10
14.933381
 20
28.50156
 30
0.0
 40
0.031
100
AcDbArc
 50
270.0
 51
330.0
  0
ARC
  5
4CE
100
AcDbEntity
  8
R-DOOR-DETL
100
AcDbCircle
 10
15.435754
 20
28.50056
 30
0.0
 40
0.03
100
AcDbArc
 50
270.0
 51
0.0
  0
ARC
  5
4CF
100
AcDbEntity
  8
R-DOOR-DETL
100
AcDbCircle
 10
15.429754
 20
28.50156
 30
0.0
 40
0.031
100
AcDbArc
 50
270.0
 51
0.0
  0
LINE
  5
4D0
100
AcDbEntity
  8
R-DOOR-DETL
100
AcDbLine
 10
15.286142
 20
28.47056
 30
0.0
 11
15.429754
 21
28.47056
 31
0.0
  0
ARC
  5
4D1
100
AcDbEntity
  8
R-DOOR-DETL
100
AcDbCircle
 10
15.286142
 20
28.50156
 30
0.0
 40
0.031
100
AcDbArc
 50
210.0
 51
270.0
  0
LINE
  5
4D2
100
AcDbEntity
  8
R-DOOR-DETL
100
AcDbLine
 10
14.868522
 20
28.22056
 30
0.0
 11
15.15705
 21
28.22056
 31
0.0
  0
INSERT
  5
4D3
100
AcDbEntity
  8
R-DOOR-ANNO
  6
CONTINUOUS
100
AcDbBlockReference
  2
_DOTSMALL
 10
13.820322
 20
28.143599
 30
0.0
 41
0.18
 42
0.18
 43
0.18
 50
153.778112
1001
ACAD
1000
DSTYLE
1002
{
1070
   173
1070
     1
1070
     6
1000
_DOTSMALL
1002
}
  0
LINE
  5
4D4
100
AcDbEntity
  8
R-DOOR-DETL
100
AcDbLine
 10
13.939769
 20
28.47056
 30
0.0
 11
14.083381
 21
28.47056
 31
0.0
  0
ARC
  5
4D5
100
AcDbEntity
  8
R-DOOR-DETL
100
AcDbCircle
 10
13.933769
 20
28.50056
 30
0.0
 40
0.03
100
AcDbArc
 50
180.0
 51
270.0
  0
ARC
  5
4D6
100
AcDbEntity
  8
R-DOOR-DETL
100
AcDbCircle
 10
13.939769
 20
28.50156
 30
0.0
 40
0.031
100
AcDbArc
 50
180.0
 51
270.0
  0
ARC
  5
4D7
100
AcDbEntity
  8
R-DOOR-DETL
100
AcDbCircle
 10
14.083381
 20
28.50156
 30
0.0
 40
0.031
100
AcDbArc
 50
270.0
 51
330.0
  0
ARC
  5
4D8
100
AcDbEntity
  8
R-DOOR-DETL
100
AcDbCircle
 10
14.13226
 20
28.029517
 30
0.0
 40
0.049213
100
AcDbArc
 50
242.278938
 51
0.0
  0
LINE
  5
4D9
100
AcDbEntity
  8
R-DOOR-DETL
100
AcDbLine
 10
14.684761
 20
27.900856
 30
0.0
 11
14.139657
 21
27.900856
 31
0.0
  0
LINE
  5
4DA
100
AcDbEntity
  8
R-DOOR-DETL
100
AcDbLine
 10
15.367261
 20
28.47056
 30
0.0
 11
14.002261
 21
28.47056
 31
0.0
  0
LINE
  5
4DB
100
AcDbEntity
  8
R-DOOR-DETL
100
AcDbLine
 10
14.684761
 20
28.47056
 30
0.0
 11
13.933769
 21
28.47056
 31
0.0
  0
ARC
  5
4DC
100
AcDbEntity
  8
R-DOOR-DETL
100
AcDbCircle
 10
14.070769
 20
27.941259
 30
0.0
 40
0.059055
100
AcDbArc
 50
49.185014
 51
298.310064
  0
ARC
  5
4DD
100
AcDbEntity
  8
R-DOOR-DETL
100
AcDbCircle
 10
14.131322
 20
27.852355
 30
0.0
 40
0.049212
100
AcDbArc
 50
80.249923
 51
131.403987
  0
ARC
  5
4DE
100
AcDbEntity
  8
R-DOOR-DETL
100
AcDbCircle
 10
15.298754
 20
27.941259
 30
0.0
 40
0.059055
100
AcDbArc
 50
241.689936
 51
130.814986
  0
ARC
  5
4DF
100
AcDbEntity
  8
R-DOOR-DETL
100
AcDbCircle
 10
15.2382
 20
27.852355
 30
0.0
 40
0.049213
100
AcDbArc
 50
48.596013
 51
99.750077
  0
LINE
  5
4E0
100
AcDbEntity
  8
R-DOOR-ANNO
  6
CONTINUOUS
100
AcDbLine
 10
15.697542
 20
28.140713
 30
0.0
 11
16.7666
 21
27.54125
 31
0.0
1001
ACAD
1000
DSTYLE
1002
{
1070
   173
1070
     1
1070
     6
1000
_DOTSMALL
1002
}
  0
TEXT
  5
4E1
100
AcDbEntity
  8
0
100
AcDbText
 10
17.005171
 20
27.36125
 30
0.0
 40
0.36
  1
CLADDING
  7
ROMANS
100
AcDbText
  0
LINE
  5
4E2
100
AcDbEntity
  8
R-DOOR-ANNO
  6
CONTINUOUS
100
AcDbLine
 10
16.7666
 20
27.54125
 30
0.0
 11
16.9466
 21
27.54125
 31
0.0
1001
ACAD
1000
DSTYLE
1002
{
1070
   173
1070
     1
1070
     6
1000
_DOTSMALL
1002
}
  0
LINE
  5
4E4
100
AcDbEntity
  8
R-DOOR-DETL
100
AcDbLine
 10
15.515754
 20
30.03556
 30
0.0
 11
15.515754
 21
29.65556
 31
0.0
  0
LINE
  5
4E5
100
AcDbEntity
  8
R-DOOR-DETL
100
AcDbLine
 10
13.853769
 20
29.65556
 30
0.0
 11
13.853769
 21
30.03556
 31
0.0
  0
LINE
  5
4E6
100
AcDbEntity
  8
R-DOOR-DETL
100
AcDbLine
 10
15.465754
 20
29.62556
 30
0.0
 11
15.465754
 21
28.971763
 31
0.0
  0
LINE
  5
4E7
100
AcDbEntity
  8
R-DOOR-DETL
100
AcDbLine
 10
13.903769
 20
28.971763
 30
0.0
 11
13.903769
 21
29.62556
 31
0.0
  0
LINE
  5
4E8
100
AcDbEntity
  8
R-DOOR-DETL
100
AcDbLine
 10
15.214893
 20
28.822552
 30
0.0
 11
15.138951
 21
28.900103
 31
0.0
  0
ARC
  5
4E9
100
AcDbEntity
  8
R-DOOR-DETL
100
AcDbCircle
 10
15.109761
 20
28.79556
 30
0.0
 40
0.1005
100
AcDbArc
 50
302.506128
 51
237.493872
  0
CIRCLE
  5
4EA
100
AcDbEntity
  8
R-DOOR-DETL
100
AcDbCircle
 10
15.109761
 20
28.79556
 30
0.0
 40
0.1625
  0
LINE
  5
4EB
100
AcDbEntity
  8
R-DOOR-DETL
100
AcDbLine
 10
15.364761
 20
28.761763
 30
0.0
 11
15.364761
 21
29.03156
 31
0.0
  0
LINE
  5
4EC
100
AcDbEntity
  8
R-DOOR-DETL
100
AcDbLine
 10
15.369761
 20
28.941763
 30
0.0
 11
15.369761
 21
28.771763
 31
0.0
  0
CIRCLE
  5
4ED
100
AcDbEntity
  8
R-DOOR-DETL
100
AcDbCircle
 10
14.684761
 20
28.79556
 30
0.0
 40
0.1625
  0
ARC
  5
4EE
100
AcDbEntity
  8
R-DOOR-DETL
100
AcDbCircle
 10
14.259761
 20
28.79556
 30
0.0
 40
0.1005
100
AcDbArc
 50
302.506128
 51
237.493872
  0
LINE
  5
4EF
100
AcDbEntity
  8
R-DOOR-DETL
100
AcDbLine
 10
15.033819
 20
28.873111
 30
0.0
 11
15.004629
 21
28.768568
 31
0.0
  0
LINE
  5
4F0
100
AcDbEntity
  8
R-DOOR-DETL
100
AcDbLine
 10
14.739032
 20
28.88956
 30
0.0
 11
14.793303
 21
28.79556
 31
0.0
  0
LINE
  5
4F1
100
AcDbEntity
  8
R-DOOR-DETL
100
AcDbLine
 10
14.347982
 20
28.732326
 30
0.0
 11
14.358633
 21
28.840344
 31
0.0
  0
LINE
  5
4F2
100
AcDbEntity
  8
R-DOOR-DETL
100
AcDbLine
 10
14.160889
 20
28.750775
 30
0.0
 11
14.171541
 21
28.858793
 31
0.0
  0
LINE
  5
4F3
100
AcDbEntity
  8
R-DOOR-DETL
100
AcDbLine
 10
14.63049
 20
28.88956
 30
0.0
 11
14.576219
 21
28.79556
 31
0.0
  0
LINE
  5
4F4
100
AcDbEntity
  8
R-DOOR-DETL
100
AcDbLine
 10
14.793303
 20
28.79556
 30
0.0
 11
14.739032
 21
28.70156
 31
0.0
  0
LINE
  5
4F5
100
AcDbEntity
  8
R-DOOR-DETL
100
AcDbLine
 10
14.249109
 20
28.687542
 30
0.0
 11
14.347982
 21
28.732326
 31
0.0
  0
LINE
  5
4F6
100
AcDbEntity
  8
R-DOOR-DETL
100
AcDbLine
 10
14.576219
 20
28.79556
 30
0.0
 11
14.63049
 21
28.70156
 31
0.0
  0
LINE
  5
4F7
100
AcDbEntity
  8
R-DOOR-DETL
100
AcDbLine
 10
14.739032
 20
28.70156
 30
0.0
 11
14.63049
 21
28.70156
 31
0.0
  0
ARC
  5
4F8
100
AcDbEntity
  8
R-DOOR-DETL
100
AcDbCircle
 10
14.330428
 20
28.684661
 30
0.0
 40
0.031
100
AcDbArc
 50
122.506128
 51
210.0
  0
ARC
  5
4F9
100
AcDbEntity
  8
R-DOOR-DETL
100
AcDbCircle
 10
14.189094
 20
28.684661
 30
0.0
 40
0.031
100
AcDbArc
 50
330.0
 51
57.493872
  0
LINE
  5
4FA
100
AcDbEntity
  8
R-DOOR-DETL
100
AcDbLine
 10
14.160889
 20
28.750775
 30
0.0
 11
14.249109
 21
28.687542
 31
0.0
  0
LINE
  5
4FB
100
AcDbEntity
  8
R-DOOR-DETL
100
AcDbLine
 10
15.080571
 20
28.691017
 30
0.0
 11
15.004629
 21
28.768568
 31
0.0
  0
LINE
  5
4FC
100
AcDbEntity
  8
R-DOOR-DETL
100
AcDbLine
 10
15.185703
 20
28.718008
 30
0.0
 11
15.080571
 21
28.691017
 31
0.0
  0
LINE
  5
4FD
100
AcDbEntity
  8
R-DOOR-DETL
100
AcDbLine
 10
15.214893
 20
28.822552
 30
0.0
 11
15.185703
 21
28.718008
 31
0.0
  0
ARC
  5
4FE
100
AcDbEntity
  8
R-DOOR-DETL
100
AcDbCircle
 10
15.180428
 20
28.684661
 30
0.0
 40
0.031
100
AcDbArc
 50
122.506128
 51
210.0
  0
ARC
  5
4FF
100
AcDbEntity
  8
R-DOOR-DETL
100
AcDbCircle
 10
15.039094
 20
28.684661
 30
0.0
 40
0.031
100
AcDbArc
 50
330.0
 51
57.493872
  0
ARC
  5
500
100
AcDbEntity
  8
R-DOOR-DETL
100
AcDbCircle
 10
15.450754
 20
28.741763
 30
0.0
 40
0.015
100
AcDbArc
 50
0.0
 51
90.0
  0
ARC
  5
501
100
AcDbEntity
  8
R-DOOR-DETL
100
AcDbCircle
 10
15.445754
 20
28.731763
 30
0.0
 40
0.015
100
AcDbArc
 50
0.0
 51
90.0
  0
ARC
  5
502
100
AcDbEntity
  8
R-DOOR-DETL
100
AcDbCircle
 10
15.384761
 20
28.771763
 30
0.0
 40
0.015
100
AcDbArc
 50
180.0
 51
270.0
  0
LINE
  5
503
100
AcDbEntity
  8
R-DOOR-DETL
100
AcDbLine
 10
15.384761
 20
28.756763
 30
0.0
 11
15.450754
 21
28.756763
 31
0.0
  0
ARC
  5
504
100
AcDbEntity
  8
R-DOOR-DETL
100
AcDbCircle
 10
15.379761
 20
28.761763
 30
0.0
 40
0.015
100
AcDbArc
 50
180.0
 51
270.0
  0
LINE
  5
505
100
AcDbEntity
  8
R-DOOR-DETL
100
AcDbLine
 10
15.445754
 20
28.746763
 30
0.0
 11
15.379761
 21
28.746763
 31
0.0
  0
LINE
  5
506
100
AcDbEntity
  8
R-DOOR-DETL
100
AcDbLine
 10
14.270413
 20
28.903578
 30
0.0
 11
14.358633
 21
28.840344
 31
0.0
  0
LINE
  5
507
100
AcDbEntity
  8
R-DOOR-DETL
100
AcDbLine
 10
14.739032
 20
28.88956
 30
0.0
 11
14.63049
 21
28.88956
 31
0.0
  0
LINE
  5
508
100
AcDbEntity
  8
R-DOOR-DETL
100
AcDbLine
 10
14.171541
 20
28.858793
 30
0.0
 11
14.270413
 21
28.903578
 31
0.0
  0
LINE
  5
509
100
AcDbEntity
  8
R-DOOR-DETL
100
AcDbLine
 10
15.138951
 20
28.900103
 30
0.0
 11
15.033819
 21
28.873111
 31
0.0
  0
ARC
  5
50A
100
AcDbEntity
  8
R-DOOR-DETL
100
AcDbCircle
 10
15.384761
 20
28.941763
 30
0.0
 40
0.015
100
AcDbArc
 50
90.0
 51
180.0
  0
ARC
  5
50B
100
AcDbEntity
  8
R-DOOR-DETL
100
AcDbCircle
 10
15.450754
 20
28.971763
 30
0.0
 40
0.015
100
AcDbArc
 50
270.0
 51
0.0
  0
LINE
  5
50C
100
AcDbEntity
  8
R-DOOR-DETL
100
AcDbLine
 10
15.450754
 20
28.956763
 30
0.0
 11
15.384761
 21
28.956763
 31
0.0
  0
ARC
  5
50D
100
AcDbEntity
  8
R-DOOR-DETL
100
AcDbCircle
 10
15.349761
 20
29.03156
 30
0.0
 40
0.015
100
AcDbArc
 50
360.0
 51
90.0
  0
LINE
  5
50E
100
AcDbEntity
  8
R-DOOR-DETL
100
AcDbLine
 10
14.004761
 20
29.03156
 30
0.0
 11
14.004761
 21
28.761763
 31
0.0
  0
LINE
  5
50F
100
AcDbEntity
  8
R-DOOR-DETL
100
AcDbLine
 10
13.999761
 20
28.771763
 30
0.0
 11
13.999761
 21
28.941763
 31
0.0
  0
LINE
  5
510
100
AcDbEntity
  8
R-DOOR-DETL
100
AcDbLine
 10
13.918769
 20
28.756763
 30
0.0
 11
13.984761
 21
28.756763
 31
0.0
  0
ARC
  5
511
100
AcDbEntity
  8
R-DOOR-DETL
100
AcDbCircle
 10
13.984761
 20
28.771763
 30
0.0
 40
0.015
100
AcDbArc
 50
270.0
 51
0.0
  0
ARC
  5
512
100
AcDbEntity
  8
R-DOOR-DETL
100
AcDbCircle
 10
13.989761
 20
28.761763
 30
0.0
 40
0.015
100
AcDbArc
 50
270.0
 51
360.0
  0
LINE
  5
513
100
AcDbEntity
  8
R-DOOR-DETL
100
AcDbLine
 10
13.989761
 20
28.746763
 30
0.0
 11
13.923769
 21
28.746763
 31
0.0
  0
ARC
  5
514
100
AcDbEntity
  8
R-DOOR-DETL
100
AcDbCircle
 10
13.918769
 20
28.741763
 30
0.0
 40
0.015
100
AcDbArc
 50
90.0
 51
180.0
  0
ARC
  5
515
100
AcDbEntity
  8
R-DOOR-DETL
100
AcDbCircle
 10
13.923769
 20
28.731763
 30
0.0
 40
0.015
100
AcDbArc
 50
90.0
 51
180.0
  0
ARC
  5
516
100
AcDbEntity
  8
R-DOOR-DETL
100
AcDbCircle
 10
14.019761
 20
29.03156
 30
0.0
 40
0.015
100
AcDbArc
 50
90.0
 51
180.0
  0
ARC
  5
517
100
AcDbEntity
  8
R-DOOR-DETL
100
AcDbCircle
 10
13.984761
 20
28.941763
 30
0.0
 40
0.015
100
AcDbArc
 50
0.0
 51
90.0
  0
LINE
  5
518
100
AcDbEntity
  8
R-DOOR-DETL
100
AcDbLine
 10
13.984761
 20
28.956763
 30
0.0
 11
13.918769
 21
28.956763
 31
0.0
  0
ARC
  5
519
100
AcDbEntity
  8
R-DOOR-DETL
100
AcDbCircle
 10
13.918769
 20
28.971763
 30
0.0
 40
0.015
100
AcDbArc
 50
180.0
 51
270.0
  0
CIRCLE
  5
51A
100
AcDbEntity
  8
R-DOOR-DETL
100
AcDbCircle
 10
14.259761
 20
28.79556
 30
0.0
 40
0.1625
  0
LINE
  5
51B
100
AcDbEntity
  8
R-DOOR-DETL
100
AcDbLine
 10
15.367261
 20
29.02056
 30
0.0
 11
14.002261
 21
29.02056
 31
0.0
  0
LINE
  5
51C
100
AcDbEntity
  8
R-DOOR-DETL
100
AcDbLine
 10
15.349761
 20
29.04656
 30
0.0
 11
14.019761
 21
29.04656
 31
0.0
  0
LINE
  5
51D
100
AcDbEntity
  8
R-DOOR-DETL
100
AcDbLine
 10
15.367261
 20
28.59556
 30
0.0
 11
14.002261
 21
28.59556
 31
0.0
  0
CIRCLE
  5
51E
100
AcDbEntity
  8
R-DOOR-DETL
100
AcDbCircle
 10
15.109761
 20
28.79556
 30
0.0
 40
0.1875
  0
CIRCLE
  5
51F
100
AcDbEntity
  8
R-DOOR-DETL
100
AcDbCircle
 10
14.684761
 20
28.79556
 30
0.0
 40
0.1875
  0
CIRCLE
  5
520
100
AcDbEntity
  8
R-DOOR-DETL
100
AcDbCircle
 10
14.259761
 20
28.79556
 30
0.0
 40
0.1875
  0
ARC
  5
521
100
AcDbEntity
  8
R-DOOR-DETL
100
AcDbCircle
 10
15.500754
 20
29.65556
 30
0.0
 40
0.015
100
AcDbArc
 50
270.0
 51
0.0
  0
LINE
  5
522
100
AcDbEntity
  8
R-DOOR-DETL
100
AcDbLine
 10
15.500754
 20
29.64056
 30
0.0
 11
15.480754
 21
29.64056
 31
0.0
  0
ARC
  5
523
100
AcDbEntity
  8
R-DOOR-DETL
100
AcDbCircle
 10
15.480754
 20
29.62556
 30
0.0
 40
0.015
100
AcDbArc
 50
90.0
 51
180.0
  0
ARC
  5
524
100
AcDbEntity
  8
R-DOOR-DETL
100
AcDbCircle
 10
13.868769
 20
29.65556
 30
0.0
 40
0.015
100
AcDbArc
 50
180.0
 51
270.0
  0
ARC
  5
525
100
AcDbEntity
  8
R-DOOR-DETL
100
AcDbCircle
 10
13.888769
 20
29.62556
 30
0.0
 40
0.015
100
AcDbArc
 50
0.0
 51
90.0
  0
LINE
  5
526
100
AcDbEntity
  8
R-DOOR-DETL
100
AcDbLine
 10
13.888769
 20
29.64056
 30
0.0
 11
13.868769
 21
29.64056
 31
0.0
  0
LINE
  5
52A
100
AcDbEntity
  8
0
100
AcDbLine
 10
17.684761
 20
30.30056
 30
0.0
 11
11.684761
 21
30.30056
 31
0.0
  0
LINE
  5
52C
100
AcDbEntity
  8
R-DOOR-DETL
  6
CONTINUOUS
 62
     2
100
AcDbLine
 10
15.675754
 20
30.05056
 30
0.0
 11
15.625754
 21
30.05056
 31
0.0
  0
POINT
  5
52D
100
AcDbEntity
  8
DEFPOINTS
  6
BYBLOCK
 62
     0
100
AcDbPoint
 10
15.565754
 20
30.05056
 30
0.0
  0
ARC
  5
52E
100
AcDbEntity
  8
R-DOOR-DETL
100
AcDbCircle
 10
15.600754
 20
30.03556
 30
0.0
 40
0.015
100
AcDbArc
 50
0.0
 51
90.0
  0
LINE
  5
52F
100
AcDbEntity
  8
R-DOOR-DETL
100
AcDbLine
 10
15.600754
 20
30.05056
 30
0.0
 11
15.530754
 21
30.05056
 31
0.0
  0
ARC
  5
530
100
AcDbEntity
  8
R-DOOR-DETL
100
AcDbCircle
 10
15.530754
 20
30.03556
 30
0.0
 40
0.015
100
AcDbArc
 50
90.0
 51
180.0
  0
ARC
  5
531
100
AcDbEntity
  8
10INCHRAIL
100
AcDbCircle
 10
13.768769
 20
30.03556
 30
0.0
 40
0.015
100
AcDbArc
 50
90.0
 51
180.0
  0
LINE
  5
532
100
AcDbEntity
  8
R-DOOR-DETL
100
AcDbLine
 10
13.838769
 20
30.05056
 30
0.0
 11
13.768769
 21
30.05056
 31
0.0
  0
ARC
  5
533
100
AcDbEntity
  8
R-DOOR-DETL
100
AcDbCircle
 10
13.838769
 20
30.03556
 30
0.0
 40
0.015
100
AcDbArc
 50
0.0
 51
90.0
  0
LINE
  5
534
100
AcDbEntity
  8
R-DOOR-PATT
  6
CONTINUOUS
 62
     5
100
AcDbLine
 10
17.684761
 20
31.069438
 30
0.0
 11
16.915883
 21
30.30056
 31
0.0
  0
POINT
  5
536
100
AcDbEntity
  8
DEFPOINTS
  6
BYBLOCK
 62
     0
100
AcDbPoint
 10
17.684761
 20
30.30056
 30
0.0
  0
LINE
  5
537
100
AcDbEntity
  8
R-DOOR-PATT
  6
CONTINUOUS
 62
     5
100
AcDbLine
 10
17.684761
 20
30.627496
 30
0.0
 11
17.357824
 21
30.30056
 31
0.0
  0
LINE
  5
538
100
AcDbEntity
  8
0
  6
BYBLOCK
 62
     0
100
AcDbLine
 10
17.794136
 20
30.30056
 30
0.0
 11
19.114068
 21
30.30056
 31
0.0
  0
LINE
  5
53A
100
AcDbEntity
  8
0
  6
BYBLOCK
 62
     0
100
AcDbLine
 10
17.794136
 20
30.30056
 30
0.0
 11
19.114068
 21
30.30056
 31
0.0
  0
LINE
  5
53C
100
AcDbEntity
  8
R-DOOR-PATT
  6
CONTINUOUS
 62
     5
100
AcDbLine
 10
12.286757
 20
32.30056
 30
0.0
 11
11.684761
 21
31.698564
 31
0.0
  0
LINE
  5
53D
100
AcDbEntity
  8
R-DOOR-PATT
  6
CONTINUOUS
 62
     5
100
AcDbLine
 10
11.844815
 20
32.30056
 30
0.0
 11
11.684761
 21
32.140506
 31
0.0
  0
TEXT
  5
53E
100
AcDbEntity
  8
DIMN
100
AcDbText
 10
3.663342
 20
37.312488
 30
0.0
 40
0.375
  1
NOTES:
100
AcDbText
  0
INSERT
  5
5E2
100
AcDbEntity
  8
0
100
AcDbBlockReference
  2
A$C46F93324
 10
1.832165
 20
4.199303
 30
0.0
  0
ARC
  5
6D1
100
AcDbEntity
  8
GREEN
  6
CONTINUOUS
100
AcDbCircle
 39
1.8
 10
23.21132
 20
33.820588
 30
0.0
 40
0.016501
100
AcDbArc
 50
252.745313
 51
1.373158
  0
LINE
  5
6D2
100
AcDbEntity
  8
GREEN
  6
CONTINUOUS
100
AcDbLine
 39
1.8
 10
23.227816
 20
34.423084
 30
0.0
 11
23.227816
 21
33.820984
 31
0.0
  0
ARC
  5
6D3
100
AcDbEntity
  8
GREEN
  6
CONTINUOUS
100
AcDbCircle
 39
1.8
 10
23.178839
 20
34.439496
 30
0.0
 40
0.051654
100
AcDbArc
 50
341.47451
 51
98.091202
  0
LINE
  5
6D4
100
AcDbEntity
  8
GREEN
  6
CONTINUOUS
100
AcDbLine
 39
1.8
 10
23.097377
 20
34.512718
 30
0.0
 11
23.171568
 21
34.490635
 31
0.0
  0
ARC
  5
6D5
100
AcDbEntity
  8
GREEN
  6
CONTINUOUS
100
AcDbCircle
 39
1.8
 10
23.097377
 20
34.522843
 30
0.0
 40
0.010125
100
AcDbArc
 50
90.0
 51
270.0
  0
LINE
  5
6D6
100
AcDbEntity
  8
GREEN
  6
CONTINUOUS
100
AcDbLine
 39
1.8
 10
23.112002
 20
34.532968
 30
0.0
 11
23.097377
 21
34.532968
 31
0.0
  0
LINE
  5
6D7
100
AcDbEntity
  8
GREEN
  6
CONTINUOUS
100
AcDbLine
 39
1.8
 10
23.153289
 20
34.552184
 30
0.0
 11
23.112002
 21
34.532968
 31
0.0
  0
LINE
  5
6D8
100
AcDbEntity
  8
GREEN
  6
CONTINUOUS
100
AcDbLine
 39
1.8
 10
23.141345
 20
34.557754
 30
0.0
 11
23.153289
 21
34.552184
 31
0.0
  0
ARC
  5
6D9
100
AcDbEntity
  8
GREEN
  6
CONTINUOUS
100
AcDbCircle
 39
1.8
 10
23.145149
 20
34.565911
 30
0.0
 40
0.009
100
AcDbArc
 50
90.0
 51
245.0
  0
LINE
  5
6DA
100
AcDbEntity
  8
GREEN
  6
CONTINUOUS
100
AcDbLine
 39
1.8
 10
23.258694
 20
34.509355
 30
0.0
 11
23.145149
 21
34.574911
 31
0.0
  0
ARC
  5
6DB
100
AcDbEntity
  8
GREEN
  6
CONTINUOUS
100
AcDbCircle
 39
1.8
 10
23.2447
 20
34.495362
 30
0.0
 40
0.01979
100
AcDbArc
 50
15.0
 51
45.0
  0
LINE
  5
6DC
100
AcDbEntity
  8
GREEN
  6
CONTINUOUS
100
AcDbLine
 39
1.8
 10
23.263816
 20
33.719734
 30
0.0
 11
23.263816
 21
34.500484
 31
0.0
  0
LINE
  5
6DD
100
AcDbEntity
  8
GREEN
  6
CONTINUOUS
100
AcDbLine
 39
1.8
 10
21.510114
 20
34.732234
 30
0.0
 11
23.263816
 21
33.719734
 31
0.0
  0
LINE
  5
6DE
100
AcDbEntity
  8
GREEN
  6
CONTINUOUS
100
AcDbLine
 39
1.8
 10
23.206425
 20
33.80483
 30
0.0
 11
21.612505
 21
34.72508
 31
0.0
  0
LINE
  5
6DF
100
AcDbEntity
  8
GREEN
  6
CONTINUOUS
100
AcDbLine
 39
1.8
 10
21.510114
 20
35.512984
 30
0.0
 11
21.510114
 21
34.732234
 31
0.0
  0
ARC
  5
6E0
100
AcDbEntity
  8
GREEN
  6
CONTINUOUS
100
AcDbCircle
 39
1.8
 10
21.516864
 20
35.512984
 30
0.0
 40
0.00675
100
AcDbArc
 50
90.0
 51
180.0
  0
LINE
  5
6E1
100
AcDbEntity
  8
GREEN
  6
CONTINUOUS
100
AcDbLine
 39
1.8
 10
21.629379
 20
35.453148
 30
0.0
 11
21.516864
 21
35.519734
 31
0.0
  0
ARC
  5
6E2
100
AcDbEntity
  8
GREEN
  6
CONTINUOUS
100
AcDbCircle
 39
1.8
 10
21.624879
 20
35.445354
 30
0.0
 40
0.009
100
AcDbArc
 50
265.0
 51
60.0
  0
LINE
  5
6E3
100
AcDbEntity
  8
GREEN
  6
CONTINUOUS
100
AcDbLine
 39
1.8
 10
21.610966
 20
35.437537
 30
0.0
 11
21.624094
 21
35.436388
 31
0.0
  0
LINE
  5
6E4
100
AcDbEntity
  8
GREEN
  6
CONTINUOUS
100
AcDbLine
 39
1.8
 10
21.602298
 20
35.419386
 30
0.0
 11
21.610966
 21
35.437537
 31
0.0
  0
LINE
  5
6E5
100
AcDbEntity
  8
GREEN
  6
CONTINUOUS
100
AcDbLine
 39
1.8
 10
21.614964
 20
35.395303
 30
0.0
 11
21.602298
 21
35.419386
 31
0.0
  0
ARC
  5
6E6
100
AcDbEntity
  8
GREEN
  6
CONTINUOUS
100
AcDbCircle
 39
1.8
 10
21.609901
 20
35.386535
 30
0.0
 40
0.010125
100
AcDbArc
 50
240.0
 51
60.0
  0
LINE
  5
6E7
100
AcDbEntity
  8
GREEN
  6
CONTINUOUS
100
AcDbLine
 39
1.8
 10
21.559364
 20
35.419898
 30
0.0
 11
21.604839
 21
35.377766
 31
0.0
  0
ARC
  5
6E8
100
AcDbEntity
  8
GREEN
  6
CONTINUOUS
100
AcDbCircle
 39
1.8
 10
21.552735
 20
35.418437
 30
0.0
 40
0.006787
100
AcDbArc
 50
12.423788
 51
197.604591
  0
LINE
  5
6E9
100
AcDbEntity
  8
GREEN
  6
CONTINUOUS
100
AcDbLine
 39
1.8
 10
21.546114
 20
34.833484
 30
0.0
 11
21.546266
 21
35.416384
 31
0.0
  0
ARC
  5
6EA
100
AcDbEntity
  8
GREEN
  6
CONTINUOUS
100
AcDbCircle
 39
1.8
 10
21.685864
 20
34.84454
 30
0.0
 40
0.140186
100
AcDbArc
 50
184.523413
 51
238.446514
  0
LINE
  5
6EB
100
AcDbEntity
  8
2
  6
CONTINUOUS
 62
     4
100
AcDbLine
 10
22.624072
 20
34.920054
 30
0.0
 11
23.013784
 21
34.695054
 31
0.0
  0
LINE
  5
6EC
100
AcDbEntity
  8
2
  6
CONTINUOUS
 62
     4
100
AcDbLine
 10
22.624072
 20
34.911054
 30
0.0
 11
23.013784
 21
34.686054
 31
0.0
  0
LINE
  5
6ED
100
AcDbEntity
  8
2
  6
CONTINUOUS
 62
     4
100
AcDbLine
 10
23.206621
 20
35.256389
 30
0.0
 11
22.624072
 21
34.920054
 31
0.0
  0
MTEXT
  5
6EE
100
AcDbEntity
  8
2
  6
CONTINUOUS
 62
     9
100
AcDbMText
 10
21.470684
 20
32.806885
 30
0.0
 40
0.6939
 41
4.9041
 71
     1
 72
     5
  1
\fArial|b1|i0|c0|p34;\C7;C L A D
  7
ROMANS
  0
LWPOLYLINE
  5
6EF
102
{ACAD_REACTORS
330
72B
102
}
100
AcDbEntity
  8
1
  6
CONTINUOUS
 62
     5
100
AcDbPolyline
 90
        2
 70
     0
 43
0.0225
 10
23.407923
 20
37.18387
 42
70374.114908
 10
23.408042
 20
37.183855
 42
70374.114908
  0
HATCH
  5
6F0
100
AcDbEntity
  8
1
  6
CONTINUOUS
 62
     5
100
AcDbHatch
 10
0.0
 20
0.0
 30
0.0
210
0.0
220
0.0
230
1.0
  2
SOLID
 70
     1
 71
     0
 91
        7
 92
        7
 72
     1
 73
     1
 93
        4
 10
23.42487323312052
 20
37.18135650059205
 42
0.003817909443379
 10
23.39284349159494
 20
37.18536412070017
 42
0.0
 10
21.53812408433603
 20
36.11454137164802
 42
0.0
 10
21.55760965592118
 20
36.10329137164802
 42
0.0
 97
        0
 92
        7
 72
     0
 73
     1
 93
        4
 10
21.55760965592118
 20
36.10329137164802
 10
21.53812408433603
 20
36.11454137164802
 10
21.53812408433603
 20
35.53200809419061
 10
21.55760965592118
 20
35.54325809419061
 97
        0
 92
        7
 72
     0
 73
     1
 93
        4
 10
21.87575452425026
 20
36.04672101426907
 10
21.87575452425026
 20
36.02422101426907
 10
23.66063288144999
 20
35.00497101426907
 10
23.66063288144999
 20
35.01622101426906
 97
        0
 92
        7
 72
     1
 73
     1
 93
        4
 10
25.12208117700419
 20
35.83748858111401
 42
0.002332807343841
 10
25.11498348949121
 20
35.85589072931776
 42
0.0
 10
23.66063288144999
 20
35.01622101426906
 42
0.0
 10
23.66063288144999
 20
34.99372101426907
 42
0.0
 97
        0
 92
        7
 72
     1
 73
     1
 93
        4
 10
25.23571869048308
 20
35.40656130386193
 42
0.0024685623280776
 10
25.23245214523752
 20
35.42717536308508
 42
0.0
 10
23.98056453990018
 20
34.70439771714842
 42
0.0
 10
24.00005011148534
 20
34.69314771714842
 42
0.0
 97
        0
 92
        7
 72
     1
 73
     1
 93
        8
 10
24.00005011148534
 20
34.69314771714842
 42
0.0
 10
23.98056453990018
 20
34.70439771714842
 42
0.0
 10
23.98056453990018
 20
33.87278040305061
 42
-0.5773502691896262
 10
23.9603145399002
 20
33.86108906009951
 42
0.0
 10
23.80909150995087
 20
33.94839771714842
 42
0.0
 10
23.80909150995087
 20
33.92589771714843
 42
0.0
 10
23.95617511148534
 20
33.84097896020911
 42
0.577350269189633
 10
24.00005011148534
 20
33.8663102032698
 42
0.0
 97
        0
 92
        7
 72
     0
 73
     1
 93
        3
 10
21.87575452425027
 20
36.02422101426906
 10
23.66063288144999
 20
34.99372101426907
 10
23.66063288144999
 20
35.00497101426907
 97
        0
 75
     0
 76
     1
 47
0.006507
 98
        7
 10
21.580185
 20
36.129933
 10
21.547506
 20
36.0774
 10
21.888507
 20
36.031966
 10
23.795266
 20
35.086656
 10
24.167437
 20
34.805534
 10
23.991608
 20
34.638618
 10
23.604785
 20
35.033946
  0
HATCH
  5
6F1
100
AcDbEntity
  8
1
  6
CONTINUOUS
 62
     5
100
AcDbHatch
 10
0.0
 20
0.0
 30
0.0
210
0.0
220
0.0
230
1.0
  2
SOLID
 70
     1
 71
     0
 91
        7
 92
        7
 72
     1
 73
     1
 93
        4
 10
23.42487323312052
 20
37.18135650059205
 42
0.003817909443379
 10
23.39284349159494
 20
37.18536412070017
 42
0.0
 10
21.53812408433603
 20
36.11454137164802
 42
0.0
 10
21.55760965592118
 20
36.10329137164802
 42
0.0
 97
        0
 92
        7
 72
     0
 73
     1
 93
        4
 10
21.55760965592118
 20
36.10329137164802
 10
21.53812408433603
 20
36.11454137164802
 10
21.53812408433603
 20
35.53200809419061
 10
21.55760965592118
 20
35.54325809419061
 97
        0
 92
        7
 72
     0
 73
     1
 93
        4
 10
21.87575452425026
 20
36.04672101426907
 10
21.87575452425026
 20
36.02422101426907
 10
23.66063288144999
 20
35.00497101426907
 10
23.66063288144999
 20
35.01622101426906
 97
        0
 92
        7
 72
     1
 73
     1
 93
        4
 10
25.12208117700419
 20
35.83748858111401
 42
0.002332807343841
 10
25.11498348949121
 20
35.85589072931776
 42
0.0
 10
23.66063288144999
 20
35.01622101426906
 42
0.0
 10
23.66063288144999
 20
34.99372101426907
 42
0.0
 97
        0
 92
        7
 72
     1
 73
     1
 93
        4
 10
25.23571869048308
 20
35.40656130386193
 42
0.0024685623280776
 10
25.23245214523752
 20
35.42717536308508
 42
0.0
 10
23.98056453990018
 20
34.70439771714842
 42
0.0
 10
24.00005011148534
 20
34.69314771714842
 42
0.0
 97
        0
 92
        7
 72
     1
 73
     1
 93
        8
 10
24.00005011148534
 20
34.69314771714842
 42
0.0
 10
23.98056453990018
 20
34.70439771714842
 42
0.0
 10
23.98056453990018
 20
33.87278040305061
 42
-0.5773502691896262
 10
23.9603145399002
 20
33.86108906009951
 42
0.0
 10
23.80909150995087
 20
33.94839771714842
 42
0.0
 10
23.80909150995087
 20
33.92589771714843
 42
0.0
 10
23.95617511148534
 20
33.84097896020911
 42
0.577350269189633
 10
24.00005011148534
 20
33.8663102032698
 42
0.0
 97
        0
 92
        7
 72
     0
 73
     1
 93
        3
 10
21.87575452425027
 20
36.02422101426906
 10
23.66063288144999
 20
34.99372101426907
 10
23.66063288144999
 20
35.00497101426907
 97
        0
 75
     0
 76
     1
 47
0.006507
 98
        7
 10
21.580185
 20
36.129933
 10
21.547506
 20
36.0774
 10
21.888507
 20
36.031966
 10
23.795266
 20
35.086656
 10
24.167437
 20
34.805534
 10
23.991608
 20
34.638618
 10
23.604785
 20
35.033946
  0
HATCH
  5
6F2
100
AcDbEntity
  8
2
  6
CONTINUOUS
 62
     9
100
AcDbHatch
 10
0.0
 20
0.0
 30
0.0
210
0.0
220
0.0
230
1.0
  2
SOLID
 70
     1
 71
     0
 91
        2
 92
       23
 72
     1
 73
     1
 93
       20
 10
23.09918296645476
 20
34.55975189946433
 42
0.0
 10
23.09366582360141
 20
34.55019592772972
 42
0.6681786379192962
 10
23.10632032365139
 20
34.53370426218397
 42
0.0
 10
23.13401686568744
 20
34.54112552825566
 42
0.6681786379192695
 10
23.13618749428152
 20
34.55761308932632
 42
0.0
 10
23.12917350809639
 20
34.5616626161384
 42
-0.6681786379192408
 10
23.13025882239343
 20
34.56990639667374
 42
0.0
 10
23.14218016601706
 20
34.57310071107038
 42
0.6681786379193185
 10
23.14272282316558
 20
34.57722260133805
 42
0.0
 10
22.79642411394903
 20
34.77715825432424
 42
0.0
 10
21.63484908960982
 20
35.44779390731044
 42
0.668178637919208
 10
21.63155075650066
 20
35.44526300730044
 42
0.0
 10
21.63474507089731
 20
35.4333416636768
 42
-0.6681786379193225
 10
21.62814840467901
 20
35.42827986365681
 42
0.0
 10
21.62113441849387
 20
35.43232939046889
 42
0.6681786379193126
 10
21.60794108605728
 20
35.42220579042892
 42
0.0
 10
21.61536235212897
 20
35.39450924839286
 42
0.6681786379193007
 10
21.6359718034673
 20
35.39179596265026
 42
0.0
 10
21.64148894632065
 20
35.40135193438487
 42
0.0
 10
21.82123254911819
 20
35.29757691692459
 42
0.0
 97
        0
 92
        7
 72
     1
 73
     1
 93
       37
 10
21.51686445604433
 20
35.51973384207353
 42
0.4142135623731299
 10
21.51011445604432
 20
35.51298384207353
 42
0.0
 10
21.51011445604432
 20
34.73223384207354
 42
0.0
 10
23.26381589870781
 20
33.71973384207354
 42
0.0
 10
23.26381589870782
 20
34.50048384207353
 42
0.1316524975873667
 10
23.25869387015337
 20
34.50935545576764
 42
0.0
 10
23.14514876230958
 20
34.57491075434642
 42
0.0376464264871547
 10
23.14379923966088
 20
34.57480900072538
 42
-0.2823673447488831
 10
23.14218016601706
 20
34.57310071107038
 42
0.0
 10
23.1386730705908
 20
34.57216098768315
 42
0.5149511874561723
 10
23.14134519795392
 20
34.5577539842631
 42
0.0
 10
23.15328925833612
 20
34.55218437743741
 42
0.0
 10
23.13979031577682
 20
34.54590168264992
 42
-0.2180320882791709
 10
23.13401686568744
 20
34.54112552825566
 42
0.0
 10
23.12343780969158
 20
34.53829087874488
 42
0.0
 10
23.11200197160101
 20
34.53296839662849
 42
0.0
 10
23.09737697160101
 20
34.53296839662849
 42
1.0
 10
23.09737697160101
 20
34.51271839662848
 42
0.0
 10
23.17156841111225
 20
34.49063526350298
 42
-0.5578319223640622
 10
23.22781589870781
 20
34.42308384207355
 42
0.0
 10
23.22781589870781
 20
33.82098384207353
 42
-0.5129809895031772
 10
23.2064250552087
 20
33.80482998524382
 42
0.0
 10
21.61250529954344
 20
34.72507998524383
 42
-0.2397239142270584
 10
21.54611445604433
 20
34.83348384207353
 42
0.0
 10
21.54626566831714
 20
35.41638446378924
 42
-1.046264757040728
 10
21.55936352940192
 20
35.41989750189893
 42
0.0
 10
21.60483889472873
 20
35.37776624628458
 42
0.6309633877406034
 10
21.61990169215189
 20
35.38811894933442
 42
-0.1798205534880095
 10
21.61536235212897
 20
35.39450924839286
 42
0.0
 10
21.61534248705787
 20
35.39458338584749
 42
0.0
 10
21.60229827319838
 20
35.41938632281063
 42
0.0
 10
21.61096554413227
 20
35.43753698155188
 42
0.0
 10
21.62409420726044
 20
35.43638837236092
 42
0.293926452988122
 10
21.63271318893805
 20
35.44092475038377
 42
0.0
 10
21.63155075650066
 20
35.44526300730044
 42
-0.4565659268922137
 10
21.6334560934825
 20
35.44807933271133
 42
0.1814616707363846
 10
21.62954539278787
 20
35.4530496511732
 42
0.0
 97
        0
 75
     0
 76
     1
 47
0.011788
 98
        2
 10
21.850881
 20
35.297508
 10
21.580163
 20
35.456641
  0
LINE
  5
6F3
100
AcDbEntity
  8
1
  6
CONTINUOUS
100
AcDbLine
 39
0.09
 10
21.875755
 20
36.046721
 30
0.0
 11
23.660633
 21
35.016221
 31
0.0
  0
LINE
  5
6F4
100
AcDbEntity
  8
1
  6
CONTINUOUS
100
AcDbLine
 39
0.09
 10
21.875755
 20
36.024221
 30
0.0
 11
23.660633
 21
34.993721
 31
0.0
  0
LINE
  5
6F5
100
AcDbEntity
  8
1
  6
CONTINUOUS
100
AcDbLine
 10
21.875755
 20
36.024221
 30
0.0
 11
23.660633
 21
35.004971
 31
0.0
  0
LINE
  5
6F6
100
AcDbEntity
  8
1
  6
CONTINUOUS
 62
     5
100
AcDbLine
 39
0.09
 10
21.875755
 20
36.046721
 30
0.0
 11
23.660633
 21
35.016221
 31
0.0
  0
LINE
  5
6F7
100
AcDbEntity
  8
1
  6
CONTINUOUS
 62
     5
100
AcDbLine
 39
0.09
 10
21.875755
 20
36.024221
 30
0.0
 11
23.660633
 21
34.993721
 31
0.0
  0
LINE
  5
6F8
100
AcDbEntity
  8
1
  6
CONTINUOUS
 62
     5
100
AcDbLine
 10
21.538124
 20
36.114541
 30
0.0
 11
23.392843
 21
37.185364
 31
0.0
  0
LINE
  5
6F9
100
AcDbEntity
  8
1
  6
CONTINUOUS
100
AcDbLine
 10
21.55761
 20
36.103291
 30
0.0
 11
23.424873
 21
37.181357
 31
0.0
  0
LINE
  5
6FA
100
AcDbEntity
  8
1
  6
CONTINUOUS
 62
     5
100
AcDbLine
 10
21.538124
 20
36.114541
 30
0.0
 11
23.392843
 21
37.185364
 31
0.0
  0
LINE
  5
6FB
100
AcDbEntity
  8
1
  6
CONTINUOUS
 62
     5
100
AcDbLine
 10
21.55761
 20
36.103291
 30
0.0
 11
23.424873
 21
37.181357
 31
0.0
  0
LINE
  5
6FC
100
AcDbEntity
  8
1
  6
CONTINUOUS
 62
     5
100
AcDbLine
 10
21.878005
 20
36.042824
 30
0.0
 11
23.732659
 21
37.113609
 31
0.0
  0
HATCH
  5
6FD
100
AcDbEntity
  8
2
  6
CONTINUOUS
 62
     9
100
AcDbHatch
 10
0.0
 20
0.0
 30
0.0
210
0.0
220
0.0
230
1.0
  2
ANSI31
 70
     0
 71
     0
 91
        1
 92
        7
 72
     1
 73
     1
 93
        8
 10
23.73507992888019
 20
37.11656573044737
 42
0.0
 10
23.73198375057201
 20
37.11477815106769
 42
0.0
 10
23.73220875057201
 20
37.11438843963598
 42
0.0
 10
23.73243375057201
 20
37.11399872820428
 42
0.0
 10
23.73265875057201
 20
37.11360901677258
 42
0.0
 10
21.88025452425027
 20
36.04412293805772
 42
0.0
 10
23.66063288144999
 20
35.01622101426906
 42
0.0
 10
25.11545422589317
 20
35.85616250910615
 42
0.2330962772361932
 97
        0
 75
     0
 76
     1
 52
0.0
 41
0.05
 77
     0
 78
     1
 53
45.0
 43
-1.050615
 44
1.75582
 45
-0.0044194173824159
 46
0.0044194173824159
 79
     0
 47
0.017346
 98
        1
 10
23.542094
 20
36.177302
  0
HATCH
  5
6FE
100
AcDbEntity
  8
2
  6
CONTINUOUS
 62
     9
100
AcDbHatch
 10
0.0
 20
0.0
 30
0.0
210
0.0
220
0.0
230
1.0
  2
ANSI31
 70
     0
 71
     0
 91
        1
 92
        7
 72
     1
 73
     1
 93
        7
 10
21.87575452425026
 20
36.02422101426907
 42
0.0
 10
21.87575452425026
 20
36.04672101426907
 42
0.0
 10
23.73087948697389
 20
37.11777791087795
 42
0.0369683020279065
 10
23.42534396952271
 20
37.18162828038057
 42
0.0
 10
21.55760965592118
 20
36.10329137164802
 42
0.0
 10
21.55760965592118
 20
35.54325809419061
 42
0.0
 10
22.13320819715201
 20
35.87558006691539
 42
0.0
 97
        0
 75
     0
 76
     1
 52
0.0
 41
0.05
 77
     0
 78
     1
 53
45.0
 43
-1.050615
 44
1.75582
 45
-0.0044194173824159
 46
0.0044194173824159
 79
     0
 47
0.022773
 98
        1
 10
21.828189
 20
35.976261
  0
LINE
  5
6FF
100
AcDbEntity
  8
1
  6
CONTINUOUS
100
AcDbLine
 10
21.875755
 20
36.024221
 30
0.0
 11
23.660633
 21
35.004971
 31
0.0
  0
LWPOLYLINE
  5
700
100
AcDbEntity
  8
1
100
AcDbPolyline
 90
        2
 70
     0
 43
0.01
 10
21.875755
 20
36.046721
 10
23.730409
 20
37.117506
  0
LINE
  5
701
100
AcDbEntity
  8
0
 62
     3
100
AcDbLine
 10
21.634849
 20
35.447794
 30
0.0
 11
22.796424
 21
34.777158
 31
0.0
  0
LINE
  5
702
100
AcDbEntity
  8
2
  6
CONTINUOUS
 62
     4
100
AcDbLine
 10
22.816909
 20
35.481389
 30
0.0
 11
22.234361
 21
35.145054
 31
0.0
  0
LINE
  5
703
100
AcDbEntity
  8
2
  6
CONTINUOUS
 62
     4
100
AcDbLine
 10
22.824704
 20
35.476889
 30
0.0
 11
22.234361
 21
35.136054
 31
0.0
  0
LINE
  5
704
100
AcDbEntity
  8
0
 62
     3
100
AcDbLine
 10
23.099183
 20
34.559752
 30
0.0
 11
21.821233
 21
35.297577
 31
0.0
  0
LINE
  5
705
100
AcDbEntity
  8
1
  6
CONTINUOUS
 62
     5
100
AcDbLine
 39
0.09
 10
21.875755
 20
36.046721
 30
0.0
 11
21.875755
 21
36.024221
 31
0.0
  0
LINE
  5
706
100
AcDbEntity
  8
1
  6
CONTINUOUS
 62
     5
100
AcDbLine
 39
0.09
 10
21.875755
 20
36.046721
 30
0.0
 11
21.875755
 21
36.024221
 31
0.0
  0
LINE
  5
707
100
AcDbEntity
  8
GREEN
100
AcDbLine
 10
21.632958
 20
35.44932
 30
0.0
 11
22.252706
 21
35.807131
 31
0.0
  0
LINE
  5
708
100
AcDbEntity
  8
GREEN
100
AcDbLine
 10
21.516864
 20
35.519734
 30
0.0
 11
22.133679
 21
35.875852
 31
0.0
  0
LINE
  5
709
100
AcDbEntity
  8
0
 62
     3
100
AcDbLine
 10
21.821233
 20
35.297577
 30
0.0
 11
21.641489
 21
35.401352
 31
0.0
  0
LINE
  5
70A
100
AcDbEntity
  8
1
  6
CONTINUOUS
 62
     5
100
AcDbLine
 10
21.538124
 20
35.532008
 30
0.0
 11
21.538124
 21
36.114541
 31
0.0
  0
LINE
  5
70B
100
AcDbEntity
  8
1
  6
CONTINUOUS
 62
     5
100
AcDbLine
 10
21.538124
 20
35.532008
 30
0.0
 11
21.538124
 21
36.114541
 31
0.0
  0
LINE
  5
70C
100
AcDbEntity
  8
1
  6
CONTINUOUS
 62
     5
100
AcDbLine
 10
21.55761
 20
35.543258
 30
0.0
 11
21.55761
 21
36.103291
 31
0.0
  0
LINE
  5
70D
100
AcDbEntity
  8
1
  6
CONTINUOUS
 62
     5
100
AcDbLine
 10
21.55761
 20
35.543258
 30
0.0
 11
21.55761
 21
36.103291
 31
0.0
  0
LINE
  5
70E
100
AcDbEntity
  8
0
 62
     3
100
AcDbLine
 10
21.634745
 20
35.433342
 30
0.0
 11
21.631551
 21
35.445263
 31
0.0
  0
LINE
  5
70F
100
AcDbEntity
  8
0
 62
     3
100
AcDbLine
 10
21.641489
 20
35.401352
 30
0.0
 11
21.635972
 21
35.391796
 31
0.0
  0
ARC
  5
710
100
AcDbEntity
  8
0
 62
     3
100
AcDbCircle
 10
21.630398
 20
35.432177
 30
0.0
 40
0.0045
100
AcDbArc
 50
240.0
 51
15.0
  0
ARC
  5
711
100
AcDbEntity
  8
0
 62
     3
100
AcDbCircle
 10
21.633724
 20
35.445845
 30
0.0
 40
0.00225
100
AcDbArc
 50
60.0
 51
195.0
  0
LINE
  5
712
100
AcDbEntity
  8
0
 62
     3
100
AcDbLine
 10
21.615362
 20
35.394509
 30
0.0
 11
21.607941
 21
35.422206
 31
0.0
  0
ARC
  5
713
100
AcDbEntity
  8
0
 62
     3
100
AcDbCircle
 10
21.616634
 20
35.424535
 30
0.0
 40
0.009
100
AcDbArc
 50
60.0
 51
195.0
  0
ARC
  5
714
100
AcDbEntity
  8
0
 62
     3
100
AcDbCircle
 10
21.626229
 20
35.397421
 30
0.0
 40
0.01125
100
AcDbArc
 50
195.0
 51
330.0
  0
LINE
  5
715
100
AcDbEntity
  8
0
 62
     3
100
AcDbLine
 10
21.621134
 20
35.432329
 30
0.0
 11
21.628148
 21
35.42828
 31
0.0
  0
LINE
  5
716
100
AcDbEntity
  8
1
  6
CONTINUOUS
 62
     5
100
AcDbLine
 10
21.538124
 20
36.114541
 30
0.0
 11
21.55761
 21
36.103291
 31
0.0
  0
LINE
  5
717
100
AcDbEntity
  8
1
  6
CONTINUOUS
 62
     5
100
AcDbLine
 10
21.538124
 20
36.114541
 30
0.0
 11
21.55761
 21
36.103291
 31
0.0
  0
LINE
  5
718
100
AcDbEntity
  8
2
  6
CONTINUOUS
 62
     4
100
AcDbLine
 10
21.844649
 20
35.370054
 30
0.0
 11
22.234361
 21
35.145054
 31
0.0
  0
LINE
  5
719
100
AcDbEntity
  8
2
  6
CONTINUOUS
 62
     4
100
AcDbLine
 10
21.844649
 20
35.361054
 30
0.0
 11
22.234361
 21
35.136054
 31
0.0
  0
LINE
  5
71A
100
AcDbEntity
  8
2
  6
CONTINUOUS
 62
     4
100
AcDbLine
 10
22.427198
 20
35.706389
 30
0.0
 11
21.844649
 21
35.370054
 31
0.0
  0
LINE
  5
71B
100
AcDbEntity
  8
2
  6
CONTINUOUS
 62
     4
100
AcDbLine
 10
21.844649
 20
35.370054
 30
0.0
 11
21.844649
 21
35.361054
 31
0.0
  0
LINE
  5
71C
100
AcDbEntity
  8
2
  6
CONTINUOUS
 62
     4
100
AcDbLine
 10
22.234361
 20
35.145054
 30
0.0
 11
22.234361
 21
35.136054
 31
0.0
  0
LINE
  5
71D
100
AcDbEntity
  8
2
  6
CONTINUOUS
 62
     4
100
AcDbLine
 10
22.624072
 20
34.920054
 30
0.0
 11
22.624072
 21
34.911054
 31
0.0
  0
LINE
  5
71E
100
AcDbEntity
  8
1
  6
CONTINUOUS
 62
     5
100
AcDbLine
 10
21.875755
 20
36.046721
 30
0.0
 11
21.875755
 21
36.024221
 31
0.0
  0
LINE
  5
71F
100
AcDbEntity
  8
1
  6
CONTINUOUS
 62
     5
100
AcDbLine
 10
21.875755
 20
36.046721
 30
0.0
 11
21.875755
 21
36.024221
 31
0.0
  0
LINE
  5
720
100
AcDbEntity
  8
1
  6
CONTINUOUS
100
AcDbLine
 39
0.09
 10
23.660633
 20
35.016221
 30
0.0
 11
23.660633
 21
34.993721
 31
0.0
  0
LINE
  5
721
100
AcDbEntity
  8
GREEN
100
AcDbLine
 10
23.140783
 20
34.573781
 30
0.0
 11
25.157603
 21
35.738192
 31
0.0
  0
LINE
  5
722
100
AcDbEntity
  8
1
  6
CONTINUOUS
 62
     5
100
AcDbLine
 10
23.980565
 20
34.704398
 30
0.0
 11
25.232452
 21
35.427175
 31
0.0
  0
LINE
  5
723
102
{ACAD_REACTORS
330
72B
102
}
100
AcDbEntity
  8
1
  6
CONTINUOUS
 62
     5
100
AcDbLine
 10
24.00005
 20
34.693148
 30
0.0
 11
25.235719
 21
35.406561
 31
0.0
  0
LINE
  5
724
100
AcDbEntity
  8
2
  6
CONTINUOUS
 62
     4
100
AcDbLine
 10
23.299508
 20
34.344507
 30
0.0
 11
25.227737
 21
35.457771
 31
0.0
  0
LINE
  5
725
100
AcDbEntity
  8
2
  6
CONTINUOUS
 62
     4
100
AcDbLine
 10
23.315097
 20
34.335507
 30
0.0
 11
25.23059
 21
35.441418
 31
0.0
  0
LINE
  5
726
100
AcDbEntity
  8
GREEN
100
AcDbLine
 10
23.263816
 20
34.500484
 30
0.0
 11
25.193547
 21
35.614615
 31
0.0
  0
LINE
  5
727
100
AcDbEntity
  8
1
  6
CONTINUOUS
100
AcDbLine
 10
23.660633
 20
34.993721
 30
0.0
 11
25.122081
 21
35.837489
 31
0.0
  0
LINE
  5
728
100
AcDbEntity
  8
1
  6
CONTINUOUS
100
AcDbLine
 10
23.660633
 20
35.016221
 30
0.0
 11
25.114983
 21
35.855891
 31
0.0
  0
LINE
  5
729
100
AcDbEntity
  8
1
  6
CONTINUOUS
 62
     5
100
AcDbLine
 10
23.985425
 20
33.840979
 30
0.0
 11
25.186983
 21
34.534699
 31
0.0
  0
LWPOLYLINE
  5
72A
102
{ACAD_REACTORS
330
72B
102
}
100
AcDbEntity
  8
1
  6
CONTINUOUS
 62
     5
100
AcDbPolyline
 90
        2
 70
     0
 43
0.009
 10
23.984936
 20
33.845868
 10
25.186493
 20
34.539587
  0
HATCH
  5
72B
100
AcDbEntity
  8
2
  6
CONTINUOUS
 62
     9
100
AcDbHatch
 10
0.0
 20
0.0
 30
0.0
210
0.0
220
0.0
230
1.0
  2
ANSI31
 70
     0
 71
     1
 91
        2
 92
        7
 72
     1
 73
     1
 93
        5
 10
24.00005011148534
 20
34.69314771714842
 42
0.0
 10
24.00005011148534
 20
33.86631020326982
 42
-0.1222318301882331
 10
23.99665617885112
 20
33.85263444806666
 42
0.0
 10
25.18909728847687
 20
34.54109064370188
 42
0.1036486555291187
 10
25.23618942683959
 20
35.40683308362409
 42
0.0
 97
        5
330
723
330
72F
330
737
330
72A
330
6EF
 92
        7
 72
     1
 73
     1
 93
        4
 10
23.96031453990019
 20
33.86108906009951
 42
0.5773502691893225
 10
23.98056453990018
 20
33.8727804030506
 42
0.0
 10
23.98056453990018
 20
34.04222773920666
 42
0.0
 10
23.81356884218545
 20
33.94581272817754
 42
0.0
 97
        4
330
73D
330
73B
330
741
330
72D
 75
     0
 76
     1
 52
0.0
 41
0.05
 77
     0
 78
     1
 53
45.0
 43
-1.050615
 44
1.75582
 45
-0.0044194173824159
 46
0.0044194173824159
 79
     0
 47
0.022773
 98
        2
 10
24.607265
 20
34.664564
 10
23.920187
 20
33.936983
  0
LINE
  5
72C
100
AcDbEntity
  8
1
  6
CONTINUOUS
 62
     5
100
AcDbLine
 10
23.980565
 20
33.87278
 30
0.0
 11
23.980565
 21
34.704398
 31
0.0
  0
LINE
  5
72D
102
{ACAD_REACTORS
330
72B
102
}
100
AcDbEntity
  8
1
  6
CONTINUOUS
 62
     5
100
AcDbLine
 10
23.980565
 20
33.87278
 30
0.0
 11
23.980565
 21
34.704398
 31
0.0
  0
LINE
  5
72E
100
AcDbEntity
  8
1
  6
CONTINUOUS
 62
     5
100
AcDbLine
 10
24.00005
 20
33.86631
 30
0.0
 11
24.00005
 21
34.693148
 31
0.0
  0
LINE
  5
72F
102
{ACAD_REACTORS
330
72B
102
}
100
AcDbEntity
  8
1
  6
CONTINUOUS
 62
     5
100
AcDbLine
 10
24.00005
 20
33.86631
 30
0.0
 11
24.00005
 21
34.693148
 31
0.0
  0
LINE
  5
730
100
AcDbEntity
  8
GREEN
100
AcDbLine
 10
23.263816
 20
33.719734
 30
0.0
 11
23.981035
 21
34.133821
 31
0.0
  0
LINE
  5
731
100
AcDbEntity
  8
2
  6
CONTINUOUS
 62
     4
100
AcDbLine
 10
23.315097
 20
33.885507
 30
0.0
 11
23.981035
 21
34.269987
 31
0.0
  0
LINE
  5
732
100
AcDbEntity
  8
2
  6
CONTINUOUS
 62
     4
100
AcDbLine
 10
23.299508
 20
34.344507
 30
0.0
 11
23.315097
 21
34.335507
 31
0.0
  0
LINE
  5
733
100
AcDbEntity
  8
2
  6
CONTINUOUS
 62
     4
100
AcDbLine
 10
23.299508
 20
33.894507
 30
0.0
 11
23.315097
 21
33.885507
 31
0.0
  0
LINE
  5
734
100
AcDbEntity
  8
2
  6
CONTINUOUS
 62
     4
100
AcDbLine
 10
23.299508
 20
34.344507
 30
0.0
 11
23.299508
 21
33.894507
 31
0.0
  0
LINE
  5
735
100
AcDbEntity
  8
2
  6
CONTINUOUS
 62
     4
100
AcDbLine
 10
23.315097
 20
34.335507
 30
0.0
 11
23.315097
 21
33.885507
 31
0.0
  0
ARC
  5
736
100
AcDbEntity
  8
1
  6
CONTINUOUS
 62
     5
100
AcDbCircle
 10
23.9708
 20
33.86631
 30
0.0
 40
0.02925
100
AcDbArc
 50
240.0
 51
0.0
  0
ARC
  5
737
102
{ACAD_REACTORS
330
72B
102
}
100
AcDbEntity
  8
1
  6
CONTINUOUS
 62
     5
100
AcDbCircle
 10
23.9708
 20
33.86631
 30
0.0
 40
0.02925
100
AcDbArc
 50
240.0
 51
0.0
  0
LINE
  5
738
100
AcDbEntity
  8
1
  6
CONTINUOUS
 62
     5
100
AcDbLine
 10
23.956175
 20
33.840979
 30
0.0
 11
23.809092
 21
33.925898
 31
0.0
  0
LINE
  5
739
100
AcDbEntity
  8
1
  6
CONTINUOUS
 62
     5
100
AcDbLine
 10
23.956175
 20
33.840979
 30
0.0
 11
23.809092
 21
33.925898
 31
0.0
  0
LINE
  5
73A
100
AcDbEntity
  8
1
  6
CONTINUOUS
 62
     5
100
AcDbLine
 10
23.960315
 20
33.861089
 30
0.0
 11
23.809092
 21
33.948398
 31
0.0
  0
LINE
  5
73B
102
{ACAD_REACTORS
330
72B
102
}
100
AcDbEntity
  8
1
  6
CONTINUOUS
 62
     5
100
AcDbLine
 10
23.960315
 20
33.861089
 30
0.0
 11
23.809092
 21
33.948398
 31
0.0
  0
LINE
  5
73C
100
AcDbEntity
  8
1
  6
CONTINUOUS
 62
     5
100
AcDbLine
 10
23.809092
 20
33.948398
 30
0.0
 11
23.980565
 21
34.047398
 31
0.0
  0
LWPOLYLINE
  5
73D
102
{ACAD_REACTORS
330
72B
102
}
100
AcDbEntity
  8
1
  6
CONTINUOUS
 62
     5
100
AcDbPolyline
 90
        2
 70
     0
 43
0.009
 10
23.811365
 20
33.944541
 10
23.982838
 20
34.043541
  0
LINE
  5
73E
100
AcDbEntity
  8
1
  6
CONTINUOUS
 62
     5
100
AcDbLine
 10
23.809092
 20
33.948398
 30
0.0
 11
23.809092
 21
33.925898
 31
0.0
  0
LINE
  5
73F
100
AcDbEntity
  8
1
  6
CONTINUOUS
 62
     5
100
AcDbLine
 10
23.809092
 20
33.948398
 30
0.0
 11
23.809092
 21
33.925898
 31
0.0
  0
ARC
  5
740
100
AcDbEntity
  8
1
  6
CONTINUOUS
 62
     5
100
AcDbCircle
 10
23.967065
 20
33.87278
 30
0.0
 40
0.0135
100
AcDbArc
 50
240.0
 51
0.0
  0
ARC
  5
741
102
{ACAD_REACTORS
330
72B
102
}
100
AcDbEntity
  8
1
  6
CONTINUOUS
 62
     5
100
AcDbCircle
 10
23.967065
 20
33.87278
 30
0.0
 40
0.0135
100
AcDbArc
 50
240.0
 51
0.0
  0
LINE
  5
742
100
AcDbEntity
  8
2
  6
CONTINUOUS
 62
     4
100
AcDbLine
 10
23.596332
 20
35.031389
 30
0.0
 11
23.013784
 21
34.695054
 31
0.0
  0
LINE
  5
743
100
AcDbEntity
  8
2
  6
CONTINUOUS
 62
     4
100
AcDbLine
 10
23.604126
 20
35.026889
 30
0.0
 11
23.013784
 21
34.686054
 31
0.0
  0
LINE
  5
744
100
AcDbEntity
  8
0
 62
     3
100
AcDbLine
 10
22.796424
 20
34.777158
 30
0.0
 11
23.142723
 21
34.577223
 31
0.0
  0
LINE
  5
745
100
AcDbEntity
  8
0
 62
     3
100
AcDbLine
 10
23.14218
 20
34.573101
 30
0.0
 11
23.130259
 21
34.569906
 31
0.0
  0
ARC
  5
746
100
AcDbEntity
  8
0
 62
     3
100
AcDbCircle
 10
23.131687
 20
34.549819
 30
0.0
 40
0.009
100
AcDbArc
 50
285.0
 51
60.0
  0
ARC
  5
747
100
AcDbEntity
  8
0
 62
     3
100
AcDbCircle
 10
23.141598
 20
34.575274
 30
0.0
 40
0.00225
100
AcDbArc
 50
285.0
 51
60.0
  0
LINE
  5
748
100
AcDbEntity
  8
0
 62
     3
100
AcDbLine
 10
23.093666
 20
34.550196
 30
0.0
 11
23.099183
 21
34.559752
 31
0.0
  0
ARC
  5
749
100
AcDbEntity
  8
0
 62
     3
100
AcDbCircle
 10
23.103409
 20
34.544571
 30
0.0
 40
0.01125
100
AcDbArc
 50
150.0
 51
285.0
  0
LINE
  5
74A
100
AcDbEntity
  8
0
 62
     3
100
AcDbLine
 10
23.134017
 20
34.541126
 30
0.0
 11
23.10632
 21
34.533704
 31
0.0
  0
LINE
  5
74B
100
AcDbEntity
  8
0
 62
     3
100
AcDbLine
 10
23.129174
 20
34.561663
 30
0.0
 11
23.136187
 21
34.557613
 31
0.0
  0
ARC
  5
74C
100
AcDbEntity
  8
0
 62
     3
100
AcDbCircle
 10
23.131424
 20
34.56556
 30
0.0
 40
0.0045
100
AcDbArc
 50
105.0
 51
240.0
  0
LINE
  5
74D
100
AcDbEntity
  8
2
  6
CONTINUOUS
 62
     4
100
AcDbLine
 10
23.013784
 20
34.695054
 30
0.0
 11
23.013784
 21
34.686054
 31
0.0
  0
LINE
  5
74E
100
AcDbEntity
  8
1
  6
CONTINUOUS
 62
     5
100
AcDbLine
 10
23.980565
 20
34.704398
 30
0.0
 11
24.00005
 21
34.693148
 31
0.0
  0
LINE
  5
74F
100
AcDbEntity
  8
1
  6
CONTINUOUS
 62
     5
100
AcDbLine
 10
23.980565
 20
34.704398
 30
0.0
 11
24.00005
 21
34.693148
 31
0.0
  0
LINE
  5
76E
100
AcDbEntity
  8
R-DOOR-ANNO
100
AcDbLine
 10
9.451979
 20
23.754428
 30
0.0
 11
9.405764
 21
23.648873
 31
0.0
  0
LINE
  5
76F
100
AcDbEntity
  8
R-DOOR-ANNO
100
AcDbLine
 10
9.385958
 20
23.754428
 30
0.0
 11
9.339742
 21
23.648873
 31
0.0
  0
TEXT
  5
770
100
AcDbEntity
  8
R-DOOR-ANNO
 62
     0
100
AcDbText
 10
6.734676
 20
23.397738
 30
0.0
 40
0.347288
  1
LESS 
100
AcDbText
  0
TEXT
  5
771
100
AcDbEntity
  8
R-DOOR-ANNO
100
AcDbText
 10
8.372457
 20
23.443087
 30
0.0
 40
0.33075
  1
11
100
AcDbText
  0
TEXT
  5
772
100
AcDbEntity
  8
R-DOOR-ANNO
 62
     0
100
AcDbText
 10
7.13134
 20
22.659627
 30
0.0
 40
0.347288
  1
[287mm]
100
AcDbText
  0
LINE
  5
773
100
AcDbEntity
  8
R-DOOR-ANNO
100
AcDbLine
 10
8.875406
 20
23.595291
 30
0.0
 11
9.249659
 21
23.595291
 31
0.0
  0
TEXT
  5
774
100
AcDbEntity
  8
R-DOOR-ANNO
100
AcDbText
 10
8.886223
 20
23.206793
 30
0.0
 40
0.297675
  1
16
100
AcDbText
  0
TEXT
  5
775
100
AcDbEntity
  8
R-DOOR-ANNO
 62
     0
100
AcDbText
 10
5.973715
 20
24.135848
 30
0.0
 40
0.347288
  1
CLEAR OPENING
100
AcDbText
  0
TEXT
  5
776
100
AcDbEntity
  8
R-DOOR-ANNO
 62
     0
100
AcDbText
 10
7.304984
 20
24.714661
 30
0.0
 40
0.347288
  1
GLASS 
100
AcDbText
  0
TEXT
  5
777
100
AcDbEntity
  8
R-DOOR-ANNO
100
AcDbText
 10
8.963149
 20
23.702918
 30
0.0
 40
0.297675
  1
5
100
AcDbText
  0
LEADER
  5
779
100
AcDbEntity
  8
0
100
AcDbLeader
  3
STANDARD
 76
     2
 10
8.114952
 20
27.050665
 30
0.0
 10
8.114952
 20
25.307201
 30
0.0
 77
   256
1001
ACAD
1000
DSTYLE
1002
{
1070
   288
1070
     1
1070
   270
1070
     4
1070
    40
1040
2.0
1070
     4
1000
mm
1070
   274
1070
     0
1070
   171
1070
     0
1070
   170
1070
     1
1002
}
  0
LEADER
  5
77C
100
AcDbEntity
  8
0
100
AcDbLeader
  3
STANDARD
 76
     2
 10
8.113584
 20
20.9554
 30
0.0
 10
8.113584
 20
22.491584
 30
0.0
 77
   256
1001
ACAD
1000
DSTYLE
1002
{
1070
   288
1070
     1
1070
   270
1070
     4
1070
    40
1040
2.0
1070
     4
1000
mm
1070
   274
1070
     0
1070
   171
1070
     0
1070
   170
1070
     1
1002
}
  0
DIMENSION
  5
78A
100
AcDbEntity
  8
0
100
AcDbDimension
  2
*D23
 10
8.122336
 20
30.30056
 30
0.0
 11
8.122336
 21
28.677032
 31
0.0
 70
   160
  3
STANDARD
100
AcDbAlignedDimension
 13
14.395039
 23
27.050665
 33
0.0
 14
11.684761
 24
30.30056
 34
0.0
 50
90.0
100
AcDbRotatedDimension
1001
ACAD
1000
DSTYLE
1002
{
1070
   288
1070
     1
1070
   270
1070
     4
1070
    40
1040
2.0
1070
     4
1000
mm
1070
   274
1070
     0
1070
   171
1070
     0
1070
   170
1070
     1
1002
}
  0
DIMENSION
  5
799
100
AcDbEntity
  8
0
100
AcDbDimension
  2
*D24
 10
21.245054
 20
30.30056
 30
0.0
 11
19.505054
 21
28.992652
 31
0.0
 70
   160
  3
STANDARD
100
AcDbAlignedDimension
 13
15.675754
 23
30.05056
 33
0.0
 14
17.357824
 24
30.30056
 34
0.0
 50
90.0
100
AcDbRotatedDimension
1001
ACAD
1000
DSTYLE
1002
{
1070
   288
1070
     1
1070
   270
1070
     4
1070
    40
1040
2.0
1070
     4
1000
mm
1070
   274
1070
     0
1070
   171
1070
     0
1070
   170
1070
     1
1002
}
  0
DIMENSION
  5
7A7
100
AcDbEntity
  8
0
100
AcDbDimension
  2
*D25
 10
8.112152
 20
12.920943
 30
0.0
 11
8.112152
 21
17.117455
 31
0.0
 70
   160
  3
STANDARD
100
AcDbAlignedDimension
 13
14.409408
 23
20.9554
 33
0.0
 14
12.498791
 24
12.920943
 34
0.0
 50
90.0
100
AcDbRotatedDimension
1001
ACAD
1000
DSTYLE
1002
{
1070
   288
1070
     1
1070
   270
1070
     4
1070
    40
1040
2.0
1070
     4
1000
mm
1070
   274
1070
     0
1070
   171
1070
     0
1070
   170
1070
     1
1002
}
  0
DIMENSION
  5
7B6
100
AcDbEntity
  8
0
100
AcDbDimension
  2
*D26
 10
20.19361
 20
12.920943
 30
0.0
 11
21.93361
 21
14.224604
 31
0.0
 70
   160
  3
STANDARD
100
AcDbAlignedDimension
 13
15.680558
 23
13.172943
 33
0.0
 14
17.689565
 24
12.920943
 34
0.0
 50
90.0
100
AcDbRotatedDimension
1001
ACAD
1000
DSTYLE
1002
{
1070
   288
1070
     1
1070
   270
1070
     4
1070
    40
1040
2.0
1070
     4
1000
mm
1070
   274
1070
     0
1070
   171
1070
     0
1070
   170
1070
     1
1002
}
  0
ENDSEC
  0
SECTION
  2
OBJECTS
  0
DICTIONARY
  5
C
100
AcDbDictionary
  3
ACAD_GROUP
350
D
  3
ACAD_MLINESTYLE
350
1B
  0
DICTIONARY
  5
D
102
{ACAD_REACTORS
330
C
102
}
100
AcDbDictionary
  0
DICTIONARY
  5
1B
102
{ACAD_REACTORS
330
C
102
}
100
AcDbDictionary
  3
STANDARD
350
1C
  0
MLINESTYLE
  5
1C
102
{ACAD_REACTORS
330
1B
102
}
100
AcDbMlineStyle
  2
STANDARD
 70
     0
  3

 62
   256
 51
90.0
 52
90.0
 71
     2
 49
0.5
 62
   256
  6
BYLAYER
 49
-0.5
 62
   256
  6
BYLAYER
  0
ENDSEC
  0
EOF
