  0
SECTION
  2
HEADER
  9
$ACADVER
  1
AC1014
  9
$ACADMAINTVER
 70
     9
  9
$DWGCODEPAGE
  3
ANSI_1252
  9
$INSBASE
 10
0.0
 20
0.0
 30
0.0
  9
$EXTMIN
 10
-0.054933
 20
-0.054933
 30
0.0
  9
$EXTMAX
 10
16.113206
 20
21.429978
 30
1.0
  9
$LIMMIN
 10
0.0
 20
0.0
  9
$LIMMAX
 10
16.058274
 20
21.375045
  9
$ORTHOMODE
 70
     1
  9
$REGENMODE
 70
     1
  9
$FILLMODE
 70
     1
  9
$QTEXTMODE
 70
     0
  9
$MIRRTEXT
 70
     1
  9
$DRAGMODE
 70
     2
  9
$LTSCALE
 40
1.0
  9
$OSMODE
 70
     1
  9
$ATTMODE
 70
     1
  9
$TEXTSIZE
 40
0.2
  9
$TRACEWID
 40
0.05
  9
$TEXTSTYLE
  7
ROMANS
  9
$CLAYER
  8
0
  9
$CELTYPE
  6
BYLAYER
  9
$CECOLOR
 62
   256
  9
$CELTSCALE
 40
1.0
  9
$DELOBJ
 70
     1
  9
$DISPSILH
 70
     0
  9
$DIMSCALE
 40
2.0
  9
$DIMASZ
 40
0.18
  9
$DIMEXO
 40
0.0625
  9
$DIMDLI
 40
0.38
  9
$DIMRND
 40
0.0
  9
$DIMDLE
 40
0.0
  9
$DIMEXE
 40
0.18
  9
$DIMTP
 40
0.0
  9
$DIMTM
 40
0.0
  9
$DIMTXT
 40
0.18
  9
$DIMCEN
 40
0.0
  9
$DIMTSZ
 40
0.0
  9
$DIMTOL
 70
     0
  9
$DIMLIM
 70
     0
  9
$DIMTIH
 70
     1
  9
$DIMTOH
 70
     1
  9
$DIMSE1
 70
     0
  9
$DIMSE2
 70
     0
  9
$DIMTAD
 70
     0
  9
$DIMZIN
 70
     0
  9
$DIMBLK
  1

  9
$DIMASO
 70
     1
  9
$DIMSHO
 70
     1
  9
$DIMPOST
  1

  9
$DIMAPOST
  1
mm
  9
$DIMALT
 70
     1
  9
$DIMALTD
 70
     0
  9
$DIMALTF
 40
25.4
  9
$DIMLFAC
 40
1.0
  9
$DIMTOFL
 70
     0
  9
$DIMTVP
 40
0.0
  9
$DIMTIX
 70
     0
  9
$DIMSOXD
 70
     0
  9
$DIMSAH
 70
     0
  9
$DIMBLK1
  1

  9
$DIMBLK2
  1

  9
$DIMSTYLE
  2
ROMANS
  9
$DIMCLRD
 70
     0
  9
$DIMCLRE
 70
     0
  9
$DIMCLRT
 70
     0
  9
$DIMTFAC
 40
1.0
  9
$DIMGAP
 40
0.09
  9
$DIMJUST
 70
     0
  9
$DIMSD1
 70
     0
  9
$DIMSD2
 70
     0
  9
$DIMTOLJ
 70
     1
  9
$DIMTZIN
 70
     0
  9
$DIMALTZ
 70
     0
  9
$DIMALTTZ
 70
     0
  9
$DIMFIT
 70
     3
  9
$DIMUPT
 70
     0
  9
$DIMUNIT
 70
     4
  9
$DIMDEC
 70
     4
  9
$DIMTDEC
 70
     4
  9
$DIMALTU
 70
     2
  9
$DIMALTTD
 70
     0
  9
$DIMTXSTY
  7
ROMANS
  9
$DIMAUNIT
 70
     0
  9
$LUNITS
 70
     2
  9
$LUPREC
 70
     4
  9
$SKETCHINC
 40
0.1
  9
$FILLETRAD
 40
0.5
  9
$AUNITS
 70
     0
  9
$AUPREC
 70
     0
  9
$MENU
  1
.
  9
$ELEVATION
 40
0.0
  9
$PELEVATION
 40
0.0
  9
$THICKNESS
 40
0.0
  9
$LIMCHECK
 70
     0
  9
$BLIPMODE
 70
     0
  9
$CHAMFERA
 40
0.5
  9
$CHAMFERB
 40
0.5
  9
$CHAMFERC
 40
1.0
  9
$CHAMFERD
 40
0.0
  9
$SKPOLY
 70
     0
  9
$TDCREATE
 40
2451967.577145069
  9
$TDUPDATE
 40
2452103.510119930
  9
$TDINDWG
 40
0.0564875926
  9
$TDUSRTIMER
 40
0.0564875926
  9
$USRTIMER
 70
     1
  9
$ANGBASE
 50
0.0
  9
$ANGDIR
 70
     0
  9
$PDMODE
 70
     0
  9
$PDSIZE
 40
0.0
  9
$PLINEWID
 40
0.0
  9
$COORDS
 70
     1
  9
$SPLFRAME
 70
     0
  9
$SPLINETYPE
 70
     6
  9
$SPLINESEGS
 70
     8
  9
$ATTDIA
 70
     0
  9
$ATTREQ
 70
     1
  9
$HANDLING
 70
     1
  9
$HANDSEED
  5
759
  9
$SURFTAB1
 70
     6
  9
$SURFTAB2
 70
     6
  9
$SURFTYPE
 70
     6
  9
$SURFU
 70
     6
  9
$SURFV
 70
     6
  9
$UCSNAME
  2

  9
$UCSORG
 10
0.0
 20
0.0
 30
0.0
  9
$UCSXDIR
 10
1.0
 20
0.0
 30
0.0
  9
$UCSYDIR
 10
0.0
 20
1.0
 30
0.0
  9
$PUCSNAME
  2

  9
$PUCSORG
 10
0.0
 20
0.0
 30
0.0
  9
$PUCSXDIR
 10
1.0
 20
0.0
 30
0.0
  9
$PUCSYDIR
 10
0.0
 20
1.0
 30
0.0
  9
$USERI1
 70
     0
  9
$USERI2
 70
     0
  9
$USERI3
 70
     0
  9
$USERI4
 70
     0
  9
$USERI5
 70
     0
  9
$USERR1
 40
0.0
  9
$USERR2
 40
0.0
  9
$USERR3
 40
0.0
  9
$USERR4
 40
0.0
  9
$USERR5
 40
0.0
  9
$WORLDVIEW
 70
     1
  9
$SHADEDGE
 70
     3
  9
$SHADEDIF
 70
    70
  9
$TILEMODE
 70
     1
  9
$MAXACTVP
 70
    48
  9
$PINSBASE
 10
0.0
 20
0.0
 30
0.0
  9
$PLIMCHECK
 70
     0
  9
$PEXTMIN
 10
1.000000E+20
 20
1.000000E+20
 30
1.000000E+20
  9
$PEXTMAX
 10
-1.000000E+20
 20
-1.000000E+20
 30
-1.000000E+20
  9
$PLIMMIN
 10
0.0
 20
0.0
  9
$PLIMMAX
 10
12.0
 20
9.0
  9
$UNITMODE
 70
     0
  9
$VISRETAIN
 70
     1
  9
$PLINEGEN
 70
     0
  9
$PSLTSCALE
 70
     1
  9
$TREEDEPTH
 70
  3020
  9
$PICKSTYLE
 70
     1
  9
$CMLSTYLE
  2
STANDARD
  9
$CMLJUST
 70
     0
  9
$CMLSCALE
 40
1.0
  9
$PROXYGRAPHICS
 70
     1
  9
$MEASUREMENT
 70
     0
  0
ENDSEC
  0
SECTION
  2
CLASSES
  0
CLASS
  1
HATCH
  2
AcDbHatch
  3
"ACAD_SEDONA"
 90
        0
280
     0
281
     1
  0
CLASS
  1
LWPOLYLINE
  2
AcDbPolyline
  3
"AutoCAD"
 90
        0
280
     0
281
     1
  0
ENDSEC
  0
SECTION
  2
TABLES
  0
TABLE
  2
VPORT
  5
8
100
AcDbSymbolTable
 70
     1
  0
VPORT
  5
751
100
AcDbSymbolTableRecord
100
AcDbViewportTableRecord
  2
*ACTIVE
 70
     0
 10
0.0
 20
0.0
 11
1.0
 21
1.0
 12
8.209778
 22
10.687523
 13
0.0
 23
0.0
 14
0.5
 24
0.5
 15
0.5
 25
0.5
 16
0.0
 26
0.0
 36
1.0
 17
0.0
 27
0.0
 37
0.0
 40
21.716594
 41
1.74735
 42
50.0
 43
0.0
 44
0.0
 50
0.0
 51
0.0
 71
     0
 72
 10000
 73
     1
 74
     1
 75
     0
 76
     0
 77
     0
 78
     0
  0
ENDTAB
  0
TABLE
  2
LTYPE
  5
5
100
AcDbSymbolTable
 70
     2
  0
LTYPE
  5
12
100
AcDbSymbolTableRecord
100
AcDbLinetypeTableRecord
  2
BYBLOCK
 70
     0
  3

 72
    65
 73
     0
 40
0.0
  0
LTYPE
  5
13
100
AcDbSymbolTableRecord
100
AcDbLinetypeTableRecord
  2
BYLAYER
 70
     0
  3

 72
    65
 73
     0
 40
0.0
  0
LTYPE
  5
14
100
AcDbSymbolTableRecord
100
AcDbLinetypeTableRecord
  2
CONTINUOUS
 70
     0
  3
Solid line
 72
    65
 73
     0
 40
0.0
  0
LTYPE
  5
3A8
100
AcDbSymbolTableRecord
100
AcDbLinetypeTableRecord
  2
HIDDEN
 70
     0
  3
Hidden __ __ __ __ __ __ __ __ __ __ __ __ __ _
 72
    65
 73
     2
 40
0.375
 49
0.25
 74
     0
 49
-0.125
 74
     0
  0
ENDTAB
  0
TABLE
  2
LAYER
  5
2
100
AcDbSymbolTable
 70
    12
  0
LAYER
  5
E
100
AcDbSymbolTableRecord
100
AcDbLayerTableRecord
  2
0
 70
     0
 62
     7
  6
CONTINUOUS
  0
LAYER
  5
72
100
AcDbSymbolTableRecord
100
AcDbLayerTableRecord
  2
DEFPOINTS
 70
     0
 62
     7
  6
CONTINUOUS
  0
LAYER
  5
73
100
AcDbSymbolTableRecord
100
AcDbLayerTableRecord
  2
CLAMP
 70
     0
 62
     2
  6
CONTINUOUS
  0
LAYER
  5
74
100
AcDbSymbolTableRecord
100
AcDbLayerTableRecord
  2
DIMN
 70
     0
 62
     4
  6
CONTINUOUS
  0
LAYER
  5
75
100
AcDbSymbolTableRecord
100
AcDbLayerTableRecord
  2
BORDER
 70
     0
 62
     4
  6
CONTINUOUS
  0
LAYER
  5
76
100
AcDbSymbolTableRecord
100
AcDbLayerTableRecord
  2
BOARDER
 70
     0
 62
     7
  6
CONTINUOUS
  0
LAYER
  5
77
100
AcDbSymbolTableRecord
100
AcDbLayerTableRecord
  2
R-DOOR-ANNO
 70
     0
 62
     7
  6
CONTINUOUS
  0
LAYER
  5
78
100
AcDbSymbolTableRecord
100
AcDbLayerTableRecord
  2
R-DOOR-PATT
 70
     0
 62
     5
  6
CONTINUOUS
  0
LAYER
  5
79
100
AcDbSymbolTableRecord
100
AcDbLayerTableRecord
  2
R-DOOR-DETL
 70
     0
 62
     3
  6
CONTINUOUS
  0
LAYER
  5
3A9
100
AcDbSymbolTableRecord
100
AcDbLayerTableRecord
  2
1
 70
     0
 62
     1
  6
CONTINUOUS
  0
LAYER
  5
3AA
100
AcDbSymbolTableRecord
100
AcDbLayerTableRecord
  2
2
 70
     0
 62
     2
  6
HIDDEN
  0
LAYER
  5
3AB
100
AcDbSymbolTableRecord
100
AcDbLayerTableRecord
  2
GREEN
 70
     0
 62
     3
  6
CONTINUOUS
  0
ENDTAB
  0
TABLE
  2
STYLE
  5
3
100
AcDbSymbolTable
 70
     2
  0
STYLE
  5
F
100
AcDbSymbolTableRecord
100
AcDbTextStyleTableRecord
  2
STANDARD
 70
     0
 40
0.0
 41
1.0
 50
0.0
 71
     0
 42
0.2
  3
txt
  4

  0
STYLE
  5
21
100
AcDbSymbolTableRecord
100
AcDbTextStyleTableRecord
  2
ROMANS
 70
     0
 40
0.0
 41
1.0
 50
0.0
 71
     0
 42
0.2
  3
romans.shx
  4

  0
ENDTAB
  0
TABLE
  2
VIEW
  5
6
100
AcDbSymbolTable
 70
     0
  0
ENDTAB
  0
TABLE
  2
UCS
  5
7
100
AcDbSymbolTable
 70
     0
  0
ENDTAB
  0
TABLE
  2
APPID
  5
9
100
AcDbSymbolTable
 70
     1
  0
APPID
  5
10
100
AcDbSymbolTableRecord
100
AcDbRegAppTableRecord
  2
ACAD
 70
     0
  0
ENDTAB
  0
TABLE
  2
DIMSTYLE
  5
A
100
AcDbSymbolTable
 70
     2
  0
DIMSTYLE
105
1D
100
AcDbSymbolTableRecord
100
AcDbDimStyleTableRecord
  2
STANDARD
 70
     0
  3

  4

  5

  6

  7

 40
1.0
 41
0.18
 42
0.0625
 43
0.38
 44
0.18
 45
0.0
 46
0.0
 47
0.0
 48
0.0
140
0.18
141
0.09
142
0.0
143
25.4
144
1.0
145
0.0
146
1.0
147
0.09
 71
     0
 72
     0
 73
     1
 74
     1
 75
     0
 76
     0
 77
     0
 78
     0
170
     0
171
     2
172
     0
173
     0
174
     0
175
     0
176
     0
177
     0
178
     0
270
     2
271
     4
272
     4
273
     2
274
     2
340
F
275
     0
280
     0
281
     0
282
     0
283
     1
284
     0
285
     0
286
     0
287
     3
288
     0
  0
DIMSTYLE
105
20
102
{ACAD_REACTORS
330
722
330
730
330
750
102
}
100
AcDbSymbolTableRecord
100
AcDbDimStyleTableRecord
  2
ROMANS
 70
     0
  3

  4

  5

  6

  7

 40
2.0
 41
0.18
 42
0.0625
 43
0.38
 44
0.18
 45
0.0
 46
0.0
 47
0.0
 48
0.0
140
0.18
141
0.0
142
0.0
143
25.4
144
1.0
145
0.0
146
1.0
147
0.09
 71
     0
 72
     0
 73
     1
 74
     1
 75
     0
 76
     0
 77
     0
 78
     0
170
     0
171
     2
172
     0
173
     0
174
     0
175
     0
176
     0
177
     0
178
     0
270
     7
271
     4
272
     4
273
     2
274
     2
340
21
275
     0
280
     0
281
     0
282
     0
283
     1
284
     0
285
     0
286
     0
287
     3
288
     0
  0
ENDTAB
  0
TABLE
  2
BLOCK_RECORD
  5
1
100
AcDbSymbolTable
 70
    21
  0
BLOCK_RECORD
  5
18
100
AcDbSymbolTableRecord
100
AcDbBlockTableRecord
  2
*MODEL_SPACE
  0
BLOCK_RECORD
  5
15
100
AcDbSymbolTableRecord
100
AcDbBlockTableRecord
  2
*PAPER_SPACE
  0
BLOCK_RECORD
  5
2F
100
AcDbSymbolTableRecord
100
AcDbBlockTableRecord
  2
A$C2189253D
  0
BLOCK_RECORD
  5
33
100
AcDbSymbolTableRecord
100
AcDbBlockTableRecord
  2
A$C21405640
  0
BLOCK_RECORD
  5
3B
100
AcDbSymbolTableRecord
100
AcDbBlockTableRecord
  2
A$C35F20450
  0
BLOCK_RECORD
  5
3F
100
AcDbSymbolTableRecord
100
AcDbBlockTableRecord
  2
_DOTSMALL
  0
BLOCK_RECORD
  5
46
100
AcDbSymbolTableRecord
100
AcDbBlockTableRecord
  2
CRLINFO
  0
BLOCK_RECORD
  5
4A
100
AcDbSymbolTableRecord
100
AcDbBlockTableRecord
  2
*D5
  0
BLOCK_RECORD
  5
57
100
AcDbSymbolTableRecord
100
AcDbBlockTableRecord
  2
*D6
  0
BLOCK_RECORD
  5
65
100
AcDbSymbolTableRecord
100
AcDbBlockTableRecord
  2
*D7
  0
BLOCK_RECORD
  5
7A
100
AcDbSymbolTableRecord
100
AcDbBlockTableRecord
  2
A$C1A0B5DFE
  0
BLOCK_RECORD
  5
3AC
100
AcDbSymbolTableRecord
100
AcDbBlockTableRecord
  2
A$C36706144
  0
BLOCK_RECORD
  5
42F
100
AcDbSymbolTableRecord
100
AcDbBlockTableRecord
  2
A$C3D1300B7
  0
BLOCK_RECORD
  5
4B4
100
AcDbSymbolTableRecord
100
AcDbBlockTableRecord
  2
A$C2CC70F12
  0
BLOCK_RECORD
  5
5C4
100
AcDbSymbolTableRecord
100
AcDbBlockTableRecord
  2
A$C60D668AB
  0
BLOCK_RECORD
  5
715
100
AcDbSymbolTableRecord
100
AcDbBlockTableRecord
  2
*D17
  0
BLOCK_RECORD
  5
723
100
AcDbSymbolTableRecord
100
AcDbBlockTableRecord
  2
*D18
  0
BLOCK_RECORD
  5
742
100
AcDbSymbolTableRecord
100
AcDbBlockTableRecord
  2
*D20
  0
ENDTAB
  0
ENDSEC
  0
SECTION
  2
BLOCKS
  0
BLOCK
  5
19
100
AcDbEntity
  8
0
100
AcDbBlockBegin
  2
*MODEL_SPACE
 70
     0
 10
0.0
 20
0.0
 30
0.0
  3
*MODEL_SPACE
  1

  0
ENDBLK
  5
1A
100
AcDbEntity
  8
0
100
AcDbBlockEnd
  0
BLOCK
  5
16
100
AcDbEntity
 67
     1
  8
0
100
AcDbBlockBegin
  2
*PAPER_SPACE
 70
     0
 10
0.0
 20
0.0
 30
0.0
  3
*PAPER_SPACE
  1

  0
ENDBLK
  5
17
100
AcDbEntity
 67
     1
  8
0
100
AcDbBlockEnd
  0
BLOCK
  5
31
100
AcDbEntity
  8
0
100
AcDbBlockBegin
  2
A$C2189253D
 70
     0
 10
0.0
 20
0.0
 30
0.0
  3
A$C2189253D
  1

  0
HATCH
  5
30
100
AcDbEntity
  8
BOARDER
  6
CONTINUOUS
 62
     4
100
AcDbHatch
 10
0.0
 20
0.0
 30
0.0
210
0.0
220
0.0
230
1.0
  2
ANSI31
 70
     0
 71
     0
 91
        3
 92
        7
 72
     1
 73
     1
 93
        8
 10
0.1273646403742585
 20
0.2547293417921961
 42
1.0
 10
0.1273646403742585
 20
0.0000000027943585
 42
0.0
 10
0.2547293098731842
 20
0.000000002794359
 42
0.0
 10
0.2547293098731842
 20
0.1198050709874456
 42
0.0
 10
0.1273646403742585
 20
0.1198050709874452
 42
-1.0
 10
0.1273646403742585
 20
0.1349242735991094
 42
0.0
 10
0.2547293098731842
 20
0.1349242735991099
 42
0.0
 10
0.2547293098731842
 20
0.2547293417921961
 42
0.0
 97
        0
 92
        7
 72
     1
 73
     1
 93
       12
 10
0.2729453093314724
 20
0.2547293417921956
 42
0.0
 10
0.2729453093314742
 20
0.0000000027943585
 42
0.0
 10
0.3927503775245586
 20
0.0000000027943585
 42
0.0
 10
0.3927503775245586
 20
0.1273646722932775
 42
-1.0
 10
0.4078695801362234
 20
0.1273646722932775
 42
0.0
 10
0.4078695801362234
 20
0.0000000027943581
 42
0.0
 10
0.5276746483293114
 20
0.0000000027943576
 42
0.0
 10
0.5276746483293114
 20
0.1106172266293384
 42
0.4142135623730797
 10
0.5109272026653731
 20
0.1273646722932775
 42
0.4142135623730875
 10
0.5276746483293114
 20
0.1441121179572162
 42
0.0
 10
0.5276746483293114
 20
0.2379818961282574
 42
0.4142135623731106
 10
0.5109272026653713
 20
0.2547293417921961
 42
0.0
 97
        0
 92
        7
 72
     0
 73
     1
 93
        6
 10
0.5458906477876049
 20
0.2547293417921961
 10
0.5458906477876031
 20
0.0000000027943576
 10
0.8006199867854384
 20
0.0000000027943581
 10
0.8006199867854402
 20
0.127364672293278
 10
0.6732553172865199
 20
0.1273646722932771
 10
0.6732553172865181
 20
0.2547293417921961
 97
        0
 75
     0
 76
     1
 52
0.0
 41
0.040373
 77
     0
 78
     1
 53
45.0
 43
-7.406223
 44
-1.968858
 45
-0.0035684948455219
 46
0.0035684948455219
 79
     0
 47
0.0009
 98
        3
 10
0.137804
 20
0.196439
 10
0.137804
 20
0.196439
 10
0.137804
 20
0.196439
  0
ENDBLK
  5
32
100
AcDbEntity
  8
0
100
AcDbBlockEnd
  0
BLOCK
  5
39
100
AcDbEntity
  8
0
100
AcDbBlockBegin
  2
A$C21405640
 70
     0
 10
0.0
 20
0.0
 30
0.0
  3
A$C21405640
  1

  0
MTEXT
  5
34
100
AcDbEntity
  8
0
100
AcDbMText
 10
0.504549
 20
2.99683
 30
0.0
 40
0.614073
 41
19.242589
 71
     1
 72
     5
  1
\fArial|b0|i1|c0|p34;Phone Orders (800) 421-6144\PFax Orders     (800) 262-3299\PWWW.CRLAURENCE.COM
  0
MTEXT
  5
35
100
AcDbEntity
  8
0
100
AcDbMText
 10
7.702431
 20
6.455969
 30
0.0
 40
0.876824
 41
21.937261
 71
     1
 72
     5
  1
\fArial|b1|i0|c0|p34;DOOR RAIL SYSTEM
  0
LWPOLYLINE
  5
36
100
AcDbEntity
  8
0
100
AcDbPolyline
 90
        2
 70
     0
 43
0.098252
 10
0.440527
 20
5.243578
 10
19.707511
 20
5.243578
  0
MTEXT
  5
37
100
AcDbEntity
  8
0
100
AcDbMText
 10
0.488738
 20
4.418164
 30
0.0
 40
0.776802
 41
19.420041
 71
     1
 72
     5
  1
\fArial|b1|i1|c0|p34;C.R. Laurence Architectural Products
  0
INSERT
  5
38
100
AcDbEntity
  8
0
 62
     7
100
AcDbBlockReference
  2
A$C2189253D
 10
0.460151
 20
5.536767
 30
0.0
 41
8.113806
 42
8.113806
 43
8.113806
  0
ENDBLK
  5
3A
100
AcDbEntity
  8
0
100
AcDbBlockEnd
  0
BLOCK
  5
3D
100
AcDbEntity
  8
0
 62
     3
100
AcDbBlockBegin
  2
A$C35F20450
 70
     0
 10
0.0
 20
0.0
 30
0.0
  3
A$C35F20450
  1

  0
INSERT
  5
3C
100
AcDbEntity
  8
DIMN
100
AcDbBlockReference
  2
A$C21405640
 10
0.0
 20
0.0
 30
0.0
 41
0.5
 42
0.5
 43
0.5
  0
ENDBLK
  5
3E
100
AcDbEntity
  8
0
 62
     3
100
AcDbBlockEnd
  0
BLOCK
  5
44
100
AcDbEntity
  8
0
100
AcDbBlockBegin
  2
_DOTSMALL
 70
     0
 10
0.0
 20
0.0
 30
0.0
  3
_DOTSMALL
  1

  0
POLYLINE
  5
40
100
AcDbEntity
  8
0
  6
BYBLOCK
 62
     0
100
AcDb2dPolyline
 66
     1
 10
0.0
 20
0.0
 30
0.0
 70
     1
 40
0.5
 41
0.5
  0
VERTEX
  5
41
100
AcDbEntity
  8
0
  6
BYBLOCK
 62
     0
100
AcDbVertex
100
AcDb2dVertex
 10
-0.0625
 20
0.0
 30
0.0
 42
1.0
  0
VERTEX
  5
42
100
AcDbEntity
  8
0
  6
BYBLOCK
 62
     0
100
AcDbVertex
100
AcDb2dVertex
 10
0.0625
 20
0.0
 30
0.0
 42
1.0
  0
SEQEND
  5
43
100
AcDbEntity
  8
0
  6
BYBLOCK
 62
     0
  0
ENDBLK
  5
45
100
AcDbEntity
  8
0
100
AcDbBlockEnd
  0
BLOCK
  5
48
100
AcDbEntity
  8
0
100
AcDbBlockBegin
  2
CRLINFO
 70
     0
 10
0.0
 20
0.0
 30
0.0
  3
CRLINFO
  1

  0
INSERT
  5
47
100
AcDbEntity
  8
R-DOOR-ANNO
  6
CONTINUOUS
100
AcDbBlockReference
  2
A$C35F20450
 10
0.260404
 20
0.351814
 30
0.0
  0
ENDBLK
  5
49
100
AcDbEntity
  8
0
100
AcDbBlockEnd
  0
BLOCK
  5
55
100
AcDbEntity
  8
0
100
AcDbBlockBegin
  2
*D5
 70
     1
 10
0.0
 20
0.0
 30
0.0
  3
*D5
  1

  0
LINE
  5
4B
100
AcDbEntity
  8
0
  6
BYBLOCK
 62
     0
100
AcDbLine
 10
126.338904
 20
273.990967
 30
0.0
 11
121.842033
 21
273.990967
 31
0.0
  0
LINE
  5
4C
100
AcDbEntity
  8
0
  6
BYBLOCK
 62
     0
100
AcDbLine
 10
129.058746
 20
282.040424
 30
0.0
 11
121.842033
 21
282.040424
 31
0.0
  0
LINE
  5
4D
100
AcDbEntity
  8
0
  6
BYBLOCK
 62
     0
100
AcDbLine
 10
122.202033
 20
274.350967
 30
0.0
 11
122.202033
 21
277.227124
 31
0.0
  0
LINE
  5
4E
100
AcDbEntity
  8
0
  6
BYBLOCK
 62
     0
100
AcDbLine
 10
122.202033
 20
281.680424
 30
0.0
 11
122.202033
 21
278.804267
 31
0.0
  0
SOLID
  5
4F
100
AcDbEntity
  8
0
  6
BYBLOCK
 62
     0
100
AcDbTrace
 10
122.142033
 20
274.350967
 30
0.0
 11
122.262033
 21
274.350967
 31
0.0
 12
122.202033
 22
273.990967
 32
0.0
 13
122.202033
 23
273.990967
 33
0.0
  0
SOLID
  5
50
100
AcDbEntity
  8
0
  6
BYBLOCK
 62
     0
100
AcDbTrace
 10
122.142033
 20
281.680424
 30
0.0
 11
122.262033
 21
281.680424
 31
0.0
 12
122.202033
 22
282.040424
 32
0.0
 13
122.202033
 23
282.040424
 33
0.0
  0
MTEXT
  5
51
100
AcDbEntity
  8
0
  6
BYBLOCK
 62
     0
100
AcDbMText
 10
122.202033
 20
278.015695
 30
0.0
 40
0.36
 41
0.0
 71
     5
 72
     1
  1
\A1;8 1/16\P(205mm)
  7
ROMANS
  0
POINT
  5
52
100
AcDbEntity
  8
DEFPOINTS
  6
BYBLOCK
 62
     0
100
AcDbPoint
 10
126.463904
 20
273.990967
 30
0.0
  0
POINT
  5
53
100
AcDbEntity
  8
DEFPOINTS
  6
BYBLOCK
 62
     0
100
AcDbPoint
 10
129.183746
 20
282.040424
 30
0.0
  0
POINT
  5
54
100
AcDbEntity
  8
DEFPOINTS
  6
BYBLOCK
 62
     0
100
AcDbPoint
 10
122.202033
 20
282.040424
 30
0.0
  0
ENDBLK
  5
56
100
AcDbEntity
  8
0
100
AcDbBlockEnd
  0
BLOCK
  5
63
100
AcDbEntity
  8
0
100
AcDbBlockBegin
  2
*D6
 70
     1
 10
0.0
 20
0.0
 30
0.0
  3
*D6
  1

  0
LINE
  5
58
100
AcDbEntity
  8
0
  6
BYBLOCK
 62
     0
100
AcDbLine
 10
130.579896
 20
274.257967
 30
0.0
 11
136.500305
 21
274.257967
 31
0.0
  0
LINE
  5
59
100
AcDbEntity
  8
0
  6
BYBLOCK
 62
     0
100
AcDbLine
 10
132.588904
 20
273.990967
 30
0.0
 11
136.500305
 21
273.990967
 31
0.0
  0
LINE
  5
5A
100
AcDbEntity
  8
0
  6
BYBLOCK
 62
     0
100
AcDbLine
 10
136.140305
 20
274.617967
 30
0.0
 11
136.140305
 21
274.977967
 31
0.0
  0
LINE
  5
5B
100
AcDbEntity
  8
0
  6
BYBLOCK
 62
     0
100
AcDbLine
 10
136.140305
 20
273.630967
 30
0.0
 11
136.140305
 21
272.844039
 31
0.0
  0
LINE
  5
5C
100
AcDbEntity
  8
0
  6
BYBLOCK
 62
     0
100
AcDbLine
 10
136.140305
 20
272.844039
 30
0.0
 11
135.780305
 21
272.844039
 31
0.0
  0
SOLID
  5
5D
100
AcDbEntity
  8
0
  6
BYBLOCK
 62
     0
100
AcDbTrace
 10
136.080305
 20
274.617967
 30
0.0
 11
136.200305
 21
274.617967
 31
0.0
 12
136.140305
 22
274.257967
 32
0.0
 13
136.140305
 23
274.257967
 33
0.0
  0
SOLID
  5
5E
100
AcDbEntity
  8
0
  6
BYBLOCK
 62
     0
100
AcDbTrace
 10
136.080305
 20
273.630967
 30
0.0
 11
136.200305
 21
273.630967
 31
0.0
 12
136.140305
 22
273.990967
 32
0.0
 13
136.140305
 23
273.990967
 33
0.0
  0
MTEXT
  5
5F
100
AcDbEntity
  8
0
  6
BYBLOCK
 62
     0
100
AcDbMText
 10
134.743162
 20
272.844039
 30
0.0
 40
0.36
 41
0.0
 71
     5
 72
     1
  1
\A1;1/4\P(6mm)
  7
ROMANS
  0
POINT
  5
60
100
AcDbEntity
  8
DEFPOINTS
  6
BYBLOCK
 62
     0
100
AcDbPoint
 10
130.454896
 20
274.257967
 30
0.0
  0
POINT
  5
61
100
AcDbEntity
  8
DEFPOINTS
  6
BYBLOCK
 62
     0
100
AcDbPoint
 10
132.463904
 20
273.990967
 30
0.0
  0
POINT
  5
62
100
AcDbEntity
  8
DEFPOINTS
  6
BYBLOCK
 62
     0
100
AcDbPoint
 10
136.140305
 20
273.990967
 30
0.0
  0
ENDBLK
  5
64
100
AcDbEntity
  8
0
100
AcDbBlockEnd
  0
BLOCK
  5
70
100
AcDbEntity
  8
0
100
AcDbBlockBegin
  2
*D7
 70
     1
 10
0.0
 20
0.0
 30
0.0
  3
*D7
  1

  0
LINE
  5
66
100
AcDbEntity
  8
0
  6
BYBLOCK
 62
     0
100
AcDbLine
 10
128.472911
 20
284.161967
 30
0.0
 11
128.472911
 21
286.187368
 31
0.0
  0
LINE
  5
67
100
AcDbEntity
  8
0
  6
BYBLOCK
 62
     0
100
AcDbLine
 10
130.454896
 20
284.161967
 30
0.0
 11
130.454896
 21
286.187368
 31
0.0
  0
LINE
  5
68
100
AcDbEntity
  8
0
  6
BYBLOCK
 62
     0
100
AcDbLine
 10
128.832911
 20
285.827368
 30
0.0
 11
130.094896
 21
285.827368
 31
0.0
  0
LINE
  5
69
100
AcDbEntity
  8
0
  6
BYBLOCK
 62
     0
100
AcDbLine
 10
130.454896
 20
285.827368
 30
0.0
 11
130.814896
 21
285.827368
 31
0.0
  0
SOLID
  5
6A
100
AcDbEntity
  8
0
  6
BYBLOCK
 62
     0
100
AcDbTrace
 10
128.832911
 20
285.887368
 30
0.0
 11
128.832911
 21
285.767368
 31
0.0
 12
128.472911
 22
285.827368
 32
0.0
 13
128.472911
 23
285.827368
 33
0.0
  0
SOLID
  5
6B
100
AcDbEntity
  8
0
  6
BYBLOCK
 62
     0
100
AcDbTrace
 10
130.094896
 20
285.887368
 30
0.0
 11
130.094896
 21
285.767368
 31
0.0
 12
130.454896
 22
285.827368
 32
0.0
 13
130.454896
 23
285.827368
 33
0.0
  0
MTEXT
  5
6C
100
AcDbEntity
  8
0
  6
BYBLOCK
 62
     0
100
AcDbMText
 10
132.023468
 20
285.827368
 30
0.0
 40
0.36
 41
0.0
 71
     5
 72
     1
  1
\A1;2\P(51mm)
  7
ROMANS
  0
POINT
  5
6D
100
AcDbEntity
  8
DEFPOINTS
  6
BYBLOCK
 62
     0
100
AcDbPoint
 10
128.472911
 20
284.036967
 30
0.0
  0
POINT
  5
6E
100
AcDbEntity
  8
DEFPOINTS
  6
BYBLOCK
 62
     0
100
AcDbPoint
 10
130.454896
 20
284.036967
 30
0.0
  0
POINT
  5
6F
100
AcDbEntity
  8
DEFPOINTS
  6
BYBLOCK
 62
     0
100
AcDbPoint
 10
130.454896
 20
285.827368
 30
0.0
  0
ENDBLK
  5
71
100
AcDbEntity
  8
0
100
AcDbBlockEnd
  0
BLOCK
  5
18B
100
AcDbEntity
  8
0
100
AcDbBlockBegin
  2
A$C1A0B5DFE
 70
     0
 10
0.0
 20
0.0
 30
0.0
  3
A$C1A0B5DFE
  1

  0
LINE
  5
7B
100
AcDbEntity
  8
R-DOOR-DETL
 62
     3
100
AcDbLine
 10
11.672325
 20
20.539144
 30
0.0
 11
11.619405
 21
20.539144
 31
0.0
  0
LINE
  5
7C
100
AcDbEntity
  8
R-DOOR-DETL
 62
     3
100
AcDbLine
 10
11.595405
 20
20.664144
 30
0.0
 11
11.672325
 21
20.664144
 31
0.0
  0
LINE
  5
7D
100
AcDbEntity
  8
R-DOOR-DETL
 62
     3
100
AcDbLine
 10
11.622899
 20
18.816113
 30
0.0
 11
11.916378
 21
18.307791
 31
0.0
  0
LWPOLYLINE
  5
7E
100
AcDbEntity
  8
R-DOOR-DETL
 62
     3
100
AcDbPolyline
 90
       17
 70
     1
 43
0.0
 10
12.215653
 20
17.241416
 42
0.367717
 10
12.186043
 20
17.266597
 10
11.714405
 20
17.266597
 42
0.414214
 10
11.589405
 20
17.141597
 10
11.589405
 20
15.108144
 42
0.414214
 10
11.714405
 20
14.983144
 10
12.370397
 20
14.983144
 10
13.02639
 20
14.983144
 42
0.414214
 10
13.15139
 20
15.108144
 10
13.15139
 20
17.141597
 42
0.414214
 10
13.02639
 20
17.266597
 10
12.554752
 20
17.266597
 42
0.367717
 10
12.525142
 20
17.241416
 42
-0.11093
 10
12.499507
 20
17.177655
 42
-0.939516
 10
12.415295
 20
17.228235
 42
2.169752
 10
12.325499
 20
17.228235
 42
-0.939516
 10
12.241288
 20
17.177655
 42
-0.11093
  0
DIMENSION
  5
7F
100
AcDbEntity
  8
R-DOOR-ANNO
  6
CONTINUOUS
100
AcDbDimension
  2
*D7
 10
13.36139
 20
22.291092
 30
0.0
 11
14.929961
 21
22.291092
 31
0.0
 12
-117.093506
 22
-263.536276
 32
0.0
 70
   128
  1
2\P(51mm)
  3
STANDARD
100
AcDbAlignedDimension
 13
11.379405
 23
20.500691
 33
0.0
 14
13.36139
 24
20.500691
 34
0.0
100
AcDbRotatedDimension
1001
ACAD
1000
DSTYLE
1002
{
1070
   173
1070
     0
1070
     6
1000

1002
}
  0
LINE
  5
80
100
AcDbEntity
  8
R-DOOR-DETL
 62
     3
100
AcDbLine
 10
11.670397
 20
11.813488
 30
0.0
 11
11.604405
 21
11.813488
 31
0.0
  0
LINE
  5
81
100
AcDbEntity
  8
R-DOOR-DETL
 62
     3
100
AcDbLine
 10
11.604405
 20
12.013488
 30
0.0
 11
11.670397
 21
12.013488
 31
0.0
  0
HATCH
  5
82
100
AcDbEntity
  8
R-DOOR-PATT
  6
CONTINUOUS
 62
     5
100
AcDbHatch
 10
0.0
 20
0.0
 30
0.0
210
0.0
220
0.0
230
1.0
  2
ANSI31
 70
     0
 71
     0
 91
        1
 92
        7
 72
     0
 73
     1
 93
        4
 10
9.370397395912192
 20
10.45469112095156
 10
15.37039739591219
 20
10.45469112095156
 10
15.37039739591219
 20
8.454691120951565
 10
9.370397395912192
 20
8.454691120951565
 97
        0
 75
     0
 76
     1
 52
180.0
 41
2.5
 77
     0
 78
     1
 53
135.0
 43
-21.560954
 44
39.583853
 45
0.2209708691207961
 46
0.2209708691207961
 79
     0
 47
0.011976
 98
        1
 10
12.643198
 20
9.645598
  0
LINE
  5
83
100
AcDbEntity
  8
R-DOOR-ANNO
  6
CONTINUOUS
100
AcDbLine
 10
9.370397
 20
10.454691
 30
0.0
 11
15.370397
 21
10.454691
 31
0.0
  0
LINE
  5
84
100
AcDbEntity
  8
R-DOOR-DETL
 62
     3
100
AcDbLine
 10
12.370397
 20
12.299691
 30
0.0
 11
11.619405
 21
12.299691
 31
0.0
  0
LWPOLYLINE
  5
85
100
AcDbEntity
  8
R-DOOR-DETL
 62
     3
100
AcDbPolyline
 90
       32
 70
     1
 43
0.0
 10
13.050397
 20
11.738691
 10
13.050397
 20
12.008488
 42
-0.414214
 10
13.065397
 20
12.023488
 10
13.13139
 20
12.023488
 42
0.414214
 10
13.14639
 20
12.038488
 10
13.14639
 20
12.268691
 42
0.414214
 10
13.11539
 20
12.299691
 10
12.971778
 20
12.299691
 42
0.267949
 10
12.944931
 20
12.284191
 10
12.839217
 20
12.10109
 42
0.40146
 10
12.849405
 20
12.059446
 42
-3.430162
 10
12.74139
 20
12.059446
 42
0.40146
 10
12.751577
 20
12.10109
 10
12.645864
 20
12.284191
 42
0.267949
 10
12.619017
 20
12.299691
 10
12.121778
 20
12.299691
 42
0.267949
 10
12.094931
 20
12.284191
 10
11.989217
 20
12.10109
 42
0.40146
 10
11.999405
 20
12.059446
 42
-3.430162
 10
11.89139
 20
12.059446
 42
0.40146
 10
11.901577
 20
12.10109
 10
11.795864
 20
12.284191
 42
0.267949
 10
11.769017
 20
12.299691
 10
11.625405
 20
12.299691
 42
0.414214
 10
11.594405
 20
12.268691
 10
11.594405
 20
12.038488
 42
0.414214
 10
11.609405
 20
12.023488
 10
11.675397
 20
12.023488
 42
-0.414214
 10
11.690397
 20
12.008488
 10
11.690397
 20
11.738691
 42
0.414214
 10
11.705397
 20
11.723691
 10
13.035397
 20
11.723691
 42
0.414214
  0
LINE
  5
86
100
AcDbEntity
  8
R-DOOR-DETL
100
AcDbLine
 10
13.324989
 20
10.492691
 30
0.0
 11
11.415806
 21
10.492691
 31
0.0
  0
LINE
  5
87
100
AcDbEntity
  8
R-DOOR-DETL
100
AcDbLine
 10
13.324989
 20
10.454691
 30
0.0
 11
11.415806
 21
10.454691
 31
0.0
  0
LINE
  5
88
100
AcDbEntity
  8
R-DOOR-DETL
 62
     3
100
AcDbLine
 10
13.188994
 20
10.692691
 30
0.0
 11
11.547148
 21
10.692691
 31
0.0
  0
LINE
  5
89
100
AcDbEntity
  8
0
100
AcDbLine
 10
10.276897
 20
10.454691
 30
0.0
 11
14.463897
 21
10.454691
 31
0.0
  0
LWPOLYLINE
  5
8A
100
AcDbEntity
  8
R-DOOR-DETL
 62
     3
100
AcDbPolyline
 90
        8
 70
     1
 43
0.0
 10
12.077325
 20
20.721691
 10
12.077325
 20
20.671691
 10
11.585405
 20
20.671691
 42
0.414214
 10
11.429405
 20
20.515691
 10
11.429405
 20
10.721691
 10
11.379405
 20
10.721691
 10
11.379405
 20
20.515691
 42
-0.414214
 10
11.585405
 20
20.721691
  0
LWPOLYLINE
  5
8B
100
AcDbEntity
  8
R-DOOR-DETL
 62
     3
100
AcDbPolyline
 90
       17
 70
     1
 43
0.0
 10
12.325499
 20
12.588053
 42
2.169752
 10
12.415295
 20
12.588053
 42
-0.939516
 10
12.499507
 20
12.638633
 42
-0.11093
 10
12.525142
 20
12.574873
 42
0.367717
 10
12.554752
 20
12.549691
 10
13.02639
 20
12.549691
 42
0.414214
 10
13.15139
 20
12.674691
 10
13.15139
 20
14.708144
 42
0.414214
 10
13.02639
 20
14.833144
 10
12.370397
 20
14.833144
 10
11.714405
 20
14.833144
 42
0.414214
 10
11.589405
 20
14.708144
 10
11.589405
 20
12.674691
 42
0.414214
 10
11.714405
 20
12.549691
 10
12.186043
 20
12.549691
 42
0.367717
 10
12.215653
 20
12.574873
 42
-0.11093
 10
12.241288
 20
12.638633
 42
-0.939516
  0
TEXT
  5
8C
100
AcDbEntity
  8
R-DOOR-ANNO
  6
CONTINUOUS
100
AcDbText
 10
6.796756
 20
5.285252
 30
0.0
 40
0.625
  1
10" SQUARE RAIL CLAD
  7
ROMANS
 72
     1
 11
12.496161
 21
5.285252
 31
0.0
100
AcDbText
  0
DIMENSION
  5
8D
100
AcDbEntity
  8
R-DOOR-ANNO
  6
CONTINUOUS
100
AcDbDimension
  2
*D5
 10
5.108526
 20
18.504148
 30
0.0
 11
5.108526
 21
14.47942
 31
0.0
 12
-117.093506
 22
-263.536276
 32
0.0
  1
8 1/16\P(205mm)
  3
STANDARD
100
AcDbAlignedDimension
 13
9.370397
 23
10.454691
 33
0.0
 14
12.09024
 24
18.504148
 34
0.0
 50
90.0
100
AcDbRotatedDimension
1001
ACAD
1000
DSTYLE
1002
{
1070
   173
1070
     0
1070
     6
1000

1002
}
  0
LWPOLYLINE
  5
8E
100
AcDbEntity
  8
BORDER
100
AcDbPolyline
 90
        4
 70
     1
 43
0.175785
 10
25.78113
 20
34.287965
 10
0.087893
 20
34.287965
 10
0.087893
 20
0.087893
 10
25.78113
 20
0.087893
  0
INSERT
  5
8F
100
AcDbEntity
  8
R-DOOR-ANNO
  6
CONTINUOUS
100
AcDbBlockReference
  2
CRLINFO
 10
0.087893
 20
0.087893
 30
0.0
  0
LINE
  5
90
100
AcDbEntity
  8
R-DOOR-DETL
 62
     3
100
AcDbLine
 10
11.439405
 20
10.734691
 30
0.0
 11
11.439405
 21
20.508144
 31
0.0
  0
ARC
  5
91
100
AcDbEntity
  8
R-DOOR-DETL
 62
     3
100
AcDbCircle
 10
11.554405
 20
11.114691
 30
0.0
 40
0.015
100
AcDbArc
 50
90.0
 51
180.0
  0
LINE
  5
92
100
AcDbEntity
  8
R-DOOR-DETL
 62
     3
100
AcDbLine
 10
11.574405
 20
11.129691
 30
0.0
 11
11.554405
 21
11.129691
 31
0.0
  0
ARC
  5
93
100
AcDbEntity
  8
R-DOOR-DETL
 62
     3
100
AcDbCircle
 10
11.574405
 20
11.144691
 30
0.0
 40
0.015
100
AcDbArc
 50
270.0
 51
360.0
  0
LINE
  5
94
100
AcDbEntity
  8
R-DOOR-DETL
 62
     3
100
AcDbLine
 10
11.589405
 20
11.798488
 30
0.0
 11
11.589405
 21
11.144691
 31
0.0
  0
ARC
  5
95
100
AcDbEntity
  8
R-DOOR-DETL
 62
     3
100
AcDbCircle
 10
11.604405
 20
11.798488
 30
0.0
 40
0.015
100
AcDbArc
 50
90.0
 51
180.0
  0
ARC
  5
96
100
AcDbEntity
  8
R-DOOR-DETL
 62
     3
100
AcDbCircle
 10
11.604405
 20
12.028488
 30
0.0
 40
0.015
100
AcDbArc
 50
180.0
 51
270.0
  0
LINE
  5
97
100
AcDbEntity
  8
R-DOOR-DETL
 62
     3
100
AcDbLine
 10
11.589405
 20
12.269691
 30
0.0
 11
11.589405
 21
12.028488
 31
0.0
  0
ARC
  5
98
100
AcDbEntity
  8
R-DOOR-DETL
 62
     3
100
AcDbCircle
 10
11.619405
 20
12.269691
 30
0.0
 40
0.03
100
AcDbArc
 50
90.0
 51
180.0
  0
LINE
  5
99
100
AcDbEntity
  8
R-DOOR-DETL
100
AcDbLine
 10
11.415806
 20
10.492691
 30
0.0
 11
11.415806
 21
10.454691
 31
0.0
  0
LINE
  5
9A
100
AcDbEntity
  8
R-DOOR-DETL
 62
     3
100
AcDbLine
 10
11.539405
 20
10.692691
 30
0.0
 11
11.547148
 21
10.692691
 31
0.0
  0
LINE
  5
9B
100
AcDbEntity
  8
R-DOOR-DETL
 62
     3
100
AcDbLine
 10
11.539405
 20
10.719691
 30
0.0
 11
11.539405
 21
10.692691
 31
0.0
  0
LINE
  5
9C
100
AcDbEntity
  8
R-DOOR-DETL
100
AcDbLine
 10
11.547148
 20
10.692691
 30
0.0
 11
11.547148
 21
10.492691
 31
0.0
  0
LINE
  5
9D
100
AcDbEntity
  8
R-DOOR-DETL
 62
     3
100
AcDbLine
 10
11.539405
 20
10.734691
 30
0.0
 11
11.539405
 21
10.719691
 31
0.0
  0
ARC
  5
9E
100
AcDbEntity
  8
R-DOOR-DETL
 62
     3
100
AcDbCircle
 10
11.454405
 20
10.734691
 30
0.0
 40
0.015
100
AcDbArc
 50
180.0
 51
270.0
  0
LINE
  5
9F
100
AcDbEntity
  8
R-DOOR-DETL
 62
     3
100
AcDbLine
 10
11.524405
 20
10.719691
 30
0.0
 11
11.454405
 21
10.719691
 31
0.0
  0
ARC
  5
A0
100
AcDbEntity
  8
R-DOOR-DETL
 62
     3
100
AcDbCircle
 10
11.524405
 20
10.734691
 30
0.0
 40
0.015
100
AcDbArc
 50
270.0
 51
360.0
  0
LINE
  5
A1
100
AcDbEntity
  8
R-DOOR-DETL
 62
     3
100
AcDbLine
 10
11.539405
 20
11.114691
 30
0.0
 11
11.539405
 21
10.734691
 31
0.0
  0
ARC
  5
A2
100
AcDbEntity
  8
R-DOOR-DETL
 62
     3
100
AcDbCircle
 10
11.619405
 20
20.509144
 30
0.0
 40
0.03
100
AcDbArc
 50
90.0
 51
180.0
  0
ARC
  5
A3
100
AcDbEntity
  8
R-DOOR-DETL
 62
     3
100
AcDbCircle
 10
11.595405
 20
20.508144
 30
0.0
 40
0.156
100
AcDbArc
 50
90.0
 51
180.0
  0
ARC
  5
A4
100
AcDbEntity
  8
R-DOOR-DETL
 62
     3
100
AcDbCircle
 10
11.839405
 20
18.941113
 30
0.0
 40
0.25
100
AcDbArc
 50
180.0
 51
210.0
  0
LINE
  5
A5
100
AcDbEntity
  8
R-DOOR-DETL
 62
     3
100
AcDbLine
 10
11.589405
 20
20.509144
 30
0.0
 11
11.589405
 21
18.941113
 31
0.0
  0
LINE
  5
A6
100
AcDbEntity
  8
R-DOOR-DETL
100
AcDbLine
 10
12.375497
 20
23.054261
 30
0.0
 11
12.375497
 21
18.504148
 31
0.0
  0
LINE
  5
A7
100
AcDbEntity
  8
R-DOOR-DETL
100
AcDbLine
 10
12.375497
 20
23.054261
 30
0.0
 11
12.375497
 21
19.623999
 31
0.0
  0
TEXT
  5
A8
100
AcDbEntity
  8
R-DOOR-ANNO
  6
CONTINUOUS
100
AcDbText
 10
21.492164
 20
0.587893
 30
0.0
 40
0.625
  1
STYLE 6
  7
ROMANS
100
AcDbText
  0
LWPOLYLINE
  5
A9
100
AcDbEntity
  8
R-DOOR-DETL
 62
     3
100
AcDbPolyline
 90
        8
 70
     1
 43
0.0
 10
12.66347
 20
20.721691
 10
12.66347
 20
20.671691
 10
13.15539
 20
20.671691
 42
-0.414214
 10
13.31139
 20
20.515691
 10
13.31139
 20
10.721691
 10
13.36139
 20
10.721691
 10
13.36139
 20
20.515691
 42
0.414214
 10
13.15539
 20
20.721691
  0
LINE
  5
AA
100
AcDbEntity
  8
R-DOOR-DETL
 62
     3
100
AcDbLine
 10
13.30139
 20
20.508144
 30
0.0
 11
13.30139
 21
10.734691
 31
0.0
  0
DIMENSION
  5
AB
100
AcDbEntity
  8
R-DOOR-ANNO
  6
CONTINUOUS
100
AcDbDimension
  2
*D6
 10
19.046798
 20
10.454691
 30
0.0
 11
17.649655
 21
9.307764
 31
0.0
 12
-117.093506
 22
-263.536276
 32
0.0
 70
   128
  1
<>\P(6mm)
  3
STANDARD
100
AcDbAlignedDimension
 13
13.36139
 23
10.721691
 33
0.0
 14
15.370397
 24
10.454691
 34
0.0
 50
90.0
100
AcDbRotatedDimension
1001
ACAD
1000
DSTYLE
1002
{
1070
   173
1070
     0
1070
     6
1000

1002
}
  0
LINE
  5
AC
100
AcDbEntity
  8
R-DOOR-DETL
 62
     3
100
AcDbLine
 10
13.15139
 20
12.028488
 30
0.0
 11
13.15139
 21
12.269691
 31
0.0
  0
ARC
  5
AD
100
AcDbEntity
  8
R-DOOR-DETL
 62
     3
100
AcDbCircle
 10
13.13639
 20
12.028488
 30
0.0
 40
0.015
100
AcDbArc
 50
270.0
 51
0.0
  0
LINE
  5
AE
100
AcDbEntity
  8
R-DOOR-DETL
 62
     3
100
AcDbLine
 10
13.070397
 20
12.013488
 30
0.0
 11
13.13639
 21
12.013488
 31
0.0
  0
ARC
  5
AF
100
AcDbEntity
  8
R-DOOR-DETL
 62
     3
100
AcDbCircle
 10
13.070397
 20
11.998488
 30
0.0
 40
0.015
100
AcDbArc
 50
90.0
 51
180.0
  0
LINE
  5
B0
100
AcDbEntity
  8
R-DOOR-DETL
 62
     3
100
AcDbLine
 10
13.055397
 20
11.828488
 30
0.0
 11
13.055397
 21
11.998488
 31
0.0
  0
ARC
  5
B1
100
AcDbEntity
  8
R-DOOR-DETL
 62
     3
100
AcDbCircle
 10
13.070397
 20
11.828488
 30
0.0
 40
0.015
100
AcDbArc
 50
180.0
 51
270.0
  0
LINE
  5
B2
100
AcDbEntity
  8
R-DOOR-DETL
 62
     3
100
AcDbLine
 10
13.13639
 20
11.813488
 30
0.0
 11
13.070397
 21
11.813488
 31
0.0
  0
ARC
  5
B3
100
AcDbEntity
  8
R-DOOR-DETL
 62
     3
100
AcDbCircle
 10
13.13639
 20
11.798488
 30
0.0
 40
0.015
100
AcDbArc
 50
360.0
 51
90.0
  0
LINE
  5
B4
100
AcDbEntity
  8
R-DOOR-DETL
 62
     3
100
AcDbLine
 10
13.15139
 20
11.144691
 30
0.0
 11
13.15139
 21
11.798488
 31
0.0
  0
ARC
  5
B5
100
AcDbEntity
  8
R-DOOR-DETL
 62
     3
100
AcDbCircle
 10
13.16639
 20
11.144691
 30
0.0
 40
0.015
100
AcDbArc
 50
180.0
 51
270.0
  0
LINE
  5
B6
100
AcDbEntity
  8
R-DOOR-DETL
 62
     3
100
AcDbLine
 10
13.18639
 20
11.129691
 30
0.0
 11
13.16639
 21
11.129691
 31
0.0
  0
ARC
  5
B7
100
AcDbEntity
  8
R-DOOR-DETL
 62
     3
100
AcDbCircle
 10
13.18639
 20
11.114691
 30
0.0
 40
0.015
100
AcDbArc
 50
0.0
 51
90.0
  0
ARC
  5
B8
100
AcDbEntity
  8
R-DOOR-DETL
 62
     3
100
AcDbCircle
 10
13.12139
 20
12.269691
 30
0.0
 40
0.03
100
AcDbArc
 50
0.0
 51
90.0
  0
LINE
  5
B9
100
AcDbEntity
  8
R-DOOR-DETL
  6
CONTINUOUS
 62
     3
100
AcDbLine
 10
12.894269
 20
12.019476
 30
0.0
 11
12.883618
 21
11.911458
 31
0.0
  0
LINE
  5
BA
100
AcDbEntity
  8
R-DOOR-DETL
  6
CONTINUOUS
 62
     3
100
AcDbLine
 10
12.784746
 20
11.866673
 30
0.0
 11
12.696525
 21
11.929907
 31
0.0
  0
LINE
  5
BB
100
AcDbEntity
  8
R-DOOR-DETL
  6
CONTINUOUS
 62
     3
100
AcDbLine
 10
13.052897
 20
11.749691
 30
0.0
 11
13.052897
 21
12.299691
 31
0.0
  0
CIRCLE
  5
BC
100
AcDbEntity
  8
R-DOOR-DETL
  6
CONTINUOUS
 62
     3
100
AcDbCircle
 10
12.795397
 20
11.974691
 30
0.0
 40
0.1875
  0
CIRCLE
  5
BD
100
AcDbEntity
  8
R-DOOR-DETL
  6
CONTINUOUS
 62
     3
100
AcDbCircle
 10
12.795397
 20
11.974691
 30
0.0
 40
0.1625
  0
LINE
  5
BE
100
AcDbEntity
  8
R-DOOR-DETL
  6
CONTINUOUS
 62
     3
100
AcDbLine
 10
12.883618
 20
11.911458
 30
0.0
 11
12.784746
 21
11.866673
 31
0.0
  0
LINE
  5
BF
100
AcDbEntity
  8
R-DOOR-DETL
  6
CONTINUOUS
 62
     3
100
AcDbLine
 10
12.894269
 20
12.019476
 30
0.0
 11
12.806049
 21
12.082709
 31
0.0
  0
LINE
  5
C0
100
AcDbEntity
  8
R-DOOR-DETL
  6
CONTINUOUS
 62
     3
100
AcDbLine
 10
12.707177
 20
12.037925
 30
0.0
 11
12.696525
 21
11.929907
 31
0.0
  0
LINE
  5
C1
100
AcDbEntity
  8
R-DOOR-DETL
  6
CONTINUOUS
 62
     3
100
AcDbLine
 10
12.806049
 20
12.082709
 30
0.0
 11
12.707177
 21
12.037925
 31
0.0
  0
LINE
  5
C2
100
AcDbEntity
  8
CLAMP
  6
CONTINUOUS
 62
     2
100
AcDbLine
 10
11.974588
 20
12.079234
 30
0.0
 11
12.05053
 21
12.001683
 31
0.0
  0
LINE
  5
C3
100
AcDbEntity
  8
CLAMP
  6
CONTINUOUS
 62
     2
100
AcDbLine
 10
12.021339
 20
11.89714
 30
0.0
 11
12.05053
 21
12.001683
 31
0.0
  0
LINE
  5
C4
100
AcDbEntity
  8
R-DOOR-DETL
  6
CONTINUOUS
 62
     3
100
AcDbLine
 10
12.316126
 20
11.880691
 30
0.0
 11
12.261856
 21
11.974691
 31
0.0
  0
LINE
  5
C5
100
AcDbEntity
  8
R-DOOR-DETL
  6
CONTINUOUS
 62
     3
100
AcDbLine
 10
12.316126
 20
11.880691
 30
0.0
 11
12.424668
 21
11.880691
 31
0.0
  0
LINE
  5
C6
100
AcDbEntity
  8
R-DOOR-DETL
  6
CONTINUOUS
 62
     3
100
AcDbLine
 10
12.316126
 20
12.068691
 30
0.0
 11
12.424668
 21
12.068691
 31
0.0
  0
LINE
  5
C7
100
AcDbEntity
  8
R-DOOR-DETL
  6
CONTINUOUS
 62
     3
100
AcDbLine
 10
12.261856
 20
11.974691
 30
0.0
 11
12.316126
 21
12.068691
 31
0.0
  0
LINE
  5
C8
100
AcDbEntity
  8
R-DOOR-DETL
 62
     3
100
AcDbLine
 10
13.12139
 20
12.299691
 30
0.0
 11
12.370397
 21
12.299691
 31
0.0
  0
LINE
  5
C9
100
AcDbEntity
  8
R-DOOR-DETL
  6
CONTINUOUS
 62
     3
100
AcDbLine
 10
12.424668
 20
11.880691
 30
0.0
 11
12.478939
 21
11.974691
 31
0.0
  0
CIRCLE
  5
CA
100
AcDbEntity
  8
R-DOOR-DETL
  6
CONTINUOUS
 62
     3
100
AcDbCircle
 10
12.370397
 20
11.974691
 30
0.0
 40
0.1625
  0
CIRCLE
  5
CB
100
AcDbEntity
  8
R-DOOR-DETL
  6
CONTINUOUS
 62
     3
100
AcDbCircle
 10
12.370397
 20
11.974691
 30
0.0
 40
0.1875
  0
LINE
  5
CC
100
AcDbEntity
  8
R-DOOR-DETL
  6
CONTINUOUS
 62
     3
100
AcDbLine
 10
12.478939
 20
11.974691
 30
0.0
 11
12.424668
 21
12.068691
 31
0.0
  0
LINE
  5
CD
100
AcDbEntity
  8
R-DOOR-DETL
100
AcDbLine
 10
12.737092
 20
10.692691
 30
0.0
 11
12.737092
 21
10.722174
 31
0.0
  0
LINE
  5
CE
100
AcDbEntity
  8
R-DOOR-DETL
100
AcDbLine
 10
12.861306
 20
10.847174
 30
0.0
 11
12.861306
 21
10.722174
 31
0.0
  0
LINE
  5
CF
100
AcDbEntity
  8
R-DOOR-DETL
100
AcDbLine
 10
13.188994
 20
10.692691
 30
0.0
 11
13.188994
 21
10.492691
 31
0.0
  0
LINE
  5
D0
100
AcDbEntity
  8
R-DOOR-DETL
100
AcDbLine
 10
13.324989
 20
10.492691
 30
0.0
 11
13.324989
 21
10.454691
 31
0.0
  0
ARC
  5
D1
100
AcDbEntity
  8
R-DOOR-DETL
 62
     3
100
AcDbCircle
 10
13.21639
 20
10.734691
 30
0.0
 40
0.015
100
AcDbArc
 50
180.0
 51
270.0
  0
LINE
  5
D2
100
AcDbEntity
  8
R-DOOR-DETL
 62
     3
100
AcDbLine
 10
13.28639
 20
10.719691
 30
0.0
 11
13.21639
 21
10.719691
 31
0.0
  0
ARC
  5
D3
100
AcDbEntity
  8
R-DOOR-DETL
 62
     3
100
AcDbCircle
 10
13.28639
 20
10.734691
 30
0.0
 40
0.015
100
AcDbArc
 50
270.0
 51
0.0
  0
LINE
  5
D4
100
AcDbEntity
  8
R-DOOR-DETL
100
AcDbLine
 10
12.017314
 20
10.692691
 30
0.0
 11
12.017314
 21
10.722174
 31
0.0
  0
LINE
  5
D5
100
AcDbEntity
  8
R-DOOR-DETL
100
AcDbLine
 10
12.000813
 20
11.454691
 30
0.0
 11
12.000813
 21
10.847174
 31
0.0
  0
LINE
  5
D6
100
AcDbEntity
  8
R-DOOR-DETL
100
AcDbLine
 10
12.739799
 20
11.454691
 30
0.0
 11
12.739799
 21
10.847174
 31
0.0
  0
LINE
  5
D7
100
AcDbEntity
  8
R-DOOR-DETL
100
AcDbLine
 10
12.795306
 20
11.454691
 30
0.0
 11
12.795306
 21
10.847174
 31
0.0
  0
LINE
  5
D8
100
AcDbEntity
  8
R-DOOR-DETL
 62
     3
100
AcDbLine
 10
13.20139
 20
10.734691
 30
0.0
 11
13.20139
 21
11.114691
 31
0.0
  0
ARC
  5
D9
100
AcDbEntity
  8
R-DOOR-DETL
 62
     3
100
AcDbCircle
 10
11.670397
 20
11.828488
 30
0.0
 40
0.015
100
AcDbArc
 50
270.0
 51
360.0
  0
LINE
  5
DA
100
AcDbEntity
  8
R-DOOR-DETL
 62
     3
100
AcDbLine
 10
11.685397
 20
11.998488
 30
0.0
 11
11.685397
 21
11.828488
 31
0.0
  0
ARC
  5
DB
100
AcDbEntity
  8
R-DOOR-DETL
 62
     3
100
AcDbCircle
 10
11.670397
 20
11.998488
 30
0.0
 40
0.015
100
AcDbArc
 50
0.0
 51
90.0
  0
LINE
  5
DC
100
AcDbEntity
  8
CLAMP
  6
CONTINUOUS
 62
     2
100
AcDbLine
 10
11.840265
 20
11.947699
 30
0.0
 11
11.869456
 21
12.052242
 31
0.0
  0
LINE
  5
DD
100
AcDbEntity
  8
CLAMP
  6
CONTINUOUS
 62
     2
100
AcDbLine
 10
11.687897
 20
11.749691
 30
0.0
 11
11.687897
 21
12.299691
 31
0.0
  0
LINE
  5
DE
100
AcDbEntity
  8
CLAMP
  6
CONTINUOUS
 62
     2
100
AcDbLine
 10
11.840265
 20
11.947699
 30
0.0
 11
11.916207
 21
11.870148
 31
0.0
  0
LINE
  5
DF
100
AcDbEntity
  8
R-DOOR-DETL
100
AcDbLine
 10
11.879306
 20
10.847174
 30
0.0
 11
11.879306
 21
10.722174
 31
0.0
  0
LINE
  5
E0
100
AcDbEntity
  8
R-DOOR-DETL
100
AcDbLine
 10
11.945306
 20
11.454691
 30
0.0
 11
11.945306
 21
10.847174
 31
0.0
  0
CIRCLE
  5
E1
100
AcDbEntity
  8
R-DOOR-DETL
100
AcDbCircle
 10
11.945397
 20
11.974691
 30
0.0
 40
0.1625
  0
CIRCLE
  5
E2
100
AcDbEntity
  8
CLAMP
  6
CONTINUOUS
 62
     2
100
AcDbCircle
 10
11.945397
 20
11.974691
 30
0.0
 40
0.1875
  0
LINE
  5
E3
100
AcDbEntity
  8
CLAMP
  6
CONTINUOUS
 62
     2
100
AcDbLine
 10
11.869456
 20
12.052242
 30
0.0
 11
11.974588
 21
12.079234
 31
0.0
  0
LINE
  5
E4
100
AcDbEntity
  8
CLAMP
  6
CONTINUOUS
 62
     2
100
AcDbLine
 10
11.916207
 20
11.870148
 30
0.0
 11
12.021339
 21
11.89714
 31
0.0
  0
LINE
  5
E5
100
AcDbEntity
  8
R-DOOR-DETL
100
AcDbLine
 10
12.795306
 20
11.454691
 30
0.0
 11
11.945306
 21
11.454691
 31
0.0
  0
LINE
  5
E6
100
AcDbEntity
  8
R-DOOR-DETL
  6
CONTINUOUS
 62
     3
100
AcDbLine
 10
11.687897
 20
12.299691
 30
0.0
 11
13.052897
 21
12.299691
 31
0.0
  0
LINE
  5
E7
100
AcDbEntity
  8
R-DOOR-DETL
 62
     3
100
AcDbLine
 10
11.687897
 20
11.749691
 30
0.0
 11
13.052897
 21
11.749691
 31
0.0
  0
LINE
  5
E8
100
AcDbEntity
  8
R-DOOR-DETL
 62
     3
100
AcDbLine
 10
11.687897
 20
12.174691
 30
0.0
 11
13.052897
 21
12.174691
 31
0.0
  0
LINE
  5
E9
100
AcDbEntity
  8
R-DOOR-DETL
100
AcDbLine
 10
12.861306
 20
10.847174
 30
0.0
 11
11.879306
 21
10.847174
 31
0.0
  0
LINE
  5
EA
100
AcDbEntity
  8
R-DOOR-DETL
100
AcDbLine
 10
12.861306
 20
10.722174
 30
0.0
 11
11.879306
 21
10.722174
 31
0.0
  0
LWPOLYLINE
  5
EB
100
AcDbEntity
  8
R-DOOR-DETL
100
AcDbPolyline
 90
        8
 70
     1
 43
0.0
 10
12.748497
 20
10.866691
 42
0.414214
 10
12.873497
 20
10.991691
 10
12.873497
 20
11.583691
 42
0.414214
 10
12.748497
 20
11.708691
 10
11.992297
 20
11.708691
 42
0.414214
 10
11.867297
 20
11.583691
 10
11.867297
 20
10.991691
 42
0.414214
 10
11.992297
 20
10.866691
  0
MTEXT
  5
EC
102
{ACAD_REACTORS
330
F0
102
}
100
AcDbEntity
  8
R-DOOR-ANNO
  6
CONTINUOUS
100
AcDbMText
 10
15.326448
 20
17.646458
 30
0.0
 40
0.36
 41
0.0
 71
     4
 72
     1
  1
SHOE
  7
ROMANS
  0
MTEXT
  5
ED
102
{ACAD_REACTORS
330
EF
102
}
100
AcDbEntity
  8
R-DOOR-ANNO
  6
CONTINUOUS
100
AcDbMText
 10
15.334492
 20
18.902836
 30
0.0
 40
0.36
 41
0.0
 71
     4
 72
     1
  1
GLASS CLAMP
  7
ROMANS
  0
MTEXT
  5
EE
102
{ACAD_REACTORS
330
F1
102
}
100
AcDbEntity
  8
R-DOOR-ANNO
  6
CONTINUOUS
100
AcDbMText
 10
15.326448
 20
20.028097
 30
0.0
 40
0.36
 41
0.0
 71
     4
 72
     1
  1
CLADDING
  7
ROMANS
  0
LEADER
  5
EF
100
AcDbEntity
  8
R-DOOR-ANNO
  6
CONTINUOUS
100
AcDbLeader
  3
STANDARD
 73
     0
 74
     0
 75
     1
 40
0.36
 41
3.634286
 76
     3
 10
12.792118
 20
19.715336
 30
0.0
 10
14.724492
 20
18.902836
 30
0.0
 10
15.224492
 20
18.902836
 30
0.0
 77
   256
340
ED
213
-0.0199999999999996
223
0.0
233
0.0
1001
ACAD
1000
DSTYLE
1002
{
1070
    40
1040
1.0
1070
    41
1040
0.5
1002
}
  0
LEADER
  5
F0
100
AcDbEntity
  8
R-DOOR-ANNO
  6
CONTINUOUS
100
AcDbLeader
  3
STANDARD
 73
     0
 74
     0
 75
     1
 40
0.36
 41
1.337143
 76
     3
 10
13.207642
 20
18.333958
 30
0.0
 10
14.716448
 20
17.646458
 30
0.0
 10
15.216448
 20
17.646458
 30
0.0
 77
   256
340
EC
213
-0.0199999999999996
223
0.0
233
0.0
1001
ACAD
1000
DSTYLE
1002
{
1070
    40
1040
1.0
1070
    41
1040
0.5
1002
}
  0
LEADER
  5
F1
100
AcDbEntity
  8
R-DOOR-ANNO
  6
CONTINUOUS
100
AcDbLeader
  3
STANDARD
 73
     0
 74
     0
 75
     1
 40
0.36
 41
2.451429
 76
     3
 10
13.232699
 20
20.699999
 30
0.0
 10
14.716448
 20
20.028097
 30
0.0
 10
15.216448
 20
20.028097
 30
0.0
 77
   256
340
EE
213
-0.0199999999999996
223
0.0
233
0.0
1001
ACAD
1000
DSTYLE
1002
{
1070
    40
1040
1.0
1070
    41
1040
0.5
1002
}
  0
LINE
  5
F2
100
AcDbEntity
  8
R-DOOR-DETL
100
AcDbLine
 10
12.612038
 20
22.7043
 30
0.0
 11
12.534659
 21
22.759537
 31
0.0
  0
LINE
  5
F3
100
AcDbEntity
  8
R-DOOR-DETL
100
AcDbLine
 10
12.222159
 20
22.665787
 30
0.0
 11
12.126611
 21
22.69589
 31
0.0
  0
LINE
  5
F4
100
AcDbEntity
  8
R-DOOR-DETL
100
AcDbLine
 10
12.284659
 20
22.759537
 30
0.0
 11
12.222159
 21
22.665787
 31
0.0
  0
LINE
  5
F5
100
AcDbEntity
  8
R-DOOR-DETL
100
AcDbLine
 10
12.409659
 20
22.665787
 30
0.0
 11
12.284659
 21
22.759537
 31
0.0
  0
LINE
  5
F6
100
AcDbEntity
  8
R-DOOR-DETL
100
AcDbLine
 10
12.534659
 20
22.759537
 30
0.0
 11
12.409659
 21
22.665787
 31
0.0
  0
LINE
  5
F7
100
AcDbEntity
  8
R-DOOR-DETL
100
AcDbLine
 10
12.222159
 20
22.665787
 30
0.0
 11
12.126611
 21
22.69589
 31
0.0
  0
LINE
  5
F8
100
AcDbEntity
  8
R-DOOR-DETL
100
AcDbLine
 10
12.534659
 20
22.759537
 30
0.0
 11
12.409659
 21
22.665787
 31
0.0
  0
LINE
  5
F9
100
AcDbEntity
  8
R-DOOR-DETL
100
AcDbLine
 10
12.284659
 20
22.759537
 30
0.0
 11
12.222159
 21
22.665787
 31
0.0
  0
LINE
  5
FA
100
AcDbEntity
  8
R-DOOR-DETL
100
AcDbLine
 10
12.409659
 20
22.665787
 30
0.0
 11
12.284659
 21
22.759537
 31
0.0
  0
LINE
  5
FB
100
AcDbEntity
  8
R-DOOR-DETL
100
AcDbLine
 10
12.612038
 20
22.7043
 30
0.0
 11
12.534659
 21
22.759537
 31
0.0
  0
ARC
  5
FC
100
AcDbEntity
  8
R-DOOR-DETL
 62
     3
100
AcDbCircle
 10
13.14539
 20
20.508144
 30
0.0
 40
0.156
100
AcDbArc
 50
360.0
 51
90.0
  0
LINE
  5
FD
100
AcDbEntity
  8
R-DOOR-DETL
 62
     3
100
AcDbLine
 10
13.06847
 20
20.664144
 30
0.0
 11
13.14539
 21
20.664144
 31
0.0
  0
ARC
  5
FE
100
AcDbEntity
  8
R-DOOR-DETL
 62
     3
100
AcDbCircle
 10
13.06847
 20
20.634144
 30
0.0
 40
0.03
100
AcDbArc
 50
90.0
 51
180.0
  0
LINE
  5
FF
100
AcDbEntity
  8
R-DOOR-DETL
 62
     3
100
AcDbLine
 10
13.03847
 20
20.569144
 30
0.0
 11
13.03847
 21
20.634144
 31
0.0
  0
ARC
  5
100
100
AcDbEntity
  8
R-DOOR-DETL
 62
     3
100
AcDbCircle
 10
13.06847
 20
20.569144
 30
0.0
 40
0.03
100
AcDbArc
 50
180.0
 51
270.0
  0
LINE
  5
101
100
AcDbEntity
  8
R-DOOR-DETL
 62
     3
100
AcDbLine
 10
13.12139
 20
20.539144
 30
0.0
 11
13.06847
 21
20.539144
 31
0.0
  0
ARC
  5
102
100
AcDbEntity
  8
R-DOOR-DETL
 62
     3
100
AcDbCircle
 10
13.12139
 20
20.509144
 30
0.0
 40
0.03
100
AcDbArc
 50
0.0
 51
90.0
  0
LINE
  5
103
100
AcDbEntity
  8
CLAMP
  6
CONTINUOUS
100
AcDbLine
 10
12.800397
 20
20.506672
 30
0.0
 11
12.660397
 21
20.506672
 31
0.0
  0
ARC
  5
104
100
AcDbEntity
  8
CLAMP
  6
CONTINUOUS
100
AcDbCircle
 10
12.650555
 20
20.459148
 30
0.0
 40
0.009843
100
AcDbArc
 50
0.0
 51
70.528779
  0
ARC
  5
105
100
AcDbEntity
  8
CLAMP
  6
CONTINUOUS
100
AcDbCircle
 10
12.660397
 20
20.486987
 30
0.0
 40
0.019685
100
AcDbArc
 50
90.0
 51
250.528779
  0
ARC
  5
106
100
AcDbEntity
  8
CLAMP
  6
CONTINUOUS
100
AcDbCircle
 10
12.800397
 20
20.446672
 30
0.0
 40
0.06
100
AcDbArc
 50
0.0
 51
90.0
  0
LINE
  5
107
100
AcDbEntity
  8
R-DOOR-DETL
 62
     3
100
AcDbLine
 10
12.660397
 20
20.419148
 30
0.0
 11
12.620397
 21
20.419148
 31
0.0
  0
ARC
  5
108
100
AcDbEntity
  8
CLAMP
  6
CONTINUOUS
100
AcDbCircle
 10
12.080397
 20
20.486987
 30
0.0
 40
0.019685
100
AcDbArc
 50
289.471221
 51
90.0
  0
ARC
  5
109
100
AcDbEntity
  8
CLAMP
  6
CONTINUOUS
100
AcDbCircle
 10
12.09024
 20
20.459148
 30
0.0
 40
0.009843
100
AcDbArc
 50
109.471221
 51
180.0
  0
LINE
  5
10A
100
AcDbEntity
  8
R-DOOR-DETL
 62
     3
100
AcDbLine
 10
12.080397
 20
20.419148
 30
0.0
 11
12.120397
 21
20.419148
 31
0.0
  0
LINE
  5
10B
100
AcDbEntity
  8
R-DOOR-DETL
  6
CONTINUOUS
 62
     3
100
AcDbLine
 10
12.797404
 20
18.2796
 30
0.0
 11
13.070639
 21
18.734339
 31
0.0
  0
LINE
  5
10C
100
AcDbEntity
  8
R-DOOR-DETL
  6
CONTINUOUS
 62
     3
100
AcDbLine
 10
12.650555
 20
18.504148
 30
0.0
 11
12.650555
 21
18.464148
 31
0.0
  0
LINE
  5
10D
100
AcDbEntity
  8
R-DOOR-DETL
 62
     3
100
AcDbLine
 10
12.824417
 20
18.307791
 30
0.0
 11
13.117896
 21
18.816113
 31
0.0
  0
HATCH
  5
10E
100
AcDbEntity
  8
R-DOOR-DETL
 62
     3
100
AcDbHatch
 10
0.0
 20
0.0
 30
0.0
210
0.0
220
0.0
230
1.0
  2
ANSI31
 70
     0
 71
     0
 91
        1
 92
        7
 72
     0
 73
     1
 93
        4
 10
12.49439739591216
 20
18.13380452766432
 10
12.49439739591216
 20
18.00880452766432
 10
12.62039739591213
 20
18.00880452766432
 10
12.62039739591213
 20
18.13380452766432
 97
        0
 75
     0
 76
     1
 52
90.0
 41
0.2
 77
     0
 78
     1
 53
135.0
 43
-23.661799
 44
-12.746991
 45
-0.0176776695296637
 46
-0.0176776695296637
 79
     0
 47
0.003428
 98
        1
 10
12.559543
 20
18.078214
  0
ARC
  5
10F
100
AcDbEntity
  8
R-DOOR-DETL
  6
CONTINUOUS
 62
     3
100
AcDbCircle
 10
12.810262
 20
18.271874
 30
0.0
 40
0.015
100
AcDbArc
 50
149.0
 51
180.0
  0
ARC
  5
110
100
AcDbEntity
  8
R-DOOR-DETL
  6
CONTINUOUS
 62
     3
100
AcDbCircle
 10
12.650555
 20
18.47399
 30
0.0
 40
0.009843
100
AcDbArc
 50
270.0
 51
360.0
  0
LINE
  5
111
100
AcDbEntity
  8
R-DOOR-DETL
 62
     3
100
AcDbLine
 10
12.484397
 20
18.212052
 30
0.0
 11
12.484397
 21
17.738855
 31
0.0
  0
LINE
  5
112
100
AcDbEntity
  8
R-DOOR-DETL
 62
     3
100
AcDbLine
 10
12.494397
 20
18.189691
 30
0.0
 11
12.494397
 21
17.738855
 31
0.0
  0
ARC
  5
113
100
AcDbEntity
  8
R-DOOR-DETL
  6
CONTINUOUS
 62
     3
100
AcDbCircle
 10
12.560262
 20
18.229148
 30
0.0
 40
0.09
100
AcDbArc
 50
360.0
 51
90.0
  0
ARC
  5
114
100
AcDbEntity
  8
R-DOOR-DETL
  6
CONTINUOUS
 62
     3
100
AcDbCircle
 10
12.640262
 20
18.002148
 30
0.0
 40
0.01
100
AcDbArc
 50
270.0
 51
360.0
  0
ARC
  5
115
100
AcDbEntity
  8
R-DOOR-DETL
  6
CONTINUOUS
 62
     3
100
AcDbCircle
 10
12.537262
 20
17.982148
 30
0.0
 40
0.01
100
AcDbArc
 50
90.0
 51
180.0
  0
LINE
  5
116
100
AcDbEntity
  8
R-DOOR-DETL
  6
CONTINUOUS
 62
     3
100
AcDbLine
 10
12.640262
 20
17.992148
 30
0.0
 11
12.537262
 21
17.992148
 31
0.0
  0
LINE
  5
117
100
AcDbEntity
  8
R-DOOR-DETL
  6
CONTINUOUS
 62
     3
100
AcDbLine
 10
12.527262
 20
17.982148
 30
0.0
 11
12.527262
 21
17.877148
 31
0.0
  0
LINE
  5
118
100
AcDbEntity
  8
R-DOOR-DETL
  6
CONTINUOUS
 62
     3
100
AcDbLine
 10
12.650262
 20
18.229148
 30
0.0
 11
12.650262
 21
18.002148
 31
0.0
  0
LINE
  5
119
100
AcDbEntity
  8
R-DOOR-DETL
 62
     3
100
AcDbLine
 10
12.620397
 20
18.133805
 30
0.0
 11
12.620397
 21
18.008805
 31
0.0
  0
ARC
  5
11A
100
AcDbEntity
  8
R-DOOR-DETL
  6
CONTINUOUS
 62
     3
100
AcDbCircle
 10
12.557262
 20
17.877148
 30
0.0
 40
0.03
100
AcDbArc
 50
180.0
 51
270.0
  0
LINE
  5
11B
100
AcDbEntity
  8
R-DOOR-DETL
  6
CONTINUOUS
 62
     3
100
AcDbLine
 10
12.557262
 20
17.847148
 30
0.0
 11
12.701262
 21
17.847148
 31
0.0
  0
ARC
  5
11C
100
AcDbEntity
  8
R-DOOR-DETL
  6
CONTINUOUS
 62
     3
100
AcDbCircle
 10
12.701262
 20
17.941148
 30
0.0
 40
0.094
100
AcDbArc
 50
270.0
 51
360.0
  0
LINE
  5
11D
100
AcDbEntity
  8
R-DOOR-DETL
  6
CONTINUOUS
 62
     3
100
AcDbLine
 10
12.795262
 20
17.941148
 30
0.0
 11
12.795262
 21
18.271874
 31
0.0
  0
ARC
  5
11E
100
AcDbEntity
  8
R-DOOR-DETL
 62
     3
100
AcDbCircle
 10
12.760397
 20
17.798855
 30
0.0
 40
0.06
100
AcDbArc
 50
270.0
 51
0.0
  0
LINE
  5
11F
100
AcDbEntity
  8
R-DOOR-DETL
 62
     3
100
AcDbLine
 10
12.820397
 20
17.798855
 30
0.0
 11
12.820397
 21
18.292791
 31
0.0
  0
ARC
  5
120
100
AcDbEntity
  8
R-DOOR-DETL
 62
     3
100
AcDbCircle
 10
12.850397
 20
18.292791
 30
0.0
 40
0.03
100
AcDbArc
 50
150.0
 51
180.0
  0
LINE
  5
121
100
AcDbEntity
  8
R-DOOR-DETL
  6
CONTINUOUS
 62
     3
100
AcDbLine
 10
12.620397
 20
18.544148
 30
0.0
 11
12.660397
 21
18.544148
 31
0.0
  0
ARC
  5
122
100
AcDbEntity
  8
R-DOOR-DETL
  6
CONTINUOUS
 62
     3
100
AcDbCircle
 10
13.044924
 20
18.74979
 30
0.0
 40
0.03
100
AcDbArc
 50
329.0
 51
59.0
  0
POINT
  5
123
100
AcDbEntity
  8
R-DOOR-DETL
  6
BYBLOCK
 62
     3
100
AcDbPoint
 10
13.070639
 20
18.734339
 30
0.0
  0
POINT
  5
124
100
AcDbEntity
  8
R-DOOR-DETL
  6
BYBLOCK
 62
     3
100
AcDbPoint
 10
13.070639
 20
18.734339
 30
0.0
  0
POINT
  5
125
100
AcDbEntity
  8
R-DOOR-DETL
  6
BYBLOCK
 62
     3
100
AcDbPoint
 10
13.060375
 20
18.775505
 30
0.0
  0
ARC
  5
126
100
AcDbEntity
  8
R-DOOR-DETL
  6
CONTINUOUS
 62
     3
100
AcDbCircle
 10
13.044924
 20
18.74979
 30
0.0
 40
0.03
100
AcDbArc
 50
329.0
 51
59.0
  0
LINE
  5
127
100
AcDbEntity
  8
R-DOOR-DETL
  6
CONTINUOUS
 62
     3
100
AcDbLine
 10
13.060375
 20
18.775505
 30
0.0
 11
12.889495
 21
18.87818
 31
0.0
  0
ARC
  5
128
100
AcDbEntity
  8
R-DOOR-DETL
  6
CONTINUOUS
 62
     3
100
AcDbCircle
 10
12.920397
 20
18.92961
 30
0.0
 40
0.06
100
AcDbArc
 50
180.0
 51
239.0
  0
ARC
  5
129
100
AcDbEntity
  8
R-DOOR-DETL
 62
     3
100
AcDbCircle
 10
12.90139
 20
18.941113
 30
0.0
 40
0.25
100
AcDbArc
 50
330.0
 51
360.0
  0
LINE
  5
12A
100
AcDbEntity
  8
R-DOOR-DETL
  6
CONTINUOUS
 62
     3
100
AcDbLine
 10
12.09024
 20
18.504148
 30
0.0
 11
12.09024
 21
18.464148
 31
0.0
  0
LINE
  5
12B
100
AcDbEntity
  8
R-DOOR-DETL
  6
CONTINUOUS
 62
     3
100
AcDbLine
 10
12.428262
 20
18.464148
 30
0.0
 11
12.428262
 21
18.504148
 31
0.0
  0
LINE
  5
12C
100
AcDbEntity
  8
R-DOOR-DETL
  6
CONTINUOUS
 62
     3
100
AcDbLine
 10
12.312533
 20
18.464148
 30
0.0
 11
12.312533
 21
18.504148
 31
0.0
  0
LINE
  5
12D
100
AcDbEntity
  8
R-DOOR-DETL
  6
CONTINUOUS
 62
     3
100
AcDbLine
 10
12.183533
 20
17.847148
 30
0.0
 11
12.039533
 21
17.847148
 31
0.0
  0
LINE
  5
12E
100
AcDbEntity
  8
R-DOOR-DETL
 62
     3
100
AcDbLine
 10
11.980397
 20
17.738855
 30
0.0
 11
12.370397
 21
17.738855
 31
0.0
  0
HATCH
  5
12F
100
AcDbEntity
  8
R-DOOR-DETL
 62
     3
100
AcDbHatch
 10
0.0
 20
0.0
 30
0.0
210
0.0
220
0.0
230
1.0
  2
ANSI31
 70
     0
 71
     0
 91
        1
 92
        7
 72
     0
 73
     1
 93
        4
 10
12.12039739591219
 20
18.13380452766432
 10
12.24639739591216
 20
18.13380452766432
 10
12.24639739591216
 20
18.00880452766432
 10
12.12039739591219
 20
18.00880452766432
 97
        0
 75
     0
 76
     1
 52
90.0
 41
0.2
 77
     0
 78
     1
 53
45.0
 43
48.402594
 44
-12.746991
 45
0.0176776695296637
 46
-0.0176776695296637
 79
     0
 47
0.003428
 98
        1
 10
12.181252
 20
18.078214
  0
LINE
  5
130
100
AcDbEntity
  8
R-DOOR-DETL
  6
CONTINUOUS
 62
     3
100
AcDbLine
 10
12.09024
 20
18.464148
 30
0.0
 11
12.302533
 21
18.464148
 31
0.0
  0
LINE
  5
131
100
AcDbEntity
  8
R-DOOR-DETL
  6
CONTINUOUS
 62
     3
100
AcDbLine
 10
12.09024
 20
18.464148
 30
0.0
 11
12.312533
 21
18.464148
 31
0.0
  0
ARC
  5
132
100
AcDbEntity
  8
R-DOOR-DETL
  6
CONTINUOUS
 62
     3
100
AcDbCircle
 10
12.09024
 20
18.47399
 30
0.0
 40
0.009843
100
AcDbArc
 50
180.0
 51
270.0
  0
LINE
  5
133
100
AcDbEntity
  8
R-DOOR-DETL
 62
     3
100
AcDbLine
 10
12.464397
 20
17.794246
 30
0.0
 11
12.276397
 21
17.794246
 31
0.0
  0
LINE
  5
134
100
AcDbEntity
  8
R-DOOR-DETL
 62
     3
100
AcDbLine
 10
12.246397
 20
18.189691
 30
0.0
 11
12.246397
 21
17.738855
 31
0.0
  0
LINE
  5
135
100
AcDbEntity
  8
R-DOOR-DETL
 62
     3
100
AcDbLine
 10
12.256397
 20
18.212052
 30
0.0
 11
12.256397
 21
17.738855
 31
0.0
  0
LINE
  5
136
100
AcDbEntity
  8
R-DOOR-DETL
 62
     3
100
AcDbLine
 10
12.464397
 20
17.854246
 30
0.0
 11
12.276397
 21
17.854246
 31
0.0
  0
ARC
  5
137
100
AcDbEntity
  8
R-DOOR-DETL
  6
CONTINUOUS
 62
     3
100
AcDbCircle
 10
12.180533
 20
18.229148
 30
0.0
 40
0.09
100
AcDbArc
 50
90.0
 51
180.0
  0
LINE
  5
138
100
AcDbEntity
  8
R-DOOR-DETL
  6
CONTINUOUS
 62
     3
100
AcDbLine
 10
12.100533
 20
17.992148
 30
0.0
 11
12.203533
 21
17.992148
 31
0.0
  0
ARC
  5
139
100
AcDbEntity
  8
R-DOOR-DETL
  6
CONTINUOUS
 62
     3
100
AcDbCircle
 10
12.100533
 20
18.002148
 30
0.0
 40
0.01
100
AcDbArc
 50
180.0
 51
270.0
  0
LINE
  5
13A
100
AcDbEntity
  8
R-DOOR-DETL
 62
     3
100
AcDbLine
 10
12.120397
 20
18.133805
 30
0.0
 11
12.120397
 21
18.008805
 31
0.0
  0
LINE
  5
13B
100
AcDbEntity
  8
R-DOOR-DETL
  6
CONTINUOUS
 62
     3
100
AcDbLine
 10
12.090533
 20
18.229148
 30
0.0
 11
12.090533
 21
18.002148
 31
0.0
  0
ARC
  5
13C
100
AcDbEntity
  8
R-DOOR-DETL
  6
CONTINUOUS
 62
     3
100
AcDbCircle
 10
12.438262
 20
18.329148
 30
0.0
 40
0.01
100
AcDbArc
 50
180.0
 51
270.0
  0
ARC
  5
13D
100
AcDbEntity
  8
R-DOOR-DETL
  6
CONTINUOUS
 62
     3
100
AcDbCircle
 10
12.302533
 20
18.329148
 30
0.0
 40
0.01
100
AcDbArc
 50
270.0
 51
0.0
  0
ARC
  5
13E
100
AcDbEntity
  8
R-DOOR-DETL
 62
     3
100
AcDbCircle
 10
12.276397
 20
18.189691
 30
0.0
 40
0.03
100
AcDbArc
 50
90.0
 51
180.0
  0
LINE
  5
13F
100
AcDbEntity
  8
R-DOOR-DETL
 62
     3
100
AcDbLine
 10
12.464397
 20
18.154246
 30
0.0
 11
12.276397
 21
18.154246
 31
0.0
  0
LINE
  5
140
100
AcDbEntity
  8
R-DOOR-DETL
 62
     3
100
AcDbLine
 10
12.464397
 20
18.219691
 30
0.0
 11
12.276397
 21
18.219691
 31
0.0
  0
LINE
  5
141
100
AcDbEntity
  8
R-DOOR-DETL
  6
CONTINUOUS
 62
     3
100
AcDbLine
 10
12.302533
 20
18.319148
 30
0.0
 11
12.180533
 21
18.319148
 31
0.0
  0
ARC
  5
142
100
AcDbEntity
  8
R-DOOR-DETL
  6
CONTINUOUS
 62
     3
100
AcDbCircle
 10
12.203533
 20
17.982148
 30
0.0
 40
0.01
100
AcDbArc
 50
360.0
 51
90.0
  0
LINE
  5
143
100
AcDbEntity
  8
R-DOOR-DETL
 62
     3
100
AcDbLine
 10
12.464397
 20
18.094246
 30
0.0
 11
12.276397
 21
18.094246
 31
0.0
  0
LINE
  5
144
100
AcDbEntity
  8
R-DOOR-DETL
 62
     3
100
AcDbLine
 10
12.464397
 20
17.974246
 30
0.0
 11
12.276397
 21
17.974246
 31
0.0
  0
LINE
  5
145
100
AcDbEntity
  8
R-DOOR-DETL
 62
     3
100
AcDbLine
 10
12.464397
 20
17.914246
 30
0.0
 11
12.276397
 21
17.914246
 31
0.0
  0
LINE
  5
146
100
AcDbEntity
  8
R-DOOR-DETL
 62
     3
100
AcDbLine
 10
12.464397
 20
18.034246
 30
0.0
 11
12.276397
 21
18.034246
 31
0.0
  0
LINE
  5
147
100
AcDbEntity
  8
R-DOOR-DETL
 62
     3
100
AcDbLine
 10
12.464397
 20
18.094246
 30
0.0
 11
12.276397
 21
18.094246
 31
0.0
  0
LINE
  5
148
100
AcDbEntity
  8
R-DOOR-DETL
  6
CONTINUOUS
 62
     3
100
AcDbLine
 10
12.213533
 20
17.982148
 30
0.0
 11
12.213533
 21
17.877148
 31
0.0
  0
ARC
  5
149
100
AcDbEntity
  8
R-DOOR-DETL
  6
CONTINUOUS
 62
     3
100
AcDbCircle
 10
12.183533
 20
17.877148
 30
0.0
 40
0.03
100
AcDbArc
 50
270.0
 51
0.0
  0
LINE
  5
14A
100
AcDbEntity
  8
R-DOOR-DETL
  6
CONTINUOUS
 62
     3
100
AcDbLine
 10
12.428262
 20
18.454148
 30
0.0
 11
12.428262
 21
18.329148
 31
0.0
  0
LINE
  5
14B
100
AcDbEntity
  8
R-DOOR-DETL
  6
CONTINUOUS
 62
     3
100
AcDbLine
 10
12.312533
 20
18.454148
 30
0.0
 11
12.312533
 21
18.329148
 31
0.0
  0
ARC
  5
14C
100
AcDbEntity
  8
R-DOOR-DETL
  6
CONTINUOUS
 62
     3
100
AcDbCircle
 10
12.438262
 20
18.454148
 30
0.0
 40
0.01
100
AcDbArc
 50
90.0
 51
180.0
  0
ARC
  5
14D
100
AcDbEntity
  8
R-DOOR-DETL
  6
CONTINUOUS
 62
     3
100
AcDbCircle
 10
12.302533
 20
18.454148
 30
0.0
 40
0.01
100
AcDbArc
 50
0.0
 51
90.0
  0
LINE
  5
14E
100
AcDbEntity
  8
R-DOOR-DETL
  6
CONTINUOUS
 62
     3
100
AcDbLine
 10
12.09024
 20
18.504148
 30
0.0
 11
12.302533
 21
18.504148
 31
0.0
  0
LINE
  5
14F
100
AcDbEntity
  8
R-DOOR-DETL
  6
CONTINUOUS
 62
     3
100
AcDbLine
 10
12.312533
 20
18.504148
 30
0.0
 11
12.09024
 21
18.504148
 31
0.0
  0
LINE
  5
150
100
AcDbEntity
  8
R-DOOR-DETL
  6
CONTINUOUS
 62
     3
100
AcDbLine
 10
12.120397
 20
18.544148
 30
0.0
 11
12.080397
 21
18.544148
 31
0.0
  0
LINE
  5
151
100
AcDbEntity
  8
R-DOOR-DETL
  6
CONTINUOUS
 62
     3
100
AcDbLine
 10
12.650555
 20
18.464148
 30
0.0
 11
12.428262
 21
18.464148
 31
0.0
  0
LINE
  5
152
100
AcDbEntity
  8
R-DOOR-DETL
  6
CONTINUOUS
 62
     3
100
AcDbLine
 10
12.650555
 20
18.464148
 30
0.0
 11
12.438262
 21
18.464148
 31
0.0
  0
LINE
  5
153
100
AcDbEntity
  8
R-DOOR-DETL
 62
     3
100
AcDbLine
 10
12.494397
 20
17.764246
 30
0.0
 11
12.246397
 21
17.764246
 31
0.0
  0
LINE
  5
154
100
AcDbEntity
  8
R-DOOR-DETL
 62
     3
100
AcDbLine
 10
12.494397
 20
17.824246
 30
0.0
 11
12.246397
 21
17.824246
 31
0.0
  0
LINE
  5
155
100
AcDbEntity
  8
R-DOOR-DETL
 62
     3
100
AcDbLine
 10
12.620397
 20
18.133805
 30
0.0
 11
12.120397
 21
18.133805
 31
0.0
  0
LINE
  5
156
100
AcDbEntity
  8
R-DOOR-DETL
 62
     3
100
AcDbLine
 10
12.620397
 20
18.008805
 30
0.0
 11
12.120397
 21
18.008805
 31
0.0
  0
LINE
  5
157
100
AcDbEntity
  8
R-DOOR-DETL
 62
     3
100
AcDbLine
 10
12.494397
 20
18.184246
 30
0.0
 11
12.246397
 21
18.184246
 31
0.0
  0
LINE
  5
158
100
AcDbEntity
  8
R-DOOR-DETL
 62
     3
100
AcDbLine
 10
12.494397
 20
18.124246
 30
0.0
 11
12.246397
 21
18.124246
 31
0.0
  0
ARC
  5
159
100
AcDbEntity
  8
R-DOOR-DETL
 62
     3
100
AcDbCircle
 10
12.464397
 20
18.189691
 30
0.0
 40
0.03
100
AcDbArc
 50
0.0
 51
90.0
  0
LINE
  5
15A
100
AcDbEntity
  8
R-DOOR-DETL
  6
CONTINUOUS
 62
     3
100
AcDbLine
 10
12.438262
 20
18.319148
 30
0.0
 11
12.560262
 21
18.319148
 31
0.0
  0
LINE
  5
15B
100
AcDbEntity
  8
R-DOOR-DETL
 62
     3
100
AcDbLine
 10
12.494397
 20
17.944246
 30
0.0
 11
12.246397
 21
17.944246
 31
0.0
  0
LINE
  5
15C
100
AcDbEntity
  8
R-DOOR-DETL
 62
     3
100
AcDbLine
 10
12.494397
 20
17.884246
 30
0.0
 11
12.246397
 21
17.884246
 31
0.0
  0
LINE
  5
15D
100
AcDbEntity
  8
R-DOOR-DETL
 62
     3
100
AcDbLine
 10
12.494397
 20
18.004246
 30
0.0
 11
12.246397
 21
18.004246
 31
0.0
  0
LINE
  5
15E
100
AcDbEntity
  8
R-DOOR-DETL
 62
     3
100
AcDbLine
 10
12.494397
 20
18.064246
 30
0.0
 11
12.246397
 21
18.064246
 31
0.0
  0
LINE
  5
15F
100
AcDbEntity
  8
R-DOOR-DETL
 62
     3
100
AcDbLine
 10
12.370397
 20
17.738855
 30
0.0
 11
12.760397
 21
17.738855
 31
0.0
  0
LINE
  5
160
100
AcDbEntity
  8
R-DOOR-DETL
  6
CONTINUOUS
 62
     3
100
AcDbLine
 10
12.428262
 20
18.504148
 30
0.0
 11
12.650555
 21
18.504148
 31
0.0
  0
LINE
  5
161
100
AcDbEntity
  8
R-DOOR-DETL
  6
CONTINUOUS
 62
     3
100
AcDbLine
 10
12.650555
 20
18.504148
 30
0.0
 11
12.438262
 21
18.504148
 31
0.0
  0
LINE
  5
162
100
AcDbEntity
  8
R-DOOR-DETL
  6
CONTINUOUS
100
AcDbLine
 10
12.09024
 20
18.504148
 30
0.0
 11
12.650555
 21
18.504148
 31
0.0
  0
LINE
  5
163
100
AcDbEntity
  8
R-DOOR-DETL
 62
     3
100
AcDbLine
 10
12.660397
 20
20.459148
 30
0.0
 11
12.660397
 21
18.47399
 31
0.0
  0
LINE
  5
164
100
AcDbEntity
  8
R-DOOR-DETL
 62
     3
100
AcDbLine
 10
12.080397
 20
20.459148
 30
0.0
 11
12.080397
 21
18.47399
 31
0.0
  0
LINE
  5
165
100
AcDbEntity
  8
R-DOOR-DETL
  6
CONTINUOUS
 62
     3
100
AcDbLine
 10
12.120397
 20
20.419148
 30
0.0
 11
12.120397
 21
18.544148
 31
0.0
  0
LINE
  5
166
100
AcDbEntity
  8
R-DOOR-DETL
 62
     3
100
AcDbLine
 10
12.620397
 20
20.419148
 30
0.0
 11
12.620397
 21
18.544148
 31
0.0
  0
LINE
  5
167
100
AcDbEntity
  8
R-DOOR-DETL
 62
     3
100
AcDbLine
 10
13.15139
 20
18.941113
 30
0.0
 11
13.15139
 21
20.509144
 31
0.0
  0
LINE
  5
168
100
AcDbEntity
  8
R-DOOR-DETL
100
AcDbLine
 10
12.860397
 20
18.92961
 30
0.0
 11
12.860397
 21
20.446672
 31
0.0
  0
ARC
  5
169
100
AcDbEntity
  8
R-DOOR-DETL
 62
     3
100
AcDbCircle
 10
11.672325
 20
20.569144
 30
0.0
 40
0.03
100
AcDbArc
 50
270.0
 51
0.0
  0
LINE
  5
16A
100
AcDbEntity
  8
R-DOOR-DETL
 62
     3
100
AcDbLine
 10
11.702325
 20
20.634144
 30
0.0
 11
11.702325
 21
20.569144
 31
0.0
  0
ARC
  5
16B
100
AcDbEntity
  8
R-DOOR-DETL
 62
     3
100
AcDbCircle
 10
11.672325
 20
20.634144
 30
0.0
 40
0.03
100
AcDbArc
 50
0.0
 51
90.0
  0
ARC
  5
16C
100
AcDbEntity
  8
CLAMP
  6
CONTINUOUS
100
AcDbCircle
 10
11.940397
 20
20.446672
 30
0.0
 40
0.06
100
AcDbArc
 50
90.0
 51
180.0
  0
LINE
  5
16D
100
AcDbEntity
  8
CLAMP
  6
CONTINUOUS
100
AcDbLine
 10
11.94339
 20
18.2796
 30
0.0
 11
11.670156
 21
18.734339
 31
0.0
  0
LINE
  5
16E
100
AcDbEntity
  8
R-DOOR-DETL
 62
     3
100
AcDbLine
 10
11.920397
 20
18.292791
 30
0.0
 11
11.920397
 21
17.798855
 31
0.0
  0
ARC
  5
16F
100
AcDbEntity
  8
R-DOOR-DETL
 62
     3
100
AcDbCircle
 10
11.890397
 20
18.292791
 30
0.0
 40
0.03
100
AcDbArc
 50
0.0
 51
30.0
  0
LINE
  5
170
100
AcDbEntity
  8
R-DOOR-DETL
  6
CONTINUOUS
 62
     3
100
AcDbLine
 10
11.945533
 20
17.941148
 30
0.0
 11
11.945533
 21
18.271874
 31
0.0
  0
ARC
  5
171
100
AcDbEntity
  8
CLAMP
  6
CONTINUOUS
100
AcDbCircle
 10
11.930533
 20
18.271874
 30
0.0
 40
0.015
100
AcDbArc
 50
0.0
 51
31.0
  0
ARC
  5
172
100
AcDbEntity
  8
R-DOOR-DETL
  6
CONTINUOUS
 62
     3
100
AcDbCircle
 10
11.695871
 20
18.74979
 30
0.0
 40
0.03
100
AcDbArc
 50
121.0
 51
211.0
  0
ARC
  5
173
100
AcDbEntity
  8
R-DOOR-DETL
  6
CONTINUOUS
 62
     3
100
AcDbCircle
 10
11.695871
 20
18.74979
 30
0.0
 40
0.03
100
AcDbArc
 50
121.0
 51
211.0
  0
POINT
  5
174
100
AcDbEntity
  8
R-DOOR-DETL
  6
BYBLOCK
 62
     3
100
AcDbPoint
 10
11.680419
 20
18.775505
 30
0.0
  0
LINE
  5
175
100
AcDbEntity
  8
R-DOOR-DETL
  6
CONTINUOUS
 62
     3
100
AcDbLine
 10
11.680419
 20
18.775505
 30
0.0
 11
11.8513
 21
18.87818
 31
0.0
  0
ARC
  5
176
100
AcDbEntity
  8
R-DOOR-DETL
  6
CONTINUOUS
 62
     3
100
AcDbCircle
 10
11.820397
 20
18.92961
 30
0.0
 40
0.06
100
AcDbArc
 50
301.0
 51
0.0
  0
POINT
  5
177
100
AcDbEntity
  8
CLAMP
  6
BYBLOCK
100
AcDbPoint
 10
11.670156
 20
18.734339
 30
0.0
  0
POINT
  5
178
100
AcDbEntity
  8
CLAMP
  6
BYBLOCK
100
AcDbPoint
 10
11.670156
 20
18.734339
 30
0.0
  0
LINE
  5
179
100
AcDbEntity
  8
R-DOOR-DETL
  6
CONTINUOUS
 62
     3
100
AcDbLine
 10
11.880397
 20
18.92961
 30
0.0
 11
11.880397
 21
20.446672
 31
0.0
  0
LINE
  5
17A
100
AcDbEntity
  8
R-DOOR-DETL
100
AcDbLine
 10
11.940397
 20
20.506672
 30
0.0
 11
12.080397
 21
20.506672
 31
0.0
  0
ARC
  5
17B
100
AcDbEntity
  8
R-DOOR-DETL
 62
     3
100
AcDbCircle
 10
11.980397
 20
17.798855
 30
0.0
 40
0.06
100
AcDbArc
 50
180.0
 51
270.0
  0
ARC
  5
17C
100
AcDbEntity
  8
R-DOOR-DETL
  6
CONTINUOUS
 62
     3
100
AcDbCircle
 10
12.039533
 20
17.941148
 30
0.0
 40
0.094
100
AcDbArc
 50
180.0
 51
270.0
  0
LINE
  5
17D
100
AcDbEntity
  8
R-DOOR-DETL
100
AcDbLine
 10
12.620397
 20
22.7043
 30
0.0
 11
12.620397
 21
19.623999
 31
0.0
  0
LINE
  5
17E
100
AcDbEntity
  8
R-DOOR-DETL
100
AcDbLine
 10
12.120397
 20
22.69589
 30
0.0
 11
12.120397
 21
19.623999
 31
0.0
  0
LINE
  5
17F
100
AcDbEntity
  8
R-DOOR-DETL
100
AcDbLine
 10
12.434111
 20
22.684127
 30
0.0
 11
12.434111
 21
18.504148
 31
0.0
  0
LINE
  5
180
100
AcDbEntity
  8
R-DOOR-DETL
100
AcDbLine
 10
12.559111
 20
22.742082
 30
0.0
 11
12.559111
 21
18.504148
 31
0.0
  0
LINE
  5
181
100
AcDbEntity
  8
R-DOOR-DETL
100
AcDbLine
 10
12.496611
 20
22.731002
 30
0.0
 11
12.496611
 21
18.504148
 31
0.0
  0
LINE
  5
182
100
AcDbEntity
  8
R-DOOR-DETL
100
AcDbLine
 10
12.309111
 20
22.741198
 30
0.0
 11
12.309111
 21
18.504148
 31
0.0
  0
LINE
  5
183
100
AcDbEntity
  8
R-DOOR-DETL
100
AcDbLine
 10
12.246611
 20
22.702467
 30
0.0
 11
12.246611
 21
18.504148
 31
0.0
  0
LINE
  5
184
100
AcDbEntity
  8
R-DOOR-DETL
100
AcDbLine
 10
12.184111
 20
22.677774
 30
0.0
 11
12.184111
 21
18.504148
 31
0.0
  0
LINE
  5
185
100
AcDbEntity
  8
R-DOOR-DETL
100
AcDbLine
 10
12.559111
 20
22.742082
 30
0.0
 11
12.559111
 21
19.623999
 31
0.0
  0
LINE
  5
186
100
AcDbEntity
  8
R-DOOR-DETL
100
AcDbLine
 10
12.496611
 20
22.731002
 30
0.0
 11
12.496611
 21
19.623999
 31
0.0
  0
LINE
  5
187
100
AcDbEntity
  8
R-DOOR-DETL
100
AcDbLine
 10
12.309111
 20
22.741198
 30
0.0
 11
12.309111
 21
19.623999
 31
0.0
  0
LINE
  5
188
100
AcDbEntity
  8
R-DOOR-DETL
100
AcDbLine
 10
12.246611
 20
22.702467
 30
0.0
 11
12.246611
 21
19.623999
 31
0.0
  0
LINE
  5
189
100
AcDbEntity
  8
R-DOOR-DETL
100
AcDbLine
 10
12.126611
 20
22.69589
 30
0.0
 11
12.126611
 21
19.623999
 31
0.0
  0
LINE
  5
18A
100
AcDbEntity
  8
R-DOOR-DETL
100
AcDbLine
 10
12.612038
 20
22.7043
 30
0.0
 11
12.612038
 21
19.623999
 31
0.0
  0
ENDBLK
  5
18C
100
AcDbEntity
  8
0
100
AcDbBlockEnd
  0
BLOCK
  5
42D
100
AcDbEntity
  8
0
100
AcDbBlockBegin
  2
A$C36706144
 70
     0
 10
0.0
 20
0.0
 30
0.0
  3
A$C36706144
  1

  0
LINE
  5
3AD
100
AcDbEntity
  8
GREEN
  6
CONTINUOUS
100
AcDbLine
 39
1.0
 10
1.213523
 20
1.198808
 30
0.0
 11
0.328012
 21
1.710058
 31
0.0
  0
ARC
  5
3AE
100
AcDbEntity
  8
GREEN
  6
CONTINUOUS
100
AcDbCircle
 39
1.0
 10
0.368766
 20
1.776425
 30
0.0
 40
0.077881
100
AcDbArc
 50
184.523413
 51
238.446514
  0
LINE
  5
3AF
100
AcDbEntity
  8
GREEN
  6
CONTINUOUS
100
AcDbLine
 39
1.0
 10
0.291128
 20
1.770282
 30
0.0
 11
0.291212
 21
2.094116
 31
0.0
  0
ARC
  5
3B0
100
AcDbEntity
  8
GREEN
  6
CONTINUOUS
100
AcDbCircle
 39
1.0
 10
0.294806
 20
2.095257
 30
0.0
 40
0.003771
100
AcDbArc
 50
12.423788
 51
197.604591
  0
LINE
  5
3B1
100
AcDbEntity
  8
GREEN
  6
CONTINUOUS
100
AcDbLine
 39
1.0
 10
0.298488
 20
2.096068
 30
0.0
 11
0.323753
 21
2.072662
 31
0.0
  0
ARC
  5
3B2
100
AcDbEntity
  8
GREEN
  6
CONTINUOUS
100
AcDbCircle
 39
1.0
 10
0.326565
 20
2.077533
 30
0.0
 40
0.005625
100
AcDbArc
 50
240.0
 51
60.0
  0
LINE
  5
3B3
100
AcDbEntity
  8
GREEN
  6
CONTINUOUS
100
AcDbLine
 39
1.0
 10
0.329378
 20
2.082404
 30
0.0
 11
0.322341
 21
2.095784
 31
0.0
  0
LINE
  5
3B4
100
AcDbEntity
  8
GREEN
  6
CONTINUOUS
100
AcDbLine
 39
1.0
 10
0.322341
 20
2.095784
 30
0.0
 11
0.327156
 21
2.105868
 31
0.0
  0
LINE
  5
3B5
100
AcDbEntity
  8
GREEN
  6
CONTINUOUS
100
AcDbLine
 39
1.0
 10
0.327156
 20
2.105868
 30
0.0
 11
0.33445
 21
2.105229
 31
0.0
  0
ARC
  5
3B6
100
AcDbEntity
  8
GREEN
  6
CONTINUOUS
100
AcDbCircle
 39
1.0
 10
0.334886
 20
2.11021
 30
0.0
 40
0.005
100
AcDbArc
 50
265.0
 51
60.0
  0
LINE
  5
3B7
100
AcDbEntity
  8
GREEN
  6
CONTINUOUS
100
AcDbLine
 39
1.0
 10
0.337386
 20
2.114541
 30
0.0
 11
0.274878
 21
2.151532
 31
0.0
  0
ARC
  5
3B8
100
AcDbEntity
  8
GREEN
  6
CONTINUOUS
100
AcDbCircle
 39
1.0
 10
0.274878
 20
2.147782
 30
0.0
 40
0.00375
100
AcDbArc
 50
90.0
 51
180.0
  0
LINE
  5
3B9
100
AcDbEntity
  8
GREEN
  6
CONTINUOUS
100
AcDbLine
 39
1.0
 10
0.271128
 20
2.147782
 30
0.0
 11
0.271128
 21
1.714032
 31
0.0
  0
LINE
  5
3BA
100
AcDbEntity
  8
GREEN
  6
CONTINUOUS
100
AcDbLine
 39
1.0
 10
0.271128
 20
1.714032
 30
0.0
 11
1.245406
 21
1.151532
 31
0.0
  0
LINE
  5
3BB
100
AcDbEntity
  8
GREEN
  6
CONTINUOUS
100
AcDbLine
 39
1.0
 10
1.245406
 20
1.151532
 30
0.0
 11
1.245406
 21
1.585282
 31
0.0
  0
ARC
  5
3BC
100
AcDbEntity
  8
GREEN
  6
CONTINUOUS
100
AcDbCircle
 39
1.0
 10
1.234787
 20
1.582437
 30
0.0
 40
0.010994
100
AcDbArc
 50
15.0
 51
45.0
  0
LINE
  5
3BD
100
AcDbEntity
  8
GREEN
  6
CONTINUOUS
100
AcDbLine
 39
1.0
 10
1.242561
 20
1.590211
 30
0.0
 11
1.17948
 21
1.626631
 31
0.0
  0
ARC
  5
3BE
100
AcDbEntity
  8
GREEN
  6
CONTINUOUS
100
AcDbCircle
 39
1.0
 10
1.17948
 20
1.621631
 30
0.0
 40
0.005
100
AcDbArc
 50
90.0
 51
245.0
  0
LINE
  5
3BF
100
AcDbEntity
  8
GREEN
  6
CONTINUOUS
100
AcDbLine
 39
1.0
 10
1.177367
 20
1.617099
 30
0.0
 11
1.184003
 21
1.614005
 31
0.0
  0
LINE
  5
3C0
100
AcDbEntity
  8
GREEN
  6
CONTINUOUS
100
AcDbLine
 39
1.0
 10
1.184003
 20
1.614005
 30
0.0
 11
1.161065
 21
1.603329
 31
0.0
  0
LINE
  5
3C1
100
AcDbEntity
  8
GREEN
  6
CONTINUOUS
100
AcDbLine
 39
1.0
 10
1.161065
 20
1.603329
 30
0.0
 11
1.15294
 21
1.603329
 31
0.0
  0
ARC
  5
3C2
100
AcDbEntity
  8
GREEN
  6
CONTINUOUS
100
AcDbCircle
 39
1.0
 10
1.15294
 20
1.597704
 30
0.0
 40
0.005625
100
AcDbArc
 50
90.0
 51
270.0
  0
LINE
  5
3C3
100
AcDbEntity
  8
GREEN
  6
CONTINUOUS
100
AcDbLine
 39
1.0
 10
1.15294
 20
1.592079
 30
0.0
 11
1.194158
 21
1.579811
 31
0.0
  0
ARC
  5
3C4
100
AcDbEntity
  8
GREEN
  6
CONTINUOUS
100
AcDbCircle
 39
1.0
 10
1.198197
 20
1.5514
 30
0.0
 40
0.028697
100
AcDbArc
 50
341.47451
 51
98.091202
  0
LINE
  5
3C5
100
AcDbEntity
  8
GREEN
  6
CONTINUOUS
100
AcDbLine
 39
1.0
 10
1.225406
 20
1.542282
 30
0.0
 11
1.225406
 21
1.207782
 31
0.0
  0
ARC
  5
3C6
100
AcDbEntity
  8
GREEN
  6
CONTINUOUS
100
AcDbCircle
 39
1.0
 10
1.216242
 20
1.207563
 30
0.0
 40
0.009167
100
AcDbArc
 50
252.745313
 51
1.373158
  0
LWPOLYLINE
  5
3C7
100
AcDbEntity
  8
1
  6
CONTINUOUS
 62
     5
100
AcDbPolyline
 90
        2
 70
     0
 43
0.005
 10
1.505853
 20
3.037005
 10
0.47549
 20
2.442124
  0
LINE
  5
3C8
100
AcDbEntity
  8
1
  6
CONTINUOUS
 62
     5
100
AcDbLine
 10
0.475511
 20
2.442138
 30
0.0
 11
1.505875
 21
3.037019
 31
0.0
  0
LINE
  5
3C9
100
AcDbEntity
  8
1
  6
CONTINUOUS
 62
     5
100
AcDbLine
 10
0.297514
 20
2.475731
 30
0.0
 11
1.334883
 21
3.074656
 31
0.0
  0
LINE
  5
3CA
100
AcDbEntity
  8
1
  6
CONTINUOUS
 62
     5
100
AcDbLine
 10
0.286689
 20
2.481981
 30
0.0
 11
1.317088
 21
3.076883
 31
0.0
  0
LINE
  5
3CB
100
AcDbEntity
  8
1
  6
CONTINUOUS
 62
     5
100
AcDbLine
 10
1.504625
 20
3.039184
 30
0.0
 11
0.474261
 21
2.444303
 31
0.0
  0
LINE
  5
3CC
100
AcDbEntity
  8
1
  6
CONTINUOUS
100
AcDbLine
 10
0.297514
 20
2.475731
 30
0.0
 11
1.334883
 21
3.074656
 31
0.0
  0
LINE
  5
3CD
100
AcDbEntity
  8
1
  6
CONTINUOUS
 62
     5
100
AcDbLine
 10
0.286689
 20
2.481981
 30
0.0
 11
1.317088
 21
3.076883
 31
0.0
  0
LINE
  5
3CE
100
AcDbEntity
  8
2
  6
CONTINUOUS
 62
     4
100
AcDbLine
 10
0.780619
 20
2.25523
 30
0.0
 11
0.456981
 21
2.068377
 31
0.0
  0
HATCH
  5
3CF
100
AcDbEntity
  8
2
  6
CONTINUOUS
 62
     9
100
AcDbHatch
 10
0.0
 20
0.0
 30
0.0
210
0.0
220
0.0
230
1.0
  2
SOLID
 70
     1
 71
     0
 91
        1
 92
        7
 72
     1
 73
     1
 93
        7
 10
0.4742612198026297
 20
2.431803097313526
 42
0.0
 10
0.4742612198026297
 20
2.444303097313525
 42
0.0
 10
1.50488619909353
 20
3.039334706540678
 42
0.0369683020279065
 10
1.335144244953987
 20
3.074807134042131
 42
0.0
 10
0.2975140707309176
 20
2.475731073635166
 42
0.0
 10
0.2975140707309176
 20
2.164601475047717
 42
0.0
 10
0.6172910380813761
 20
2.349224793228149
 42
0.0
 97
        0
 75
     0
 76
     1
 47
0.022773
 98
        1
 10
0.447836
 20
2.405159
  0
LINE
  5
3D0
100
AcDbEntity
  8
0
 62
     3
100
AcDbLine
 10
1.153944
 20
1.618209
 30
0.0
 11
0.443971
 21
2.028112
 31
0.0
  0
LINE
  5
3D1
100
AcDbEntity
  8
1
  6
CONTINUOUS
100
AcDbLine
 10
0.474261
 20
2.431803
 30
0.0
 11
1.46586
 21
1.865553
 31
0.0
  0
LINE
  5
3D2
100
AcDbEntity
  8
1
  6
CONTINUOUS
 62
     5
100
AcDbLine
 39
0.05
 10
0.474261
 20
2.431803
 30
0.0
 11
1.46586
 21
1.859303
 31
0.0
  0
LINE
  5
3D3
100
AcDbEntity
  8
1
  6
CONTINUOUS
 62
     5
100
AcDbLine
 39
0.05
 10
0.474261
 20
2.444303
 30
0.0
 11
1.46586
 21
1.871803
 31
0.0
  0
LINE
  5
3D4
100
AcDbEntity
  8
1
  6
CONTINUOUS
100
AcDbLine
 10
0.474261
 20
2.431803
 30
0.0
 11
1.46586
 21
1.865553
 31
0.0
  0
LINE
  5
3D5
100
AcDbEntity
  8
1
  6
CONTINUOUS
100
AcDbLine
 39
0.05
 10
0.474261
 20
2.431803
 30
0.0
 11
1.46586
 21
1.859303
 31
0.0
  0
LINE
  5
3D6
100
AcDbEntity
  8
1
  6
CONTINUOUS
100
AcDbLine
 39
0.05
 10
0.474261
 20
2.444303
 30
0.0
 11
1.46586
 21
1.871803
 31
0.0
  0
LINE
  5
3D7
100
AcDbEntity
  8
2
  6
CONTINUOUS
 62
     4
100
AcDbLine
 10
1.001455
 20
2.12773
 30
0.0
 11
0.673487
 21
1.938377
 31
0.0
  0
LINE
  5
3D8
100
AcDbEntity
  8
2
  6
CONTINUOUS
 62
     4
100
AcDbLine
 10
0.997125
 20
2.13023
 30
0.0
 11
0.673487
 21
1.943377
 31
0.0
  0
HATCH
  5
3D9
100
AcDbEntity
  8
2
  6
CONTINUOUS
 62
     9
100
AcDbHatch
 10
0.0
 20
0.0
 30
0.0
210
0.0
220
0.0
230
1.0
  2
SOLID
 70
     1
 71
     0
 91
        2
 92
       23
 72
     1
 73
     1
 93
       20
 10
1.153943687694017
 20
1.618209144644225
 42
0.0
 10
1.150878608331048
 20
1.612900271458329
 42
0.6681786379192962
 10
1.15790888613659
 20
1.603738235044023
 42
0.0
 10
1.173295853934398
 20
1.607861160639409
 42
0.6681786379192695
 10
1.174501758708885
 20
1.617020916789776
 42
0.0
 10
1.170605099717143
 20
1.619270653907602
 42
-0.6681786379192408
 10
1.171208052104386
 20
1.623850531982785
 42
0.0
 10
1.177831020784186
 20
1.625625151092034
 42
0.6681786379193185
 10
1.178132496977807
 20
1.627915090129626
 42
0.0
 10
0.9857443251908364
 20
1.738990452899734
 42
0.0
 10
0.3404248672246055
 20
2.111565815669841
 42
0.668178637919208
 10
0.3385924599417436
 20
2.110159760108732
 42
0.0
 10
0.3403670790509938
 20
2.103536791428933
 42
-0.6681786379193225
 10
0.33670226448527
 20
2.100724680306715
 42
0.0
 10
0.3328056054935278
 20
2.10297441742454
 42
0.6681786379193126
 10
0.3254759763620818
 20
2.097350195180105
 42
0.0
 10
0.3295989019574677
 20
2.081963227382296
 42
0.6681786379193007
 10
0.3410485971454271
 20
2.080455846414189
 42
0.0
 10
0.3441136765083961
 20
2.085764719600081
 42
0.0
 10
0.4439712336181394
 20
2.028111932122151
 42
0.0
 97
        0
 92
        7
 72
     1
 73
     1
 93
       37
 10
0.2748778485771126
 20
2.151532446093781
 42
0.4142135623731299
 10
0.2711278485771125
 20
2.147782446093785
 42
0.0
 10
0.2711278485771125
 20
1.714032446093785
 42
0.0
 10
1.245406427834604
 20
1.151532446093785
 42
0.0
 10
1.245406427834605
 20
1.585282446093785
 42
0.1316524975873667
 10
1.242560856415469
 20
1.590211120368291
 42
0.0
 10
1.179480240946697
 20
1.626630730689832
 42
0.0376464264871547
 10
1.17873050614186
 20
1.626574200900364
 42
-0.2823673447488831
 10
1.177831020784186
 20
1.625625151092034
 42
0.0
 10
1.175882634436266
 20
1.625103082543564
 42
0.5149511874561723
 10
1.177367149637994
 20
1.61709919175465
 42
0.0
 10
1.184002738739215
 20
1.614004965740381
 42
0.0
 10
1.176503326206269
 20
1.610514579747331
 42
-0.2180320882791709
 10
1.173295853934398
 20
1.607861160639409
 42
0.0
 10
1.16741860060336
 20
1.606286355355646
 42
0.0
 10
1.161065357219714
 20
1.603329420846534
 42
0.0
 10
1.152940357219712
 20
1.603329420846534
 42
1.0
 10
1.152940357219712
 20
1.592079420846534
 42
0.0
 10
1.194157823614846
 20
1.579811013554589
 42
-0.5578319223640622
 10
1.225406427834604
 20
1.542282446093789
 42
0.0
 10
1.225406427834604
 20
1.207782446093784
 42
-0.5129809895031772
 10
1.21352262589065
 20
1.198808081188392
 42
0.0
 10
0.3280116505210646
 20
1.710058081188396
 42
-0.2397239142270584
 10
0.291127848577112
 20
1.770282446093784
 42
0.0
 10
0.2912118553953409
 20
2.094116124824733
 42
-1.046264757040728
 10
0.2984884448868872
 20
2.096067812663449
 42
0.0
 10
0.3237525367351122
 20
2.072661559544364
 42
0.6309633877406034
 10
0.3321207575257539
 20
2.07841306123872
 42
-0.1798205534880095
 10
0.3295989019574677
 20
2.081963227382296
 42
0.0
 10
0.3295878658068574
 20
2.082004414857095
 42
0.0
 10
0.3223410803293607
 20
2.095783824281063
 42
0.0
 10
0.3271562308481926
 20
2.105867523581757
 42
0.0
 10
0.3344499325860593
 20
2.105229407364557
 42
0.293926452988122
 10
0.3392382557402893
 20
2.107749617377244
 42
0.0
 10
0.3385924599417436
 20
2.110159760108732
 42
-0.4565659268922137
 10
0.3396509804872103
 20
2.111724385337005
 42
0.1814616707363846
 10
0.3374783689901903
 20
2.114485673371376
 42
0.0
 97
        0
 75
     0
 76
     1
 47
0.011788
 98
        2
 10
0.460443
 20
2.028073
 10
0.310044
 20
2.116481
  0
LINE
  5
3DA
100
AcDbEntity
  8
0
 62
     3
100
AcDbLine
 10
0.340425
 20
2.111566
 30
0.0
 11
0.985744
 21
1.73899
 31
0.0
  0
MTEXT
  5
3DB
100
AcDbEntity
  8
2
  6
CONTINUOUS
 62
     9
100
AcDbMText
 10
0.249222
 20
0.528671
 30
0.0
 40
0.3855
 41
2.7245
 71
     1
 72
     5
  1
\fArial|b1|i0|c0|p34;\C7;C L A D
  7
ROMANS
  0
HATCH
  5
3DC
100
AcDbEntity
  8
2
  6
CONTINUOUS
 62
     9
100
AcDbHatch
 10
0.0
 20
0.0
 30
0.0
210
0.0
220
0.0
230
1.0
  2
SOLID
 70
     1
 71
     0
 91
        1
 92
        7
 72
     1
 73
     1
 93
        8
 10
1.507219777930366
 20
3.038661272968134
 42
0.0
 10
1.505499678870267
 20
3.037668173312756
 42
0.0
 10
1.505624678870267
 20
3.037451666961811
 42
0.0
 10
1.505749678870268
 20
3.037235160610862
 42
0.0
 10
1.505874678870268
 20
3.037018654259917
 42
0.0
 10
0.476761219802631
 20
2.442859721640552
 42
0.0
 10
1.465860307135812
 20
1.871803097313524
 42
0.0
 10
2.274094387382021
 20
2.338437261111902
 42
0.2330962772361932
 97
        0
 75
     0
 76
     1
 47
0.017346
 98
        1
 10
1.400005
 20
2.516848
  0
HATCH
  5
3DD
100
AcDbEntity
  8
1
  6
CONTINUOUS
 62
     5
100
AcDbHatch
 10
0.0
 20
0.0
 30
0.0
210
0.0
220
0.0
230
1.0
  2
SOLID
 70
     1
 71
     0
 91
        7
 92
        7
 72
     1
 73
     1
 93
        4
 10
1.334882724730547
 20
3.074656145270733
 42
0.003817909443379
 10
1.317088423883003
 20
3.07688260088636
 42
0.0
 10
0.2866887531836131
 20
2.481981073635164
 42
0.0
 10
0.2975140707309176
 20
2.475731073635166
 42
0.0
 97
        0
 92
        7
 72
     0
 73
     1
 93
        4
 10
0.2975140707309176
 20
2.475731073635166
 10
0.2866887531836131
 20
2.481981073635164
 10
0.2866887531836131
 20
2.158351475047719
 10
0.2975140707309176
 20
2.164601475047717
 97
        0
 92
        7
 72
     0
 73
     1
 93
        4
 10
0.4742612198026297
 20
2.444303097313525
 10
0.4742612198026297
 20
2.431803097313526
 10
1.465860307135812
 20
1.865553097313526
 10
1.465860307135812
 20
1.871803097313524
 97
        0
 92
        7
 72
     1
 73
     1
 93
        4
 10
2.277776026888149
 20
2.328062856671827
 42
0.002332807343841
 10
2.273832867158708
 20
2.338286272340575
 42
0.0
 10
1.465860307135812
 20
1.871803097313524
 42
0.0
 10
1.465860307135812
 20
1.859303097313524
 42
0.0
 97
        0
 92
        7
 72
     1
 73
     1
 93
        4
 10
2.340907978820869
 20
2.088658813754008
 42
0.0024685623280776
 10
2.339093231462216
 20
2.100111068877978
 42
0.0
 10
1.643600117385924
 20
1.698567932246497
 42
0.0
 10
1.65442543493323
 20
1.692317932246499
 42
0.0
 97
        0
 92
        7
 72
     1
 73
     1
 93
        8
 10
1.65442543493323
 20
1.692317932246499
 42
0.0
 10
1.643600117385924
 20
1.698567932246501
 42
0.0
 10
1.643600117385924
 20
1.236558313303266
 42
-0.5773502691896262
 10
1.632350117385923
 20
1.230063122774883
 42
0.0
 10
1.548337322969635
 20
1.278567932246499
 42
0.0
 10
1.548337322969635
 20
1.2660679322465
 42
0.0
 10
1.630050434933227
 20
1.218890845057995
 42
0.577350269189633
 10
1.654425434933228
 20
1.232963757869491
 42
0.0
 97
        0
 92
        7
 72
     0
 73
     1
 93
        3
 10
0.4742612198026333
 20
2.431803097313515
 10
1.465860307135812
 20
1.859303097313524
 10
1.465860307135812
 20
1.865553097313526
 97
        0
 75
     0
 76
     1
 47
0.006507
 98
        7
 10
0.310056
 20
2.490532
 10
0.291901
 20
2.461347
 10
0.481346
 20
2.436106
 10
1.540657
 20
1.910934
 10
1.747418
 20
1.754755
 10
1.649736
 20
1.662024
 10
1.434834
 20
1.88165
  0
HATCH
  5
3DE
100
AcDbEntity
  8
1
  6
CONTINUOUS
 62
     5
100
AcDbHatch
 10
0.0
 20
0.0
 30
0.0
210
0.0
220
0.0
230
1.0
  2
SOLID
 70
     1
 71
     0
 91
        7
 92
        7
 72
     1
 73
     1
 93
        4
 10
1.334882724730547
 20
3.074656145270733
 42
0.003817909443379
 10
1.317088423883003
 20
3.07688260088636
 42
0.0
 10
0.2866887531836131
 20
2.481981073635164
 42
0.0
 10
0.2975140707309194
 20
2.475731073635166
 42
0.0
 97
        0
 92
        7
 72
     0
 73
     1
 93
        4
 10
0.2975140707309194
 20
2.475731073635166
 10
0.2866887531836131
 20
2.481981073635164
 10
0.2866887531836131
 20
2.158351475047719
 10
0.2975140707309194
 20
2.164601475047721
 97
        0
 92
        7
 72
     0
 73
     1
 93
        4
 10
0.4742612198026297
 20
2.444303097313525
 10
0.4742612198026297
 20
2.431803097313526
 10
1.465860307135812
 20
1.865553097313526
 10
1.465860307135812
 20
1.871803097313524
 97
        0
 92
        7
 72
     1
 73
     1
 93
        4
 10
2.277776026888151
 20
2.328062856671827
 42
0.002332807343841
 10
2.273832867158708
 20
2.338286272340575
 42
0.0
 10
1.465860307135812
 20
1.871803097313524
 42
0.0
 10
1.465860307135812
 20
1.859303097313524
 42
0.0
 97
        0
 92
        7
 72
     1
 73
     1
 93
        4
 10
2.340907978820869
 20
2.088658813754008
 42
0.0024685623280776
 10
2.339093231462216
 20
2.100111068877978
 42
0.0
 10
1.643600117385924
 20
1.698567932246501
 42
0.0
 10
1.65442543493323
 20
1.692317932246499
 42
0.0
 97
        0
 92
        7
 72
     1
 73
     1
 93
        8
 10
1.65442543493323
 20
1.692317932246499
 42
0.0
 10
1.643600117385924
 20
1.698567932246501
 42
0.0
 10
1.643600117385924
 20
1.236558313303266
 42
-0.5773502691896262
 10
1.632350117385923
 20
1.230063122774883
 42
0.0
 10
1.548337322969636
 20
1.278567932246499
 42
0.0
 10
1.548337322969636
 20
1.2660679322465
 42
0.0
 10
1.630050434933227
 20
1.218890845057995
 42
0.577350269189633
 10
1.654425434933228
 20
1.232963757869491
 42
0.0
 97
        0
 92
        7
 72
     0
 73
     1
 93
        3
 10
0.4742612198026333
 20
2.431803097313515
 10
1.465860307135812
 20
1.859303097313524
 10
1.465860307135812
 20
1.865553097313526
 97
        0
 75
     0
 76
     1
 47
0.006507
 98
        7
 10
0.310056
 20
2.490532
 10
0.291901
 20
2.461347
 10
0.481346
 20
2.436106
 10
1.540657
 20
1.910934
 10
1.747418
 20
1.754755
 10
1.649736
 20
1.662024
 10
1.434834
 20
1.88165
  0
LWPOLYLINE
  5
3DF
102
{ACAD_REACTORS
330
403
102
}
100
AcDbEntity
  8
1
  6
CONTINUOUS
 62
     5
100
AcDbPolyline
 90
        2
 70
     0
 43
0.0125
 10
1.325466
 20
3.076052
 42
70374.114908
 10
1.325532
 20
3.076044
 42
70374.114908
  0
LINE
  5
3E0
100
AcDbEntity
  8
1
  6
CONTINUOUS
 62
     5
100
AcDbLine
 39
0.05
 10
0.474261
 20
2.444303
 30
0.0
 11
0.474261
 21
2.431803
 31
0.0
  0
LINE
  5
3E1
100
AcDbEntity
  8
1
  6
CONTINUOUS
 62
     5
100
AcDbLine
 39
0.05
 10
0.474261
 20
2.444303
 30
0.0
 11
0.474261
 21
2.431803
 31
0.0
  0
LINE
  5
3E2
100
AcDbEntity
  8
GREEN
100
AcDbLine
 10
0.339374
 20
2.112413
 30
0.0
 11
0.683679
 21
2.311198
 31
0.0
  0
LINE
  5
3E3
100
AcDbEntity
  8
0
 62
     3
100
AcDbLine
 10
0.443971
 20
2.028112
 30
0.0
 11
0.344114
 21
2.085765
 31
0.0
  0
ARC
  5
3E4
100
AcDbEntity
  8
0
 62
     3
100
AcDbCircle
 10
0.335636
 20
2.083581
 30
0.0
 40
0.00625
100
AcDbArc
 50
195.0
 51
330.0
  0
LINE
  5
3E5
100
AcDbEntity
  8
0
 62
     3
100
AcDbLine
 10
0.329599
 20
2.081963
 30
0.0
 11
0.325476
 21
2.09735
 31
0.0
  0
ARC
  5
3E6
100
AcDbEntity
  8
0
 62
     3
100
AcDbCircle
 10
0.330306
 20
2.098644
 30
0.0
 40
0.005
100
AcDbArc
 50
60.0
 51
195.0
  0
LINE
  5
3E7
100
AcDbEntity
  8
0
 62
     3
100
AcDbLine
 10
0.332806
 20
2.102974
 30
0.0
 11
0.336702
 21
2.100725
 31
0.0
  0
ARC
  5
3E8
100
AcDbEntity
  8
0
 62
     3
100
AcDbCircle
 10
0.337952
 20
2.10289
 30
0.0
 40
0.0025
100
AcDbArc
 50
240.0
 51
15.0
  0
LINE
  5
3E9
100
AcDbEntity
  8
0
 62
     3
100
AcDbLine
 10
0.340367
 20
2.103537
 30
0.0
 11
0.338592
 21
2.11016
 31
0.0
  0
ARC
  5
3EA
100
AcDbEntity
  8
0
 62
     3
100
AcDbCircle
 10
0.3398
 20
2.110483
 30
0.0
 40
0.00125
100
AcDbArc
 50
60.0
 51
195.0
  0
LINE
  5
3EB
100
AcDbEntity
  8
0
 62
     3
100
AcDbLine
 10
0.344114
 20
2.085765
 30
0.0
 11
0.341049
 21
2.080456
 31
0.0
  0
LINE
  5
3EC
100
AcDbEntity
  8
2
  6
CONTINUOUS
 62
     4
100
AcDbLine
 10
0.456981
 20
2.063377
 30
0.0
 11
0.673487
 21
1.938377
 31
0.0
  0
LINE
  5
3ED
100
AcDbEntity
  8
2
  6
CONTINUOUS
 62
     4
100
AcDbLine
 10
0.456981
 20
2.068377
 30
0.0
 11
0.673487
 21
1.943377
 31
0.0
  0
LINE
  5
3EE
100
AcDbEntity
  8
2
  6
CONTINUOUS
 62
     4
100
AcDbLine
 10
0.456981
 20
2.068377
 30
0.0
 11
0.456981
 21
2.063377
 31
0.0
  0
LINE
  5
3EF
100
AcDbEntity
  8
2
  6
CONTINUOUS
 62
     4
100
AcDbLine
 10
0.673487
 20
1.943377
 30
0.0
 11
0.673487
 21
1.938377
 31
0.0
  0
LINE
  5
3F0
100
AcDbEntity
  8
GREEN
100
AcDbLine
 10
0.274878
 20
2.151532
 30
0.0
 11
0.617553
 21
2.349376
 31
0.0
  0
LINE
  5
3F1
100
AcDbEntity
  8
1
  6
CONTINUOUS
 62
     5
100
AcDbLine
 10
0.297514
 20
2.164601
 30
0.0
 11
0.297514
 21
2.475731
 31
0.0
  0
LINE
  5
3F2
100
AcDbEntity
  8
1
  6
CONTINUOUS
 62
     5
100
AcDbLine
 10
0.286689
 20
2.158351
 30
0.0
 11
0.286689
 21
2.481981
 31
0.0
  0
LINE
  5
3F3
100
AcDbEntity
  8
1
  6
CONTINUOUS
 62
     5
100
AcDbLine
 10
0.297514
 20
2.164601
 30
0.0
 11
0.297514
 21
2.475731
 31
0.0
  0
LINE
  5
3F4
100
AcDbEntity
  8
1
  6
CONTINUOUS
 62
     5
100
AcDbLine
 10
0.286689
 20
2.158351
 30
0.0
 11
0.286689
 21
2.481981
 31
0.0
  0
LINE
  5
3F5
100
AcDbEntity
  8
1
  6
CONTINUOUS
 62
     5
100
AcDbLine
 10
0.286689
 20
2.481981
 30
0.0
 11
0.297514
 21
2.475731
 31
0.0
  0
LINE
  5
3F6
100
AcDbEntity
  8
1
  6
CONTINUOUS
 62
     5
100
AcDbLine
 10
0.286689
 20
2.481981
 30
0.0
 11
0.297514
 21
2.475731
 31
0.0
  0
LINE
  5
3F7
100
AcDbEntity
  8
1
  6
CONTINUOUS
 62
     5
100
AcDbLine
 10
0.474261
 20
2.444303
 30
0.0
 11
0.474261
 21
2.431803
 31
0.0
  0
LINE
  5
3F8
100
AcDbEntity
  8
1
  6
CONTINUOUS
 62
     5
100
AcDbLine
 10
0.474261
 20
2.444303
 30
0.0
 11
0.474261
 21
2.431803
 31
0.0
  0
LINE
  5
3F9
100
AcDbEntity
  8
1
  6
CONTINUOUS
100
AcDbLine
 39
0.05
 10
1.46586
 20
1.871803
 30
0.0
 11
1.46586
 21
1.859303
 31
0.0
  0
LWPOLYLINE
  5
3FA
102
{ACAD_REACTORS
330
403
102
}
100
AcDbEntity
  8
1
  6
CONTINUOUS
 62
     5
100
AcDbPolyline
 90
        2
 70
     0
 43
0.005
 10
1.646029
 20
1.221607
 10
2.313561
 20
1.607007
  0
LINE
  5
3FB
100
AcDbEntity
  8
1
  6
CONTINUOUS
 62
     5
100
AcDbLine
 10
1.6463
 20
1.218891
 30
0.0
 11
2.313832
 21
1.604291
 31
0.0
  0
LINE
  5
3FC
100
AcDbEntity
  8
2
  6
CONTINUOUS
 62
     4
100
AcDbLine
 10
1.273896
 20
1.493629
 30
0.0
 11
2.338059
 21
2.108023
 31
0.0
  0
LINE
  5
3FD
100
AcDbEntity
  8
2
  6
CONTINUOUS
 62
     4
100
AcDbLine
 10
1.265236
 20
1.498629
 30
0.0
 11
2.336474
 21
2.117108
 31
0.0
  0
LINE
  5
3FE
102
{ACAD_REACTORS
330
403
102
}
100
AcDbEntity
  8
1
  6
CONTINUOUS
 62
     5
100
AcDbLine
 10
1.654425
 20
1.692318
 30
0.0
 11
2.340908
 21
2.088659
 31
0.0
  0
LINE
  5
3FF
100
AcDbEntity
  8
1
  6
CONTINUOUS
 62
     5
100
AcDbLine
 10
1.6436
 20
1.698568
 30
0.0
 11
2.339093
 21
2.100111
 31
0.0
  0
LINE
  5
400
100
AcDbEntity
  8
1
  6
CONTINUOUS
100
AcDbLine
 10
1.46586
 20
1.859303
 30
0.0
 11
2.277776
 21
2.328063
 31
0.0
  0
LINE
  5
401
100
AcDbEntity
  8
1
  6
CONTINUOUS
100
AcDbLine
 10
1.46586
 20
1.871803
 30
0.0
 11
2.273833
 21
2.338286
 31
0.0
  0
LINE
  5
402
100
AcDbEntity
  8
GREEN
100
AcDbLine
 10
1.245406
 20
1.585282
 30
0.0
 11
2.31748
 21
2.204244
 31
0.0
  0
HATCH
  5
403
100
AcDbEntity
  8
2
  6
CONTINUOUS
 62
     9
100
AcDbHatch
 10
0.0
 20
0.0
 30
0.0
210
0.0
220
0.0
230
1.0
  2
SOLID
 70
     1
 71
     1
 91
        2
 92
        7
 72
     1
 73
     1
 93
        5
 10
2.34116949904439
 20
2.088809802525457
 42
0.0
 10
1.654425434933228
 20
1.692317932246499
 42
0.0
 10
1.654425434933228
 20
1.232963757869494
 42
-0.1222318301882052
 10
1.652539916803105
 20
1.225366116089968
 42
0.0
 10
2.315007199969436
 20
1.607841780355371
 42
0.1036486555257608
 97
        5
330
3FE
330
41B
330
424
330
3FA
330
3DF
 92
        7
 72
     1
 73
     1
 93
        4
 10
1.643600117385924
 20
1.330695722278857
 42
0.0
 10
1.550824729766617
 20
1.277131827262678
 42
0.0
 10
1.632350117385923
 20
1.230063122774883
 42
0.5773502691896213
 10
1.643600117385924
 20
1.236558313303266
 42
0.0
 97
        4
330
41F
330
420
330
428
330
41C
 75
     0
 76
     1
 47
0.022773
 98
        2
 10
1.991767
 20
1.676438
 10
1.610057
 20
1.272226
  0
LINE
  5
404
100
AcDbEntity
  8
GREEN
100
AcDbLine
 10
1.177055
 20
1.626003
 30
0.0
 11
2.29751
 21
2.272898
 31
0.0
  0
LINE
  5
405
100
AcDbEntity
  8
2
  6
CONTINUOUS
 62
     4
100
AcDbLine
 10
1.434468
 20
1.87773
 30
0.0
 11
1.1065
 21
1.688377
 31
0.0
  0
LINE
  5
406
100
AcDbEntity
  8
2
  6
CONTINUOUS
 62
     4
100
AcDbLine
 10
1.430138
 20
1.88023
 30
0.0
 11
1.1065
 21
1.693377
 31
0.0
  0
LINE
  5
407
100
AcDbEntity
  8
2
  6
CONTINUOUS
 62
     4
100
AcDbLine
 10
1.273896
 20
1.243629
 30
0.0
 11
1.643862
 21
1.457229
 31
0.0
  0
LINE
  5
408
100
AcDbEntity
  8
GREEN
100
AcDbLine
 10
1.245406
 20
1.151532
 30
0.0
 11
1.643862
 21
1.381581
 31
0.0
  0
LINE
  5
409
100
AcDbEntity
  8
2
  6
CONTINUOUS
 62
     4
100
AcDbLine
 10
1.273896
 20
1.493629
 30
0.0
 11
1.273896
 21
1.243629
 31
0.0
  0
LINE
  5
40A
100
AcDbEntity
  8
2
  6
CONTINUOUS
 62
     4
100
AcDbLine
 10
1.265236
 20
1.498629
 30
0.0
 11
1.265236
 21
1.248629
 31
0.0
  0
LINE
  5
40B
100
AcDbEntity
  8
2
  6
CONTINUOUS
 62
     4
100
AcDbLine
 10
1.265236
 20
1.248629
 30
0.0
 11
1.273896
 21
1.243629
 31
0.0
  0
LINE
  5
40C
100
AcDbEntity
  8
2
  6
CONTINUOUS
 62
     4
100
AcDbLine
 10
1.213631
 20
2.00523
 30
0.0
 11
0.889993
 21
1.818377
 31
0.0
  0
LINE
  5
40D
100
AcDbEntity
  8
2
  6
CONTINUOUS
 62
     4
100
AcDbLine
 10
0.889993
 20
1.813377
 30
0.0
 11
1.1065
 21
1.688377
 31
0.0
  0
LINE
  5
40E
100
AcDbEntity
  8
2
  6
CONTINUOUS
 62
     4
100
AcDbLine
 10
0.889993
 20
1.818377
 30
0.0
 11
1.1065
 21
1.693377
 31
0.0
  0
LINE
  5
40F
100
AcDbEntity
  8
0
 62
     3
100
AcDbLine
 10
0.985744
 20
1.73899
 30
0.0
 11
1.178132
 21
1.627915
 31
0.0
  0
LINE
  5
410
100
AcDbEntity
  8
2
  6
CONTINUOUS
 62
     4
100
AcDbLine
 10
0.889993
 20
1.818377
 30
0.0
 11
0.889993
 21
1.813377
 31
0.0
  0
ARC
  5
411
100
AcDbEntity
  8
0
 62
     3
100
AcDbCircle
 10
1.177507
 20
1.626833
 30
0.0
 40
0.00125
100
AcDbArc
 50
285.0
 51
60.0
  0
LINE
  5
412
100
AcDbEntity
  8
2
  6
CONTINUOUS
 62
     4
100
AcDbLine
 10
1.1065
 20
1.693377
 30
0.0
 11
1.1065
 21
1.688377
 31
0.0
  0
ARC
  5
413
100
AcDbEntity
  8
0
 62
     3
100
AcDbCircle
 10
1.171855
 20
1.621436
 30
0.0
 40
0.0025
100
AcDbArc
 50
105.0
 51
240.0
  0
LINE
  5
414
100
AcDbEntity
  8
0
 62
     3
100
AcDbLine
 10
1.170605
 20
1.619271
 30
0.0
 11
1.174502
 21
1.617021
 31
0.0
  0
ARC
  5
415
100
AcDbEntity
  8
0
 62
     3
100
AcDbCircle
 10
1.172002
 20
1.612691
 30
0.0
 40
0.005
100
AcDbArc
 50
285.0
 51
60.0
  0
LINE
  5
416
100
AcDbEntity
  8
0
 62
     3
100
AcDbLine
 10
1.173296
 20
1.607861
 30
0.0
 11
1.157909
 21
1.603738
 31
0.0
  0
ARC
  5
417
100
AcDbEntity
  8
0
 62
     3
100
AcDbCircle
 10
1.156291
 20
1.609775
 30
0.0
 40
0.00625
100
AcDbArc
 50
150.0
 51
285.0
  0
LINE
  5
418
100
AcDbEntity
  8
0
 62
     3
100
AcDbLine
 10
1.150879
 20
1.6129
 30
0.0
 11
1.153944
 21
1.618209
 31
0.0
  0
LINE
  5
419
100
AcDbEntity
  8
0
 62
     3
100
AcDbLine
 10
1.177831
 20
1.625625
 30
0.0
 11
1.171208
 21
1.623851
 31
0.0
  0
LINE
  5
41A
100
AcDbEntity
  8
2
  6
CONTINUOUS
 62
     4
100
AcDbLine
 10
1.265236
 20
1.498629
 30
0.0
 11
1.273896
 21
1.493629
 31
0.0
  0
LINE
  5
41B
102
{ACAD_REACTORS
330
403
102
}
100
AcDbEntity
  8
1
  6
CONTINUOUS
 62
     5
100
AcDbLine
 10
1.654425
 20
1.232964
 30
0.0
 11
1.654425
 21
1.692318
 31
0.0
  0
LINE
  5
41C
102
{ACAD_REACTORS
330
403
102
}
100
AcDbEntity
  8
1
  6
CONTINUOUS
 62
     5
100
AcDbLine
 10
1.6436
 20
1.236558
 30
0.0
 11
1.6436
 21
1.698568
 31
0.0
  0
LINE
  5
41D
100
AcDbEntity
  8
1
  6
CONTINUOUS
 62
     5
100
AcDbLine
 10
1.654425
 20
1.232964
 30
0.0
 11
1.654425
 21
1.692318
 31
0.0
  0
LINE
  5
41E
100
AcDbEntity
  8
1
  6
CONTINUOUS
 62
     5
100
AcDbLine
 10
1.6436
 20
1.236558
 30
0.0
 11
1.6436
 21
1.698568
 31
0.0
  0
LWPOLYLINE
  5
41F
102
{ACAD_REACTORS
330
403
102
}
100
AcDbEntity
  8
1
  6
CONTINUOUS
 62
     5
100
AcDbPolyline
 90
        2
 70
     0
 43
0.005
 10
1.549601
 20
1.276425
 10
1.644863
 20
1.331425
  0
LINE
  5
420
102
{ACAD_REACTORS
330
403
102
}
100
AcDbEntity
  8
1
  6
CONTINUOUS
 62
     5
100
AcDbLine
 10
1.63235
 20
1.230063
 30
0.0
 11
1.548337
 21
1.278568
 31
0.0
  0
LINE
  5
421
100
AcDbEntity
  8
1
  6
CONTINUOUS
 62
     5
100
AcDbLine
 10
1.63235
 20
1.230063
 30
0.0
 11
1.548337
 21
1.278568
 31
0.0
  0
LINE
  5
422
100
AcDbEntity
  8
1
  6
CONTINUOUS
 62
     5
100
AcDbLine
 10
1.548337
 20
1.278568
 30
0.0
 11
1.548337
 21
1.266068
 31
0.0
  0
LINE
  5
423
100
AcDbEntity
  8
1
  6
CONTINUOUS
 62
     5
100
AcDbLine
 10
1.548337
 20
1.278568
 30
0.0
 11
1.548337
 21
1.266068
 31
0.0
  0
ARC
  5
424
102
{ACAD_REACTORS
330
403
102
}
100
AcDbEntity
  8
1
  6
CONTINUOUS
 62
     5
100
AcDbCircle
 10
1.638175
 20
1.232964
 30
0.0
 40
0.01625
100
AcDbArc
 50
240.0
 51
0.0
  0
ARC
  5
425
100
AcDbEntity
  8
1
  6
CONTINUOUS
 62
     5
100
AcDbCircle
 10
1.638175
 20
1.232964
 30
0.0
 40
0.01625
100
AcDbArc
 50
240.0
 51
0.0
  0
LINE
  5
426
100
AcDbEntity
  8
1
  6
CONTINUOUS
 62
     5
100
AcDbLine
 10
1.63005
 20
1.218891
 30
0.0
 11
1.548337
 21
1.266068
 31
0.0
  0
LINE
  5
427
100
AcDbEntity
  8
1
  6
CONTINUOUS
 62
     5
100
AcDbLine
 10
1.63005
 20
1.218891
 30
0.0
 11
1.548337
 21
1.266068
 31
0.0
  0
ARC
  5
428
102
{ACAD_REACTORS
330
403
102
}
100
AcDbEntity
  8
1
  6
CONTINUOUS
 62
     5
100
AcDbCircle
 10
1.6361
 20
1.236558
 30
0.0
 40
0.0075
100
AcDbArc
 50
240.0
 51
0.0
  0
ARC
  5
429
100
AcDbEntity
  8
1
  6
CONTINUOUS
 62
     5
100
AcDbCircle
 10
1.6361
 20
1.236558
 30
0.0
 40
0.0075
100
AcDbArc
 50
240.0
 51
0.0
  0
LINE
  5
42A
100
AcDbEntity
  8
1
  6
CONTINUOUS
 62
     5
100
AcDbLine
 10
1.6436
 20
1.698568
 30
0.0
 11
1.654425
 21
1.692318
 31
0.0
  0
LINE
  5
42B
100
AcDbEntity
  8
1
  6
CONTINUOUS
 62
     5
100
AcDbLine
 10
1.6436
 20
1.698568
 30
0.0
 11
1.654425
 21
1.692318
 31
0.0
  0
LINE
  5
42C
100
AcDbEntity
  8
1
  6
CONTINUOUS
 62
     5
100
AcDbLine
 10
1.548337
 20
1.278568
 30
0.0
 11
1.6436
 21
1.333568
 31
0.0
  0
ENDBLK
  5
42E
100
AcDbEntity
  8
0
100
AcDbBlockEnd
  0
BLOCK
  5
4B1
100
AcDbEntity
  8
0
100
AcDbBlockBegin
  2
A$C3D1300B7
 70
     0
 10
0.0
 20
0.0
 30
0.0
  3
A$C3D1300B7
  1

  0
LINE
  5
430
100
AcDbEntity
  8
GREEN
  6
CONTINUOUS
100
AcDbLine
 39
1.0
 10
1.213523
 20
1.198808
 30
0.0
 11
0.328012
 21
1.710058
 31
0.0
  0
ARC
  5
431
100
AcDbEntity
  8
GREEN
  6
CONTINUOUS
100
AcDbCircle
 39
1.0
 10
0.368766
 20
1.776425
 30
0.0
 40
0.077881
100
AcDbArc
 50
184.523413
 51
238.446514
  0
LINE
  5
432
100
AcDbEntity
  8
GREEN
  6
CONTINUOUS
100
AcDbLine
 39
1.0
 10
0.291128
 20
1.770282
 30
0.0
 11
0.291212
 21
2.094116
 31
0.0
  0
ARC
  5
433
100
AcDbEntity
  8
GREEN
  6
CONTINUOUS
100
AcDbCircle
 39
1.0
 10
0.294806
 20
2.095257
 30
0.0
 40
0.003771
100
AcDbArc
 50
12.423788
 51
197.604591
  0
LINE
  5
434
100
AcDbEntity
  8
GREEN
  6
CONTINUOUS
100
AcDbLine
 39
1.0
 10
0.298488
 20
2.096068
 30
0.0
 11
0.323753
 21
2.072662
 31
0.0
  0
ARC
  5
435
100
AcDbEntity
  8
GREEN
  6
CONTINUOUS
100
AcDbCircle
 39
1.0
 10
0.326565
 20
2.077533
 30
0.0
 40
0.005625
100
AcDbArc
 50
240.0
 51
60.0
  0
LINE
  5
436
100
AcDbEntity
  8
GREEN
  6
CONTINUOUS
100
AcDbLine
 39
1.0
 10
0.329378
 20
2.082404
 30
0.0
 11
0.322341
 21
2.095784
 31
0.0
  0
LINE
  5
437
100
AcDbEntity
  8
GREEN
  6
CONTINUOUS
100
AcDbLine
 39
1.0
 10
0.322341
 20
2.095784
 30
0.0
 11
0.327156
 21
2.105868
 31
0.0
  0
LINE
  5
438
100
AcDbEntity
  8
GREEN
  6
CONTINUOUS
100
AcDbLine
 39
1.0
 10
0.327156
 20
2.105868
 30
0.0
 11
0.33445
 21
2.105229
 31
0.0
  0
ARC
  5
439
100
AcDbEntity
  8
GREEN
  6
CONTINUOUS
100
AcDbCircle
 39
1.0
 10
0.334886
 20
2.11021
 30
0.0
 40
0.005
100
AcDbArc
 50
265.0
 51
60.0
  0
LINE
  5
43A
100
AcDbEntity
  8
GREEN
  6
CONTINUOUS
100
AcDbLine
 39
1.0
 10
0.337386
 20
2.114541
 30
0.0
 11
0.274878
 21
2.151532
 31
0.0
  0
ARC
  5
43B
100
AcDbEntity
  8
GREEN
  6
CONTINUOUS
100
AcDbCircle
 39
1.0
 10
0.274878
 20
2.147782
 30
0.0
 40
0.00375
100
AcDbArc
 50
90.0
 51
180.0
  0
LINE
  5
43C
100
AcDbEntity
  8
GREEN
  6
CONTINUOUS
100
AcDbLine
 39
1.0
 10
0.271128
 20
2.147782
 30
0.0
 11
0.271128
 21
1.714032
 31
0.0
  0
LINE
  5
43D
100
AcDbEntity
  8
GREEN
  6
CONTINUOUS
100
AcDbLine
 39
1.0
 10
0.271128
 20
1.714032
 30
0.0
 11
1.245406
 21
1.151532
 31
0.0
  0
LINE
  5
43E
100
AcDbEntity
  8
GREEN
  6
CONTINUOUS
100
AcDbLine
 39
1.0
 10
1.245406
 20
1.151532
 30
0.0
 11
1.245406
 21
1.585282
 31
0.0
  0
ARC
  5
43F
100
AcDbEntity
  8
GREEN
  6
CONTINUOUS
100
AcDbCircle
 39
1.0
 10
1.234787
 20
1.582437
 30
0.0
 40
0.010994
100
AcDbArc
 50
15.0
 51
45.0
  0
LINE
  5
440
100
AcDbEntity
  8
GREEN
  6
CONTINUOUS
100
AcDbLine
 39
1.0
 10
1.242561
 20
1.590211
 30
0.0
 11
1.17948
 21
1.626631
 31
0.0
  0
ARC
  5
441
100
AcDbEntity
  8
GREEN
  6
CONTINUOUS
100
AcDbCircle
 39
1.0
 10
1.17948
 20
1.621631
 30
0.0
 40
0.005
100
AcDbArc
 50
90.0
 51
245.0
  0
LINE
  5
442
100
AcDbEntity
  8
GREEN
  6
CONTINUOUS
100
AcDbLine
 39
1.0
 10
1.177367
 20
1.617099
 30
0.0
 11
1.184003
 21
1.614005
 31
0.0
  0
LINE
  5
443
100
AcDbEntity
  8
GREEN
  6
CONTINUOUS
100
AcDbLine
 39
1.0
 10
1.184003
 20
1.614005
 30
0.0
 11
1.161065
 21
1.603329
 31
0.0
  0
LINE
  5
444
100
AcDbEntity
  8
GREEN
  6
CONTINUOUS
100
AcDbLine
 39
1.0
 10
1.161065
 20
1.603329
 30
0.0
 11
1.15294
 21
1.603329
 31
0.0
  0
ARC
  5
445
100
AcDbEntity
  8
GREEN
  6
CONTINUOUS
100
AcDbCircle
 39
1.0
 10
1.15294
 20
1.597704
 30
0.0
 40
0.005625
100
AcDbArc
 50
90.0
 51
270.0
  0
LINE
  5
446
100
AcDbEntity
  8
GREEN
  6
CONTINUOUS
100
AcDbLine
 39
1.0
 10
1.15294
 20
1.592079
 30
0.0
 11
1.194158
 21
1.579811
 31
0.0
  0
ARC
  5
447
100
AcDbEntity
  8
GREEN
  6
CONTINUOUS
100
AcDbCircle
 39
1.0
 10
1.198197
 20
1.5514
 30
0.0
 40
0.028697
100
AcDbArc
 50
341.47451
 51
98.091202
  0
LINE
  5
448
100
AcDbEntity
  8
GREEN
  6
CONTINUOUS
100
AcDbLine
 39
1.0
 10
1.225406
 20
1.542282
 30
0.0
 11
1.225406
 21
1.207782
 31
0.0
  0
ARC
  5
449
100
AcDbEntity
  8
GREEN
  6
CONTINUOUS
100
AcDbCircle
 39
1.0
 10
1.216242
 20
1.207563
 30
0.0
 40
0.009167
100
AcDbArc
 50
252.745313
 51
1.373158
  0
LWPOLYLINE
  5
44A
100
AcDbEntity
  8
1
  6
CONTINUOUS
 62
     5
100
AcDbPolyline
 90
        2
 70
     0
 43
0.005
 10
1.505853
 20
3.037005
 10
0.47549
 20
2.442124
  0
LINE
  5
44B
100
AcDbEntity
  8
1
  6
CONTINUOUS
 62
     5
100
AcDbLine
 10
0.475511
 20
2.442138
 30
0.0
 11
1.505875
 21
3.037019
 31
0.0
  0
LINE
  5
44C
100
AcDbEntity
  8
1
  6
CONTINUOUS
 62
     5
100
AcDbLine
 10
0.297514
 20
2.475731
 30
0.0
 11
1.334883
 21
3.074656
 31
0.0
  0
LINE
  5
44D
100
AcDbEntity
  8
1
  6
CONTINUOUS
 62
     5
100
AcDbLine
 10
0.286689
 20
2.481981
 30
0.0
 11
1.317088
 21
3.076883
 31
0.0
  0
LINE
  5
44E
100
AcDbEntity
  8
1
  6
CONTINUOUS
 62
     5
100
AcDbLine
 10
1.504625
 20
3.039184
 30
0.0
 11
0.474261
 21
2.444303
 31
0.0
  0
LINE
  5
44F
100
AcDbEntity
  8
1
  6
CONTINUOUS
100
AcDbLine
 10
0.297514
 20
2.475731
 30
0.0
 11
1.334883
 21
3.074656
 31
0.0
  0
LINE
  5
450
100
AcDbEntity
  8
1
  6
CONTINUOUS
 62
     5
100
AcDbLine
 10
0.286689
 20
2.481981
 30
0.0
 11
1.317088
 21
3.076883
 31
0.0
  0
LINE
  5
451
100
AcDbEntity
  8
2
  6
CONTINUOUS
 62
     4
100
AcDbLine
 10
0.780619
 20
2.25523
 30
0.0
 11
0.456981
 21
2.068377
 31
0.0
  0
HATCH
  5
452
100
AcDbEntity
  8
2
  6
CONTINUOUS
 62
     9
100
AcDbHatch
 10
0.0
 20
0.0
 30
0.0
210
0.0
220
0.0
230
1.0
  2
SOLID
 70
     1
 71
     0
 91
        1
 92
        7
 72
     1
 73
     1
 93
        7
 10
0.4742612198026297
 20
2.431803097313526
 42
0.0
 10
0.4742612198026297
 20
2.444303097313525
 42
0.0
 10
1.50488619909353
 20
3.039334706540678
 42
0.0369683020279065
 10
1.335144244953987
 20
3.074807134042131
 42
0.0
 10
0.2975140707309176
 20
2.475731073635166
 42
0.0
 10
0.2975140707309176
 20
2.164601475047717
 42
0.0
 10
0.6172910380813761
 20
2.349224793228149
 42
0.0
 97
        0
 75
     0
 76
     1
 47
0.022773
 98
        1
 10
0.447836
 20
2.405159
  0
LINE
  5
453
100
AcDbEntity
  8
0
 62
     3
100
AcDbLine
 10
1.153944
 20
1.618209
 30
0.0
 11
0.443971
 21
2.028112
 31
0.0
  0
LINE
  5
454
100
AcDbEntity
  8
1
  6
CONTINUOUS
100
AcDbLine
 10
0.474261
 20
2.431803
 30
0.0
 11
1.46586
 21
1.865553
 31
0.0
  0
LINE
  5
455
100
AcDbEntity
  8
1
  6
CONTINUOUS
 62
     5
100
AcDbLine
 39
0.05
 10
0.474261
 20
2.431803
 30
0.0
 11
1.46586
 21
1.859303
 31
0.0
  0
LINE
  5
456
100
AcDbEntity
  8
1
  6
CONTINUOUS
 62
     5
100
AcDbLine
 39
0.05
 10
0.474261
 20
2.444303
 30
0.0
 11
1.46586
 21
1.871803
 31
0.0
  0
LINE
  5
457
100
AcDbEntity
  8
1
  6
CONTINUOUS
100
AcDbLine
 10
0.474261
 20
2.431803
 30
0.0
 11
1.46586
 21
1.865553
 31
0.0
  0
LINE
  5
458
100
AcDbEntity
  8
1
  6
CONTINUOUS
100
AcDbLine
 39
0.05
 10
0.474261
 20
2.431803
 30
0.0
 11
1.46586
 21
1.859303
 31
0.0
  0
LINE
  5
459
100
AcDbEntity
  8
1
  6
CONTINUOUS
100
AcDbLine
 39
0.05
 10
0.474261
 20
2.444303
 30
0.0
 11
1.46586
 21
1.871803
 31
0.0
  0
LINE
  5
45A
100
AcDbEntity
  8
2
  6
CONTINUOUS
 62
     4
100
AcDbLine
 10
1.001455
 20
2.12773
 30
0.0
 11
0.673487
 21
1.938377
 31
0.0
  0
LINE
  5
45B
100
AcDbEntity
  8
2
  6
CONTINUOUS
 62
     4
100
AcDbLine
 10
0.997125
 20
2.13023
 30
0.0
 11
0.673487
 21
1.943377
 31
0.0
  0
HATCH
  5
45C
100
AcDbEntity
  8
2
  6
CONTINUOUS
 62
     9
100
AcDbHatch
 10
0.0
 20
0.0
 30
0.0
210
0.0
220
0.0
230
1.0
  2
SOLID
 70
     1
 71
     0
 91
        2
 92
       23
 72
     1
 73
     1
 93
       20
 10
1.153943687694017
 20
1.618209144644225
 42
0.0
 10
1.150878608331048
 20
1.612900271458329
 42
0.6681786379192962
 10
1.15790888613659
 20
1.603738235044023
 42
0.0
 10
1.173295853934398
 20
1.607861160639409
 42
0.6681786379192695
 10
1.174501758708885
 20
1.617020916789776
 42
0.0
 10
1.170605099717143
 20
1.619270653907602
 42
-0.6681786379192408
 10
1.171208052104386
 20
1.623850531982785
 42
0.0
 10
1.177831020784186
 20
1.625625151092034
 42
0.6681786379193185
 10
1.178132496977807
 20
1.627915090129626
 42
0.0
 10
0.9857443251908364
 20
1.738990452899734
 42
0.0
 10
0.3404248672246055
 20
2.111565815669841
 42
0.668178637919208
 10
0.3385924599417436
 20
2.110159760108732
 42
0.0
 10
0.3403670790509938
 20
2.103536791428933
 42
-0.6681786379193225
 10
0.33670226448527
 20
2.100724680306715
 42
0.0
 10
0.3328056054935278
 20
2.10297441742454
 42
0.6681786379193126
 10
0.3254759763620818
 20
2.097350195180105
 42
0.0
 10
0.3295989019574677
 20
2.081963227382296
 42
0.6681786379193007
 10
0.3410485971454271
 20
2.080455846414189
 42
0.0
 10
0.3441136765083961
 20
2.085764719600081
 42
0.0
 10
0.4439712336181394
 20
2.028111932122151
 42
0.0
 97
        0
 92
        7
 72
     1
 73
     1
 93
       37
 10
0.2748778485771126
 20
2.151532446093781
 42
0.4142135623731299
 10
0.2711278485771125
 20
2.147782446093785
 42
0.0
 10
0.2711278485771125
 20
1.714032446093785
 42
0.0
 10
1.245406427834604
 20
1.151532446093785
 42
0.0
 10
1.245406427834605
 20
1.585282446093785
 42
0.1316524975873667
 10
1.242560856415469
 20
1.590211120368291
 42
0.0
 10
1.179480240946697
 20
1.626630730689832
 42
0.0376464264871547
 10
1.17873050614186
 20
1.626574200900364
 42
-0.2823673447488831
 10
1.177831020784186
 20
1.625625151092034
 42
0.0
 10
1.175882634436266
 20
1.625103082543564
 42
0.5149511874561723
 10
1.177367149637994
 20
1.61709919175465
 42
0.0
 10
1.184002738739215
 20
1.614004965740381
 42
0.0
 10
1.176503326206269
 20
1.610514579747331
 42
-0.2180320882791709
 10
1.173295853934398
 20
1.607861160639409
 42
0.0
 10
1.16741860060336
 20
1.606286355355646
 42
0.0
 10
1.161065357219714
 20
1.603329420846534
 42
0.0
 10
1.152940357219712
 20
1.603329420846534
 42
1.0
 10
1.152940357219712
 20
1.592079420846534
 42
0.0
 10
1.194157823614846
 20
1.579811013554589
 42
-0.5578319223640622
 10
1.225406427834604
 20
1.542282446093789
 42
0.0
 10
1.225406427834604
 20
1.207782446093784
 42
-0.5129809895031772
 10
1.21352262589065
 20
1.198808081188392
 42
0.0
 10
0.3280116505210646
 20
1.710058081188396
 42
-0.2397239142270584
 10
0.291127848577112
 20
1.770282446093784
 42
0.0
 10
0.2912118553953409
 20
2.094116124824733
 42
-1.046264757040728
 10
0.2984884448868872
 20
2.096067812663449
 42
0.0
 10
0.3237525367351122
 20
2.072661559544364
 42
0.6309633877406034
 10
0.3321207575257539
 20
2.07841306123872
 42
-0.1798205534880095
 10
0.3295989019574677
 20
2.081963227382296
 42
0.0
 10
0.3295878658068574
 20
2.082004414857095
 42
0.0
 10
0.3223410803293607
 20
2.095783824281063
 42
0.0
 10
0.3271562308481926
 20
2.105867523581757
 42
0.0
 10
0.3344499325860593
 20
2.105229407364557
 42
0.293926452988122
 10
0.3392382557402893
 20
2.107749617377244
 42
0.0
 10
0.3385924599417436
 20
2.110159760108732
 42
-0.4565659268922137
 10
0.3396509804872103
 20
2.111724385337005
 42
0.1814616707363846
 10
0.3374783689901903
 20
2.114485673371376
 42
0.0
 97
        0
 75
     0
 76
     1
 47
0.011788
 98
        2
 10
0.460443
 20
2.028073
 10
0.310044
 20
2.116481
  0
LINE
  5
45D
100
AcDbEntity
  8
0
 62
     3
100
AcDbLine
 10
0.340425
 20
2.111566
 30
0.0
 11
0.985744
 21
1.73899
 31
0.0
  0
MTEXT
  5
45E
100
AcDbEntity
  8
2
  6
CONTINUOUS
 62
     9
100
AcDbMText
 10
0.249222
 20
0.528671
 30
0.0
 40
0.3855
 41
2.7245
 71
     1
 72
     5
  1
\fArial|b1|i0|c0|p34;\C7;C L A D
  7
ROMANS
  0
HATCH
  5
45F
100
AcDbEntity
  8
2
  6
CONTINUOUS
 62
     9
100
AcDbHatch
 10
0.0
 20
0.0
 30
0.0
210
0.0
220
0.0
230
1.0
  2
SOLID
 70
     1
 71
     0
 91
        1
 92
        7
 72
     1
 73
     1
 93
        8
 10
1.507219777930366
 20
3.038661272968134
 42
0.0
 10
1.505499678870267
 20
3.037668173312756
 42
0.0
 10
1.505624678870267
 20
3.037451666961811
 42
0.0
 10
1.505749678870268
 20
3.037235160610862
 42
0.0
 10
1.505874678870268
 20
3.037018654259917
 42
0.0
 10
0.476761219802631
 20
2.442859721640552
 42
0.0
 10
1.465860307135812
 20
1.871803097313524
 42
0.0
 10
2.274094387382021
 20
2.338437261111902
 42
0.2330962772361932
 97
        0
 75
     0
 76
     1
 47
0.017346
 98
        1
 10
1.400005
 20
2.516848
  0
HATCH
  5
460
100
AcDbEntity
  8
1
  6
CONTINUOUS
 62
     5
100
AcDbHatch
 10
0.0
 20
0.0
 30
0.0
210
0.0
220
0.0
230
1.0
  2
SOLID
 70
     1
 71
     0
 91
        7
 92
        7
 72
     1
 73
     1
 93
        4
 10
1.334882724730547
 20
3.074656145270733
 42
0.003817909443379
 10
1.317088423883003
 20
3.07688260088636
 42
0.0
 10
0.2866887531836131
 20
2.481981073635164
 42
0.0
 10
0.2975140707309176
 20
2.475731073635166
 42
0.0
 97
        0
 92
        7
 72
     0
 73
     1
 93
        4
 10
0.2975140707309176
 20
2.475731073635166
 10
0.2866887531836131
 20
2.481981073635164
 10
0.2866887531836131
 20
2.158351475047719
 10
0.2975140707309176
 20
2.164601475047717
 97
        0
 92
        7
 72
     0
 73
     1
 93
        4
 10
0.4742612198026297
 20
2.444303097313525
 10
0.4742612198026297
 20
2.431803097313526
 10
1.465860307135812
 20
1.865553097313526
 10
1.465860307135812
 20
1.871803097313524
 97
        0
 92
        7
 72
     1
 73
     1
 93
        4
 10
2.277776026888149
 20
2.328062856671827
 42
0.002332807343841
 10
2.273832867158708
 20
2.338286272340575
 42
0.0
 10
1.465860307135812
 20
1.871803097313524
 42
0.0
 10
1.465860307135812
 20
1.859303097313524
 42
0.0
 97
        0
 92
        7
 72
     1
 73
     1
 93
        4
 10
2.340907978820869
 20
2.088658813754008
 42
0.0024685623280776
 10
2.339093231462216
 20
2.100111068877978
 42
0.0
 10
1.643600117385924
 20
1.698567932246497
 42
0.0
 10
1.65442543493323
 20
1.692317932246499
 42
0.0
 97
        0
 92
        7
 72
     1
 73
     1
 93
        8
 10
1.65442543493323
 20
1.692317932246499
 42
0.0
 10
1.643600117385924
 20
1.698567932246501
 42
0.0
 10
1.643600117385924
 20
1.236558313303266
 42
-0.5773502691896262
 10
1.632350117385923
 20
1.230063122774883
 42
0.0
 10
1.548337322969635
 20
1.278567932246499
 42
0.0
 10
1.548337322969635
 20
1.2660679322465
 42
0.0
 10
1.630050434933227
 20
1.218890845057995
 42
0.577350269189633
 10
1.654425434933228
 20
1.232963757869491
 42
0.0
 97
        0
 92
        7
 72
     0
 73
     1
 93
        3
 10
0.4742612198026333
 20
2.431803097313515
 10
1.465860307135812
 20
1.859303097313524
 10
1.465860307135812
 20
1.865553097313526
 97
        0
 75
     0
 76
     1
 47
0.006507
 98
        7
 10
0.310056
 20
2.490532
 10
0.291901
 20
2.461347
 10
0.481346
 20
2.436106
 10
1.540657
 20
1.910934
 10
1.747418
 20
1.754755
 10
1.649736
 20
1.662024
 10
1.434834
 20
1.88165
  0
HATCH
  5
461
100
AcDbEntity
  8
1
  6
CONTINUOUS
 62
     5
100
AcDbHatch
 10
0.0
 20
0.0
 30
0.0
210
0.0
220
0.0
230
1.0
  2
SOLID
 70
     1
 71
     0
 91
        7
 92
        7
 72
     1
 73
     1
 93
        4
 10
1.334882724730547
 20
3.074656145270733
 42
0.003817909443379
 10
1.317088423883003
 20
3.07688260088636
 42
0.0
 10
0.2866887531836131
 20
2.481981073635164
 42
0.0
 10
0.2975140707309194
 20
2.475731073635166
 42
0.0
 97
        0
 92
        7
 72
     0
 73
     1
 93
        4
 10
0.2975140707309194
 20
2.475731073635166
 10
0.2866887531836131
 20
2.481981073635164
 10
0.2866887531836131
 20
2.158351475047719
 10
0.2975140707309194
 20
2.164601475047721
 97
        0
 92
        7
 72
     0
 73
     1
 93
        4
 10
0.4742612198026297
 20
2.444303097313525
 10
0.4742612198026297
 20
2.431803097313526
 10
1.465860307135812
 20
1.865553097313526
 10
1.465860307135812
 20
1.871803097313524
 97
        0
 92
        7
 72
     1
 73
     1
 93
        4
 10
2.277776026888151
 20
2.328062856671827
 42
0.002332807343841
 10
2.273832867158708
 20
2.338286272340575
 42
0.0
 10
1.465860307135812
 20
1.871803097313524
 42
0.0
 10
1.465860307135812
 20
1.859303097313524
 42
0.0
 97
        0
 92
        7
 72
     1
 73
     1
 93
        4
 10
2.340907978820869
 20
2.088658813754008
 42
0.0024685623280776
 10
2.339093231462216
 20
2.100111068877978
 42
0.0
 10
1.643600117385924
 20
1.698567932246501
 42
0.0
 10
1.65442543493323
 20
1.692317932246499
 42
0.0
 97
        0
 92
        7
 72
     1
 73
     1
 93
        8
 10
1.65442543493323
 20
1.692317932246499
 42
0.0
 10
1.643600117385924
 20
1.698567932246501
 42
0.0
 10
1.643600117385924
 20
1.236558313303266
 42
-0.5773502691896262
 10
1.632350117385923
 20
1.230063122774883
 42
0.0
 10
1.548337322969636
 20
1.278567932246499
 42
0.0
 10
1.548337322969636
 20
1.2660679322465
 42
0.0
 10
1.630050434933227
 20
1.218890845057995
 42
0.577350269189633
 10
1.654425434933228
 20
1.232963757869491
 42
0.0
 97
        0
 92
        7
 72
     0
 73
     1
 93
        3
 10
0.4742612198026333
 20
2.431803097313515
 10
1.465860307135812
 20
1.859303097313524
 10
1.465860307135812
 20
1.865553097313526
 97
        0
 75
     0
 76
     1
 47
0.006507
 98
        7
 10
0.310056
 20
2.490532
 10
0.291901
 20
2.461347
 10
0.481346
 20
2.436106
 10
1.540657
 20
1.910934
 10
1.747418
 20
1.754755
 10
1.649736
 20
1.662024
 10
1.434834
 20
1.88165
  0
LWPOLYLINE
  5
462
102
{ACAD_REACTORS
330
487
102
}
100
AcDbEntity
  8
1
  6
CONTINUOUS
 62
     5
100
AcDbPolyline
 90
        2
 70
     0
 43
0.0125
 10
1.325466
 20
3.076052
 42
70374.114908
 10
1.325532
 20
3.076044
 42
70374.114908
  0
LINE
  5
463
100
AcDbEntity
  8
1
  6
CONTINUOUS
 62
     5
100
AcDbLine
 39
0.05
 10
0.474261
 20
2.444303
 30
0.0
 11
0.474261
 21
2.431803
 31
0.0
  0
LINE
  5
464
100
AcDbEntity
  8
1
  6
CONTINUOUS
 62
     5
100
AcDbLine
 39
0.05
 10
0.474261
 20
2.444303
 30
0.0
 11
0.474261
 21
2.431803
 31
0.0
  0
LINE
  5
465
100
AcDbEntity
  8
GREEN
100
AcDbLine
 10
0.339374
 20
2.112413
 30
0.0
 11
0.683679
 21
2.311198
 31
0.0
  0
LINE
  5
466
100
AcDbEntity
  8
0
 62
     3
100
AcDbLine
 10
0.443971
 20
2.028112
 30
0.0
 11
0.344114
 21
2.085765
 31
0.0
  0
ARC
  5
467
100
AcDbEntity
  8
0
 62
     3
100
AcDbCircle
 10
0.335636
 20
2.083581
 30
0.0
 40
0.00625
100
AcDbArc
 50
195.0
 51
330.0
  0
LINE
  5
468
100
AcDbEntity
  8
0
 62
     3
100
AcDbLine
 10
0.329599
 20
2.081963
 30
0.0
 11
0.325476
 21
2.09735
 31
0.0
  0
ARC
  5
469
100
AcDbEntity
  8
0
 62
     3
100
AcDbCircle
 10
0.330306
 20
2.098644
 30
0.0
 40
0.005
100
AcDbArc
 50
60.0
 51
195.0
  0
LINE
  5
46A
100
AcDbEntity
  8
0
 62
     3
100
AcDbLine
 10
0.332806
 20
2.102974
 30
0.0
 11
0.336702
 21
2.100725
 31
0.0
  0
ARC
  5
46B
100
AcDbEntity
  8
0
 62
     3
100
AcDbCircle
 10
0.337952
 20
2.10289
 30
0.0
 40
0.0025
100
AcDbArc
 50
240.0
 51
15.0
  0
LINE
  5
46C
100
AcDbEntity
  8
0
 62
     3
100
AcDbLine
 10
0.340367
 20
2.103537
 30
0.0
 11
0.338592
 21
2.11016
 31
0.0
  0
ARC
  5
46D
100
AcDbEntity
  8
0
 62
     3
100
AcDbCircle
 10
0.3398
 20
2.110483
 30
0.0
 40
0.00125
100
AcDbArc
 50
60.0
 51
195.0
  0
LINE
  5
46E
100
AcDbEntity
  8
0
 62
     3
100
AcDbLine
 10
0.344114
 20
2.085765
 30
0.0
 11
0.341049
 21
2.080456
 31
0.0
  0
LINE
  5
46F
100
AcDbEntity
  8
2
  6
CONTINUOUS
 62
     4
100
AcDbLine
 10
0.456981
 20
2.063377
 30
0.0
 11
0.673487
 21
1.938377
 31
0.0
  0
LINE
  5
470
100
AcDbEntity
  8
2
  6
CONTINUOUS
 62
     4
100
AcDbLine
 10
0.456981
 20
2.068377
 30
0.0
 11
0.673487
 21
1.943377
 31
0.0
  0
LINE
  5
471
100
AcDbEntity
  8
2
  6
CONTINUOUS
 62
     4
100
AcDbLine
 10
0.456981
 20
2.068377
 30
0.0
 11
0.456981
 21
2.063377
 31
0.0
  0
LINE
  5
472
100
AcDbEntity
  8
2
  6
CONTINUOUS
 62
     4
100
AcDbLine
 10
0.673487
 20
1.943377
 30
0.0
 11
0.673487
 21
1.938377
 31
0.0
  0
LINE
  5
473
100
AcDbEntity
  8
GREEN
100
AcDbLine
 10
0.274878
 20
2.151532
 30
0.0
 11
0.617553
 21
2.349376
 31
0.0
  0
LINE
  5
474
100
AcDbEntity
  8
1
  6
CONTINUOUS
 62
     5
100
AcDbLine
 10
0.297514
 20
2.164601
 30
0.0
 11
0.297514
 21
2.475731
 31
0.0
  0
LINE
  5
475
100
AcDbEntity
  8
1
  6
CONTINUOUS
 62
     5
100
AcDbLine
 10
0.286689
 20
2.158351
 30
0.0
 11
0.286689
 21
2.481981
 31
0.0
  0
LINE
  5
476
100
AcDbEntity
  8
1
  6
CONTINUOUS
 62
     5
100
AcDbLine
 10
0.297514
 20
2.164601
 30
0.0
 11
0.297514
 21
2.475731
 31
0.0
  0
LINE
  5
477
100
AcDbEntity
  8
1
  6
CONTINUOUS
 62
     5
100
AcDbLine
 10
0.286689
 20
2.158351
 30
0.0
 11
0.286689
 21
2.481981
 31
0.0
  0
LINE
  5
478
100
AcDbEntity
  8
1
  6
CONTINUOUS
 62
     5
100
AcDbLine
 10
0.286689
 20
2.481981
 30
0.0
 11
0.297514
 21
2.475731
 31
0.0
  0
LINE
  5
479
100
AcDbEntity
  8
1
  6
CONTINUOUS
 62
     5
100
AcDbLine
 10
0.286689
 20
2.481981
 30
0.0
 11
0.297514
 21
2.475731
 31
0.0
  0
LINE
  5
47A
100
AcDbEntity
  8
1
  6
CONTINUOUS
 62
     5
100
AcDbLine
 10
0.474261
 20
2.444303
 30
0.0
 11
0.474261
 21
2.431803
 31
0.0
  0
LINE
  5
47B
100
AcDbEntity
  8
1
  6
CONTINUOUS
 62
     5
100
AcDbLine
 10
0.474261
 20
2.444303
 30
0.0
 11
0.474261
 21
2.431803
 31
0.0
  0
LINE
  5
47C
100
AcDbEntity
  8
0
100
AcDbLine
 10
1.180459
 20
3.08504
 30
0.0
 11
3.680459
 21
4.410751
 31
0.0
  0
LINE
  5
47D
100
AcDbEntity
  8
1
  6
CONTINUOUS
100
AcDbLine
 39
0.05
 10
1.46586
 20
1.871803
 30
0.0
 11
1.46586
 21
1.859303
 31
0.0
  0
LWPOLYLINE
  5
47E
102
{ACAD_REACTORS
330
487
102
}
100
AcDbEntity
  8
1
  6
CONTINUOUS
 62
     5
100
AcDbPolyline
 90
        2
 70
     0
 43
0.005
 10
1.646029
 20
1.221607
 10
2.313561
 20
1.607007
  0
LINE
  5
47F
100
AcDbEntity
  8
1
  6
CONTINUOUS
 62
     5
100
AcDbLine
 10
1.6463
 20
1.218891
 30
0.0
 11
2.313832
 21
1.604291
 31
0.0
  0
LINE
  5
480
100
AcDbEntity
  8
2
  6
CONTINUOUS
 62
     4
100
AcDbLine
 10
1.273896
 20
1.493629
 30
0.0
 11
2.338059
 21
2.108023
 31
0.0
  0
LINE
  5
481
100
AcDbEntity
  8
2
  6
CONTINUOUS
 62
     4
100
AcDbLine
 10
1.265236
 20
1.498629
 30
0.0
 11
2.336474
 21
2.117108
 31
0.0
  0
LINE
  5
482
102
{ACAD_REACTORS
330
487
102
}
100
AcDbEntity
  8
1
  6
CONTINUOUS
 62
     5
100
AcDbLine
 10
1.654425
 20
1.692318
 30
0.0
 11
2.340908
 21
2.088659
 31
0.0
  0
LINE
  5
483
100
AcDbEntity
  8
1
  6
CONTINUOUS
 62
     5
100
AcDbLine
 10
1.6436
 20
1.698568
 30
0.0
 11
2.339093
 21
2.100111
 31
0.0
  0
LINE
  5
484
100
AcDbEntity
  8
1
  6
CONTINUOUS
100
AcDbLine
 10
1.46586
 20
1.859303
 30
0.0
 11
2.277776
 21
2.328063
 31
0.0
  0
LINE
  5
485
100
AcDbEntity
  8
1
  6
CONTINUOUS
100
AcDbLine
 10
1.46586
 20
1.871803
 30
0.0
 11
2.273833
 21
2.338286
 31
0.0
  0
LINE
  5
486
100
AcDbEntity
  8
GREEN
100
AcDbLine
 10
1.245406
 20
1.585282
 30
0.0
 11
2.31748
 21
2.204244
 31
0.0
  0
HATCH
  5
487
100
AcDbEntity
  8
2
  6
CONTINUOUS
 62
     9
100
AcDbHatch
 10
0.0
 20
0.0
 30
0.0
210
0.0
220
0.0
230
1.0
  2
SOLID
 70
     1
 71
     1
 91
        2
 92
        7
 72
     1
 73
     1
 93
        5
 10
2.34116949904439
 20
2.088809802525457
 42
0.0
 10
1.654425434933228
 20
1.692317932246499
 42
0.0
 10
1.654425434933228
 20
1.232963757869494
 42
-0.1222318301882052
 10
1.652539916803105
 20
1.225366116089968
 42
0.0
 10
2.315007199969436
 20
1.607841780355371
 42
0.1036486555257608
 97
        5
330
482
330
49F
330
4A8
330
47E
330
462
 92
        7
 72
     1
 73
     1
 93
        4
 10
1.643600117385924
 20
1.330695722278857
 42
0.0
 10
1.550824729766617
 20
1.277131827262678
 42
0.0
 10
1.632350117385923
 20
1.230063122774883
 42
0.5773502691896213
 10
1.643600117385924
 20
1.236558313303266
 42
0.0
 97
        4
330
4A3
330
4A4
330
4AC
330
4A0
 75
     0
 76
     1
 47
0.022773
 98
        2
 10
1.991767
 20
1.676438
 10
1.610057
 20
1.272226
  0
LINE
  5
488
100
AcDbEntity
  8
GREEN
100
AcDbLine
 10
1.177055
 20
1.626003
 30
0.0
 11
2.29751
 21
2.272898
 31
0.0
  0
LINE
  5
489
100
AcDbEntity
  8
2
  6
CONTINUOUS
 62
     4
100
AcDbLine
 10
1.434468
 20
1.87773
 30
0.0
 11
1.1065
 21
1.688377
 31
0.0
  0
LINE
  5
48A
100
AcDbEntity
  8
2
  6
CONTINUOUS
 62
     4
100
AcDbLine
 10
1.430138
 20
1.88023
 30
0.0
 11
1.1065
 21
1.693377
 31
0.0
  0
LINE
  5
48B
100
AcDbEntity
  8
2
  6
CONTINUOUS
 62
     4
100
AcDbLine
 10
1.273896
 20
1.243629
 30
0.0
 11
1.643862
 21
1.457229
 31
0.0
  0
LINE
  5
48C
100
AcDbEntity
  8
GREEN
100
AcDbLine
 10
1.245406
 20
1.151532
 30
0.0
 11
1.643862
 21
1.381581
 31
0.0
  0
LINE
  5
48D
100
AcDbEntity
  8
2
  6
CONTINUOUS
 62
     4
100
AcDbLine
 10
1.273896
 20
1.493629
 30
0.0
 11
1.273896
 21
1.243629
 31
0.0
  0
LINE
  5
48E
100
AcDbEntity
  8
2
  6
CONTINUOUS
 62
     4
100
AcDbLine
 10
1.265236
 20
1.498629
 30
0.0
 11
1.265236
 21
1.248629
 31
0.0
  0
LINE
  5
48F
100
AcDbEntity
  8
2
  6
CONTINUOUS
 62
     4
100
AcDbLine
 10
1.265236
 20
1.248629
 30
0.0
 11
1.273896
 21
1.243629
 31
0.0
  0
LINE
  5
490
100
AcDbEntity
  8
2
  6
CONTINUOUS
 62
     4
100
AcDbLine
 10
1.213631
 20
2.00523
 30
0.0
 11
0.889993
 21
1.818377
 31
0.0
  0
LINE
  5
491
100
AcDbEntity
  8
2
  6
CONTINUOUS
 62
     4
100
AcDbLine
 10
0.889993
 20
1.813377
 30
0.0
 11
1.1065
 21
1.688377
 31
0.0
  0
LINE
  5
492
100
AcDbEntity
  8
2
  6
CONTINUOUS
 62
     4
100
AcDbLine
 10
0.889993
 20
1.818377
 30
0.0
 11
1.1065
 21
1.693377
 31
0.0
  0
LINE
  5
493
100
AcDbEntity
  8
0
 62
     3
100
AcDbLine
 10
0.985744
 20
1.73899
 30
0.0
 11
1.178132
 21
1.627915
 31
0.0
  0
LINE
  5
494
100
AcDbEntity
  8
2
  6
CONTINUOUS
 62
     4
100
AcDbLine
 10
0.889993
 20
1.818377
 30
0.0
 11
0.889993
 21
1.813377
 31
0.0
  0
ARC
  5
495
100
AcDbEntity
  8
0
 62
     3
100
AcDbCircle
 10
1.177507
 20
1.626833
 30
0.0
 40
0.00125
100
AcDbArc
 50
285.0
 51
60.0
  0
LINE
  5
496
100
AcDbEntity
  8
2
  6
CONTINUOUS
 62
     4
100
AcDbLine
 10
1.1065
 20
1.693377
 30
0.0
 11
1.1065
 21
1.688377
 31
0.0
  0
ARC
  5
497
100
AcDbEntity
  8
0
 62
     3
100
AcDbCircle
 10
1.171855
 20
1.621436
 30
0.0
 40
0.0025
100
AcDbArc
 50
105.0
 51
240.0
  0
LINE
  5
498
100
AcDbEntity
  8
0
 62
     3
100
AcDbLine
 10
1.170605
 20
1.619271
 30
0.0
 11
1.174502
 21
1.617021
 31
0.0
  0
ARC
  5
499
100
AcDbEntity
  8
0
 62
     3
100
AcDbCircle
 10
1.172002
 20
1.612691
 30
0.0
 40
0.005
100
AcDbArc
 50
285.0
 51
60.0
  0
LINE
  5
49A
100
AcDbEntity
  8
0
 62
     3
100
AcDbLine
 10
1.173296
 20
1.607861
 30
0.0
 11
1.157909
 21
1.603738
 31
0.0
  0
ARC
  5
49B
100
AcDbEntity
  8
0
 62
     3
100
AcDbCircle
 10
1.156291
 20
1.609775
 30
0.0
 40
0.00625
100
AcDbArc
 50
150.0
 51
285.0
  0
LINE
  5
49C
100
AcDbEntity
  8
0
 62
     3
100
AcDbLine
 10
1.150879
 20
1.6129
 30
0.0
 11
1.153944
 21
1.618209
 31
0.0
  0
LINE
  5
49D
100
AcDbEntity
  8
0
 62
     3
100
AcDbLine
 10
1.177831
 20
1.625625
 30
0.0
 11
1.171208
 21
1.623851
 31
0.0
  0
LINE
  5
49E
100
AcDbEntity
  8
2
  6
CONTINUOUS
 62
     4
100
AcDbLine
 10
1.265236
 20
1.498629
 30
0.0
 11
1.273896
 21
1.493629
 31
0.0
  0
LINE
  5
49F
102
{ACAD_REACTORS
330
487
102
}
100
AcDbEntity
  8
1
  6
CONTINUOUS
 62
     5
100
AcDbLine
 10
1.654425
 20
1.232964
 30
0.0
 11
1.654425
 21
1.692318
 31
0.0
  0
LINE
  5
4A0
102
{ACAD_REACTORS
330
487
102
}
100
AcDbEntity
  8
1
  6
CONTINUOUS
 62
     5
100
AcDbLine
 10
1.6436
 20
1.236558
 30
0.0
 11
1.6436
 21
1.698568
 31
0.0
  0
LINE
  5
4A1
100
AcDbEntity
  8
1
  6
CONTINUOUS
 62
     5
100
AcDbLine
 10
1.654425
 20
1.232964
 30
0.0
 11
1.654425
 21
1.692318
 31
0.0
  0
LINE
  5
4A2
100
AcDbEntity
  8
1
  6
CONTINUOUS
 62
     5
100
AcDbLine
 10
1.6436
 20
1.236558
 30
0.0
 11
1.6436
 21
1.698568
 31
0.0
  0
LWPOLYLINE
  5
4A3
102
{ACAD_REACTORS
330
487
102
}
100
AcDbEntity
  8
1
  6
CONTINUOUS
 62
     5
100
AcDbPolyline
 90
        2
 70
     0
 43
0.005
 10
1.549601
 20
1.276425
 10
1.644863
 20
1.331425
  0
LINE
  5
4A4
102
{ACAD_REACTORS
330
487
102
}
100
AcDbEntity
  8
1
  6
CONTINUOUS
 62
     5
100
AcDbLine
 10
1.63235
 20
1.230063
 30
0.0
 11
1.548337
 21
1.278568
 31
0.0
  0
LINE
  5
4A5
100
AcDbEntity
  8
1
  6
CONTINUOUS
 62
     5
100
AcDbLine
 10
1.63235
 20
1.230063
 30
0.0
 11
1.548337
 21
1.278568
 31
0.0
  0
LINE
  5
4A6
100
AcDbEntity
  8
1
  6
CONTINUOUS
 62
     5
100
AcDbLine
 10
1.548337
 20
1.278568
 30
0.0
 11
1.548337
 21
1.266068
 31
0.0
  0
LINE
  5
4A7
100
AcDbEntity
  8
1
  6
CONTINUOUS
 62
     5
100
AcDbLine
 10
1.548337
 20
1.278568
 30
0.0
 11
1.548337
 21
1.266068
 31
0.0
  0
ARC
  5
4A8
102
{ACAD_REACTORS
330
487
102
}
100
AcDbEntity
  8
1
  6
CONTINUOUS
 62
     5
100
AcDbCircle
 10
1.638175
 20
1.232964
 30
0.0
 40
0.01625
100
AcDbArc
 50
240.0
 51
0.0
  0
ARC
  5
4A9
100
AcDbEntity
  8
1
  6
CONTINUOUS
 62
     5
100
AcDbCircle
 10
1.638175
 20
1.232964
 30
0.0
 40
0.01625
100
AcDbArc
 50
240.0
 51
0.0
  0
LINE
  5
4AA
100
AcDbEntity
  8
1
  6
CONTINUOUS
 62
     5
100
AcDbLine
 10
1.63005
 20
1.218891
 30
0.0
 11
1.548337
 21
1.266068
 31
0.0
  0
LINE
  5
4AB
100
AcDbEntity
  8
1
  6
CONTINUOUS
 62
     5
100
AcDbLine
 10
1.63005
 20
1.218891
 30
0.0
 11
1.548337
 21
1.266068
 31
0.0
  0
ARC
  5
4AC
102
{ACAD_REACTORS
330
487
102
}
100
AcDbEntity
  8
1
  6
CONTINUOUS
 62
     5
100
AcDbCircle
 10
1.6361
 20
1.236558
 30
0.0
 40
0.0075
100
AcDbArc
 50
240.0
 51
0.0
  0
ARC
  5
4AD
100
AcDbEntity
  8
1
  6
CONTINUOUS
 62
     5
100
AcDbCircle
 10
1.6361
 20
1.236558
 30
0.0
 40
0.0075
100
AcDbArc
 50
240.0
 51
0.0
  0
LINE
  5
4AE
100
AcDbEntity
  8
1
  6
CONTINUOUS
 62
     5
100
AcDbLine
 10
1.6436
 20
1.698568
 30
0.0
 11
1.654425
 21
1.692318
 31
0.0
  0
LINE
  5
4AF
100
AcDbEntity
  8
1
  6
CONTINUOUS
 62
     5
100
AcDbLine
 10
1.6436
 20
1.698568
 30
0.0
 11
1.654425
 21
1.692318
 31
0.0
  0
LINE
  5
4B0
100
AcDbEntity
  8
1
  6
CONTINUOUS
 62
     5
100
AcDbLine
 10
1.548337
 20
1.278568
 30
0.0
 11
1.6436
 21
1.333568
 31
0.0
  0
ENDBLK
  5
4B2
100
AcDbEntity
  8
0
100
AcDbBlockEnd
  0
BLOCK
  5
535
100
AcDbEntity
  8
0
100
AcDbBlockBegin
  2
A$C2CC70F12
 70
     0
 10
0.0
 20
0.0
 30
0.0
  3
A$C2CC70F12
  1

  0
LINE
  5
4B5
100
AcDbEntity
  8
0
 62
     3
100
AcDbLine
 10
2.060975
 20
2.704473
 30
0.0
 11
0.783024
 21
3.442299
 31
0.0
  0
LINE
  5
4B6
100
AcDbEntity
  8
2
  6
CONTINUOUS
 62
     4
100
AcDbLine
 10
1.786495
 20
3.62161
 30
0.0
 11
1.196153
 21
3.280776
 31
0.0
  0
LINE
  5
4B7
100
AcDbEntity
  8
2
  6
CONTINUOUS
 62
     4
100
AcDbLine
 10
1.778701
 20
3.62611
 30
0.0
 11
1.196153
 21
3.289776
 31
0.0
  0
LINE
  5
4B8
100
AcDbEntity
  8
0
 62
     3
100
AcDbLine
 10
0.596641
 20
3.592515
 30
0.0
 11
1.758216
 21
2.92188
 31
0.0
  0
LWPOLYLINE
  5
4B9
100
AcDbEntity
  8
1
100
AcDbPolyline
 90
        2
 70
     0
 43
0.01
 10
0.837546
 20
4.191443
 10
2.692201
 20
5.262228
  0
LINE
  5
4BA
100
AcDbEntity
  8
1
  6
CONTINUOUS
100
AcDbLine
 10
0.837546
 20
4.168943
 30
0.0
 11
2.622425
 21
3.149693
 31
0.0
  0
HATCH
  5
4BB
100
AcDbEntity
  8
2
  6
CONTINUOUS
 62
     9
100
AcDbHatch
 10
0.0
 20
0.0
 30
0.0
210
0.0
220
0.0
230
1.0
  2
ANSI31
 70
     0
 71
     0
 91
        1
 92
        7
 72
     1
 73
     1
 93
        7
 10
0.8375463034832293
 20
4.168942601918175
 42
0.0
 10
0.8375463034832293
 20
4.191442601918183
 42
0.0
 10
2.692671266206861
 20
5.262499498527063
 42
0.0369683020279065
 10
2.387135748755678
 20
5.32634986802968
 42
0.0
 10
0.5194014351541548
 20
4.248012959297128
 42
0.0
 10
0.5194014351541548
 20
3.687979681839721
 42
0.0
 10
1.094999976384979
 20
4.020301654564505
 42
0.0
 97
        0
 75
     0
 76
     1
 52
0.0
 41
0.05
 77
     0
 78
     1
 53
45.0
 43
-22.088823
 44
-30.099459
 45
-0.0044194173824159
 46
0.0044194173824159
 79
     0
 47
0.022773
 98
        1
 10
0.78998
 20
4.120982
  0
HATCH
  5
4BC
100
AcDbEntity
  8
2
  6
CONTINUOUS
 62
     9
100
AcDbHatch
 10
0.0
 20
0.0
 30
0.0
210
0.0
220
0.0
230
1.0
  2
ANSI31
 70
     0
 71
     0
 91
        1
 92
        7
 72
     1
 73
     1
 93
        8
 10
2.69687170811316
 20
5.261287318096478
 42
0.0
 10
2.693775529804977
 20
5.259499738716797
 42
0.0
 10
2.694000529804984
 20
5.259110027285089
 42
0.0
 10
2.694225529804977
 20
5.258720315853395
 42
0.0
 10
2.694450529804985
 20
5.258330604421686
 42
0.0
 10
0.8420463034832401
 20
4.188844525706826
 42
0.0
 10
2.622424660682963
 20
3.160942601918179
 42
0.0
 10
4.077246005126138
 20
4.000884096755257
 42
0.2330962772361932
 97
        0
 75
     0
 76
     1
 52
0.0
 41
0.05
 77
     0
 78
     1
 53
45.0
 43
-22.088823
 44
-30.099459
 45
-0.0044194173824159
 46
0.0044194173824159
 79
     0
 47
0.017346
 98
        1
 10
2.503886
 20
4.322023
  0
LINE
  5
4BD
100
AcDbEntity
  8
1
  6
CONTINUOUS
 62
     5
100
AcDbLine
 10
0.839796
 20
4.187545
 30
0.0
 11
2.694451
 21
5.258331
 31
0.0
  0
LINE
  5
4BE
100
AcDbEntity
  8
1
  6
CONTINUOUS
 62
     5
100
AcDbLine
 10
0.519401
 20
4.248013
 30
0.0
 11
2.386665
 21
5.326078
 31
0.0
  0
LINE
  5
4BF
100
AcDbEntity
  8
1
  6
CONTINUOUS
 62
     5
100
AcDbLine
 10
0.499916
 20
4.259263
 30
0.0
 11
2.354635
 21
5.330086
 31
0.0
  0
LINE
  5
4C0
100
AcDbEntity
  8
1
  6
CONTINUOUS
100
AcDbLine
 10
0.519401
 20
4.248013
 30
0.0
 11
2.386665
 21
5.326078
 31
0.0
  0
LINE
  5
4C1
100
AcDbEntity
  8
1
  6
CONTINUOUS
 62
     5
100
AcDbLine
 10
0.499916
 20
4.259263
 30
0.0
 11
2.354635
 21
5.330086
 31
0.0
  0
LINE
  5
4C2
100
AcDbEntity
  8
1
  6
CONTINUOUS
 62
     5
100
AcDbLine
 39
0.09
 10
0.837546
 20
4.168943
 30
0.0
 11
2.622425
 21
3.138443
 31
0.0
  0
LINE
  5
4C3
100
AcDbEntity
  8
1
  6
CONTINUOUS
 62
     5
100
AcDbLine
 39
0.09
 10
0.837546
 20
4.191443
 30
0.0
 11
2.622425
 21
3.160943
 31
0.0
  0
LINE
  5
4C4
100
AcDbEntity
  8
1
  6
CONTINUOUS
100
AcDbLine
 10
0.837546
 20
4.168943
 30
0.0
 11
2.622425
 21
3.149693
 31
0.0
  0
LINE
  5
4C5
100
AcDbEntity
  8
1
  6
CONTINUOUS
100
AcDbLine
 39
0.09
 10
0.837546
 20
4.168943
 30
0.0
 11
2.622425
 21
3.138443
 31
0.0
  0
LINE
  5
4C6
100
AcDbEntity
  8
1
  6
CONTINUOUS
100
AcDbLine
 39
0.09
 10
0.837546
 20
4.191443
 30
0.0
 11
2.622425
 21
3.160943
 31
0.0
  0
HATCH
  5
4C7
100
AcDbEntity
  8
2
  6
CONTINUOUS
 62
     9
100
AcDbHatch
 10
0.0
 20
0.0
 30
0.0
210
0.0
220
0.0
230
1.0
  2
SOLID
 70
     1
 71
     0
 91
        2
 92
       23
 72
     1
 73
     1
 93
       20
 10
2.060974745687733
 20
2.704473487113446
 42
0.0
 10
2.055457602834383
 20
2.694917515378833
 42
0.6681786379192962
 10
2.068112102884359
 20
2.678425849833075
 42
0.0
 10
2.095808644920413
 20
2.685847115904763
 42
0.6681786379192695
 10
2.097979273514493
 20
2.702334676975425
 42
0.0
 10
2.090965287329357
 20
2.706384203787521
 42
-0.6681786379192408
 10
2.0920506016264
 20
2.714627984322845
 42
0.0
 10
2.103971945250027
 20
2.717822298719497
 42
0.6681786379193185
 10
2.104514602398555
 20
2.721944188987166
 42
0.0
 10
1.758215893182001
 20
2.92187984197335
 42
0.0
 10
0.5966408688427905
 20
3.592515494959542
 42
0.668178637919208
 10
0.5933425357336369
 20
3.589984594949555
 42
0.0
 10
0.5965368501302848
 20
3.578063251325914
 42
-0.6681786379193225
 10
0.5899401839119811
 20
3.573001451305927
 42
0.0
 10
0.5829261977268452
 20
3.577050978118009
 42
0.6681786379193126
 10
0.5697328652902521
 20
3.56692737807802
 42
0.0
 10
0.5771541313619402
 20
3.539230836041966
 42
0.6681786379193007
 10
0.5977635827002743
 20
3.536517550299379
 42
0.0
 10
0.6032807255536206
 20
3.546073522033978
 42
0.0
 10
0.7830243283511571
 20
3.442298504573699
 42
0.0
 97
        0
 92
        7
 72
     1
 73
     1
 93
       37
 10
0.4786562352773025
 20
3.664455429722636
 42
0.4142135623731299
 10
0.4719062352772952
 20
3.657705429722653
 42
0.0
 10
0.4719062352772952
 20
2.876955429722642
 42
0.0
 10
2.225607677940782
 20
1.864455429722653
 42
0.0
 10
2.225607677940796
 20
2.645205429722651
 42
0.1316524975873667
 10
2.220485649386336
 20
2.654077043416762
 42
0.0
 10
2.106940541542552
 20
2.719632341995534
 42
0.0376464264871547
 10
2.10559101889385
 20
2.719530588374496
 42
-0.2823673447488831
 10
2.103971945250027
 20
2.717822298719497
 42
0.0
 10
2.100464849823769
 20
2.716882575332249
 42
0.5149511874561723
 10
2.103136977186888
 20
2.702475571912202
 42
0.0
 10
2.115081037569087
 20
2.696905965086514
 42
0.0
 10
2.101582095009792
 20
2.690623270299028
 42
-0.2180320882791709
 10
2.095808644920413
 20
2.685847115904763
 42
0.0
 10
2.085229588924551
 20
2.683012466394004
 42
0.0
 10
2.073793750833981
 20
2.677689984277591
 42
0.0
 10
2.059168750833979
 20
2.677689984277591
 42
1.0
 10
2.059168750833979
 20
2.657439984277601
 42
0.0
 10
2.133360190345218
 20
2.635356851152096
 42
-0.5578319223640622
 10
2.189607677940788
 20
2.567805429722653
 42
0.0
 10
2.189607677940788
 20
1.965705429722646
 42
-0.5129809895031772
 10
2.168216834441668
 20
1.949551572892943
 42
0.0
 10
0.5742970787764144
 20
2.869801572892953
 42
-0.2397239142270584
 10
0.5079062352773001
 20
2.978205429722649
 42
0.0
 10
0.5080574475501117
 20
3.561106051438358
 42
-1.046264757040728
 10
0.5211553086348922
 20
3.564619089548045
 42
0.0
 10
0.5666306739617042
 20
3.522487833933695
 42
0.6309633877406034
 10
0.5816934713848632
 20
3.532840536983528
 42
-0.1798205534880095
 10
0.5771541313619402
 20
3.539230836041966
 42
0.0
 10
0.5771342662908446
 20
3.539304973496612
 42
0.0
 10
0.5640900524313466
 20
3.564107910459753
 42
0.0
 10
0.5727573233652415
 20
3.582258569201002
 42
0.0
 10
0.585885986493409
 20
3.581109960010039
 42
0.293926452988122
 10
0.5945049681710231
 20
3.585646338032873
 42
0.0
 10
0.5933425357336369
 20
3.589984594949555
 42
-0.4565659268922137
 10
0.595247872715472
 20
3.592800920360446
 42
0.1814616707363846
 10
0.5913371720208432
 20
3.597771238822318
 42
0.0
 97
        0
 75
     0
 76
     1
 47
0.011788
 98
        2
 10
0.812673
 20
3.442229
 10
0.541954
 20
3.601363
  0
HATCH
  5
4C8
100
AcDbEntity
  8
1
  6
CONTINUOUS
 62
     5
100
AcDbHatch
 10
0.0
 20
0.0
 30
0.0
210
0.0
220
0.0
230
1.0
  2
SOLID
 70
     1
 71
     0
 91
        7
 92
        7
 72
     1
 73
     1
 93
        4
 10
2.386665012353486
 20
5.32607808824116
 42
0.003817909443379
 10
2.354635270827916
 20
5.330085708349287
 42
0.0
 10
0.4999158635690009
 20
4.259262959297132
 42
0.0
 10
0.5194014351541548
 20
4.248012959297128
 42
0.0
 97
        0
 92
        7
 72
     0
 73
     1
 93
        4
 10
0.5194014351541548
 20
4.248012959297128
 10
0.4999158635690009
 20
4.259262959297132
 10
0.4999158635690009
 20
3.676729681839731
 10
0.5194014351541548
 20
3.687979681839721
 97
        0
 92
        7
 72
     0
 73
     1
 93
        4
 10
0.8375463034832293
 20
4.191442601918183
 10
0.8375463034832293
 20
4.168942601918175
 10
2.622424660682963
 20
3.149692601918175
 10
2.622424660682963
 20
3.160942601918179
 97
        0
 92
        7
 72
     1
 73
     1
 93
        4
 10
4.083872956237161
 20
3.982210168763117
 42
0.002332807343841
 10
4.07677526872418
 20
4.000612316966865
 42
0.0
 10
2.622424660682963
 20
3.160942601918179
 42
0.0
 10
2.622424660682963
 20
3.138442601918185
 42
0.0
 97
        0
 92
        7
 72
     1
 73
     1
 93
        4
 10
4.197510469716053
 20
3.55128289151105
 42
0.0024685623280776
 10
4.194243924470487
 20
3.571896950734199
 42
0.0
 10
2.942356319133157
 20
2.849119304797525
 42
0.0
 10
2.961841890718314
 20
2.837869304797536
 42
0.0
 97
        0
 92
        7
 72
     1
 73
     1
 93
        8
 10
2.961841890718314
 20
2.837869304797536
 42
0.0
 10
2.942356319133157
 20
2.84911930479754
 42
0.0
 10
2.942356319133157
 20
2.017501990699713
 42
-0.5773502691896262
 10
2.922106319133167
 20
2.005810647748617
 42
0.0
 10
2.770883289183846
 20
2.093119304797539
 42
0.0
 10
2.770883289183846
 20
2.070619304797531
 42
0.0
 10
2.917966890718307
 20
1.985700547858229
 42
0.577350269189633
 10
2.961841890718314
 20
2.01103179091892
 42
0.0
 97
        0
 92
        7
 72
     0
 73
     1
 93
        3
 10
0.8375463034832435
 20
4.168942601918161
 10
2.622424660682963
 20
3.138442601918185
 10
2.622424660682963
 20
3.149692601918175
 97
        0
 75
     0
 76
     1
 47
0.006507
 98
        7
 10
0.541977
 20
4.274654
 10
0.509298
 20
4.222121
 10
0.850299
 20
4.176688
 10
2.757058
 20
3.231378
 10
3.129229
 20
2.950256
 10
2.9534
 20
2.78334
 10
2.566577
 20
3.178667
  0
HATCH
  5
4C9
100
AcDbEntity
  8
1
  6
CONTINUOUS
 62
     5
100
AcDbHatch
 10
0.0
 20
0.0
 30
0.0
210
0.0
220
0.0
230
1.0
  2
SOLID
 70
     1
 71
     0
 91
        7
 92
        7
 72
     1
 73
     1
 93
        4
 10
2.386665012353486
 20
5.32607808824116
 42
0.003817909443379
 10
2.354635270827916
 20
5.330085708349287
 42
0.0
 10
0.4999158635690009
 20
4.259262959297132
 42
0.0
 10
0.5194014351541548
 20
4.248012959297128
 42
0.0
 97
        0
 92
        7
 72
     0
 73
     1
 93
        4
 10
0.5194014351541548
 20
4.248012959297128
 10
0.4999158635690009
 20
4.259262959297132
 10
0.4999158635690009
 20
3.676729681839731
 10
0.5194014351541548
 20
3.687979681839735
 97
        0
 92
        7
 72
     0
 73
     1
 93
        4
 10
0.8375463034832293
 20
4.191442601918183
 10
0.8375463034832293
 20
4.168942601918175
 10
2.622424660682963
 20
3.149692601918175
 10
2.622424660682963
 20
3.160942601918179
 97
        0
 92
        7
 72
     1
 73
     1
 93
        4
 10
4.083872956237161
 20
3.982210168763117
 42
0.002332807343841
 10
4.07677526872418
 20
4.000612316966865
 42
0.0
 10
2.622424660682963
 20
3.160942601918179
 42
0.0
 10
2.622424660682963
 20
3.138442601918185
 42
0.0
 97
        0
 92
        7
 72
     1
 73
     1
 93
        4
 10
4.197510469716053
 20
3.55128289151105
 42
0.0024685623280776
 10
4.194243924470487
 20
3.571896950734199
 42
0.0
 10
2.942356319133157
 20
2.84911930479754
 42
0.0
 10
2.961841890718314
 20
2.837869304797536
 42
0.0
 97
        0
 92
        7
 72
     1
 73
     1
 93
        8
 10
2.961841890718314
 20
2.837869304797536
 42
0.0
 10
2.942356319133157
 20
2.84911930479754
 42
0.0
 10
2.942356319133157
 20
2.017501990699713
 42
-0.5773502691896262
 10
2.922106319133167
 20
2.005810647748617
 42
0.0
 10
2.770883289183846
 20
2.093119304797539
 42
0.0
 10
2.770883289183846
 20
2.070619304797531
 42
0.0
 10
2.917966890718307
 20
1.985700547858229
 42
0.577350269189633
 10
2.961841890718314
 20
2.01103179091892
 42
0.0
 97
        0
 92
        7
 72
     0
 73
     1
 93
        3
 10
0.8375463034832435
 20
4.168942601918161
 10
2.622424660682963
 20
3.138442601918185
 10
2.622424660682963
 20
3.149692601918175
 97
        0
 75
     0
 76
     1
 47
0.006507
 98
        7
 10
0.541977
 20
4.274654
 10
0.509298
 20
4.222121
 10
0.850299
 20
4.176688
 10
2.757058
 20
3.231378
 10
3.129229
 20
2.950256
 10
2.9534
 20
2.78334
 10
2.566577
 20
3.178667
  0
LWPOLYLINE
  5
4CA
102
{ACAD_REACTORS
330
505
102
}
100
AcDbEntity
  8
1
  6
CONTINUOUS
 62
     5
100
AcDbPolyline
 90
        2
 70
     0
 43
0.0225
 10
2.369714
 20
5.328591
 42
70374.114908
 10
2.369834
 20
5.328576
 42
70374.114908
  0
MTEXT
  5
4CB
100
AcDbEntity
  8
2
  6
CONTINUOUS
 62
     9
100
AcDbMText
 10
0.432476
 20
0.951607
 30
0.0
 40
0.6939
 41
4.9041
 71
     1
 72
     5
  1
\fArial|b1|i0|c0|p34;\C7;C L A D
  7
ROMANS
  0
LINE
  5
4CC
100
AcDbEntity
  8
2
  6
CONTINUOUS
 62
     4
100
AcDbLine
 10
2.168412
 20
3.40111
 30
0.0
 11
1.585864
 21
3.064776
 31
0.0
  0
LINE
  5
4CD
100
AcDbEntity
  8
2
  6
CONTINUOUS
 62
     4
100
AcDbLine
 10
1.585864
 20
3.055776
 30
0.0
 11
1.975575
 21
2.830776
 31
0.0
  0
LINE
  5
4CE
100
AcDbEntity
  8
2
  6
CONTINUOUS
 62
     4
100
AcDbLine
 10
1.585864
 20
3.064776
 30
0.0
 11
1.975575
 21
2.839776
 31
0.0
  0
LINE
  5
4CF
100
AcDbEntity
  8
GREEN
  6
CONTINUOUS
100
AcDbLine
 39
1.8
 10
2.168217
 20
1.949552
 30
0.0
 11
0.574297
 21
2.869802
 31
0.0
  0
LINE
  5
4D0
100
AcDbEntity
  8
GREEN
  6
CONTINUOUS
100
AcDbLine
 39
1.8
 10
0.471906
 20
2.876955
 30
0.0
 11
2.225608
 21
1.864455
 31
0.0
  0
ARC
  5
4D1
100
AcDbEntity
  8
GREEN
  6
CONTINUOUS
100
AcDbCircle
 39
1.8
 10
0.647656
 20
2.989261
 30
0.0
 40
0.140186
100
AcDbArc
 50
184.523413
 51
238.446514
  0
LINE
  5
4D2
100
AcDbEntity
  8
GREEN
  6
CONTINUOUS
100
AcDbLine
 39
1.8
 10
0.507906
 20
2.978205
 30
0.0
 11
0.508057
 21
3.561106
 31
0.0
  0
ARC
  5
4D3
100
AcDbEntity
  8
GREEN
  6
CONTINUOUS
100
AcDbCircle
 39
1.8
 10
0.514527
 20
3.563159
 30
0.0
 40
0.006787
100
AcDbArc
 50
12.423788
 51
197.604591
  0
LINE
  5
4D4
100
AcDbEntity
  8
GREEN
  6
CONTINUOUS
100
AcDbLine
 39
1.8
 10
0.521155
 20
3.564619
 30
0.0
 11
0.566631
 21
3.522488
 31
0.0
  0
ARC
  5
4D5
100
AcDbEntity
  8
GREEN
  6
CONTINUOUS
100
AcDbCircle
 39
1.8
 10
0.571693
 20
3.531256
 30
0.0
 40
0.010125
100
AcDbArc
 50
240.0
 51
60.0
  0
LINE
  5
4D6
100
AcDbEntity
  8
GREEN
  6
CONTINUOUS
100
AcDbLine
 39
1.8
 10
0.576756
 20
3.540025
 30
0.0
 11
0.56409
 21
3.564108
 31
0.0
  0
LINE
  5
4D7
100
AcDbEntity
  8
GREEN
  6
CONTINUOUS
100
AcDbLine
 39
1.8
 10
0.56409
 20
3.564108
 30
0.0
 11
0.572757
 21
3.582259
 31
0.0
  0
LINE
  5
4D8
100
AcDbEntity
  8
GREEN
  6
CONTINUOUS
100
AcDbLine
 39
1.8
 10
0.572757
 20
3.582259
 30
0.0
 11
0.585886
 21
3.58111
 31
0.0
  0
ARC
  5
4D9
100
AcDbEntity
  8
GREEN
  6
CONTINUOUS
100
AcDbCircle
 39
1.8
 10
0.58667
 20
3.590076
 30
0.0
 40
0.009
100
AcDbArc
 50
265.0
 51
60.0
  0
LINE
  5
4DA
100
AcDbEntity
  8
GREEN
  6
CONTINUOUS
100
AcDbLine
 39
1.8
 10
0.59117
 20
3.59787
 30
0.0
 11
0.478656
 21
3.664455
 31
0.0
  0
ARC
  5
4DB
100
AcDbEntity
  8
GREEN
  6
CONTINUOUS
100
AcDbCircle
 39
1.8
 10
0.478656
 20
3.657705
 30
0.0
 40
0.00675
100
AcDbArc
 50
90.0
 51
180.0
  0
LINE
  5
4DC
100
AcDbEntity
  8
GREEN
  6
CONTINUOUS
100
AcDbLine
 39
1.8
 10
0.471906
 20
3.657705
 30
0.0
 11
0.471906
 21
2.876955
 31
0.0
  0
LINE
  5
4DD
100
AcDbEntity
  8
0
 62
     3
100
AcDbLine
 10
0.783024
 20
3.442299
 30
0.0
 11
0.603281
 21
3.546074
 31
0.0
  0
LINE
  5
4DE
100
AcDbEntity
  8
GREEN
100
AcDbLine
 10
0.478656
 20
3.664455
 30
0.0
 11
1.095471
 21
4.020573
 31
0.0
  0
LINE
  5
4DF
100
AcDbEntity
  8
GREEN
100
AcDbLine
 10
0.59475
 20
3.594041
 30
0.0
 11
1.214498
 21
3.951853
 31
0.0
  0
LINE
  5
4E0
100
AcDbEntity
  8
1
  6
CONTINUOUS
 62
     5
100
AcDbLine
 10
0.519401
 20
3.68798
 30
0.0
 11
0.519401
 21
4.248013
 31
0.0
  0
LINE
  5
4E1
100
AcDbEntity
  8
1
  6
CONTINUOUS
 62
     5
100
AcDbLine
 10
0.519401
 20
3.68798
 30
0.0
 11
0.519401
 21
4.248013
 31
0.0
  0
LINE
  5
4E2
100
AcDbEntity
  8
1
  6
CONTINUOUS
 62
     5
100
AcDbLine
 10
0.499916
 20
3.67673
 30
0.0
 11
0.499916
 21
4.259263
 31
0.0
  0
LINE
  5
4E3
100
AcDbEntity
  8
1
  6
CONTINUOUS
 62
     5
100
AcDbLine
 10
0.499916
 20
3.67673
 30
0.0
 11
0.499916
 21
4.259263
 31
0.0
  0
LINE
  5
4E4
100
AcDbEntity
  8
0
 62
     3
100
AcDbLine
 10
0.582926
 20
3.577051
 30
0.0
 11
0.58994
 21
3.573001
 31
0.0
  0
ARC
  5
4E5
100
AcDbEntity
  8
0
 62
     3
100
AcDbCircle
 10
0.588021
 20
3.542143
 30
0.0
 40
0.01125
100
AcDbArc
 50
195.0
 51
330.0
  0
ARC
  5
4E6
100
AcDbEntity
  8
0
 62
     3
100
AcDbCircle
 10
0.578426
 20
3.569257
 30
0.0
 40
0.009
100
AcDbArc
 50
60.0
 51
195.0
  0
LINE
  5
4E7
100
AcDbEntity
  8
0
 62
     3
100
AcDbLine
 10
0.577154
 20
3.539231
 30
0.0
 11
0.569733
 21
3.566927
 31
0.0
  0
ARC
  5
4E8
100
AcDbEntity
  8
0
 62
     3
100
AcDbCircle
 10
0.595516
 20
3.590567
 30
0.0
 40
0.00225
100
AcDbArc
 50
60.0
 51
195.0
  0
ARC
  5
4E9
100
AcDbEntity
  8
0
 62
     3
100
AcDbCircle
 10
0.59219
 20
3.576899
 30
0.0
 40
0.0045
100
AcDbArc
 50
240.0
 51
15.0
  0
LINE
  5
4EA
100
AcDbEntity
  8
0
 62
     3
100
AcDbLine
 10
0.603281
 20
3.546074
 30
0.0
 11
0.597764
 21
3.536518
 31
0.0
  0
LINE
  5
4EB
100
AcDbEntity
  8
0
 62
     3
100
AcDbLine
 10
0.596537
 20
3.578063
 30
0.0
 11
0.593343
 21
3.589985
 31
0.0
  0
LINE
  5
4EC
100
AcDbEntity
  8
1
  6
CONTINUOUS
 62
     5
100
AcDbLine
 10
0.499916
 20
4.259263
 30
0.0
 11
0.519401
 21
4.248013
 31
0.0
  0
LINE
  5
4ED
100
AcDbEntity
  8
1
  6
CONTINUOUS
 62
     5
100
AcDbLine
 10
0.499916
 20
4.259263
 30
0.0
 11
0.519401
 21
4.248013
 31
0.0
  0
LINE
  5
4EE
100
AcDbEntity
  8
2
  6
CONTINUOUS
 62
     4
100
AcDbLine
 10
1.38899
 20
3.85111
 30
0.0
 11
0.806441
 21
3.514776
 31
0.0
  0
LINE
  5
4EF
100
AcDbEntity
  8
2
  6
CONTINUOUS
 62
     4
100
AcDbLine
 10
0.806441
 20
3.505776
 30
0.0
 11
1.196153
 21
3.280776
 31
0.0
  0
LINE
  5
4F0
100
AcDbEntity
  8
2
  6
CONTINUOUS
 62
     4
100
AcDbLine
 10
0.806441
 20
3.514776
 30
0.0
 11
1.196153
 21
3.289776
 31
0.0
  0
LINE
  5
4F1
100
AcDbEntity
  8
2
  6
CONTINUOUS
 62
     4
100
AcDbLine
 10
0.806441
 20
3.514776
 30
0.0
 11
0.806441
 21
3.505776
 31
0.0
  0
LINE
  5
4F2
100
AcDbEntity
  8
2
  6
CONTINUOUS
 62
     4
100
AcDbLine
 10
1.196153
 20
3.289776
 30
0.0
 11
1.196153
 21
3.280776
 31
0.0
  0
LINE
  5
4F3
100
AcDbEntity
  8
2
  6
CONTINUOUS
 62
     4
100
AcDbLine
 10
1.585864
 20
3.064776
 30
0.0
 11
1.585864
 21
3.055776
 31
0.0
  0
LINE
  5
4F4
100
AcDbEntity
  8
1
  6
CONTINUOUS
 62
     5
100
AcDbLine
 10
0.837546
 20
4.191443
 30
0.0
 11
0.837546
 21
4.168943
 31
0.0
  0
LINE
  5
4F5
100
AcDbEntity
  8
1
  6
CONTINUOUS
 62
     5
100
AcDbLine
 10
0.837546
 20
4.191443
 30
0.0
 11
0.837546
 21
4.168943
 31
0.0
  0
LINE
  5
4F6
100
AcDbEntity
  8
1
  6
CONTINUOUS
 62
     5
100
AcDbLine
 39
0.09
 10
0.837546
 20
4.191443
 30
0.0
 11
0.837546
 21
4.168943
 31
0.0
  0
LINE
  5
4F7
100
AcDbEntity
  8
1
  6
CONTINUOUS
 62
     5
100
AcDbLine
 39
0.09
 10
0.837546
 20
4.191443
 30
0.0
 11
0.837546
 21
4.168943
 31
0.0
  0
LINE
  5
4F8
100
AcDbEntity
  8
R-DOOR-ANNO
100
AcDbLine
 10
6.474049
 20
6.388388
 30
0.0
 11
4.222422
 21
3.231049
 31
0.0
  0
LINE
  5
4F9
100
AcDbEntity
  8
GREEN
  6
CONTINUOUS
100
AcDbLine
 39
1.8
 10
2.225608
 20
1.864455
 30
0.0
 11
2.225608
 21
2.645205
 31
0.0
  0
ARC
  5
4FA
100
AcDbEntity
  8
GREEN
  6
CONTINUOUS
100
AcDbCircle
 39
1.8
 10
2.206492
 20
2.640083
 30
0.0
 40
0.01979
100
AcDbArc
 50
15.0
 51
45.0
  0
LINE
  5
4FB
100
AcDbEntity
  8
GREEN
  6
CONTINUOUS
100
AcDbLine
 39
1.8
 10
2.220486
 20
2.654077
 30
0.0
 11
2.106941
 21
2.719632
 31
0.0
  0
ARC
  5
4FC
100
AcDbEntity
  8
GREEN
  6
CONTINUOUS
100
AcDbCircle
 39
1.8
 10
2.106941
 20
2.710632
 30
0.0
 40
0.009
100
AcDbArc
 50
90.0
 51
245.0
  0
LINE
  5
4FD
100
AcDbEntity
  8
GREEN
  6
CONTINUOUS
100
AcDbLine
 39
1.8
 10
2.103137
 20
2.702476
 30
0.0
 11
2.115081
 21
2.696906
 31
0.0
  0
LINE
  5
4FE
100
AcDbEntity
  8
GREEN
  6
CONTINUOUS
100
AcDbLine
 39
1.8
 10
2.115081
 20
2.696906
 30
0.0
 11
2.073794
 21
2.67769
 31
0.0
  0
LINE
  5
4FF
100
AcDbEntity
  8
GREEN
  6
CONTINUOUS
100
AcDbLine
 39
1.8
 10
2.073794
 20
2.67769
 30
0.0
 11
2.059169
 21
2.67769
 31
0.0
  0
ARC
  5
500
100
AcDbEntity
  8
GREEN
  6
CONTINUOUS
100
AcDbCircle
 39
1.8
 10
2.059169
 20
2.667565
 30
0.0
 40
0.010125
100
AcDbArc
 50
90.0
 51
270.0
  0
LINE
  5
501
100
AcDbEntity
  8
GREEN
  6
CONTINUOUS
100
AcDbLine
 39
1.8
 10
2.059169
 20
2.65744
 30
0.0
 11
2.13336
 21
2.635357
 31
0.0
  0
ARC
  5
502
100
AcDbEntity
  8
GREEN
  6
CONTINUOUS
100
AcDbCircle
 39
1.8
 10
2.14063
 20
2.584217
 30
0.0
 40
0.051654
100
AcDbArc
 50
341.47451
 51
98.091202
  0
LINE
  5
503
100
AcDbEntity
  8
GREEN
  6
CONTINUOUS
100
AcDbLine
 39
1.8
 10
2.189608
 20
2.567805
 30
0.0
 11
2.189608
 21
1.965705
 31
0.0
  0
ARC
  5
504
100
AcDbEntity
  8
GREEN
  6
CONTINUOUS
100
AcDbCircle
 39
1.8
 10
2.173111
 20
1.96531
 30
0.0
 40
0.016501
100
AcDbArc
 50
252.745313
 51
1.373158
  0
HATCH
  5
505
100
AcDbEntity
  8
2
  6
CONTINUOUS
 62
     9
100
AcDbHatch
 10
0.0
 20
0.0
 30
0.0
210
0.0
220
0.0
230
1.0
  2
ANSI31
 70
     0
 71
     1
 91
        2
 92
        7
 72
     1
 73
     1
 93
        5
 10
2.961841890718314
 20
2.837869304797536
 42
0.0
 10
2.961841890718314
 20
2.01103179091892
 42
-0.1222318301882793
 10
2.958447958084086
 20
1.997356035715768
 42
0.0
 10
4.150889067580948
 20
2.685812231276567
 42
0.1036486555305329
 10
4.197981205972073
 20
3.551554671215175
 42
0.0
 97
        5
330
50D
330
510
330
51A
330
506
330
4CA
 92
        7
 72
     1
 73
     1
 93
        4
 10
2.92210631913316
 20
2.005810647748621
 42
0.5773502691893868
 10
2.942356319133157
 20
2.017501990699706
 42
0.0
 10
2.942356319133157
 20
2.186949326855767
 42
0.0
 10
2.775360621418425
 20
2.090534315826655
 42
0.0
 97
        4
330
51C
330
51E
330
524
330
512
 75
     0
 76
     1
 52
0.0
 41
0.05
 77
     0
 78
     1
 53
45.0
 43
-22.088823
 44
-30.099459
 45
-0.0044194173824159
 46
0.0044194173824159
 79
     0
 47
0.022773
 98
        2
 10
3.569056
 20
2.809286
 10
2.881979
 20
2.081704
  0
LWPOLYLINE
  5
506
102
{ACAD_REACTORS
330
505
102
}
100
AcDbEntity
  8
1
  6
CONTINUOUS
 62
     5
100
AcDbPolyline
 90
        2
 70
     0
 43
0.009
 10
2.946728
 20
1.990589
 10
4.148285
 20
2.684309
  0
LINE
  5
507
100
AcDbEntity
  8
1
  6
CONTINUOUS
 62
     5
100
AcDbLine
 10
2.947217
 20
1.985701
 30
0.0
 11
4.148774
 21
2.67942
 31
0.0
  0
LINE
  5
508
100
AcDbEntity
  8
1
  6
CONTINUOUS
100
AcDbLine
 10
2.622425
 20
3.160943
 30
0.0
 11
4.076775
 21
4.000612
 31
0.0
  0
LINE
  5
509
100
AcDbEntity
  8
1
  6
CONTINUOUS
100
AcDbLine
 10
2.622425
 20
3.138443
 30
0.0
 11
4.083873
 21
3.98221
 31
0.0
  0
LINE
  5
50A
100
AcDbEntity
  8
GREEN
100
AcDbLine
 10
2.225608
 20
2.645205
 30
0.0
 11
4.155339
 21
3.759336
 31
0.0
  0
LINE
  5
50B
100
AcDbEntity
  8
2
  6
CONTINUOUS
 62
     4
100
AcDbLine
 10
2.276889
 20
2.480229
 30
0.0
 11
4.192382
 21
3.586139
 31
0.0
  0
LINE
  5
50C
100
AcDbEntity
  8
2
  6
CONTINUOUS
 62
     4
100
AcDbLine
 10
2.2613
 20
2.489229
 30
0.0
 11
4.189529
 21
3.602492
 31
0.0
  0
LINE
  5
50D
102
{ACAD_REACTORS
330
505
102
}
100
AcDbEntity
  8
1
  6
CONTINUOUS
 62
     5
100
AcDbLine
 10
2.961842
 20
2.837869
 30
0.0
 11
4.19751
 21
3.551283
 31
0.0
  0
LINE
  5
50E
100
AcDbEntity
  8
1
  6
CONTINUOUS
 62
     5
100
AcDbLine
 10
2.942356
 20
2.849119
 30
0.0
 11
4.194244
 21
3.571897
 31
0.0
  0
LINE
  5
50F
100
AcDbEntity
  8
GREEN
100
AcDbLine
 10
2.102575
 20
2.718503
 30
0.0
 11
4.119394
 21
3.882914
 31
0.0
  0
LINE
  5
510
102
{ACAD_REACTORS
330
505
102
}
100
AcDbEntity
  8
1
  6
CONTINUOUS
 62
     5
100
AcDbLine
 10
2.961842
 20
2.011032
 30
0.0
 11
2.961842
 21
2.837869
 31
0.0
  0
LINE
  5
511
100
AcDbEntity
  8
1
  6
CONTINUOUS
 62
     5
100
AcDbLine
 10
2.961842
 20
2.011032
 30
0.0
 11
2.961842
 21
2.837869
 31
0.0
  0
LINE
  5
512
102
{ACAD_REACTORS
330
505
102
}
100
AcDbEntity
  8
1
  6
CONTINUOUS
 62
     5
100
AcDbLine
 10
2.942356
 20
2.017502
 30
0.0
 11
2.942356
 21
2.849119
 31
0.0
  0
LINE
  5
513
100
AcDbEntity
  8
1
  6
CONTINUOUS
 62
     5
100
AcDbLine
 10
2.942356
 20
2.017502
 30
0.0
 11
2.942356
 21
2.849119
 31
0.0
  0
LINE
  5
514
100
AcDbEntity
  8
2
  6
CONTINUOUS
 62
     4
100
AcDbLine
 10
2.276889
 20
2.030229
 30
0.0
 11
2.942827
 21
2.414708
 31
0.0
  0
LINE
  5
515
100
AcDbEntity
  8
GREEN
100
AcDbLine
 10
2.225608
 20
1.864455
 30
0.0
 11
2.942827
 21
2.278542
 31
0.0
  0
LINE
  5
516
100
AcDbEntity
  8
2
  6
CONTINUOUS
 62
     4
100
AcDbLine
 10
2.276889
 20
2.480229
 30
0.0
 11
2.276889
 21
2.030229
 31
0.0
  0
LINE
  5
517
100
AcDbEntity
  8
2
  6
CONTINUOUS
 62
     4
100
AcDbLine
 10
2.2613
 20
2.489229
 30
0.0
 11
2.2613
 21
2.039229
 31
0.0
  0
LINE
  5
518
100
AcDbEntity
  8
2
  6
CONTINUOUS
 62
     4
100
AcDbLine
 10
2.2613
 20
2.039229
 30
0.0
 11
2.276889
 21
2.030229
 31
0.0
  0
LINE
  5
519
100
AcDbEntity
  8
2
  6
CONTINUOUS
 62
     4
100
AcDbLine
 10
2.2613
 20
2.489229
 30
0.0
 11
2.276889
 21
2.480229
 31
0.0
  0
ARC
  5
51A
102
{ACAD_REACTORS
330
505
102
}
100
AcDbEntity
  8
1
  6
CONTINUOUS
 62
     5
100
AcDbCircle
 10
2.932592
 20
2.011032
 30
0.0
 40
0.02925
100
AcDbArc
 50
240.0
 51
0.0
  0
ARC
  5
51B
100
AcDbEntity
  8
1
  6
CONTINUOUS
 62
     5
100
AcDbCircle
 10
2.932592
 20
2.011032
 30
0.0
 40
0.02925
100
AcDbArc
 50
240.0
 51
0.0
  0
LWPOLYLINE
  5
51C
102
{ACAD_REACTORS
330
505
102
}
100
AcDbEntity
  8
1
  6
CONTINUOUS
 62
     5
100
AcDbPolyline
 90
        2
 70
     0
 43
0.009
 10
2.773157
 20
2.089262
 10
2.94463
 20
2.188262
  0
LINE
  5
51D
100
AcDbEntity
  8
1
  6
CONTINUOUS
 62
     5
100
AcDbLine
 10
2.770883
 20
2.093119
 30
0.0
 11
2.942356
 21
2.192119
 31
0.0
  0
LINE
  5
51E
102
{ACAD_REACTORS
330
505
102
}
100
AcDbEntity
  8
1
  6
CONTINUOUS
 62
     5
100
AcDbLine
 10
2.922106
 20
2.005811
 30
0.0
 11
2.770883
 21
2.093119
 31
0.0
  0
LINE
  5
51F
100
AcDbEntity
  8
1
  6
CONTINUOUS
 62
     5
100
AcDbLine
 10
2.922106
 20
2.005811
 30
0.0
 11
2.770883
 21
2.093119
 31
0.0
  0
LINE
  5
520
100
AcDbEntity
  8
1
  6
CONTINUOUS
 62
     5
100
AcDbLine
 10
2.917967
 20
1.985701
 30
0.0
 11
2.770883
 21
2.070619
 31
0.0
  0
LINE
  5
521
100
AcDbEntity
  8
1
  6
CONTINUOUS
 62
     5
100
AcDbLine
 10
2.917967
 20
1.985701
 30
0.0
 11
2.770883
 21
2.070619
 31
0.0
  0
LINE
  5
522
100
AcDbEntity
  8
1
  6
CONTINUOUS
 62
     5
100
AcDbLine
 10
2.770883
 20
2.093119
 30
0.0
 11
2.770883
 21
2.070619
 31
0.0
  0
LINE
  5
523
100
AcDbEntity
  8
1
  6
CONTINUOUS
 62
     5
100
AcDbLine
 10
2.770883
 20
2.093119
 30
0.0
 11
2.770883
 21
2.070619
 31
0.0
  0
ARC
  5
524
102
{ACAD_REACTORS
330
505
102
}
100
AcDbEntity
  8
1
  6
CONTINUOUS
 62
     5
100
AcDbCircle
 10
2.928856
 20
2.017502
 30
0.0
 40
0.0135
100
AcDbArc
 50
240.0
 51
0.0
  0
ARC
  5
525
100
AcDbEntity
  8
1
  6
CONTINUOUS
 62
     5
100
AcDbCircle
 10
2.928856
 20
2.017502
 30
0.0
 40
0.0135
100
AcDbArc
 50
240.0
 51
0.0
  0
LINE
  5
526
100
AcDbEntity
  8
2
  6
CONTINUOUS
 62
     4
100
AcDbLine
 10
2.565918
 20
3.17161
 30
0.0
 11
1.975575
 21
2.830776
 31
0.0
  0
LINE
  5
527
100
AcDbEntity
  8
2
  6
CONTINUOUS
 62
     4
100
AcDbLine
 10
2.558124
 20
3.17611
 30
0.0
 11
1.975575
 21
2.839776
 31
0.0
  0
LINE
  5
528
100
AcDbEntity
  8
0
 62
     3
100
AcDbLine
 10
1.758216
 20
2.92188
 30
0.0
 11
2.104515
 21
2.721944
 31
0.0
  0
LINE
  5
529
100
AcDbEntity
  8
2
  6
CONTINUOUS
 62
     4
100
AcDbLine
 10
1.975575
 20
2.839776
 30
0.0
 11
1.975575
 21
2.830776
 31
0.0
  0
ARC
  5
52A
100
AcDbEntity
  8
0
 62
     3
100
AcDbCircle
 10
2.093215
 20
2.710281
 30
0.0
 40
0.0045
100
AcDbArc
 50
105.0
 51
240.0
  0
LINE
  5
52B
100
AcDbEntity
  8
0
 62
     3
100
AcDbLine
 10
2.090965
 20
2.706384
 30
0.0
 11
2.097979
 21
2.702335
 31
0.0
  0
LINE
  5
52C
100
AcDbEntity
  8
0
 62
     3
100
AcDbLine
 10
2.095809
 20
2.685847
 30
0.0
 11
2.068112
 21
2.678426
 31
0.0
  0
ARC
  5
52D
100
AcDbEntity
  8
0
 62
     3
100
AcDbCircle
 10
2.0652
 20
2.689293
 30
0.0
 40
0.01125
100
AcDbArc
 50
150.0
 51
285.0
  0
LINE
  5
52E
100
AcDbEntity
  8
0
 62
     3
100
AcDbLine
 10
2.055458
 20
2.694918
 30
0.0
 11
2.060975
 21
2.704473
 31
0.0
  0
ARC
  5
52F
100
AcDbEntity
  8
0
 62
     3
100
AcDbCircle
 10
2.10339
 20
2.719996
 30
0.0
 40
0.00225
100
AcDbArc
 50
285.0
 51
60.0
  0
ARC
  5
530
100
AcDbEntity
  8
0
 62
     3
100
AcDbCircle
 10
2.093479
 20
2.69454
 30
0.0
 40
0.009
100
AcDbArc
 50
285.0
 51
60.0
  0
LINE
  5
531
100
AcDbEntity
  8
0
 62
     3
100
AcDbLine
 10
2.103972
 20
2.717822
 30
0.0
 11
2.092051
 21
2.714628
 31
0.0
  0
LINE
  5
532
100
AcDbEntity
  8
1
  6
CONTINUOUS
100
AcDbLine
 39
0.09
 10
2.622425
 20
3.160943
 30
0.0
 11
2.622425
 21
3.138443
 31
0.0
  0
LINE
  5
533
100
AcDbEntity
  8
1
  6
CONTINUOUS
 62
     5
100
AcDbLine
 10
2.942356
 20
2.849119
 30
0.0
 11
2.961842
 21
2.837869
 31
0.0
  0
LINE
  5
534
100
AcDbEntity
  8
1
  6
CONTINUOUS
 62
     5
100
AcDbLine
 10
2.942356
 20
2.849119
 30
0.0
 11
2.961842
 21
2.837869
 31
0.0
  0
ENDBLK
  5
536
100
AcDbEntity
  8
0
100
AcDbBlockEnd
  0
BLOCK
  5
648
100
AcDbEntity
  8
0
100
AcDbBlockBegin
  2
A$C60D668AB
 70
     0
 10
0.0
 20
0.0
 30
0.0
  3
A$C60D668AB
  1

  0
LWPOLYLINE
  5
5C5
100
AcDbEntity
  8
1
  6
CONTINUOUS
 62
     5
100
AcDbPolyline
 90
        2
 70
     0
 43
0.0125
 10
1.325543
 20
5.767831
 42
70374.114908
 10
1.32561
 20
5.767822
 42
70374.114908
  0
HATCH
  5
5C6
100
AcDbEntity
  8
2
  6
CONTINUOUS
 62
     9
100
AcDbHatch
 10
0.0
 20
0.0
 30
0.0
210
0.0
220
0.0
230
1.0
  2
SOLID
 70
     1
 71
     0
 91
        1
 92
        7
 72
     1
 73
     1
 93
        8
 10
1.507297406528573
 20
5.730439624784963
 42
0.0
 10
1.505577307468472
 20
5.729446525129585
 42
0.0
 10
1.505702307468476
 20
5.72923001877864
 42
0.0
 10
1.505827307468473
 20
5.729013512427691
 42
0.0
 10
1.505952307468477
 20
5.728797006076746
 42
0.0
 10
0.4768388484008402
 20
5.134638073457381
 42
0.0
 10
1.46593793573402
 20
4.563581449130353
 42
0.0
 10
2.274172015980228
 20
5.030215612928731
 42
0.2330962772361932
 97
        0
 75
     0
 76
     1
 47
0.017346
 98
        1
 10
1.400083
 20
5.208626
  0
HATCH
  5
5C7
100
AcDbEntity
  8
1
  6
CONTINUOUS
 62
     5
100
AcDbHatch
 10
0.0
 20
0.0
 30
0.0
210
0.0
220
0.0
230
1.0
  2
SOLID
 70
     1
 71
     0
 91
        7
 92
        7
 72
     1
 73
     1
 93
        4
 10
1.334960353328755
 20
5.766434497087562
 42
0.003817909443379
 10
1.31716605248121
 20
5.768660952703189
 42
0.0
 10
0.2867663817818187
 20
5.173759425451994
 42
0.0
 10
0.2975916993291268
 20
5.167509425451996
 42
0.0
 97
        0
 92
        7
 72
     0
 73
     1
 93
        4
 10
0.2975916993291268
 20
5.167509425451996
 10
0.2867663817818187
 20
5.173759425451994
 10
0.2867663817818187
 20
4.850129826864549
 10
0.2975916993291268
 20
4.85637982686455
 97
        0
 92
        7
 72
     0
 73
     1
 93
        4
 10
0.4743388484008353
 20
5.136081449130355
 10
0.4743388484008353
 20
5.123581449130355
 10
1.46593793573402
 20
4.557331449130355
 10
1.46593793573402
 20
4.563581449130353
 97
        0
 92
        7
 72
     1
 73
     1
 93
        4
 10
2.277853655486358
 20
5.019841208488657
 42
0.002332807343841
 10
2.273910495756917
 20
5.030064624157404
 42
0.0
 10
1.46593793573402
 20
4.563581449130353
 42
0.0
 10
1.46593793573402
 20
4.551081449130354
 42
0.0
 97
        0
 92
        7
 72
     1
 73
     1
 93
        4
 10
2.340985607419076
 20
4.780437165570837
 42
0.0024685623280776
 10
2.339170860060422
 20
4.791889420694808
 42
0.0
 10
1.643677745984129
 20
4.39034628406333
 42
0.0
 10
1.654503063531437
 20
4.384096284063328
 42
0.0
 97
        0
 92
        7
 72
     1
 73
     1
 93
        8
 10
1.654503063531437
 20
4.384096284063328
 42
0.0
 10
1.643677745984129
 20
4.39034628406333
 42
0.0
 10
1.643677745984129
 20
3.928336665120095
 42
-0.5773502691896262
 10
1.632427745984132
 20
3.921841474591712
 42
0.0
 10
1.548414951567844
 20
3.970346284063328
 42
0.0
 10
1.548414951567844
 20
3.957846284063329
 42
0.0
 10
1.630128063531435
 20
3.910669196874824
 42
0.577350269189633
 10
1.654503063531437
 20
3.92474210968632
 42
0.0
 97
        0
 92
        7
 72
     0
 73
     1
 93
        3
 10
0.4743388484008424
 20
5.123581449130345
 10
1.46593793573402
 20
4.551081449130354
 10
1.46593793573402
 20
4.557331449130355
 97
        0
 75
     0
 76
     1
 47
0.006507
 98
        7
 10
0.310134
 20
5.18231
 10
0.291978
 20
5.153125
 10
0.481424
 20
5.127884
 10
1.540734
 20
4.602712
 10
1.747496
 20
4.446533
 10
1.649813
 20
4.353802
 10
1.434911
 20
4.573428
  0
HATCH
  5
5C8
100
AcDbEntity
  8
1
  6
CONTINUOUS
 62
     5
100
AcDbHatch
 10
0.0
 20
0.0
 30
0.0
210
0.0
220
0.0
230
1.0
  2
SOLID
 70
     1
 71
     0
 91
        7
 92
        7
 72
     1
 73
     1
 93
        4
 10
1.334960353328755
 20
5.766434497087562
 42
0.003817909443379
 10
1.31716605248121
 20
5.768660952703189
 42
0.0
 10
0.2867663817818187
 20
5.173759425451994
 42
0.0
 10
0.2975916993291268
 20
5.167509425451996
 42
0.0
 97
        0
 92
        7
 72
     0
 73
     1
 93
        4
 10
0.2975916993291268
 20
5.167509425451996
 10
0.2867663817818187
 20
5.173759425451994
 10
0.2867663817818187
 20
4.850129826864549
 10
0.2975916993291268
 20
4.856379826864547
 97
        0
 92
        7
 72
     0
 73
     1
 93
        4
 10
0.4743388484008353
 20
5.136081449130355
 10
0.4743388484008353
 20
5.123581449130355
 10
1.46593793573402
 20
4.557331449130355
 10
1.46593793573402
 20
4.563581449130353
 97
        0
 92
        7
 72
     1
 73
     1
 93
        4
 10
2.277853655486355
 20
5.019841208488657
 42
0.002332807343841
 10
2.273910495756917
 20
5.030064624157404
 42
0.0
 10
1.46593793573402
 20
4.563581449130353
 42
0.0
 10
1.46593793573402
 20
4.551081449130354
 42
0.0
 97
        0
 92
        7
 72
     1
 73
     1
 93
        4
 10
2.340985607419076
 20
4.780437165570837
 42
0.0024685623280776
 10
2.339170860060422
 20
4.791889420694808
 42
0.0
 10
1.643677745984129
 20
4.390346284063326
 42
0.0
 10
1.654503063531437
 20
4.384096284063328
 42
0.0
 97
        0
 92
        7
 72
     1
 73
     1
 93
        8
 10
1.654503063531437
 20
4.384096284063328
 42
0.0
 10
1.643677745984129
 20
4.39034628406333
 42
0.0
 10
1.643677745984129
 20
3.928336665120095
 42
-0.5773502691896262
 10
1.632427745984132
 20
3.921841474591712
 42
0.0
 10
1.548414951567844
 20
3.970346284063328
 42
0.0
 10
1.548414951567844
 20
3.957846284063329
 42
0.0
 10
1.630128063531435
 20
3.910669196874824
 42
0.577350269189633
 10
1.654503063531437
 20
3.92474210968632
 42
0.0
 97
        0
 92
        7
 72
     0
 73
     1
 93
        3
 10
0.4743388484008424
 20
5.123581449130345
 10
1.46593793573402
 20
4.551081449130354
 10
1.46593793573402
 20
4.557331449130355
 97
        0
 75
     0
 76
     1
 47
0.006507
 98
        7
 10
0.310134
 20
5.18231
 10
0.291978
 20
5.153125
 10
0.481424
 20
5.127884
 10
1.540734
 20
4.602712
 10
1.747496
 20
4.446533
 10
1.649813
 20
4.353802
 10
1.434911
 20
4.573428
  0
LINE
  5
5C9
100
AcDbEntity
  8
GREEN
100
AcDbLine
 10
1.177132
 20
4.317781
 30
0.0
 11
2.297588
 21
4.964677
 31
0.0
  0
HATCH
  5
5CA
100
AcDbEntity
  8
2
  6
CONTINUOUS
 62
     9
100
AcDbHatch
 10
0.0
 20
0.0
 30
0.0
210
0.0
220
0.0
230
1.0
  2
SOLID
 70
     1
 71
     0
 91
        2
 92
        7
 72
     1
 73
     1
 93
        5
 10
2.341247127642597
 20
4.780588154342286
 42
0.0
 10
1.654503063531437
 20
4.384096284063328
 42
0.0
 10
1.654503063531437
 20
3.924742109686324
 42
-0.1222318301882052
 10
1.652617545401314
 20
3.917144467906798
 42
0.0
 10
2.315084828567643
 20
4.299620132172201
 42
0.1036486555257608
 97
        0
 92
        7
 72
     1
 73
     1
 93
        4
 10
1.643677745984129
 20
4.022474074095686
 42
0.0
 10
1.550902358364824
 20
3.968910179079507
 42
0.0
 10
1.632427745984132
 20
3.921841474591712
 42
0.5773502691896213
 10
1.643677745984129
 20
3.928336665120095
 42
0.0
 97
        0
 75
     0
 76
     1
 47
0.022773
 98
        2
 10
1.991844
 20
4.368217
 10
1.610135
 20
3.964005
  0
LINE
  5
5CB
100
AcDbEntity
  8
GREEN
100
AcDbLine
 10
1.245484
 20
4.277061
 30
0.0
 11
2.317557
 21
4.896022
 31
0.0
  0
LINE
  5
5CC
100
AcDbEntity
  8
1
  6
CONTINUOUS
100
AcDbLine
 10
1.465938
 20
4.563581
 30
0.0
 11
2.27391
 21
5.030065
 31
0.0
  0
LINE
  5
5CD
100
AcDbEntity
  8
1
  6
CONTINUOUS
100
AcDbLine
 10
1.465938
 20
4.551081
 30
0.0
 11
2.277854
 21
5.019841
 31
0.0
  0
LINE
  5
5CE
100
AcDbEntity
  8
1
  6
CONTINUOUS
 62
     5
100
AcDbLine
 10
1.643678
 20
4.390346
 30
0.0
 11
2.339171
 21
4.791889
 31
0.0
  0
LINE
  5
5CF
100
AcDbEntity
  8
1
  6
CONTINUOUS
 62
     5
100
AcDbLine
 10
1.654503
 20
4.384096
 30
0.0
 11
2.340986
 21
4.780437
 31
0.0
  0
LINE
  5
5D0
100
AcDbEntity
  8
2
  6
CONTINUOUS
 62
     4
100
AcDbLine
 10
1.265313
 20
4.190407
 30
0.0
 11
2.336552
 21
4.808887
 31
0.0
  0
LINE
  5
5D1
100
AcDbEntity
  8
2
  6
CONTINUOUS
 62
     4
100
AcDbLine
 10
1.273973
 20
4.185407
 30
0.0
 11
2.338136
 21
4.799802
 31
0.0
  0
LINE
  5
5D2
100
AcDbEntity
  8
1
  6
CONTINUOUS
 62
     5
100
AcDbLine
 10
1.646378
 20
3.910669
 30
0.0
 11
2.31391
 21
4.296069
 31
0.0
  0
LWPOLYLINE
  5
5D3
100
AcDbEntity
  8
1
  6
CONTINUOUS
 62
     5
100
AcDbPolyline
 90
        2
 70
     0
 43
0.005
 10
1.646106
 20
3.913385
 10
2.313638
 20
4.298785
  0
MTEXT
  5
5D4
100
AcDbEntity
  8
2
  6
CONTINUOUS
 62
     9
100
AcDbMText
 10
0.2493
 20
3.220449
 30
0.0
 40
0.3855
 41
2.7245
 71
     1
 72
     5
  1
\fArial|b1|i0|c0|p34;\C7;C L A D
  7
ROMANS
  0
ARC
  5
5D5
100
AcDbEntity
  8
GREEN
  6
CONTINUOUS
100
AcDbCircle
 39
1.0
 10
1.216319
 20
3.899341
 30
0.0
 40
0.009167
100
AcDbArc
 50
252.745313
 51
1.373158
  0
LINE
  5
5D6
100
AcDbEntity
  8
GREEN
  6
CONTINUOUS
100
AcDbLine
 39
1.0
 10
1.225484
 20
4.234061
 30
0.0
 11
1.225484
 21
3.899561
 31
0.0
  0
ARC
  5
5D7
100
AcDbEntity
  8
GREEN
  6
CONTINUOUS
100
AcDbCircle
 39
1.0
 10
1.198274
 20
4.243178
 30
0.0
 40
0.028697
100
AcDbArc
 50
341.47451
 51
98.091202
  0
LINE
  5
5D8
100
AcDbEntity
  8
GREEN
  6
CONTINUOUS
100
AcDbLine
 39
1.0
 10
1.153018
 20
4.283858
 30
0.0
 11
1.194235
 21
4.271589
 31
0.0
  0
ARC
  5
5D9
100
AcDbEntity
  8
GREEN
  6
CONTINUOUS
100
AcDbCircle
 39
1.0
 10
1.153018
 20
4.289483
 30
0.0
 40
0.005625
100
AcDbArc
 50
90.0
 51
270.0
  0
LINE
  5
5DA
100
AcDbEntity
  8
GREEN
  6
CONTINUOUS
100
AcDbLine
 39
1.0
 10
1.161143
 20
4.295108
 30
0.0
 11
1.153018
 21
4.295108
 31
0.0
  0
LINE
  5
5DB
100
AcDbEntity
  8
GREEN
  6
CONTINUOUS
100
AcDbLine
 39
1.0
 10
1.18408
 20
4.305783
 30
0.0
 11
1.161143
 21
4.295108
 31
0.0
  0
LINE
  5
5DC
100
AcDbEntity
  8
GREEN
  6
CONTINUOUS
100
AcDbLine
 39
1.0
 10
1.177445
 20
4.308878
 30
0.0
 11
1.18408
 21
4.305783
 31
0.0
  0
ARC
  5
5DD
100
AcDbEntity
  8
GREEN
  6
CONTINUOUS
100
AcDbCircle
 39
1.0
 10
1.179558
 20
4.313409
 30
0.0
 40
0.005
100
AcDbArc
 50
90.0
 51
245.0
  0
LINE
  5
5DE
100
AcDbEntity
  8
GREEN
  6
CONTINUOUS
100
AcDbLine
 39
1.0
 10
1.242638
 20
4.281989
 30
0.0
 11
1.179558
 21
4.318409
 31
0.0
  0
ARC
  5
5DF
100
AcDbEntity
  8
GREEN
  6
CONTINUOUS
100
AcDbCircle
 39
1.0
 10
1.234864
 20
4.274215
 30
0.0
 40
0.010994
100
AcDbArc
 50
15.0
 51
45.0
  0
LINE
  5
5E0
100
AcDbEntity
  8
GREEN
  6
CONTINUOUS
100
AcDbLine
 39
1.0
 10
1.245484
 20
3.843311
 30
0.0
 11
1.245484
 21
4.277061
 31
0.0
  0
LINE
  5
5E1
100
AcDbEntity
  8
GREEN
  6
CONTINUOUS
100
AcDbLine
 39
1.0
 10
0.271205
 20
4.405811
 30
0.0
 11
1.245484
 21
3.843311
 31
0.0
  0
LINE
  5
5E2
100
AcDbEntity
  8
GREEN
  6
CONTINUOUS
100
AcDbLine
 39
1.0
 10
0.271205
 20
4.839561
 30
0.0
 11
0.271205
 21
4.405811
 31
0.0
  0
ARC
  5
5E3
100
AcDbEntity
  8
GREEN
  6
CONTINUOUS
100
AcDbCircle
 39
1.0
 10
0.274955
 20
4.839561
 30
0.0
 40
0.00375
100
AcDbArc
 50
90.0
 51
180.0
  0
LINE
  5
5E4
100
AcDbEntity
  8
GREEN
  6
CONTINUOUS
100
AcDbLine
 39
1.0
 10
0.337463
 20
4.806319
 30
0.0
 11
0.274955
 21
4.843311
 31
0.0
  0
ARC
  5
5E5
100
AcDbEntity
  8
GREEN
  6
CONTINUOUS
100
AcDbCircle
 39
1.0
 10
0.334963
 20
4.801989
 30
0.0
 40
0.005
100
AcDbArc
 50
265.0
 51
60.0
  0
LINE
  5
5E6
100
AcDbEntity
  8
GREEN
  6
CONTINUOUS
100
AcDbLine
 39
1.0
 10
0.327234
 20
4.797646
 30
0.0
 11
0.334528
 21
4.797008
 31
0.0
  0
LINE
  5
5E7
100
AcDbEntity
  8
GREEN
  6
CONTINUOUS
100
AcDbLine
 39
1.0
 10
0.322419
 20
4.787562
 30
0.0
 11
0.327234
 21
4.797646
 31
0.0
  0
LINE
  5
5E8
100
AcDbEntity
  8
GREEN
  6
CONTINUOUS
100
AcDbLine
 39
1.0
 10
0.329455
 20
4.774183
 30
0.0
 11
0.322419
 21
4.787562
 31
0.0
  0
ARC
  5
5E9
100
AcDbEntity
  8
GREEN
  6
CONTINUOUS
100
AcDbCircle
 39
1.0
 10
0.326643
 20
4.769311
 30
0.0
 40
0.005625
100
AcDbArc
 50
240.0
 51
60.0
  0
LINE
  5
5EA
100
AcDbEntity
  8
GREEN
  6
CONTINUOUS
100
AcDbLine
 39
1.0
 10
0.298566
 20
4.787846
 30
0.0
 11
0.32383
 21
4.76444
 31
0.0
  0
ARC
  5
5EB
100
AcDbEntity
  8
GREEN
  6
CONTINUOUS
100
AcDbCircle
 39
1.0
 10
0.294884
 20
4.787035
 30
0.0
 40
0.003771
100
AcDbArc
 50
12.423788
 51
197.604591
  0
LINE
  5
5EC
100
AcDbEntity
  8
GREEN
  6
CONTINUOUS
100
AcDbLine
 39
1.0
 10
0.291205
 20
4.462061
 30
0.0
 11
0.291289
 21
4.785894
 31
0.0
  0
ARC
  5
5ED
100
AcDbEntity
  8
GREEN
  6
CONTINUOUS
100
AcDbCircle
 39
1.0
 10
0.368844
 20
4.468203
 30
0.0
 40
0.077881
100
AcDbArc
 50
184.523413
 51
238.446514
  0
LINE
  5
5EE
100
AcDbEntity
  8
GREEN
  6
CONTINUOUS
100
AcDbLine
 39
1.0
 10
1.2136
 20
3.890586
 30
0.0
 11
0.328089
 21
4.401836
 31
0.0
  0
LINE
  5
5EF
100
AcDbEntity
  8
0
 62
     3
100
AcDbLine
 10
0.985822
 20
4.430769
 30
0.0
 11
1.17821
 21
4.319693
 31
0.0
  0
LINE
  5
5F0
100
AcDbEntity
  8
2
  6
CONTINUOUS
 62
     4
100
AcDbLine
 10
0.890071
 20
4.510155
 30
0.0
 11
1.106577
 21
4.385155
 31
0.0
  0
LINE
  5
5F1
100
AcDbEntity
  8
2
  6
CONTINUOUS
 62
     4
100
AcDbLine
 10
0.890071
 20
4.505155
 30
0.0
 11
1.106577
 21
4.380155
 31
0.0
  0
LINE
  5
5F2
100
AcDbEntity
  8
2
  6
CONTINUOUS
 62
     4
100
AcDbLine
 10
1.430215
 20
4.572008
 30
0.0
 11
1.106577
 21
4.385155
 31
0.0
  0
LINE
  5
5F3
100
AcDbEntity
  8
2
  6
CONTINUOUS
 62
     4
100
AcDbLine
 10
1.434545
 20
4.569508
 30
0.0
 11
1.106577
 21
4.380155
 31
0.0
  0
HATCH
  5
5F4
100
AcDbEntity
  8
2
  6
CONTINUOUS
 62
     9
100
AcDbHatch
 10
0.0
 20
0.0
 30
0.0
210
0.0
220
0.0
230
1.0
  2
SOLID
 70
     1
 71
     0
 91
        2
 92
       23
 72
     1
 73
     1
 93
       20
 10
1.154021316292224
 20
4.309987496461054
 42
0.0
 10
1.150956236929255
 20
4.304678623275158
 42
0.6681786379192962
 10
1.157986514734796
 20
4.295516586860852
 42
0.0
 10
1.173373482532605
 20
4.299639512456238
 42
0.6681786379192695
 10
1.174579387307092
 20
4.308799268606605
 42
0.0
 10
1.17068272831535
 20
4.311049005724431
 42
-0.6681786379192408
 10
1.171285680702593
 20
4.315628883799615
 42
0.0
 10
1.177908649382393
 20
4.317403502908863
 42
0.6681786379193185
 10
1.178210125576017
 20
4.319693441946455
 42
0.0
 10
0.9858219537890438
 20
4.430768804716564
 42
0.0
 10
0.3405024958228129
 20
4.80334416748667
 42
0.668178637919208
 10
0.3386700885399509
 20
4.801938111925561
 42
0.0
 10
0.3404447076491994
 20
4.795315143245762
 42
-0.6681786379193225
 10
0.3367798930834756
 20
4.792503032123544
 42
0.0
 10
0.3328832340917334
 20
4.79475276924137
 42
0.6681786379193126
 10
0.3255536049602892
 20
4.789128546996934
 42
0.0
 10
0.329676530555675
 20
4.773741579199125
 42
0.6681786379193007
 10
0.3411262257436345
 20
4.772234198231018
 42
0.0
 10
0.3441913051066034
 20
4.777543071416911
 42
0.0
 10
0.4440488622163468
 20
4.71989028393898
 42
0.0
 97
        0
 92
        7
 72
     1
 73
     1
 93
       37
 10
0.27495547717532
 20
4.843310797910611
 42
0.4142135623731299
 10
0.2712054771753198
 20
4.839560797910614
 42
0.0
 10
0.2712054771753198
 20
4.405810797910614
 42
0.0
 10
1.245484056432809
 20
3.843310797910614
 42
0.0
 10
1.245484056432813
 20
4.277060797910614
 42
0.1316524975873667
 10
1.242638485013676
 20
4.28198947218512
 42
0.0
 10
1.179557869544902
 20
4.318409082506661
 42
0.0376464264871547
 10
1.178808134740068
 20
4.318352552717193
 42
-0.2823673447488831
 10
1.177908649382393
 20
4.317403502908863
 42
0.0
 10
1.175960263034474
 20
4.316881434360393
 42
0.5149511874561723
 10
1.177444778236202
 20
4.30887754357148
 42
0.0
 10
1.184080367337424
 20
4.30578331755721
 42
0.0
 10
1.176580954804476
 20
4.30229293156416
 42
-0.2180320882791709
 10
1.173373482532605
 20
4.299639512456238
 42
0.0
 10
1.167496229201569
 20
4.298064707172475
 42
0.0
 10
1.161142985817919
 20
4.295107772663364
 42
0.0
 10
1.153017985817919
 20
4.295107772663364
 42
1.0
 10
1.153017985817919
 20
4.283857772663363
 42
0.0
 10
1.194235452213051
 20
4.271589365371418
 42
-0.5578319223640622
 10
1.225484056432813
 20
4.234060797910618
 42
0.0
 10
1.225484056432813
 20
3.899560797910613
 42
-0.5129809895031772
 10
1.213600254488857
 20
3.890586433005221
 42
0.0
 10
0.3280892791192702
 20
4.401836433005225
 42
-0.2397239142270584
 10
0.2912054771753194
 20
4.462060797910613
 42
0.0
 10
0.2912894839935465
 20
4.785894476641562
 42
-1.046264757040728
 10
0.2985660734850928
 20
4.787846164480278
 42
0.0
 10
0.3238301653333213
 20
4.764439911361193
 42
0.6309633877406034
 10
0.3321983861239612
 20
4.770191413055549
 42
-0.1798205534880095
 10
0.329676530555675
 20
4.773741579199125
 42
0.0
 10
0.3296654944050648
 20
4.773782766673924
 42
0.0
 10
0.3224187089275663
 20
4.787562176097893
 42
0.0
 10
0.3272338594463999
 20
4.797645875398586
 42
0.0
 10
0.3345275611842684
 20
4.797007759181386
 42
0.293926452988122
 10
0.3393158843384985
 20
4.799527969194073
 42
0.0
 10
0.3386700885399509
 20
4.801938111925561
 42
-0.4565659268922137
 10
0.3397286090854177
 20
4.803502737153834
 42
0.1814616707363846
 10
0.3375559975883977
 20
4.806264025188205
 42
0.0
 97
        0
 75
     0
 76
     1
 47
0.011788
 98
        2
 10
0.46052
 20
4.719852
 10
0.310121
 20
4.808259
  0
LINE
  5
5F5
100
AcDbEntity
  8
0
 62
     3
100
AcDbLine
 10
1.154021
 20
4.309987
 30
0.0
 11
0.444049
 21
4.71989
 31
0.0
  0
LINE
  5
5F6
100
AcDbEntity
  8
GREEN
100
AcDbLine
 10
1.245484
 20
3.843311
 30
0.0
 11
1.643939
 21
4.073359
 31
0.0
  0
LINE
  5
5F7
100
AcDbEntity
  8
2
  6
CONTINUOUS
 62
     4
100
AcDbLine
 10
1.273973
 20
3.935407
 30
0.0
 11
1.643939
 21
4.149007
 31
0.0
  0
LINE
  5
5F8
100
AcDbEntity
  8
2
  6
CONTINUOUS
 62
     4
100
AcDbLine
 10
1.265313
 20
4.190407
 30
0.0
 11
1.265313
 21
3.940407
 31
0.0
  0
LINE
  5
5F9
100
AcDbEntity
  8
2
  6
CONTINUOUS
 62
     4
100
AcDbLine
 10
1.273973
 20
4.185407
 30
0.0
 11
1.273973
 21
3.935407
 31
0.0
  0
LINE
  5
5FA
100
AcDbEntity
  8
2
  6
CONTINUOUS
 62
     4
100
AcDbLine
 10
1.265313
 20
3.940407
 30
0.0
 11
1.273973
 21
3.935407
 31
0.0
  0
ARC
  5
5FB
100
AcDbEntity
  8
0
 62
     3
100
AcDbCircle
 10
1.156369
 20
4.301554
 30
0.0
 40
0.00625
100
AcDbArc
 50
150.0
 51
285.0
  0
LINE
  5
5FC
100
AcDbEntity
  8
0
 62
     3
100
AcDbLine
 10
1.150956
 20
4.304679
 30
0.0
 11
1.154021
 21
4.309987
 31
0.0
  0
LINE
  5
5FD
100
AcDbEntity
  8
2
  6
CONTINUOUS
 62
     4
100
AcDbLine
 10
1.106577
 20
4.385155
 30
0.0
 11
1.106577
 21
4.380155
 31
0.0
  0
LINE
  5
5FE
100
AcDbEntity
  8
2
  6
CONTINUOUS
 62
     4
100
AcDbLine
 10
1.265313
 20
4.190407
 30
0.0
 11
1.273973
 21
4.185407
 31
0.0
  0
LINE
  5
5FF
100
AcDbEntity
  8
0
 62
     3
100
AcDbLine
 10
1.177909
 20
4.317404
 30
0.0
 11
1.171286
 21
4.315629
 31
0.0
  0
ARC
  5
600
100
AcDbEntity
  8
0
 62
     3
100
AcDbCircle
 10
1.177585
 20
4.318611
 30
0.0
 40
0.00125
100
AcDbArc
 50
285.0
 51
60.0
  0
LINE
  5
601
100
AcDbEntity
  8
0
 62
     3
100
AcDbLine
 10
1.173373
 20
4.29964
 30
0.0
 11
1.157987
 21
4.295517
 31
0.0
  0
ARC
  5
602
100
AcDbEntity
  8
0
 62
     3
100
AcDbCircle
 10
1.172079
 20
4.304469
 30
0.0
 40
0.005
100
AcDbArc
 50
285.0
 51
60.0
  0
LINE
  5
603
100
AcDbEntity
  8
0
 62
     3
100
AcDbLine
 10
1.170683
 20
4.311049
 30
0.0
 11
1.174579
 21
4.308799
 31
0.0
  0
ARC
  5
604
100
AcDbEntity
  8
0
 62
     3
100
AcDbCircle
 10
1.171933
 20
4.313214
 30
0.0
 40
0.0025
100
AcDbArc
 50
105.0
 51
240.0
  0
LINE
  5
605
100
AcDbEntity
  8
1
  6
CONTINUOUS
 62
     5
100
AcDbLine
 10
1.548415
 20
3.970346
 30
0.0
 11
1.643678
 21
4.025346
 31
0.0
  0
LWPOLYLINE
  5
606
100
AcDbEntity
  8
1
  6
CONTINUOUS
 62
     5
100
AcDbPolyline
 90
        2
 70
     0
 43
0.005
 10
1.549678
 20
3.968203
 10
1.644941
 20
4.023203
  0
LINE
  5
607
100
AcDbEntity
  8
1
  6
CONTINUOUS
 62
     5
100
AcDbLine
 10
1.643678
 20
3.928337
 30
0.0
 11
1.643678
 21
4.390346
 31
0.0
  0
LINE
  5
608
100
AcDbEntity
  8
1
  6
CONTINUOUS
 62
     5
100
AcDbLine
 10
1.654503
 20
3.924742
 30
0.0
 11
1.654503
 21
4.384096
 31
0.0
  0
LINE
  5
609
100
AcDbEntity
  8
1
  6
CONTINUOUS
 62
     5
100
AcDbLine
 10
1.643678
 20
3.928337
 30
0.0
 11
1.643678
 21
4.390346
 31
0.0
  0
LINE
  5
60A
100
AcDbEntity
  8
1
  6
CONTINUOUS
 62
     5
100
AcDbLine
 10
1.654503
 20
3.924742
 30
0.0
 11
1.654503
 21
4.384096
 31
0.0
  0
ARC
  5
60B
100
AcDbEntity
  8
1
  6
CONTINUOUS
 62
     5
100
AcDbCircle
 10
1.636178
 20
3.928337
 30
0.0
 40
0.0075
100
AcDbArc
 50
240.0
 51
0.0
  0
ARC
  5
60C
100
AcDbEntity
  8
1
  6
CONTINUOUS
 62
     5
100
AcDbCircle
 10
1.636178
 20
3.928337
 30
0.0
 40
0.0075
100
AcDbArc
 50
240.0
 51
0.0
  0
LINE
  5
60D
100
AcDbEntity
  8
1
  6
CONTINUOUS
 62
     5
100
AcDbLine
 10
1.548415
 20
3.970346
 30
0.0
 11
1.548415
 21
3.957846
 31
0.0
  0
LINE
  5
60E
100
AcDbEntity
  8
1
  6
CONTINUOUS
 62
     5
100
AcDbLine
 10
1.548415
 20
3.970346
 30
0.0
 11
1.548415
 21
3.957846
 31
0.0
  0
LINE
  5
60F
100
AcDbEntity
  8
1
  6
CONTINUOUS
 62
     5
100
AcDbLine
 10
1.630128
 20
3.910669
 30
0.0
 11
1.548415
 21
3.957846
 31
0.0
  0
LINE
  5
610
100
AcDbEntity
  8
1
  6
CONTINUOUS
 62
     5
100
AcDbLine
 10
1.630128
 20
3.910669
 30
0.0
 11
1.548415
 21
3.957846
 31
0.0
  0
LINE
  5
611
100
AcDbEntity
  8
1
  6
CONTINUOUS
 62
     5
100
AcDbLine
 10
1.632428
 20
3.921841
 30
0.0
 11
1.548415
 21
3.970346
 31
0.0
  0
LINE
  5
612
100
AcDbEntity
  8
1
  6
CONTINUOUS
 62
     5
100
AcDbLine
 10
1.632428
 20
3.921841
 30
0.0
 11
1.548415
 21
3.970346
 31
0.0
  0
ARC
  5
613
100
AcDbEntity
  8
1
  6
CONTINUOUS
 62
     5
100
AcDbCircle
 10
1.638253
 20
3.924742
 30
0.0
 40
0.01625
100
AcDbArc
 50
240.0
 51
0.0
  0
ARC
  5
614
100
AcDbEntity
  8
1
  6
CONTINUOUS
 62
     5
100
AcDbCircle
 10
1.638253
 20
3.924742
 30
0.0
 40
0.01625
100
AcDbArc
 50
240.0
 51
0.0
  0
LINE
  5
615
100
AcDbEntity
  8
1
  6
CONTINUOUS
 62
     5
100
AcDbLine
 10
1.643678
 20
4.390346
 30
0.0
 11
1.654503
 21
4.384096
 31
0.0
  0
LINE
  5
616
100
AcDbEntity
  8
1
  6
CONTINUOUS
 62
     5
100
AcDbLine
 10
1.643678
 20
4.390346
 30
0.0
 11
1.654503
 21
4.384096
 31
0.0
  0
LWPOLYLINE
  5
617
100
AcDbEntity
  8
1
  6
CONTINUOUS
 62
     5
100
AcDbPolyline
 90
        2
 70
     0
 43
0.005
 10
1.508297
 20
5.730149
 10
0.475567
 20
5.133902
  0
LINE
  5
618
100
AcDbEntity
  8
1
 62
     5
100
AcDbLine
 10
0.474339
 20
5.136081
 30
0.0
 11
1.505952
 21
5.728797
 31
0.0
  0
LINE
  5
619
100
AcDbEntity
  8
1
  6
CONTINUOUS
100
AcDbLine
 39
0.05
 10
0.474339
 20
5.123581
 30
0.0
 11
1.465938
 21
4.551081
 31
0.0
  0
LINE
  5
61A
100
AcDbEntity
  8
1
  6
CONTINUOUS
100
AcDbLine
 10
0.474339
 20
5.123581
 30
0.0
 11
1.465938
 21
4.557331
 31
0.0
  0
LINE
  5
61B
100
AcDbEntity
  8
1
  6
CONTINUOUS
 62
     5
100
AcDbLine
 39
0.05
 10
0.474339
 20
5.123581
 30
0.0
 11
1.465938
 21
4.551081
 31
0.0
  0
LINE
  5
61C
100
AcDbEntity
  8
1
  6
CONTINUOUS
100
AcDbLine
 10
0.474339
 20
5.123581
 30
0.0
 11
1.465938
 21
4.557331
 31
0.0
  0
LINE
  5
61D
100
AcDbEntity
  8
0
 62
     3
100
AcDbLine
 10
0.340502
 20
4.803344
 30
0.0
 11
0.985822
 21
4.430769
 31
0.0
  0
LINE
  5
61E
100
AcDbEntity
  8
2
  6
CONTINUOUS
 62
     4
100
AcDbLine
 10
0.997203
 20
4.822008
 30
0.0
 11
0.673565
 21
4.635155
 31
0.0
  0
LINE
  5
61F
100
AcDbEntity
  8
2
  6
CONTINUOUS
 62
     4
100
AcDbLine
 10
1.001533
 20
4.819508
 30
0.0
 11
0.673565
 21
4.630155
 31
0.0
  0
LINE
  5
620
100
AcDbEntity
  8
1
  6
CONTINUOUS
100
AcDbLine
 39
0.05
 10
0.474339
 20
5.136081
 30
0.0
 11
1.465938
 21
4.563581
 31
0.0
  0
LINE
  5
621
100
AcDbEntity
  8
1
  6
CONTINUOUS
 62
     5
100
AcDbLine
 39
0.05
 10
0.474339
 20
5.136081
 30
0.0
 11
1.465938
 21
4.563581
 31
0.0
  0
HATCH
  5
622
100
AcDbEntity
  8
2
  6
CONTINUOUS
 62
     9
100
AcDbHatch
 10
0.0
 20
0.0
 30
0.0
210
0.0
220
0.0
230
1.0
  2
SOLID
 70
     1
 71
     0
 91
        1
 92
        7
 72
     1
 73
     1
 93
        7
 10
0.4743388484008353
 20
5.123581449130355
 42
0.0
 10
0.4743388484008353
 20
5.136081449130355
 42
0.0
 10
1.504963827691737
 20
5.731113058357507
 42
0.0369683020279065
 10
1.335221873552194
 20
5.766585485858961
 42
0.0
 10
0.2975916993291268
 20
5.167509425451996
 42
0.0
 10
0.2975916993291268
 20
4.856379826864547
 42
0.0
 10
0.6173686666795835
 20
5.041003145044978
 42
0.0
 97
        0
 75
     0
 76
     1
 47
0.022773
 98
        1
 10
0.447913
 20
5.096937
  0
LINE
  5
623
100
AcDbEntity
  8
1
  6
CONTINUOUS
 62
     5
100
AcDbLine
 10
0.286766
 20
5.173759
 30
0.0
 11
1.317166
 21
5.768661
 31
0.0
  0
LINE
  5
624
100
AcDbEntity
  8
1
  6
CONTINUOUS
100
AcDbLine
 10
0.297592
 20
5.167509
 30
0.0
 11
1.33496
 21
5.766434
 31
0.0
  0
LINE
  5
625
100
AcDbEntity
  8
1
  6
CONTINUOUS
 62
     5
100
AcDbLine
 10
1.504702
 20
5.730962
 30
0.0
 11
0.474339
 21
5.136081
 31
0.0
  0
LINE
  5
626
100
AcDbEntity
  8
1
  6
CONTINUOUS
 62
     5
100
AcDbLine
 10
0.286766
 20
5.173759
 30
0.0
 11
1.317166
 21
5.768661
 31
0.0
  0
LINE
  5
627
100
AcDbEntity
  8
1
  6
CONTINUOUS
 62
     5
100
AcDbLine
 10
0.297592
 20
5.167509
 30
0.0
 11
1.33496
 21
5.766434
 31
0.0
  0
LINE
  5
628
100
AcDbEntity
  8
1
  6
CONTINUOUS
 62
     5
100
AcDbLine
 10
0.475589
 20
5.133916
 30
0.0
 11
1.505952
 21
5.728797
 31
0.0
  0
LINE
  5
629
100
AcDbEntity
  8
1
  6
CONTINUOUS
 62
     5
100
AcDbLine
 10
0.286766
 20
5.173759
 30
0.0
 11
0.297592
 21
5.167509
 31
0.0
  0
LINE
  5
62A
100
AcDbEntity
  8
1
  6
CONTINUOUS
 62
     5
100
AcDbLine
 10
0.286766
 20
5.173759
 30
0.0
 11
0.297592
 21
5.167509
 31
0.0
  0
LINE
  5
62B
100
AcDbEntity
  8
GREEN
100
AcDbLine
 10
0.274955
 20
4.843311
 30
0.0
 11
0.61763
 21
5.041154
 31
0.0
  0
LINE
  5
62C
100
AcDbEntity
  8
1
  6
CONTINUOUS
 62
     5
100
AcDbLine
 10
0.286766
 20
4.85013
 30
0.0
 11
0.286766
 21
5.173759
 31
0.0
  0
LINE
  5
62D
100
AcDbEntity
  8
1
  6
CONTINUOUS
 62
     5
100
AcDbLine
 10
0.286766
 20
4.85013
 30
0.0
 11
0.286766
 21
5.173759
 31
0.0
  0
LINE
  5
62E
100
AcDbEntity
  8
GREEN
100
AcDbLine
 10
0.339452
 20
4.804192
 30
0.0
 11
0.683756
 21
5.002976
 31
0.0
  0
LINE
  5
62F
100
AcDbEntity
  8
2
  6
CONTINUOUS
 62
     4
100
AcDbLine
 10
0.780696
 20
4.947008
 30
0.0
 11
0.457058
 21
4.760155
 31
0.0
  0
LINE
  5
630
100
AcDbEntity
  8
2
  6
CONTINUOUS
 62
     4
100
AcDbLine
 10
0.457058
 20
4.760155
 30
0.0
 11
0.673565
 21
4.635155
 31
0.0
  0
LINE
  5
631
100
AcDbEntity
  8
2
  6
CONTINUOUS
 62
     4
100
AcDbLine
 10
0.457058
 20
4.755155
 30
0.0
 11
0.673565
 21
4.630155
 31
0.0
  0
LINE
  5
632
100
AcDbEntity
  8
2
  6
CONTINUOUS
 62
     4
100
AcDbLine
 10
0.457058
 20
4.760155
 30
0.0
 11
0.457058
 21
4.755155
 31
0.0
  0
LINE
  5
633
100
AcDbEntity
  8
0
 62
     3
100
AcDbLine
 10
0.344191
 20
4.777543
 30
0.0
 11
0.341126
 21
4.772234
 31
0.0
  0
ARC
  5
634
100
AcDbEntity
  8
0
 62
     3
100
AcDbCircle
 10
0.339877
 20
4.802262
 30
0.0
 40
0.00125
100
AcDbArc
 50
60.0
 51
195.0
  0
LINE
  5
635
100
AcDbEntity
  8
0
 62
     3
100
AcDbLine
 10
0.340445
 20
4.795315
 30
0.0
 11
0.33867
 21
4.801938
 31
0.0
  0
ARC
  5
636
100
AcDbEntity
  8
0
 62
     3
100
AcDbCircle
 10
0.33803
 20
4.794668
 30
0.0
 40
0.0025
100
AcDbArc
 50
240.0
 51
15.0
  0
LINE
  5
637
100
AcDbEntity
  8
0
 62
     3
100
AcDbLine
 10
0.332883
 20
4.794753
 30
0.0
 11
0.33678
 21
4.792503
 31
0.0
  0
ARC
  5
638
100
AcDbEntity
  8
0
 62
     3
100
AcDbCircle
 10
0.330383
 20
4.790423
 30
0.0
 40
0.005
100
AcDbArc
 50
60.0
 51
195.0
  0
LINE
  5
639
100
AcDbEntity
  8
0
 62
     3
100
AcDbLine
 10
0.329677
 20
4.773742
 30
0.0
 11
0.325554
 21
4.789129
 31
0.0
  0
ARC
  5
63A
100
AcDbEntity
  8
0
 62
     3
100
AcDbCircle
 10
0.335714
 20
4.775359
 30
0.0
 40
0.00625
100
AcDbArc
 50
195.0
 51
330.0
  0
LINE
  5
63B
100
AcDbEntity
  8
0
 62
     3
100
AcDbLine
 10
0.444049
 20
4.71989
 30
0.0
 11
0.344191
 21
4.777543
 31
0.0
  0
LINE
  5
63C
100
AcDbEntity
  8
2
  6
CONTINUOUS
 62
     4
100
AcDbLine
 10
0.673565
 20
4.635155
 30
0.0
 11
0.673565
 21
4.630155
 31
0.0
  0
LINE
  5
63D
100
AcDbEntity
  8
1
  6
CONTINUOUS
 62
     5
100
AcDbLine
 39
0.05
 10
0.474339
 20
5.136081
 30
0.0
 11
0.474339
 21
5.123581
 31
0.0
  0
LINE
  5
63E
100
AcDbEntity
  8
1
  6
CONTINUOUS
 62
     5
100
AcDbLine
 39
0.05
 10
0.474339
 20
5.136081
 30
0.0
 11
0.474339
 21
5.123581
 31
0.0
  0
LINE
  5
63F
100
AcDbEntity
  8
1
  6
CONTINUOUS
 62
     5
100
AcDbLine
 10
0.474339
 20
5.136081
 30
0.0
 11
0.474339
 21
5.123581
 31
0.0
  0
LINE
  5
640
100
AcDbEntity
  8
1
  6
CONTINUOUS
 62
     5
100
AcDbLine
 10
0.474339
 20
5.136081
 30
0.0
 11
0.474339
 21
5.123581
 31
0.0
  0
LINE
  5
641
100
AcDbEntity
  8
1
  6
CONTINUOUS
 62
     5
100
AcDbLine
 10
0.297592
 20
4.85638
 30
0.0
 11
0.297592
 21
5.167509
 31
0.0
  0
LINE
  5
642
100
AcDbEntity
  8
1
  6
CONTINUOUS
 62
     5
100
AcDbLine
 10
0.297592
 20
4.85638
 30
0.0
 11
0.297592
 21
5.167509
 31
0.0
  0
LINE
  5
643
100
AcDbEntity
  8
2
  6
CONTINUOUS
 62
     4
100
AcDbLine
 10
1.213709
 20
4.697008
 30
0.0
 11
0.890071
 21
4.510155
 31
0.0
  0
LINE
  5
644
100
AcDbEntity
  8
2
  6
CONTINUOUS
 62
     4
100
AcDbLine
 10
0.890071
 20
4.510155
 30
0.0
 11
0.890071
 21
4.505155
 31
0.0
  0
LINE
  5
645
100
AcDbEntity
  8
1
  6
CONTINUOUS
100
AcDbLine
 39
0.05
 10
1.465938
 20
4.563581
 30
0.0
 11
1.465938
 21
4.551081
 31
0.0
  0
LINE
  5
646
100
AcDbEntity
  8
1
 62
     5
100
AcDbLine
 10
2.354825
 20
4.60253
 30
0.0
 11
3.437926
 21
6.705831
 31
0.0
  0
INSERT
  5
647
100
AcDbEntity
  8
0
100
AcDbBlockReference
  2
A$C2CC70F12
 10
7.61448
 20
0.0
 30
0.0
  0
ENDBLK
  5
649
100
AcDbEntity
  8
0
100
AcDbBlockEnd
  0
BLOCK
  5
716
100
AcDbEntity
  8
0
100
AcDbBlockBegin
  2
*D17
 70
     1
 10
0.0
 20
0.0
 30
0.0
  3
*D17
  1

  0
LINE
  5
717
100
AcDbEntity
  8
0
  6
BYBLOCK
 62
     0
100
AcDbLine
 10
7.029386
 20
14.075997
 30
0.0
 11
2.839527
 21
14.075997
 31
0.0
  0
LINE
  5
718
100
AcDbEntity
  8
0
  6
BYBLOCK
 62
     0
100
AcDbLine
 10
4.340023
 20
6.005774
 30
0.0
 11
2.839527
 21
6.005774
 31
0.0
  0
LINE
  5
719
100
AcDbEntity
  8
0
  6
BYBLOCK
 62
     0
100
AcDbLine
 10
3.199527
 20
13.715997
 30
0.0
 11
3.199527
 21
10.700885
 31
0.0
  0
LINE
  5
71A
100
AcDbEntity
  8
0
  6
BYBLOCK
 62
     0
100
AcDbLine
 10
3.199527
 20
6.365774
 30
0.0
 11
3.199527
 21
9.380885
 31
0.0
  0
SOLID
  5
71B
100
AcDbEntity
  8
0
  6
BYBLOCK
 62
     0
100
AcDbTrace
 10
3.139527
 20
13.715997
 30
0.0
 11
3.259527
 21
13.715997
 31
0.0
 12
3.199527
 22
14.075997
 32
0.0
 13
3.199527
 23
14.075997
 33
0.0
  0
SOLID
  5
71C
100
AcDbEntity
  8
0
  6
BYBLOCK
 62
     0
100
AcDbTrace
 10
3.139527
 20
6.365774
 30
0.0
 11
3.259527
 21
6.365774
 31
0.0
 12
3.199527
 22
6.005774
 32
0.0
 13
3.199527
 23
6.005774
 33
0.0
  0
MTEXT
  5
71D
100
AcDbEntity
  8
0
  6
BYBLOCK
 62
     0
100
AcDbMText
 10
3.199527
 20
10.040885
 30
0.0
 40
0.36
 41
0.0
 71
     5
 72
     1
  1
\A1;8{\H1.000000x;\S1/16;}" [205mm]
  7
ROMANS
  0
POINT
  5
71E
100
AcDbEntity
  8
DEFPOINTS
  6
BYBLOCK
 62
     0
100
AcDbPoint
 10
7.154386
 20
14.075997
 30
0.0
  0
POINT
  5
71F
100
AcDbEntity
  8
DEFPOINTS
  6
BYBLOCK
 62
     0
100
AcDbPoint
 10
4.465023
 20
6.005774
 30
0.0
  0
POINT
  5
720
100
AcDbEntity
  8
DEFPOINTS
  6
BYBLOCK
 62
     0
100
AcDbPoint
 10
3.199527
 20
6.005774
 30
0.0
  0
ENDBLK
  5
721
100
AcDbEntity
  8
0
100
AcDbBlockEnd
  0
BLOCK
  5
724
100
AcDbEntity
  8
0
100
AcDbBlockBegin
  2
*D18
 70
     1
 10
0.0
 20
0.0
 30
0.0
  3
*D18
  1

  0
LINE
  5
725
100
AcDbEntity
  8
0
  6
BYBLOCK
 62
     0
100
AcDbLine
 10
6.471016
 20
16.191774
 30
0.0
 11
6.471016
 21
18.029663
 31
0.0
  0
LINE
  5
726
100
AcDbEntity
  8
0
  6
BYBLOCK
 62
     0
100
AcDbLine
 10
8.465059
 20
16.191774
 30
0.0
 11
8.465059
 21
18.029663
 31
0.0
  0
LINE
  5
727
100
AcDbEntity
  8
0
  6
BYBLOCK
 62
     0
100
AcDbLine
 10
6.831016
 20
17.669663
 30
0.0
 11
8.105059
 21
17.669663
 31
0.0
  0
LINE
  5
728
100
AcDbEntity
  8
0
  6
BYBLOCK
 62
     0
100
AcDbLine
 10
8.465059
 20
17.669663
 30
0.0
 11
8.825059
 21
17.669663
 31
0.0
  0
SOLID
  5
729
100
AcDbEntity
  8
0
  6
BYBLOCK
 62
     0
100
AcDbTrace
 10
6.831016
 20
17.729663
 30
0.0
 11
6.831016
 21
17.609663
 31
0.0
 12
6.471016
 22
17.669663
 32
0.0
 13
6.471016
 23
17.669663
 33
0.0
  0
SOLID
  5
72A
100
AcDbEntity
  8
0
  6
BYBLOCK
 62
     0
100
AcDbTrace
 10
8.105059
 20
17.729663
 30
0.0
 11
8.105059
 21
17.609663
 31
0.0
 12
8.465059
 22
17.669663
 32
0.0
 13
8.465059
 23
17.669663
 33
0.0
  0
MTEXT
  5
72B
100
AcDbEntity
  8
0
  6
BYBLOCK
 62
     0
100
AcDbMText
 10
10.505059
 20
17.669663
 30
0.0
 40
0.36
 41
0.0
 71
     5
 72
     1
  1
\A1;2" [51mm]
  7
ROMANS
  0
POINT
  5
72C
100
AcDbEntity
  8
DEFPOINTS
  6
BYBLOCK
 62
     0
100
AcDbPoint
 10
6.471016
 20
16.066774
 30
0.0
  0
POINT
  5
72D
100
AcDbEntity
  8
DEFPOINTS
  6
BYBLOCK
 62
     0
100
AcDbPoint
 10
8.465059
 20
16.066774
 30
0.0
  0
POINT
  5
72E
100
AcDbEntity
  8
DEFPOINTS
  6
BYBLOCK
 62
     0
100
AcDbPoint
 10
8.465059
 20
17.669663
 30
0.0
  0
ENDBLK
  5
72F
100
AcDbEntity
  8
0
100
AcDbBlockEnd
  0
BLOCK
  5
743
100
AcDbEntity
  8
0
100
AcDbBlockBegin
  2
*D20
 70
     1
 10
0.0
 20
0.0
 30
0.0
  3
*D20
  1

  0
LINE
  5
744
100
AcDbEntity
  8
0
  6
BYBLOCK
 62
     0
100
AcDbLine
 10
8.58982
 20
6.255774
 30
0.0
 11
15.028869
 21
6.255774
 31
0.0
  0
LINE
  5
745
100
AcDbEntity
  8
0
  6
BYBLOCK
 62
     0
100
AcDbLine
 10
10.590023
 20
6.005774
 30
0.0
 11
15.028869
 21
6.005774
 31
0.0
  0
LINE
  5
746
100
AcDbEntity
  8
0
  6
BYBLOCK
 62
     0
100
AcDbLine
 10
14.668869
 20
6.615774
 30
0.0
 11
14.668869
 21
6.975774
 31
0.0
  0
LINE
  5
747
100
AcDbEntity
  8
0
  6
BYBLOCK
 62
     0
100
AcDbLine
 10
14.668869
 20
5.645774
 30
0.0
 11
14.668869
 21
5.285774
 31
0.0
  0
LINE
  5
748
100
AcDbEntity
  8
0
  6
BYBLOCK
 62
     0
100
AcDbLine
 10
14.668869
 20
5.285774
 30
0.0
 11
14.308869
 21
5.285774
 31
0.0
  0
SOLID
  5
749
100
AcDbEntity
  8
0
  6
BYBLOCK
 62
     0
100
AcDbTrace
 10
14.608869
 20
6.615774
 30
0.0
 11
14.728869
 21
6.615774
 31
0.0
 12
14.668869
 22
6.255774
 32
0.0
 13
14.668869
 23
6.255774
 33
0.0
  0
SOLID
  5
74A
100
AcDbEntity
  8
0
  6
BYBLOCK
 62
     0
100
AcDbTrace
 10
14.608869
 20
5.645774
 30
0.0
 11
14.728869
 21
5.645774
 31
0.0
 12
14.668869
 22
6.005774
 32
0.0
 13
14.668869
 23
6.005774
 33
0.0
  0
MTEXT
  5
74B
100
AcDbEntity
  8
0
  6
BYBLOCK
 62
     0
100
AcDbMText
 10
12.791726
 20
5.285774
 30
0.0
 40
0.36
 41
0.0
 71
     5
 72
     1
  1
\A1;{\H1.000000x;\S1/4;}" [6mm]
  7
ROMANS
  0
POINT
  5
74C
100
AcDbEntity
  8
DEFPOINTS
  6
BYBLOCK
 62
     0
100
AcDbPoint
 10
8.46482
 20
6.255774
 30
0.0
  0
POINT
  5
74D
100
AcDbEntity
  8
DEFPOINTS
  6
BYBLOCK
 62
     0
100
AcDbPoint
 10
10.465023
 20
6.005774
 30
0.0
  0
POINT
  5
74E
100
AcDbEntity
  8
DEFPOINTS
  6
BYBLOCK
 62
     0
100
AcDbPoint
 10
14.668869
 20
6.005774
 30
0.0
  0
ENDBLK
  5
74F
100
AcDbEntity
  8
0
100
AcDbBlockEnd
  0
ENDSEC
  0
SECTION
  2
ENTITIES
  0
LINE
  5
191
100
AcDbEntity
  8
R-DOOR-DETL
 62
     3
100
AcDbLine
 10
6.76695
 20
16.090227
 30
0.0
 11
6.71403
 21
16.090227
 31
0.0
  0
LINE
  5
192
100
AcDbEntity
  8
R-DOOR-DETL
 62
     3
100
AcDbLine
 10
6.69003
 20
16.215227
 30
0.0
 11
6.76695
 21
16.215227
 31
0.0
  0
LINE
  5
193
100
AcDbEntity
  8
R-DOOR-DETL
 62
     3
100
AcDbLine
 10
6.717524
 20
14.367196
 30
0.0
 11
7.011004
 21
13.858874
 31
0.0
  0
LWPOLYLINE
  5
194
100
AcDbEntity
  8
R-DOOR-DETL
 62
     3
100
AcDbPolyline
 90
       17
 70
     1
 43
0.0
 10
7.310278
 20
12.792498
 42
0.367717
 10
7.280668
 20
12.81768
 10
6.80903
 20
12.81768
 42
0.414214
 10
6.68403
 20
12.69268
 10
6.68403
 20
10.659227
 42
0.414214
 10
6.80903
 20
10.534227
 10
7.465023
 20
10.534227
 10
8.121015
 20
10.534227
 42
0.414214
 10
8.246015
 20
10.659227
 10
8.246015
 20
12.69268
 42
0.414214
 10
8.121015
 20
12.81768
 10
7.649378
 20
12.81768
 42
0.367717
 10
7.619767
 20
12.792498
 42
-0.11093
 10
7.594132
 20
12.728738
 42
-0.939516
 10
7.509921
 20
12.779318
 42
2.169752
 10
7.420125
 20
12.779318
 42
-0.939516
 10
7.335913
 20
12.728738
 42
-0.11093
  0
LINE
  5
196
100
AcDbEntity
  8
R-DOOR-DETL
 62
     3
100
AcDbLine
 10
6.765023
 20
7.364571
 30
0.0
 11
6.69903
 21
7.364571
 31
0.0
  0
LINE
  5
197
100
AcDbEntity
  8
R-DOOR-DETL
 62
     3
100
AcDbLine
 10
6.69903
 20
7.564571
 30
0.0
 11
6.765023
 21
7.564571
 31
0.0
  0
HATCH
  5
198
100
AcDbEntity
  8
R-DOOR-PATT
  6
CONTINUOUS
 62
     5
100
AcDbHatch
 10
0.0
 20
0.0
 30
0.0
210
0.0
220
0.0
230
1.0
  2
ANSI31
 70
     0
 71
     0
 91
        1
 92
        7
 72
     0
 73
     1
 93
        4
 10
4.465022746505923
 20
6.005773885992407
 10
10.46502274650592
 20
6.005773885992407
 10
10.46502274650592
 20
4.005773885992407
 10
4.465022746505923
 20
4.005773885992407
 97
        0
 75
     0
 76
     1
 52
180.0
 41
2.5
 77
     0
 78
     1
 53
135.0
 43
-26.466329
 44
35.134936
 45
0.2209708691207961
 46
0.2209708691207961
 79
     0
 47
0.011976
 98
        1
 10
7.737824
 20
5.196681
  0
LINE
  5
199
100
AcDbEntity
  8
R-DOOR-ANNO
  6
CONTINUOUS
100
AcDbLine
 10
4.465023
 20
6.005774
 30
0.0
 11
10.465023
 21
6.005774
 31
0.0
  0
LINE
  5
19A
100
AcDbEntity
  8
R-DOOR-DETL
 62
     3
100
AcDbLine
 10
7.465023
 20
7.850774
 30
0.0
 11
6.71403
 21
7.850774
 31
0.0
  0
LWPOLYLINE
  5
19B
100
AcDbEntity
  8
R-DOOR-DETL
 62
     3
100
AcDbPolyline
 90
       32
 70
     1
 43
0.0
 10
8.145023
 20
7.289774
 10
8.145023
 20
7.559571
 42
-0.414214
 10
8.160023
 20
7.574571
 10
8.226015
 20
7.574571
 42
0.414214
 10
8.241015
 20
7.589571
 10
8.241015
 20
7.819774
 42
0.414214
 10
8.210015
 20
7.850774
 10
8.066403
 20
7.850774
 42
0.267949
 10
8.039556
 20
7.835274
 10
7.933843
 20
7.652172
 42
0.40146
 10
7.94403
 20
7.610529
 42
-3.430162
 10
7.836015
 20
7.610529
 42
0.40146
 10
7.846203
 20
7.652172
 10
7.740489
 20
7.835274
 42
0.267949
 10
7.713642
 20
7.850774
 10
7.216403
 20
7.850774
 42
0.267949
 10
7.189556
 20
7.835274
 10
7.083843
 20
7.652172
 42
0.40146
 10
7.09403
 20
7.610529
 42
-3.430162
 10
6.986015
 20
7.610529
 42
0.40146
 10
6.996203
 20
7.652172
 10
6.890489
 20
7.835274
 42
0.267949
 10
6.863642
 20
7.850774
 10
6.72003
 20
7.850774
 42
0.414214
 10
6.68903
 20
7.819774
 10
6.68903
 20
7.589571
 42
0.414214
 10
6.70403
 20
7.574571
 10
6.770023
 20
7.574571
 42
-0.414214
 10
6.785023
 20
7.559571
 10
6.785023
 20
7.289774
 42
0.414214
 10
6.800023
 20
7.274774
 10
8.130023
 20
7.274774
 42
0.414214
  0
LINE
  5
19D
100
AcDbEntity
  8
R-DOOR-DETL
100
AcDbLine
 10
8.419615
 20
6.005774
 30
0.0
 11
6.510431
 21
6.005774
 31
0.0
  0
LINE
  5
19F
100
AcDbEntity
  8
0
100
AcDbLine
 10
5.371523
 20
6.005774
 30
0.0
 11
9.558523
 21
6.005774
 31
0.0
  0
LWPOLYLINE
  5
1A0
100
AcDbEntity
  8
R-DOOR-DETL
 62
     3
100
AcDbPolyline
 90
        8
 70
     1
 43
0.0
 10
7.168936
 20
16.272774
 10
7.168936
 20
16.222774
 10
6.677016
 20
16.222774
 42
0.414214
 10
6.521016
 20
16.066774
 10
6.521016
 20
6.272774
 10
6.471016
 20
6.272774
 10
6.471016
 20
16.066774
 42
-0.414214
 10
6.677016
 20
16.272774
  0
LWPOLYLINE
  5
1A1
100
AcDbEntity
  8
R-DOOR-DETL
 62
     3
100
AcDbPolyline
 90
       17
 70
     1
 43
0.0
 10
7.420125
 20
8.139136
 42
2.169752
 10
7.509921
 20
8.139136
 42
-0.939516
 10
7.594132
 20
8.189716
 42
-0.11093
 10
7.619767
 20
8.125955
 42
0.367717
 10
7.649378
 20
8.100774
 10
8.121015
 20
8.100774
 42
0.414214
 10
8.246015
 20
8.225774
 10
8.246015
 20
10.259227
 42
0.414214
 10
8.121015
 20
10.384227
 10
7.465023
 20
10.384227
 10
6.80903
 20
10.384227
 42
0.414214
 10
6.68403
 20
10.259227
 10
6.68403
 20
8.225774
 42
0.414214
 10
6.80903
 20
8.100774
 10
7.280668
 20
8.100774
 42
0.367717
 10
7.310278
 20
8.125955
 42
-0.11093
 10
7.335913
 20
8.189716
 42
-0.939516
  0
TEXT
  5
1A2
100
AcDbEntity
  8
R-DOOR-ANNO
  6
CONTINUOUS
100
AcDbText
 10
3.197876
 20
3.083329
 30
0.0
 40
0.390625
  1
10" SQUARE DOOR RAIL CLAD
  7
ROMANS
 72
     1
 11
7.755168
 21
3.083329
 31
0.0
100
AcDbText
  0
LWPOLYLINE
  5
1A4
100
AcDbEntity
  8
BORDER
100
AcDbPolyline
 90
        4
 70
     1
 43
0.109866
 10
16.058274
 20
21.375045
 10
0.0
 20
21.375045
 10
0.0
 20
0.0
 10
16.058274
 20
0.0
  0
LINE
  5
1A6
100
AcDbEntity
  8
R-DOOR-DETL
 62
     3
100
AcDbLine
 10
6.53403
 20
6.285774
 30
0.0
 11
6.53403
 21
16.059227
 31
0.0
  0
ARC
  5
1A7
100
AcDbEntity
  8
R-DOOR-DETL
 62
     3
100
AcDbCircle
 10
6.64903
 20
6.665774
 30
0.0
 40
0.015
100
AcDbArc
 50
90.0
 51
180.0
  0
LINE
  5
1A8
100
AcDbEntity
  8
R-DOOR-DETL
 62
     3
100
AcDbLine
 10
6.66903
 20
6.680774
 30
0.0
 11
6.64903
 21
6.680774
 31
0.0
  0
ARC
  5
1A9
100
AcDbEntity
  8
R-DOOR-DETL
 62
     3
100
AcDbCircle
 10
6.66903
 20
6.695774
 30
0.0
 40
0.015
100
AcDbArc
 50
270.0
 51
360.0
  0
LINE
  5
1AA
100
AcDbEntity
  8
R-DOOR-DETL
 62
     3
100
AcDbLine
 10
6.68403
 20
7.349571
 30
0.0
 11
6.68403
 21
6.695774
 31
0.0
  0
ARC
  5
1AB
100
AcDbEntity
  8
R-DOOR-DETL
 62
     3
100
AcDbCircle
 10
6.69903
 20
7.349571
 30
0.0
 40
0.015
100
AcDbArc
 50
90.0
 51
180.0
  0
ARC
  5
1AC
100
AcDbEntity
  8
R-DOOR-DETL
 62
     3
100
AcDbCircle
 10
6.69903
 20
7.579571
 30
0.0
 40
0.015
100
AcDbArc
 50
180.0
 51
270.0
  0
LINE
  5
1AD
100
AcDbEntity
  8
R-DOOR-DETL
 62
     3
100
AcDbLine
 10
6.68403
 20
7.820774
 30
0.0
 11
6.68403
 21
7.579571
 31
0.0
  0
ARC
  5
1AE
100
AcDbEntity
  8
R-DOOR-DETL
 62
     3
100
AcDbCircle
 10
6.71403
 20
7.820774
 30
0.0
 40
0.03
100
AcDbArc
 50
90.0
 51
180.0
  0
LINE
  5
1B3
100
AcDbEntity
  8
R-DOOR-DETL
 62
     3
100
AcDbLine
 10
6.63403
 20
6.285774
 30
0.0
 11
6.63403
 21
6.270774
 31
0.0
  0
ARC
  5
1B4
100
AcDbEntity
  8
R-DOOR-DETL
 62
     3
100
AcDbCircle
 10
6.54903
 20
6.285774
 30
0.0
 40
0.015
100
AcDbArc
 50
180.0
 51
270.0
  0
LINE
  5
1B5
100
AcDbEntity
  8
R-DOOR-DETL
 62
     3
100
AcDbLine
 10
6.61903
 20
6.270774
 30
0.0
 11
6.54903
 21
6.270774
 31
0.0
  0
ARC
  5
1B6
100
AcDbEntity
  8
R-DOOR-DETL
 62
     3
100
AcDbCircle
 10
6.61903
 20
6.285774
 30
0.0
 40
0.015
100
AcDbArc
 50
270.0
 51
360.0
  0
LINE
  5
1B7
100
AcDbEntity
  8
R-DOOR-DETL
 62
     3
100
AcDbLine
 10
6.63403
 20
6.665774
 30
0.0
 11
6.63403
 21
6.285774
 31
0.0
  0
ARC
  5
1B8
100
AcDbEntity
  8
R-DOOR-DETL
 62
     3
100
AcDbCircle
 10
6.71403
 20
16.060227
 30
0.0
 40
0.03
100
AcDbArc
 50
90.0
 51
180.0
  0
ARC
  5
1B9
100
AcDbEntity
  8
R-DOOR-DETL
 62
     3
100
AcDbCircle
 10
6.69003
 20
16.059227
 30
0.0
 40
0.156
100
AcDbArc
 50
90.0
 51
180.0
  0
ARC
  5
1BA
100
AcDbEntity
  8
R-DOOR-DETL
 62
     3
100
AcDbCircle
 10
6.93403
 20
14.492196
 30
0.0
 40
0.25
100
AcDbArc
 50
180.0
 51
210.0
  0
LINE
  5
1BB
100
AcDbEntity
  8
R-DOOR-DETL
 62
     3
100
AcDbLine
 10
6.68403
 20
16.060227
 30
0.0
 11
6.68403
 21
14.492196
 31
0.0
  0
TEXT
  5
1BE
100
AcDbEntity
  8
R-DOOR-ANNO
  6
CONTINUOUS
100
AcDbText
 10
13.02767
 20
0.3125
 30
0.0
 40
0.390625
  1
10SDRCB
  7
ROMANS
100
AcDbText
  0
LWPOLYLINE
  5
1BF
100
AcDbEntity
  8
R-DOOR-DETL
 62
     3
100
AcDbPolyline
 90
        8
 70
     1
 43
0.0
 10
7.767139
 20
16.272774
 10
7.767139
 20
16.222774
 10
8.259059
 20
16.222774
 42
-0.414214
 10
8.415059
 20
16.066774
 10
8.415059
 20
6.272774
 10
8.465059
 20
6.272774
 10
8.465059
 20
16.066774
 42
0.414214
 10
8.259059
 20
16.272774
  0
LINE
  5
1C0
100
AcDbEntity
  8
R-DOOR-DETL
 62
     3
100
AcDbLine
 10
8.396015
 20
16.059227
 30
0.0
 11
8.396015
 21
6.285774
 31
0.0
  0
LINE
  5
1C2
100
AcDbEntity
  8
R-DOOR-DETL
 62
     3
100
AcDbLine
 10
8.246015
 20
7.579571
 30
0.0
 11
8.246015
 21
7.820774
 31
0.0
  0
ARC
  5
1C3
100
AcDbEntity
  8
R-DOOR-DETL
 62
     3
100
AcDbCircle
 10
8.231015
 20
7.579571
 30
0.0
 40
0.015
100
AcDbArc
 50
270.0
 51
0.0
  0
LINE
  5
1C4
100
AcDbEntity
  8
R-DOOR-DETL
 62
     3
100
AcDbLine
 10
8.165023
 20
7.564571
 30
0.0
 11
8.231015
 21
7.564571
 31
0.0
  0
ARC
  5
1C5
100
AcDbEntity
  8
R-DOOR-DETL
 62
     3
100
AcDbCircle
 10
8.165023
 20
7.549571
 30
0.0
 40
0.015
100
AcDbArc
 50
90.0
 51
180.0
  0
LINE
  5
1C6
100
AcDbEntity
  8
R-DOOR-DETL
 62
     3
100
AcDbLine
 10
8.150023
 20
7.379571
 30
0.0
 11
8.150023
 21
7.549571
 31
0.0
  0
ARC
  5
1C7
100
AcDbEntity
  8
R-DOOR-DETL
 62
     3
100
AcDbCircle
 10
8.165023
 20
7.379571
 30
0.0
 40
0.015
100
AcDbArc
 50
180.0
 51
270.0
  0
LINE
  5
1C8
100
AcDbEntity
  8
R-DOOR-DETL
 62
     3
100
AcDbLine
 10
8.231015
 20
7.364571
 30
0.0
 11
8.165023
 21
7.364571
 31
0.0
  0
ARC
  5
1C9
100
AcDbEntity
  8
R-DOOR-DETL
 62
     3
100
AcDbCircle
 10
8.231015
 20
7.349571
 30
0.0
 40
0.015
100
AcDbArc
 50
360.0
 51
90.0
  0
LINE
  5
1CA
100
AcDbEntity
  8
R-DOOR-DETL
 62
     3
100
AcDbLine
 10
8.246015
 20
6.695774
 30
0.0
 11
8.246015
 21
7.349571
 31
0.0
  0
ARC
  5
1CB
100
AcDbEntity
  8
R-DOOR-DETL
 62
     3
100
AcDbCircle
 10
8.261015
 20
6.695774
 30
0.0
 40
0.015
100
AcDbArc
 50
180.0
 51
270.0
  0
LINE
  5
1CC
100
AcDbEntity
  8
R-DOOR-DETL
 62
     3
100
AcDbLine
 10
8.281015
 20
6.680774
 30
0.0
 11
8.261015
 21
6.680774
 31
0.0
  0
ARC
  5
1CD
100
AcDbEntity
  8
R-DOOR-DETL
 62
     3
100
AcDbCircle
 10
8.281015
 20
6.665774
 30
0.0
 40
0.015
100
AcDbArc
 50
0.0
 51
90.0
  0
ARC
  5
1CE
100
AcDbEntity
  8
R-DOOR-DETL
 62
     3
100
AcDbCircle
 10
8.216015
 20
7.820774
 30
0.0
 40
0.03
100
AcDbArc
 50
0.0
 51
90.0
  0
LINE
  5
1CF
100
AcDbEntity
  8
R-DOOR-DETL
  6
CONTINUOUS
 62
     3
100
AcDbLine
 10
7.988895
 20
7.570558
 30
0.0
 11
7.978243
 21
7.46254
 31
0.0
  0
LINE
  5
1D0
100
AcDbEntity
  8
R-DOOR-DETL
  6
CONTINUOUS
 62
     3
100
AcDbLine
 10
7.879371
 20
7.417756
 30
0.0
 11
7.791151
 21
7.480989
 31
0.0
  0
LINE
  5
1D1
100
AcDbEntity
  8
R-DOOR-DETL
  6
CONTINUOUS
 62
     3
100
AcDbLine
 10
8.147523
 20
7.300774
 30
0.0
 11
8.147523
 21
7.850774
 31
0.0
  0
CIRCLE
  5
1D2
100
AcDbEntity
  8
R-DOOR-DETL
  6
CONTINUOUS
 62
     3
100
AcDbCircle
 10
7.890023
 20
7.525774
 30
0.0
 40
0.1875
  0
CIRCLE
  5
1D3
100
AcDbEntity
  8
R-DOOR-DETL
  6
CONTINUOUS
 62
     3
100
AcDbCircle
 10
7.890023
 20
7.525774
 30
0.0
 40
0.1625
  0
LINE
  5
1D4
100
AcDbEntity
  8
R-DOOR-DETL
  6
CONTINUOUS
 62
     3
100
AcDbLine
 10
7.978243
 20
7.46254
 30
0.0
 11
7.879371
 21
7.417756
 31
0.0
  0
LINE
  5
1D5
100
AcDbEntity
  8
R-DOOR-DETL
  6
CONTINUOUS
 62
     3
100
AcDbLine
 10
7.988895
 20
7.570558
 30
0.0
 11
7.900674
 21
7.633792
 31
0.0
  0
LINE
  5
1D6
100
AcDbEntity
  8
R-DOOR-DETL
  6
CONTINUOUS
 62
     3
100
AcDbLine
 10
7.801802
 20
7.589007
 30
0.0
 11
7.791151
 21
7.480989
 31
0.0
  0
LINE
  5
1D7
100
AcDbEntity
  8
R-DOOR-DETL
  6
CONTINUOUS
 62
     3
100
AcDbLine
 10
7.900674
 20
7.633792
 30
0.0
 11
7.801802
 21
7.589007
 31
0.0
  0
LINE
  5
1D8
100
AcDbEntity
  8
R-DOOR-DETL
 62
     3
100
AcDbLine
 10
7.069213
 20
7.630317
 30
0.0
 11
7.145155
 21
7.552766
 31
0.0
  0
LINE
  5
1D9
100
AcDbEntity
  8
R-DOOR-DETL
 62
     3
100
AcDbLine
 10
7.115965
 20
7.448223
 30
0.0
 11
7.145155
 21
7.552766
 31
0.0
  0
LINE
  5
1DA
100
AcDbEntity
  8
R-DOOR-DETL
  6
CONTINUOUS
 62
     3
100
AcDbLine
 10
7.410752
 20
7.431774
 30
0.0
 11
7.356481
 21
7.525774
 31
0.0
  0
LINE
  5
1DB
100
AcDbEntity
  8
R-DOOR-DETL
  6
CONTINUOUS
 62
     3
100
AcDbLine
 10
7.410752
 20
7.431774
 30
0.0
 11
7.519294
 21
7.431774
 31
0.0
  0
LINE
  5
1DC
100
AcDbEntity
  8
R-DOOR-DETL
  6
CONTINUOUS
 62
     3
100
AcDbLine
 10
7.410752
 20
7.619774
 30
0.0
 11
7.519294
 21
7.619774
 31
0.0
  0
LINE
  5
1DD
100
AcDbEntity
  8
R-DOOR-DETL
  6
CONTINUOUS
 62
     3
100
AcDbLine
 10
7.356481
 20
7.525774
 30
0.0
 11
7.410752
 21
7.619774
 31
0.0
  0
LINE
  5
1DE
100
AcDbEntity
  8
R-DOOR-DETL
 62
     3
100
AcDbLine
 10
8.216015
 20
7.850774
 30
0.0
 11
7.465023
 21
7.850774
 31
0.0
  0
LINE
  5
1DF
100
AcDbEntity
  8
R-DOOR-DETL
  6
CONTINUOUS
 62
     3
100
AcDbLine
 10
7.519294
 20
7.431774
 30
0.0
 11
7.573565
 21
7.525774
 31
0.0
  0
CIRCLE
  5
1E0
100
AcDbEntity
  8
R-DOOR-DETL
  6
CONTINUOUS
 62
     3
100
AcDbCircle
 10
7.465023
 20
7.525774
 30
0.0
 40
0.1625
  0
CIRCLE
  5
1E1
100
AcDbEntity
  8
R-DOOR-DETL
  6
CONTINUOUS
 62
     3
100
AcDbCircle
 10
7.465023
 20
7.525774
 30
0.0
 40
0.1875
  0
LINE
  5
1E2
100
AcDbEntity
  8
R-DOOR-DETL
  6
CONTINUOUS
 62
     3
100
AcDbLine
 10
7.573565
 20
7.525774
 30
0.0
 11
7.519294
 21
7.619774
 31
0.0
  0
ARC
  5
1E7
100
AcDbEntity
  8
R-DOOR-DETL
 62
     3
100
AcDbCircle
 10
8.311015
 20
6.285774
 30
0.0
 40
0.015
100
AcDbArc
 50
180.0
 51
270.0
  0
LINE
  5
1E8
100
AcDbEntity
  8
R-DOOR-DETL
 62
     3
100
AcDbLine
 10
8.381015
 20
6.270774
 30
0.0
 11
8.311015
 21
6.270774
 31
0.0
  0
ARC
  5
1E9
100
AcDbEntity
  8
R-DOOR-DETL
 62
     3
100
AcDbCircle
 10
8.381015
 20
6.285774
 30
0.0
 40
0.015
100
AcDbArc
 50
270.0
 51
0.0
  0
LINE
  5
1EE
100
AcDbEntity
  8
R-DOOR-DETL
 62
     3
100
AcDbLine
 10
8.296015
 20
6.285774
 30
0.0
 11
8.296015
 21
6.665774
 31
0.0
  0
ARC
  5
1EF
100
AcDbEntity
  8
R-DOOR-DETL
 62
     3
100
AcDbCircle
 10
6.765023
 20
7.379571
 30
0.0
 40
0.015
100
AcDbArc
 50
270.0
 51
360.0
  0
LINE
  5
1F0
100
AcDbEntity
  8
R-DOOR-DETL
 62
     3
100
AcDbLine
 10
6.780023
 20
7.549571
 30
0.0
 11
6.780023
 21
7.379571
 31
0.0
  0
ARC
  5
1F1
100
AcDbEntity
  8
R-DOOR-DETL
 62
     3
100
AcDbCircle
 10
6.765023
 20
7.549571
 30
0.0
 40
0.015
100
AcDbArc
 50
0.0
 51
90.0
  0
LINE
  5
1F2
100
AcDbEntity
  8
R-DOOR-DETL
 62
     3
100
AcDbLine
 10
6.934891
 20
7.498782
 30
0.0
 11
6.964081
 21
7.603325
 31
0.0
  0
LINE
  5
1F3
100
AcDbEntity
  8
R-DOOR-DETL
 62
     3
100
AcDbLine
 10
6.782523
 20
7.300774
 30
0.0
 11
6.782523
 21
7.850774
 31
0.0
  0
LINE
  5
1F4
100
AcDbEntity
  8
R-DOOR-DETL
 62
     3
100
AcDbLine
 10
6.934891
 20
7.498782
 30
0.0
 11
7.010832
 21
7.421231
 31
0.0
  0
CIRCLE
  5
1F7
100
AcDbEntity
  8
R-DOOR-DETL
 62
     3
100
AcDbCircle
 10
7.040023
 20
7.525774
 30
0.0
 40
0.1625
  0
CIRCLE
  5
1F8
100
AcDbEntity
  8
R-DOOR-DETL
 62
     3
100
AcDbCircle
 10
7.040023
 20
7.525774
 30
0.0
 40
0.1875
  0
LINE
  5
1F9
100
AcDbEntity
  8
R-DOOR-DETL
 62
     3
100
AcDbLine
 10
6.964081
 20
7.603325
 30
0.0
 11
7.069213
 21
7.630317
 31
0.0
  0
LINE
  5
1FA
100
AcDbEntity
  8
R-DOOR-DETL
 62
     3
100
AcDbLine
 10
7.010832
 20
7.421231
 30
0.0
 11
7.115965
 21
7.448223
 31
0.0
  0
LINE
  5
1FC
100
AcDbEntity
  8
R-DOOR-DETL
  6
CONTINUOUS
 62
     3
100
AcDbLine
 10
6.782523
 20
7.850774
 30
0.0
 11
8.147523
 21
7.850774
 31
0.0
  0
LINE
  5
1FD
100
AcDbEntity
  8
R-DOOR-DETL
 62
     3
100
AcDbLine
 10
6.782523
 20
7.300774
 30
0.0
 11
8.147523
 21
7.300774
 31
0.0
  0
LINE
  5
1FE
100
AcDbEntity
  8
R-DOOR-DETL
 62
     3
100
AcDbLine
 10
6.782523
 20
7.725774
 30
0.0
 11
8.147523
 21
7.725774
 31
0.0
  0
MTEXT
  5
202
102
{ACAD_REACTORS
330
206
102
}
100
AcDbEntity
  8
R-DOOR-ANNO
  6
CONTINUOUS
100
AcDbMText
 10
10.421073
 20
13.197541
 30
0.0
 40
0.36
 41
0.0
 71
     4
 72
     1
  1
SHOE
  7
ROMANS
  0
MTEXT
  5
203
102
{ACAD_REACTORS
330
205
102
}
100
AcDbEntity
  8
R-DOOR-ANNO
  6
CONTINUOUS
100
AcDbMText
 10
10.429117
 20
14.453918
 30
0.0
 40
0.36
 41
0.0
 71
     4
 72
     1
  1
GLASS CLAMP
  7
ROMANS
  0
MTEXT
  5
204
102
{ACAD_REACTORS
330
207
102
}
100
AcDbEntity
  8
R-DOOR-ANNO
  6
CONTINUOUS
100
AcDbMText
 10
10.421073
 20
15.57918
 30
0.0
 40
0.36
 41
0.0
 71
     4
 72
     1
  1
CLADDING
  7
ROMANS
  0
LEADER
  5
205
100
AcDbEntity
  8
R-DOOR-ANNO
  6
CONTINUOUS
100
AcDbLeader
  3
STANDARD
 73
     0
 74
     0
 75
     1
 40
0.36
 41
3.634286
 76
     3
 10
7.886743
 20
15.266418
 30
0.0
 10
9.819117
 20
14.453918
 30
0.0
 10
10.319117
 20
14.453918
 30
0.0
 77
   256
340
203
213
-0.0199999999999996
223
0.0
233
0.0
1001
ACAD
1000
DSTYLE
1002
{
1070
   173
1070
     1
1070
     6
1000
_DOTSMALL
1070
    41
1040
0.5
1002
}
  0
LEADER
  5
206
100
AcDbEntity
  8
R-DOOR-ANNO
  6
CONTINUOUS
100
AcDbLeader
  3
STANDARD
 73
     0
 74
     0
 75
     1
 40
0.36
 41
1.337143
 76
     3
 10
8.302267
 20
13.885041
 30
0.0
 10
9.811073
 20
13.197541
 30
0.0
 10
10.311073
 20
13.197541
 30
0.0
 77
   256
340
202
213
-0.0199999999999996
223
0.0
233
0.0
1001
ACAD
1000
DSTYLE
1002
{
1070
   173
1070
     1
1070
     6
1000
_DOTSMALL
1070
    41
1040
0.5
1002
}
  0
LEADER
  5
207
100
AcDbEntity
  8
R-DOOR-ANNO
  6
CONTINUOUS
100
AcDbLeader
  3
STANDARD
 73
     0
 74
     0
 75
     1
 40
0.36
 41
2.451429
 76
     3
 10
8.327325
 20
16.251082
 30
0.0
 10
9.811073
 20
15.57918
 30
0.0
 10
10.311073
 20
15.57918
 30
0.0
 77
   256
340
204
213
-0.0199999999999996
223
0.0
233
0.0
1001
ACAD
1000
DSTYLE
1002
{
1070
   173
1070
     1
1070
     6
1000
_DOTSMALL
1070
    41
1040
0.5
1002
}
  0
LINE
  5
208
100
AcDbEntity
  8
R-DOOR-DETL
100
AcDbLine
 10
7.706663
 20
18.255382
 30
0.0
 11
7.629284
 21
18.31062
 31
0.0
  0
LINE
  5
209
100
AcDbEntity
  8
R-DOOR-DETL
100
AcDbLine
 10
7.316784
 20
18.21687
 30
0.0
 11
7.221237
 21
18.246973
 31
0.0
  0
LINE
  5
20A
100
AcDbEntity
  8
R-DOOR-DETL
100
AcDbLine
 10
7.379284
 20
18.31062
 30
0.0
 11
7.316784
 21
18.21687
 31
0.0
  0
LINE
  5
20B
100
AcDbEntity
  8
R-DOOR-DETL
100
AcDbLine
 10
7.504284
 20
18.21687
 30
0.0
 11
7.379284
 21
18.31062
 31
0.0
  0
LINE
  5
20C
100
AcDbEntity
  8
R-DOOR-DETL
100
AcDbLine
 10
7.629284
 20
18.31062
 30
0.0
 11
7.504284
 21
18.21687
 31
0.0
  0
LINE
  5
20D
100
AcDbEntity
  8
R-DOOR-DETL
100
AcDbLine
 10
7.316784
 20
18.21687
 30
0.0
 11
7.221237
 21
18.246973
 31
0.0
  0
LINE
  5
20E
100
AcDbEntity
  8
R-DOOR-DETL
100
AcDbLine
 10
7.629284
 20
18.31062
 30
0.0
 11
7.504284
 21
18.21687
 31
0.0
  0
LINE
  5
20F
100
AcDbEntity
  8
R-DOOR-DETL
100
AcDbLine
 10
7.379284
 20
18.31062
 30
0.0
 11
7.316784
 21
18.21687
 31
0.0
  0
LINE
  5
210
100
AcDbEntity
  8
R-DOOR-DETL
100
AcDbLine
 10
7.504284
 20
18.21687
 30
0.0
 11
7.379284
 21
18.31062
 31
0.0
  0
LINE
  5
211
100
AcDbEntity
  8
R-DOOR-DETL
100
AcDbLine
 10
7.706663
 20
18.255382
 30
0.0
 11
7.629284
 21
18.31062
 31
0.0
  0
ARC
  5
212
100
AcDbEntity
  8
R-DOOR-DETL
 62
     3
100
AcDbCircle
 10
8.240015
 20
16.059227
 30
0.0
 40
0.156
100
AcDbArc
 50
360.0
 51
90.0
  0
LINE
  5
213
100
AcDbEntity
  8
R-DOOR-DETL
 62
     3
100
AcDbLine
 10
8.163095
 20
16.215227
 30
0.0
 11
8.240015
 21
16.215227
 31
0.0
  0
ARC
  5
214
100
AcDbEntity
  8
R-DOOR-DETL
 62
     3
100
AcDbCircle
 10
8.163095
 20
16.185227
 30
0.0
 40
0.03
100
AcDbArc
 50
90.0
 51
180.0
  0
LINE
  5
215
100
AcDbEntity
  8
R-DOOR-DETL
 62
     3
100
AcDbLine
 10
8.133095
 20
16.120227
 30
0.0
 11
8.133095
 21
16.185227
 31
0.0
  0
ARC
  5
216
100
AcDbEntity
  8
R-DOOR-DETL
 62
     3
100
AcDbCircle
 10
8.163095
 20
16.120227
 30
0.0
 40
0.03
100
AcDbArc
 50
180.0
 51
270.0
  0
LINE
  5
217
100
AcDbEntity
  8
R-DOOR-DETL
 62
     3
100
AcDbLine
 10
8.216015
 20
16.090227
 30
0.0
 11
8.163095
 21
16.090227
 31
0.0
  0
ARC
  5
218
100
AcDbEntity
  8
R-DOOR-DETL
 62
     3
100
AcDbCircle
 10
8.216015
 20
16.060227
 30
0.0
 40
0.03
100
AcDbArc
 50
0.0
 51
90.0
  0
LINE
  5
219
100
AcDbEntity
  8
R-DOOR-DETL
 62
     3
100
AcDbLine
 10
7.895023
 20
16.057755
 30
0.0
 11
7.755023
 21
16.057755
 31
0.0
  0
ARC
  5
21A
100
AcDbEntity
  8
R-DOOR-DETL
 62
     3
100
AcDbCircle
 10
7.74518
 20
16.010231
 30
0.0
 40
0.009843
100
AcDbArc
 50
0.0
 51
70.528779
  0
ARC
  5
21B
100
AcDbEntity
  8
R-DOOR-DETL
 62
     3
100
AcDbCircle
 10
7.755023
 20
16.03807
 30
0.0
 40
0.019685
100
AcDbArc
 50
90.0
 51
250.528779
  0
ARC
  5
21C
100
AcDbEntity
  8
R-DOOR-DETL
 62
     3
100
AcDbCircle
 10
7.895023
 20
15.997755
 30
0.0
 40
0.06
100
AcDbArc
 50
0.0
 51
90.0
  0
LINE
  5
21D
100
AcDbEntity
  8
R-DOOR-DETL
 62
     3
100
AcDbLine
 10
7.755023
 20
15.970231
 30
0.0
 11
7.715023
 21
15.970231
 31
0.0
  0
ARC
  5
21E
100
AcDbEntity
  8
R-DOOR-DETL
 62
     3
100
AcDbCircle
 10
7.175023
 20
16.03807
 30
0.0
 40
0.019685
100
AcDbArc
 50
289.471221
 51
90.0
  0
ARC
  5
21F
100
AcDbEntity
  8
R-DOOR-DETL
 62
     3
100
AcDbCircle
 10
7.184865
 20
16.010231
 30
0.0
 40
0.009843
100
AcDbArc
 50
109.471221
 51
180.0
  0
LINE
  5
220
100
AcDbEntity
  8
R-DOOR-DETL
 62
     3
100
AcDbLine
 10
7.175023
 20
15.970231
 30
0.0
 11
7.215023
 21
15.970231
 31
0.0
  0
LINE
  5
221
100
AcDbEntity
  8
R-DOOR-DETL
  6
CONTINUOUS
 62
     3
100
AcDbLine
 10
7.89203
 20
13.830682
 30
0.0
 11
8.165265
 21
14.285422
 31
0.0
  0
LINE
  5
222
100
AcDbEntity
  8
R-DOOR-DETL
  6
CONTINUOUS
 62
     3
100
AcDbLine
 10
7.74518
 20
14.055231
 30
0.0
 11
7.74518
 21
14.015231
 31
0.0
  0
LINE
  5
223
100
AcDbEntity
  8
R-DOOR-DETL
 62
     3
100
AcDbLine
 10
7.919042
 20
13.858874
 30
0.0
 11
8.212522
 21
14.367196
 31
0.0
  0
HATCH
  5
224
100
AcDbEntity
  8
R-DOOR-DETL
 62
     3
100
AcDbHatch
 10
0.0
 20
0.0
 30
0.0
210
0.0
220
0.0
230
1.0
  2
ANSI31
 70
     0
 71
     0
 91
        1
 92
        7
 72
     0
 73
     1
 93
        4
 10
7.589022746505889
 20
13.68488729270516
 10
7.589022746505889
 20
13.55988729270516
 10
7.715022746505866
 20
13.55988729270516
 10
7.715022746505866
 20
13.68488729270516
 97
        0
 75
     0
 76
     1
 52
90.0
 41
0.2
 77
     0
 78
     1
 53
135.0
 43
-28.567174
 44
-17.195909
 45
-0.0176776695296637
 46
-0.0176776695296637
 79
     0
 47
0.003428
 98
        1
 10
7.654168
 20
13.629297
  0
ARC
  5
225
100
AcDbEntity
  8
R-DOOR-DETL
  6
CONTINUOUS
 62
     3
100
AcDbCircle
 10
7.904887
 20
13.822957
 30
0.0
 40
0.015
100
AcDbArc
 50
149.0
 51
180.0
  0
ARC
  5
226
100
AcDbEntity
  8
R-DOOR-DETL
  6
CONTINUOUS
 62
     3
100
AcDbCircle
 10
7.74518
 20
14.025073
 30
0.0
 40
0.009843
100
AcDbArc
 50
270.0
 51
360.0
  0
LINE
  5
227
100
AcDbEntity
  8
R-DOOR-DETL
 62
     3
100
AcDbLine
 10
7.579023
 20
13.763135
 30
0.0
 11
7.579023
 21
13.289938
 31
0.0
  0
LINE
  5
228
100
AcDbEntity
  8
R-DOOR-DETL
 62
     3
100
AcDbLine
 10
7.589023
 20
13.740774
 30
0.0
 11
7.589023
 21
13.289938
 31
0.0
  0
ARC
  5
229
100
AcDbEntity
  8
R-DOOR-DETL
  6
CONTINUOUS
 62
     3
100
AcDbCircle
 10
7.654887
 20
13.780231
 30
0.0
 40
0.09
100
AcDbArc
 50
360.0
 51
90.0
  0
ARC
  5
22A
100
AcDbEntity
  8
R-DOOR-DETL
  6
CONTINUOUS
 62
     3
100
AcDbCircle
 10
7.734887
 20
13.553231
 30
0.0
 40
0.01
100
AcDbArc
 50
270.0
 51
360.0
  0
ARC
  5
22B
100
AcDbEntity
  8
R-DOOR-DETL
  6
CONTINUOUS
 62
     3
100
AcDbCircle
 10
7.631887
 20
13.533231
 30
0.0
 40
0.01
100
AcDbArc
 50
90.0
 51
180.0
  0
LINE
  5
22C
100
AcDbEntity
  8
R-DOOR-DETL
  6
CONTINUOUS
 62
     3
100
AcDbLine
 10
7.734887
 20
13.543231
 30
0.0
 11
7.631887
 21
13.543231
 31
0.0
  0
LINE
  5
22D
100
AcDbEntity
  8
R-DOOR-DETL
  6
CONTINUOUS
 62
     3
100
AcDbLine
 10
7.621887
 20
13.533231
 30
0.0
 11
7.621887
 21
13.428231
 31
0.0
  0
LINE
  5
22E
100
AcDbEntity
  8
R-DOOR-DETL
  6
CONTINUOUS
 62
     3
100
AcDbLine
 10
7.744887
 20
13.780231
 30
0.0
 11
7.744887
 21
13.553231
 31
0.0
  0
LINE
  5
22F
100
AcDbEntity
  8
R-DOOR-DETL
 62
     3
100
AcDbLine
 10
7.715023
 20
13.684887
 30
0.0
 11
7.715023
 21
13.559887
 31
0.0
  0
ARC
  5
230
100
AcDbEntity
  8
R-DOOR-DETL
  6
CONTINUOUS
 62
     3
100
AcDbCircle
 10
7.651887
 20
13.428231
 30
0.0
 40
0.03
100
AcDbArc
 50
180.0
 51
270.0
  0
LINE
  5
231
100
AcDbEntity
  8
R-DOOR-DETL
  6
CONTINUOUS
 62
     3
100
AcDbLine
 10
7.651887
 20
13.398231
 30
0.0
 11
7.795887
 21
13.398231
 31
0.0
  0
ARC
  5
232
100
AcDbEntity
  8
R-DOOR-DETL
  6
CONTINUOUS
 62
     3
100
AcDbCircle
 10
7.795887
 20
13.492231
 30
0.0
 40
0.094
100
AcDbArc
 50
270.0
 51
360.0
  0
LINE
  5
233
100
AcDbEntity
  8
R-DOOR-DETL
  6
CONTINUOUS
 62
     3
100
AcDbLine
 10
7.889887
 20
13.492231
 30
0.0
 11
7.889887
 21
13.822957
 31
0.0
  0
ARC
  5
234
100
AcDbEntity
  8
R-DOOR-DETL
 62
     3
100
AcDbCircle
 10
7.855023
 20
13.349938
 30
0.0
 40
0.06
100
AcDbArc
 50
270.0
 51
0.0
  0
LINE
  5
235
100
AcDbEntity
  8
R-DOOR-DETL
 62
     3
100
AcDbLine
 10
7.915023
 20
13.349938
 30
0.0
 11
7.915023
 21
13.843874
 31
0.0
  0
ARC
  5
236
100
AcDbEntity
  8
R-DOOR-DETL
 62
     3
100
AcDbCircle
 10
7.945023
 20
13.843874
 30
0.0
 40
0.03
100
AcDbArc
 50
150.0
 51
180.0
  0
LINE
  5
237
100
AcDbEntity
  8
R-DOOR-DETL
  6
CONTINUOUS
 62
     3
100
AcDbLine
 10
7.715023
 20
14.095231
 30
0.0
 11
7.755023
 21
14.095231
 31
0.0
  0
ARC
  5
238
100
AcDbEntity
  8
R-DOOR-DETL
  6
CONTINUOUS
 62
     3
100
AcDbCircle
 10
8.13955
 20
14.300873
 30
0.0
 40
0.03
100
AcDbArc
 50
329.0
 51
59.0
  0
POINT
  5
239
100
AcDbEntity
  8
R-DOOR-DETL
  6
BYBLOCK
 62
     3
100
AcDbPoint
 10
8.165265
 20
14.285422
 30
0.0
  0
POINT
  5
23A
100
AcDbEntity
  8
R-DOOR-DETL
  6
BYBLOCK
 62
     3
100
AcDbPoint
 10
8.165265
 20
14.285422
 30
0.0
  0
POINT
  5
23B
100
AcDbEntity
  8
R-DOOR-DETL
  6
BYBLOCK
 62
     3
100
AcDbPoint
 10
8.155001
 20
14.326588
 30
0.0
  0
ARC
  5
23C
100
AcDbEntity
  8
R-DOOR-DETL
  6
CONTINUOUS
 62
     3
100
AcDbCircle
 10
8.13955
 20
14.300873
 30
0.0
 40
0.03
100
AcDbArc
 50
329.0
 51
59.0
  0
LINE
  5
23D
100
AcDbEntity
  8
R-DOOR-DETL
  6
CONTINUOUS
 62
     3
100
AcDbLine
 10
8.155001
 20
14.326588
 30
0.0
 11
7.98412
 21
14.429263
 31
0.0
  0
ARC
  5
23E
100
AcDbEntity
  8
R-DOOR-DETL
  6
CONTINUOUS
 62
     3
100
AcDbCircle
 10
8.015023
 20
14.480693
 30
0.0
 40
0.06
100
AcDbArc
 50
180.0
 51
239.0
  0
ARC
  5
23F
100
AcDbEntity
  8
R-DOOR-DETL
 62
     3
100
AcDbCircle
 10
7.996015
 20
14.492196
 30
0.0
 40
0.25
100
AcDbArc
 50
330.0
 51
360.0
  0
LINE
  5
240
100
AcDbEntity
  8
R-DOOR-DETL
  6
CONTINUOUS
 62
     3
100
AcDbLine
 10
7.184865
 20
14.055231
 30
0.0
 11
7.184865
 21
14.015231
 31
0.0
  0
LINE
  5
241
100
AcDbEntity
  8
R-DOOR-DETL
  6
CONTINUOUS
 62
     3
100
AcDbLine
 10
7.522887
 20
14.015231
 30
0.0
 11
7.522887
 21
14.055231
 31
0.0
  0
LINE
  5
242
100
AcDbEntity
  8
R-DOOR-DETL
  6
CONTINUOUS
 62
     3
100
AcDbLine
 10
7.407158
 20
14.015231
 30
0.0
 11
7.407158
 21
14.055231
 31
0.0
  0
LINE
  5
243
100
AcDbEntity
  8
R-DOOR-DETL
  6
CONTINUOUS
 62
     3
100
AcDbLine
 10
7.278158
 20
13.398231
 30
0.0
 11
7.134158
 21
13.398231
 31
0.0
  0
LINE
  5
244
100
AcDbEntity
  8
R-DOOR-DETL
 62
     3
100
AcDbLine
 10
7.075023
 20
13.289938
 30
0.0
 11
7.465023
 21
13.289938
 31
0.0
  0
HATCH
  5
245
100
AcDbEntity
  8
R-DOOR-DETL
 62
     3
100
AcDbHatch
 10
0.0
 20
0.0
 30
0.0
210
0.0
220
0.0
230
1.0
  2
ANSI31
 70
     0
 71
     0
 91
        1
 92
        7
 72
     0
 73
     1
 93
        4
 10
7.215022746505923
 20
13.68488729270516
 10
7.341022746505899
 20
13.68488729270516
 10
7.341022746505899
 20
13.55988729270516
 10
7.215022746505923
 20
13.55988729270516
 97
        0
 75
     0
 76
     1
 52
90.0
 41
0.2
 77
     0
 78
     1
 53
45.0
 43
43.49722
 44
-17.195909
 45
0.0176776695296637
 46
-0.0176776695296637
 79
     0
 47
0.003428
 98
        1
 10
7.275877
 20
13.629297
  0
LINE
  5
246
100
AcDbEntity
  8
R-DOOR-DETL
  6
CONTINUOUS
 62
     3
100
AcDbLine
 10
7.184865
 20
14.015231
 30
0.0
 11
7.397158
 21
14.015231
 31
0.0
  0
LINE
  5
247
100
AcDbEntity
  8
R-DOOR-DETL
  6
CONTINUOUS
 62
     3
100
AcDbLine
 10
7.184865
 20
14.015231
 30
0.0
 11
7.407158
 21
14.015231
 31
0.0
  0
ARC
  5
248
100
AcDbEntity
  8
R-DOOR-DETL
  6
CONTINUOUS
 62
     3
100
AcDbCircle
 10
7.184865
 20
14.025073
 30
0.0
 40
0.009843
100
AcDbArc
 50
180.0
 51
270.0
  0
LINE
  5
249
100
AcDbEntity
  8
R-DOOR-DETL
 62
     3
100
AcDbLine
 10
7.559023
 20
13.345328
 30
0.0
 11
7.371023
 21
13.345328
 31
0.0
  0
LINE
  5
24A
100
AcDbEntity
  8
R-DOOR-DETL
 62
     3
100
AcDbLine
 10
7.341023
 20
13.740774
 30
0.0
 11
7.341023
 21
13.289938
 31
0.0
  0
LINE
  5
24B
100
AcDbEntity
  8
R-DOOR-DETL
 62
     3
100
AcDbLine
 10
7.351023
 20
13.763135
 30
0.0
 11
7.351023
 21
13.289938
 31
0.0
  0
LINE
  5
24C
100
AcDbEntity
  8
R-DOOR-DETL
 62
     3
100
AcDbLine
 10
7.559023
 20
13.405328
 30
0.0
 11
7.371023
 21
13.405328
 31
0.0
  0
ARC
  5
24D
100
AcDbEntity
  8
R-DOOR-DETL
  6
CONTINUOUS
 62
     3
100
AcDbCircle
 10
7.275158
 20
13.780231
 30
0.0
 40
0.09
100
AcDbArc
 50
90.0
 51
180.0
  0
LINE
  5
24E
100
AcDbEntity
  8
R-DOOR-DETL
  6
CONTINUOUS
 62
     3
100
AcDbLine
 10
7.195158
 20
13.543231
 30
0.0
 11
7.298158
 21
13.543231
 31
0.0
  0
ARC
  5
24F
100
AcDbEntity
  8
R-DOOR-DETL
  6
CONTINUOUS
 62
     3
100
AcDbCircle
 10
7.195158
 20
13.553231
 30
0.0
 40
0.01
100
AcDbArc
 50
180.0
 51
270.0
  0
LINE
  5
250
100
AcDbEntity
  8
R-DOOR-DETL
 62
     3
100
AcDbLine
 10
7.215023
 20
13.684887
 30
0.0
 11
7.215023
 21
13.559887
 31
0.0
  0
LINE
  5
251
100
AcDbEntity
  8
R-DOOR-DETL
  6
CONTINUOUS
 62
     3
100
AcDbLine
 10
7.185158
 20
13.780231
 30
0.0
 11
7.185158
 21
13.553231
 31
0.0
  0
ARC
  5
252
100
AcDbEntity
  8
R-DOOR-DETL
  6
CONTINUOUS
 62
     3
100
AcDbCircle
 10
7.532887
 20
13.880231
 30
0.0
 40
0.01
100
AcDbArc
 50
180.0
 51
270.0
  0
ARC
  5
253
100
AcDbEntity
  8
R-DOOR-DETL
  6
CONTINUOUS
 62
     3
100
AcDbCircle
 10
7.397158
 20
13.880231
 30
0.0
 40
0.01
100
AcDbArc
 50
270.0
 51
0.0
  0
ARC
  5
254
100
AcDbEntity
  8
R-DOOR-DETL
 62
     3
100
AcDbCircle
 10
7.371023
 20
13.740774
 30
0.0
 40
0.03
100
AcDbArc
 50
90.0
 51
180.0
  0
LINE
  5
255
100
AcDbEntity
  8
R-DOOR-DETL
 62
     3
100
AcDbLine
 10
7.559023
 20
13.705328
 30
0.0
 11
7.371023
 21
13.705328
 31
0.0
  0
LINE
  5
256
100
AcDbEntity
  8
R-DOOR-DETL
 62
     3
100
AcDbLine
 10
7.559023
 20
13.770774
 30
0.0
 11
7.371023
 21
13.770774
 31
0.0
  0
LINE
  5
257
100
AcDbEntity
  8
R-DOOR-DETL
  6
CONTINUOUS
 62
     3
100
AcDbLine
 10
7.397158
 20
13.870231
 30
0.0
 11
7.275158
 21
13.870231
 31
0.0
  0
ARC
  5
258
100
AcDbEntity
  8
R-DOOR-DETL
  6
CONTINUOUS
 62
     3
100
AcDbCircle
 10
7.298158
 20
13.533231
 30
0.0
 40
0.01
100
AcDbArc
 50
360.0
 51
90.0
  0
LINE
  5
259
100
AcDbEntity
  8
R-DOOR-DETL
 62
     3
100
AcDbLine
 10
7.559023
 20
13.645328
 30
0.0
 11
7.371023
 21
13.645328
 31
0.0
  0
LINE
  5
25A
100
AcDbEntity
  8
R-DOOR-DETL
 62
     3
100
AcDbLine
 10
7.559023
 20
13.525328
 30
0.0
 11
7.371023
 21
13.525328
 31
0.0
  0
LINE
  5
25B
100
AcDbEntity
  8
R-DOOR-DETL
 62
     3
100
AcDbLine
 10
7.559023
 20
13.465328
 30
0.0
 11
7.371023
 21
13.465328
 31
0.0
  0
LINE
  5
25C
100
AcDbEntity
  8
R-DOOR-DETL
 62
     3
100
AcDbLine
 10
7.559023
 20
13.585328
 30
0.0
 11
7.371023
 21
13.585328
 31
0.0
  0
LINE
  5
25D
100
AcDbEntity
  8
R-DOOR-DETL
 62
     3
100
AcDbLine
 10
7.559023
 20
13.645328
 30
0.0
 11
7.371023
 21
13.645328
 31
0.0
  0
LINE
  5
25E
100
AcDbEntity
  8
R-DOOR-DETL
  6
CONTINUOUS
 62
     3
100
AcDbLine
 10
7.308158
 20
13.533231
 30
0.0
 11
7.308158
 21
13.428231
 31
0.0
  0
ARC
  5
25F
100
AcDbEntity
  8
R-DOOR-DETL
  6
CONTINUOUS
 62
     3
100
AcDbCircle
 10
7.278158
 20
13.428231
 30
0.0
 40
0.03
100
AcDbArc
 50
270.0
 51
0.0
  0
LINE
  5
260
100
AcDbEntity
  8
R-DOOR-DETL
  6
CONTINUOUS
 62
     3
100
AcDbLine
 10
7.522887
 20
14.005231
 30
0.0
 11
7.522887
 21
13.880231
 31
0.0
  0
LINE
  5
261
100
AcDbEntity
  8
R-DOOR-DETL
  6
CONTINUOUS
 62
     3
100
AcDbLine
 10
7.407158
 20
14.005231
 30
0.0
 11
7.407158
 21
13.880231
 31
0.0
  0
ARC
  5
262
100
AcDbEntity
  8
R-DOOR-DETL
  6
CONTINUOUS
 62
     3
100
AcDbCircle
 10
7.532887
 20
14.005231
 30
0.0
 40
0.01
100
AcDbArc
 50
90.0
 51
180.0
  0
ARC
  5
263
100
AcDbEntity
  8
R-DOOR-DETL
  6
CONTINUOUS
 62
     3
100
AcDbCircle
 10
7.397158
 20
14.005231
 30
0.0
 40
0.01
100
AcDbArc
 50
0.0
 51
90.0
  0
LINE
  5
264
100
AcDbEntity
  8
R-DOOR-DETL
  6
CONTINUOUS
 62
     3
100
AcDbLine
 10
7.184865
 20
14.055231
 30
0.0
 11
7.397158
 21
14.055231
 31
0.0
  0
LINE
  5
265
100
AcDbEntity
  8
R-DOOR-DETL
  6
CONTINUOUS
 62
     3
100
AcDbLine
 10
7.407158
 20
14.055231
 30
0.0
 11
7.184865
 21
14.055231
 31
0.0
  0
LINE
  5
266
100
AcDbEntity
  8
R-DOOR-DETL
  6
CONTINUOUS
 62
     3
100
AcDbLine
 10
7.215023
 20
14.095231
 30
0.0
 11
7.175023
 21
14.095231
 31
0.0
  0
LINE
  5
267
100
AcDbEntity
  8
R-DOOR-DETL
  6
CONTINUOUS
 62
     3
100
AcDbLine
 10
7.74518
 20
14.015231
 30
0.0
 11
7.522887
 21
14.015231
 31
0.0
  0
LINE
  5
268
100
AcDbEntity
  8
R-DOOR-DETL
  6
CONTINUOUS
 62
     3
100
AcDbLine
 10
7.74518
 20
14.015231
 30
0.0
 11
7.532887
 21
14.015231
 31
0.0
  0
LINE
  5
269
100
AcDbEntity
  8
R-DOOR-DETL
 62
     3
100
AcDbLine
 10
7.589023
 20
13.315328
 30
0.0
 11
7.341023
 21
13.315328
 31
0.0
  0
LINE
  5
26A
100
AcDbEntity
  8
R-DOOR-DETL
 62
     3
100
AcDbLine
 10
7.589023
 20
13.375328
 30
0.0
 11
7.341023
 21
13.375328
 31
0.0
  0
LINE
  5
26B
100
AcDbEntity
  8
R-DOOR-DETL
 62
     3
100
AcDbLine
 10
7.715023
 20
13.684887
 30
0.0
 11
7.215023
 21
13.684887
 31
0.0
  0
LINE
  5
26C
100
AcDbEntity
  8
R-DOOR-DETL
 62
     3
100
AcDbLine
 10
7.715023
 20
13.559887
 30
0.0
 11
7.215023
 21
13.559887
 31
0.0
  0
LINE
  5
26D
100
AcDbEntity
  8
R-DOOR-DETL
 62
     3
100
AcDbLine
 10
7.589023
 20
13.735328
 30
0.0
 11
7.341023
 21
13.735328
 31
0.0
  0
LINE
  5
26E
100
AcDbEntity
  8
R-DOOR-DETL
 62
     3
100
AcDbLine
 10
7.589023
 20
13.675328
 30
0.0
 11
7.341023
 21
13.675328
 31
0.0
  0
ARC
  5
26F
100
AcDbEntity
  8
R-DOOR-DETL
 62
     3
100
AcDbCircle
 10
7.559023
 20
13.740774
 30
0.0
 40
0.03
100
AcDbArc
 50
0.0
 51
90.0
  0
LINE
  5
270
100
AcDbEntity
  8
R-DOOR-DETL
  6
CONTINUOUS
 62
     3
100
AcDbLine
 10
7.532887
 20
13.870231
 30
0.0
 11
7.654887
 21
13.870231
 31
0.0
  0
LINE
  5
271
100
AcDbEntity
  8
R-DOOR-DETL
 62
     3
100
AcDbLine
 10
7.589023
 20
13.495328
 30
0.0
 11
7.341023
 21
13.495328
 31
0.0
  0
LINE
  5
272
100
AcDbEntity
  8
R-DOOR-DETL
 62
     3
100
AcDbLine
 10
7.589023
 20
13.435328
 30
0.0
 11
7.341023
 21
13.435328
 31
0.0
  0
LINE
  5
273
100
AcDbEntity
  8
R-DOOR-DETL
 62
     3
100
AcDbLine
 10
7.589023
 20
13.555328
 30
0.0
 11
7.341023
 21
13.555328
 31
0.0
  0
LINE
  5
274
100
AcDbEntity
  8
R-DOOR-DETL
 62
     3
100
AcDbLine
 10
7.589023
 20
13.615328
 30
0.0
 11
7.341023
 21
13.615328
 31
0.0
  0
LINE
  5
275
100
AcDbEntity
  8
R-DOOR-DETL
 62
     3
100
AcDbLine
 10
7.465023
 20
13.289938
 30
0.0
 11
7.855023
 21
13.289938
 31
0.0
  0
LINE
  5
276
100
AcDbEntity
  8
R-DOOR-DETL
  6
CONTINUOUS
 62
     3
100
AcDbLine
 10
7.522887
 20
14.055231
 30
0.0
 11
7.74518
 21
14.055231
 31
0.0
  0
LINE
  5
277
100
AcDbEntity
  8
R-DOOR-DETL
  6
CONTINUOUS
 62
     3
100
AcDbLine
 10
7.74518
 20
14.055231
 30
0.0
 11
7.532887
 21
14.055231
 31
0.0
  0
LINE
  5
278
100
AcDbEntity
  8
R-DOOR-DETL
  6
CONTINUOUS
100
AcDbLine
 10
7.184865
 20
14.055231
 30
0.0
 11
7.74518
 21
14.055231
 31
0.0
  0
LINE
  5
279
100
AcDbEntity
  8
R-DOOR-DETL
 62
     3
100
AcDbLine
 10
7.755023
 20
16.010231
 30
0.0
 11
7.755023
 21
14.025073
 31
0.0
  0
LINE
  5
27A
100
AcDbEntity
  8
R-DOOR-DETL
 62
     3
100
AcDbLine
 10
7.175023
 20
16.010231
 30
0.0
 11
7.175023
 21
14.025073
 31
0.0
  0
LINE
  5
27B
100
AcDbEntity
  8
R-DOOR-DETL
  6
CONTINUOUS
 62
     3
100
AcDbLine
 10
7.215023
 20
15.970231
 30
0.0
 11
7.215023
 21
14.095231
 31
0.0
  0
LINE
  5
27C
100
AcDbEntity
  8
R-DOOR-DETL
 62
     3
100
AcDbLine
 10
7.715023
 20
15.970231
 30
0.0
 11
7.715023
 21
14.095231
 31
0.0
  0
LINE
  5
27D
100
AcDbEntity
  8
R-DOOR-DETL
 62
     3
100
AcDbLine
 10
8.246015
 20
14.492196
 30
0.0
 11
8.246015
 21
16.060227
 31
0.0
  0
LINE
  5
27E
100
AcDbEntity
  8
R-DOOR-DETL
100
AcDbLine
 10
7.955023
 20
14.480693
 30
0.0
 11
7.955023
 21
15.997755
 31
0.0
  0
ARC
  5
27F
100
AcDbEntity
  8
R-DOOR-DETL
 62
     3
100
AcDbCircle
 10
6.76695
 20
16.120227
 30
0.0
 40
0.03
100
AcDbArc
 50
270.0
 51
0.0
  0
LINE
  5
280
100
AcDbEntity
  8
R-DOOR-DETL
 62
     3
100
AcDbLine
 10
6.79695
 20
16.185227
 30
0.0
 11
6.79695
 21
16.120227
 31
0.0
  0
ARC
  5
281
100
AcDbEntity
  8
R-DOOR-DETL
 62
     3
100
AcDbCircle
 10
6.76695
 20
16.185227
 30
0.0
 40
0.03
100
AcDbArc
 50
0.0
 51
90.0
  0
ARC
  5
282
100
AcDbEntity
  8
R-DOOR-DETL
 62
     3
100
AcDbCircle
 10
7.035023
 20
15.997755
 30
0.0
 40
0.06
100
AcDbArc
 50
90.0
 51
180.0
  0
LINE
  5
283
100
AcDbEntity
  8
CLAMP
  6
CONTINUOUS
100
AcDbLine
 10
7.038016
 20
13.830682
 30
0.0
 11
6.764781
 21
14.285422
 31
0.0
  0
LINE
  5
284
100
AcDbEntity
  8
R-DOOR-DETL
 62
     3
100
AcDbLine
 10
7.015023
 20
13.843874
 30
0.0
 11
7.015023
 21
13.349938
 31
0.0
  0
ARC
  5
285
100
AcDbEntity
  8
R-DOOR-DETL
 62
     3
100
AcDbCircle
 10
6.985023
 20
13.843874
 30
0.0
 40
0.03
100
AcDbArc
 50
0.0
 51
30.0
  0
LINE
  5
286
100
AcDbEntity
  8
R-DOOR-DETL
  6
CONTINUOUS
 62
     3
100
AcDbLine
 10
7.040158
 20
13.492231
 30
0.0
 11
7.040158
 21
13.822957
 31
0.0
  0
ARC
  5
287
100
AcDbEntity
  8
CLAMP
  6
CONTINUOUS
100
AcDbCircle
 10
7.025158
 20
13.822957
 30
0.0
 40
0.015
100
AcDbArc
 50
0.0
 51
31.0
  0
ARC
  5
288
100
AcDbEntity
  8
R-DOOR-DETL
  6
CONTINUOUS
 62
     3
100
AcDbCircle
 10
6.790496
 20
14.300873
 30
0.0
 40
0.03
100
AcDbArc
 50
121.0
 51
211.0
  0
ARC
  5
289
100
AcDbEntity
  8
R-DOOR-DETL
  6
CONTINUOUS
 62
     3
100
AcDbCircle
 10
6.790496
 20
14.300873
 30
0.0
 40
0.03
100
AcDbArc
 50
121.0
 51
211.0
  0
POINT
  5
28A
100
AcDbEntity
  8
R-DOOR-DETL
  6
BYBLOCK
 62
     3
100
AcDbPoint
 10
6.775045
 20
14.326588
 30
0.0
  0
LINE
  5
28B
100
AcDbEntity
  8
R-DOOR-DETL
  6
CONTINUOUS
 62
     3
100
AcDbLine
 10
6.775045
 20
14.326588
 30
0.0
 11
6.945925
 21
14.429263
 31
0.0
  0
ARC
  5
28C
100
AcDbEntity
  8
R-DOOR-DETL
  6
CONTINUOUS
 62
     3
100
AcDbCircle
 10
6.915023
 20
14.480693
 30
0.0
 40
0.06
100
AcDbArc
 50
301.0
 51
0.0
  0
POINT
  5
28D
100
AcDbEntity
  8
CLAMP
  6
BYBLOCK
100
AcDbPoint
 10
6.764781
 20
14.285422
 30
0.0
  0
POINT
  5
28E
100
AcDbEntity
  8
CLAMP
  6
BYBLOCK
100
AcDbPoint
 10
6.764781
 20
14.285422
 30
0.0
  0
LINE
  5
28F
100
AcDbEntity
  8
R-DOOR-DETL
  6
CONTINUOUS
 62
     3
100
AcDbLine
 10
6.975023
 20
14.480693
 30
0.0
 11
6.975023
 21
15.997755
 31
0.0
  0
LINE
  5
290
100
AcDbEntity
  8
R-DOOR-DETL
 62
     3
100
AcDbLine
 10
7.035023
 20
16.057755
 30
0.0
 11
7.175023
 21
16.057755
 31
0.0
  0
ARC
  5
291
100
AcDbEntity
  8
R-DOOR-DETL
 62
     3
100
AcDbCircle
 10
7.075023
 20
13.349938
 30
0.0
 40
0.06
100
AcDbArc
 50
180.0
 51
270.0
  0
ARC
  5
292
100
AcDbEntity
  8
R-DOOR-DETL
  6
CONTINUOUS
 62
     3
100
AcDbCircle
 10
7.134158
 20
13.492231
 30
0.0
 40
0.094
100
AcDbArc
 50
180.0
 51
270.0
  0
LINE
  5
293
100
AcDbEntity
  8
R-DOOR-DETL
100
AcDbLine
 10
7.715023
 20
18.255382
 30
0.0
 11
7.715023
 21
15.175082
 31
0.0
  0
LINE
  5
294
100
AcDbEntity
  8
R-DOOR-DETL
100
AcDbLine
 10
7.215023
 20
18.246973
 30
0.0
 11
7.215023
 21
15.175082
 31
0.0
  0
LINE
  5
295
100
AcDbEntity
  8
R-DOOR-DETL
100
AcDbLine
 10
7.528737
 20
18.23521
 30
0.0
 11
7.528737
 21
14.055231
 31
0.0
  0
LINE
  5
296
100
AcDbEntity
  8
R-DOOR-DETL
100
AcDbLine
 10
7.653737
 20
18.293164
 30
0.0
 11
7.653737
 21
14.055231
 31
0.0
  0
LINE
  5
297
100
AcDbEntity
  8
R-DOOR-DETL
100
AcDbLine
 10
7.591237
 20
18.282085
 30
0.0
 11
7.591237
 21
14.055231
 31
0.0
  0
LINE
  5
298
100
AcDbEntity
  8
R-DOOR-DETL
100
AcDbLine
 10
7.403737
 20
18.29228
 30
0.0
 11
7.403737
 21
14.055231
 31
0.0
  0
LINE
  5
299
100
AcDbEntity
  8
R-DOOR-DETL
100
AcDbLine
 10
7.341237
 20
18.253549
 30
0.0
 11
7.341237
 21
14.055231
 31
0.0
  0
LINE
  5
29A
100
AcDbEntity
  8
R-DOOR-DETL
100
AcDbLine
 10
7.278737
 20
18.228857
 30
0.0
 11
7.278737
 21
14.055231
 31
0.0
  0
LINE
  5
29B
100
AcDbEntity
  8
R-DOOR-DETL
100
AcDbLine
 10
7.653737
 20
18.293164
 30
0.0
 11
7.653737
 21
15.175082
 31
0.0
  0
LINE
  5
29C
100
AcDbEntity
  8
R-DOOR-DETL
100
AcDbLine
 10
7.591237
 20
18.282085
 30
0.0
 11
7.591237
 21
15.175082
 31
0.0
  0
LINE
  5
29D
100
AcDbEntity
  8
R-DOOR-DETL
100
AcDbLine
 10
7.403737
 20
18.29228
 30
0.0
 11
7.403737
 21
15.175082
 31
0.0
  0
LINE
  5
29E
100
AcDbEntity
  8
R-DOOR-DETL
100
AcDbLine
 10
7.341237
 20
18.253549
 30
0.0
 11
7.341237
 21
15.175082
 31
0.0
  0
MTEXT
  5
37D
100
AcDbEntity
  8
0
 62
     4
100
AcDbMText
 10
0.292923
 20
1.360198
 30
0.0
 40
0.191898
 41
6.0133
 71
     1
 72
     5
  1
\fArial|b0|i1|c0|p34;Phone Orders (800) 421-6144\PFax Orders     (800) 262-3299\PWWW.CRLAURENCE.COM\PPatent Pending
  0
MTEXT
  5
37E
100
AcDbEntity
  8
0
 62
     4
100
AcDbMText
 10
2.570224
 20
2.441179
 30
0.0
 40
0.274008
 41
6.855394
 71
     1
 72
     5
  1
\fArial|b1|i0|c0|p34;DOOR RAIL SYSTEM
  0
LWPOLYLINE
  5
37F
100
AcDbEntity
  8
0
 62
     4
100
AcDbPolyline
 90
        2
 70
     0
 43
0.030704
 10
0.272916
 20
2.062307
 10
6.293849
 20
2.062307
  0
MTEXT
  5
380
100
AcDbEntity
  8
0
 62
     4
100
AcDbMText
 10
0.287982
 20
1.804365
 30
0.0
 40
0.242751
 41
6.068763
 71
     1
 72
     5
  1
\fArial|b1|i1|c0|p34;C.R. Laurence Architectural Products
  0
INSERT
  5
381
100
AcDbEntity
  8
0
 62
     4
100
AcDbBlockReference
  2
A$C2189253D
 10
0.279049
 20
2.153929
 30
0.0
 41
2.535564
 42
2.535564
 43
2.535564
  0
LWPOLYLINE
  5
64B
100
AcDbEntity
  8
1
  6
CONTINUOUS
 62
     5
100
AcDbPolyline
 90
        2
 70
     0
 43
0.0125
 10
13.945891
 20
20.437045
 42
70374.114908
 10
13.945957
 20
20.437037
 42
70374.114908
  0
HATCH
  5
64C
100
AcDbEntity
  8
2
  6
CONTINUOUS
 62
     9
100
AcDbHatch
 10
0.0
 20
0.0
 30
0.0
210
0.0
220
0.0
230
1.0
  2
SOLID
 70
     1
 71
     0
 91
        1
 92
        7
 72
     1
 73
     1
 93
        8
 10
14.12764491386092
 20
20.39965388940774
 42
0.0
 10
14.12592481480082
 20
20.39866078975236
 42
0.0
 10
14.12604981480082
 20
20.39844428340142
 42
0.0
 10
14.12617481480082
 20
20.39822777705047
 42
0.0
 10
14.12629981480083
 20
20.39801127069952
 42
0.0
 10
13.09718635573319
 20
19.80385233808016
 42
0.0
 10
14.08628544306637
 20
19.23279571375313
 42
0.0
 10
14.89451952331258
 20
19.69942987755151
 42
0.2330962772361932
 97
        0
 75
     0
 76
     1
 47
0.017346
 98
        1
 10
14.020431
 20
19.877841
  0
HATCH
  5
64D
100
AcDbEntity
  8
1
  6
CONTINUOUS
 62
     5
100
AcDbHatch
 10
0.0
 20
0.0
 30
0.0
210
0.0
220
0.0
230
1.0
  2
SOLID
 70
     1
 71
     0
 91
        7
 92
        7
 72
     1
 73
     1
 93
        4
 10
13.9553078606611
 20
20.43564876171034
 42
0.003817909443379
 10
13.93751355981356
 20
20.43787521732597
 42
0.0
 10
12.90711388911417
 20
19.84297369007477
 42
0.0
 10
12.91793920666147
 20
19.83672369007477
 42
0.0
 97
        0
 92
        7
 72
     0
 73
     1
 93
        4
 10
12.91793920666147
 20
19.83672369007477
 10
12.90711388911417
 20
19.84297369007477
 10
12.90711388911417
 20
19.51934409148733
 10
12.91793920666147
 20
19.52559409148733
 97
        0
 92
        7
 72
     0
 73
     1
 93
        4
 10
13.09468635573318
 20
19.80529571375313
 10
13.09468635573318
 20
19.79279571375313
 10
14.08628544306637
 20
19.22654571375313
 10
14.08628544306637
 20
19.23279571375313
 97
        0
 92
        7
 72
     1
 73
     1
 93
        4
 10
14.89820116281871
 20
19.68905547311143
 42
0.002332807343841
 10
14.89425800308927
 20
19.69927888878018
 42
0.0
 10
14.08628544306637
 20
19.23279571375313
 42
0.0
 10
14.08628544306637
 20
19.22029571375313
 42
0.0
 97
        0
 92
        7
 72
     1
 73
     1
 93
        4
 10
14.96133311475143
 20
19.44965143019361
 42
0.0024685623280776
 10
14.95951836739277
 20
19.46110368531758
 42
0.0
 10
14.26402525331648
 20
19.05956054868611
 42
0.0
 10
14.27485057086379
 20
19.05331054868611
 42
0.0
 97
        0
 92
        7
 72
     1
 73
     1
 93
        8
 10
14.27485057086379
 20
19.05331054868611
 42
0.0
 10
14.26402525331648
 20
19.05956054868611
 42
0.0
 10
14.26402525331648
 20
18.59755092974287
 42
-0.5773502691896262
 10
14.25277525331648
 20
18.59105573921449
 42
0.0
 10
14.16876245890019
 20
18.6395605486861
 42
0.0
 10
14.16876245890019
 20
18.62706054868611
 42
0.0
 10
14.25047557086379
 20
18.5798834614976
 42
0.577350269189633
 10
14.27485057086379
 20
18.5939563743091
 42
0.0
 97
        0
 92
        7
 72
     0
 73
     1
 93
        3
 10
13.09468635573319
 20
19.79279571375312
 10
14.08628544306637
 20
19.22029571375313
 10
14.08628544306637
 20
19.22654571375313
 97
        0
 75
     0
 76
     1
 47
0.006507
 98
        7
 10
12.930481
 20
19.851524
 10
12.912326
 20
19.822339
 10
13.101771
 20
19.797098
 10
14.161082
 20
19.271926
 10
14.367843
 20
19.115748
 10
14.270161
 20
19.023016
 10
14.055259
 20
19.242643
  0
HATCH
  5
64E
100
AcDbEntity
  8
1
  6
CONTINUOUS
 62
     5
100
AcDbHatch
 10
0.0
 20
0.0
 30
0.0
210
0.0
220
0.0
230
1.0
  2
SOLID
 70
     1
 71
     0
 91
        7
 92
        7
 72
     1
 73
     1
 93
        4
 10
13.9553078606611
 20
20.43564876171034
 42
0.003817909443379
 10
13.93751355981356
 20
20.43787521732597
 42
0.0
 10
12.90711388911417
 20
19.84297369007477
 42
0.0
 10
12.91793920666147
 20
19.83672369007477
 42
0.0
 97
        0
 92
        7
 72
     0
 73
     1
 93
        4
 10
12.91793920666147
 20
19.83672369007477
 10
12.90711388911417
 20
19.84297369007477
 10
12.90711388911417
 20
19.51934409148733
 10
12.91793920666147
 20
19.52559409148732
 97
        0
 92
        7
 72
     0
 73
     1
 93
        4
 10
13.09468635573318
 20
19.80529571375313
 10
13.09468635573318
 20
19.79279571375313
 10
14.08628544306637
 20
19.22654571375313
 10
14.08628544306637
 20
19.23279571375313
 97
        0
 92
        7
 72
     1
 73
     1
 93
        4
 10
14.8982011628187
 20
19.68905547311143
 42
0.002332807343841
 10
14.89425800308927
 20
19.69927888878018
 42
0.0
 10
14.08628544306637
 20
19.23279571375313
 42
0.0
 10
14.08628544306637
 20
19.22029571375313
 42
0.0
 97
        0
 92
        7
 72
     1
 73
     1
 93
        4
 10
14.96133311475143
 20
19.44965143019361
 42
0.0024685623280776
 10
14.95951836739277
 20
19.46110368531758
 42
0.0
 10
14.26402525331648
 20
19.0595605486861
 42
0.0
 10
14.27485057086379
 20
19.05331054868611
 42
0.0
 97
        0
 92
        7
 72
     1
 73
     1
 93
        8
 10
14.27485057086379
 20
19.05331054868611
 42
0.0
 10
14.26402525331648
 20
19.05956054868611
 42
0.0
 10
14.26402525331648
 20
18.59755092974287
 42
-0.5773502691896262
 10
14.25277525331648
 20
18.59105573921449
 42
0.0
 10
14.16876245890019
 20
18.6395605486861
 42
0.0
 10
14.16876245890019
 20
18.62706054868611
 42
0.0
 10
14.25047557086379
 20
18.5798834614976
 42
0.577350269189633
 10
14.27485057086379
 20
18.5939563743091
 42
0.0
 97
        0
 92
        7
 72
     0
 73
     1
 93
        3
 10
13.09468635573319
 20
19.79279571375312
 10
14.08628544306637
 20
19.22029571375313
 10
14.08628544306637
 20
19.22654571375313
 97
        0
 75
     0
 76
     1
 47
0.006507
 98
        7
 10
12.930481
 20
19.851524
 10
12.912326
 20
19.822339
 10
13.101771
 20
19.797098
 10
14.161082
 20
19.271926
 10
14.367843
 20
19.115748
 10
14.270161
 20
19.023016
 10
14.055259
 20
19.242643
  0
LINE
  5
64F
100
AcDbEntity
  8
GREEN
100
AcDbLine
 10
13.79748
 20
18.986996
 30
0.0
 11
14.917935
 21
19.633891
 31
0.0
  0
HATCH
  5
650
100
AcDbEntity
  8
2
  6
CONTINUOUS
 62
     9
100
AcDbHatch
 10
0.0
 20
0.0
 30
0.0
210
0.0
220
0.0
230
1.0
  2
SOLID
 70
     1
 71
     0
 91
        2
 92
        7
 72
     1
 73
     1
 93
        5
 10
14.96159463497495
 20
19.44980241896506
 42
0.0
 10
14.27485057086379
 20
19.05331054868611
 42
0.0
 10
14.27485057086379
 20
18.5939563743091
 42
-0.1222318301882052
 10
14.27296505273366
 20
18.58635873252957
 42
0.0
 10
14.93543233589999
 20
18.96883439679498
 42
0.1036486555257608
 97
        0
 92
        7
 72
     1
 73
     1
 93
        4
 10
14.26402525331648
 20
18.69168833871846
 42
0.0
 10
14.17124986569717
 20
18.63812444370228
 42
0.0
 10
14.25277525331648
 20
18.59105573921449
 42
0.5773502691896213
 10
14.26402525331648
 20
18.59755092974287
 42
0.0
 97
        0
 75
     0
 76
     1
 47
0.022773
 98
        2
 10
14.612192
 20
19.037431
 10
14.230482
 20
18.633219
  0
LINE
  5
651
100
AcDbEntity
  8
GREEN
100
AcDbLine
 10
13.865832
 20
18.946275
 30
0.0
 11
14.937905
 21
19.565237
 31
0.0
  0
LINE
  5
652
100
AcDbEntity
  8
1
  6
CONTINUOUS
100
AcDbLine
 10
14.086285
 20
19.232796
 30
0.0
 11
14.894258
 21
19.699279
 31
0.0
  0
LINE
  5
653
100
AcDbEntity
  8
1
  6
CONTINUOUS
100
AcDbLine
 10
14.086285
 20
19.220296
 30
0.0
 11
14.898201
 21
19.689055
 31
0.0
  0
LINE
  5
654
100
AcDbEntity
  8
1
  6
CONTINUOUS
 62
     5
100
AcDbLine
 10
14.264025
 20
19.059561
 30
0.0
 11
14.959518
 21
19.461104
 31
0.0
  0
LINE
  5
655
100
AcDbEntity
  8
1
  6
CONTINUOUS
 62
     5
100
AcDbLine
 10
14.274851
 20
19.053311
 30
0.0
 11
14.961333
 21
19.449651
 31
0.0
  0
LINE
  5
656
100
AcDbEntity
  8
2
  6
CONTINUOUS
 62
     4
100
AcDbLine
 10
13.885661
 20
18.859621
 30
0.0
 11
14.956899
 21
19.478101
 31
0.0
  0
LINE
  5
657
100
AcDbEntity
  8
2
  6
CONTINUOUS
 62
     4
100
AcDbLine
 10
13.894321
 20
18.854621
 30
0.0
 11
14.958484
 21
19.469016
 31
0.0
  0
LINE
  5
658
100
AcDbEntity
  8
1
  6
CONTINUOUS
 62
     5
100
AcDbLine
 10
14.266726
 20
18.579883
 30
0.0
 11
14.934258
 21
18.965283
 31
0.0
  0
LWPOLYLINE
  5
659
100
AcDbEntity
  8
1
  6
CONTINUOUS
 62
     5
100
AcDbPolyline
 90
        2
 70
     0
 43
0.005
 10
14.266454
 20
18.582599
 10
14.933986
 20
18.967999
  0
MTEXT
  5
65A
100
AcDbEntity
  8
2
  6
CONTINUOUS
 62
     9
100
AcDbMText
 10
12.869647
 20
17.889663
 30
0.0
 40
0.3855
 41
2.7245
 71
     1
 72
     5
  1
\fArial|b1|i0|c0|p34;\C7;C L A D
  7
ROMANS
  0
ARC
  5
65B
100
AcDbEntity
  8
GREEN
  6
CONTINUOUS
100
AcDbCircle
 39
1.0
 10
13.836667
 20
18.568555
 30
0.0
 40
0.009167
100
AcDbArc
 50
252.745313
 51
1.373158
  0
LINE
  5
65C
100
AcDbEntity
  8
GREEN
  6
CONTINUOUS
100
AcDbLine
 39
1.0
 10
13.845832
 20
18.903275
 30
0.0
 11
13.845832
 21
18.568775
 31
0.0
  0
ARC
  5
65D
100
AcDbEntity
  8
GREEN
  6
CONTINUOUS
100
AcDbCircle
 39
1.0
 10
13.818622
 20
18.912393
 30
0.0
 40
0.028697
100
AcDbArc
 50
341.47451
 51
98.091202
  0
LINE
  5
65E
100
AcDbEntity
  8
GREEN
  6
CONTINUOUS
100
AcDbLine
 39
1.0
 10
13.773365
 20
18.953072
 30
0.0
 11
13.814583
 21
18.940804
 31
0.0
  0
ARC
  5
65F
100
AcDbEntity
  8
GREEN
  6
CONTINUOUS
100
AcDbCircle
 39
1.0
 10
13.773365
 20
18.958697
 30
0.0
 40
0.005625
100
AcDbArc
 50
90.0
 51
270.0
  0
LINE
  5
660
100
AcDbEntity
  8
GREEN
  6
CONTINUOUS
100
AcDbLine
 39
1.0
 10
13.78149
 20
18.964322
 30
0.0
 11
13.773365
 21
18.964322
 31
0.0
  0
LINE
  5
661
100
AcDbEntity
  8
GREEN
  6
CONTINUOUS
100
AcDbLine
 39
1.0
 10
13.804428
 20
18.974998
 30
0.0
 11
13.78149
 21
18.964322
 31
0.0
  0
LINE
  5
662
100
AcDbEntity
  8
GREEN
  6
CONTINUOUS
100
AcDbLine
 39
1.0
 10
13.797792
 20
18.978092
 30
0.0
 11
13.804428
 21
18.974998
 31
0.0
  0
ARC
  5
663
100
AcDbEntity
  8
GREEN
  6
CONTINUOUS
100
AcDbCircle
 39
1.0
 10
13.799905
 20
18.982623
 30
0.0
 40
0.005
100
AcDbArc
 50
90.0
 51
245.0
  0
LINE
  5
664
100
AcDbEntity
  8
GREEN
  6
CONTINUOUS
100
AcDbLine
 39
1.0
 10
13.862986
 20
18.951204
 30
0.0
 11
13.799905
 21
18.987623
 31
0.0
  0
ARC
  5
665
100
AcDbEntity
  8
GREEN
  6
CONTINUOUS
100
AcDbCircle
 39
1.0
 10
13.855212
 20
18.943429
 30
0.0
 40
0.010994
100
AcDbArc
 50
15.0
 51
45.0
  0
LINE
  5
666
100
AcDbEntity
  8
GREEN
  6
CONTINUOUS
100
AcDbLine
 39
1.0
 10
13.865832
 20
18.512525
 30
0.0
 11
13.865832
 21
18.946275
 31
0.0
  0
LINE
  5
667
100
AcDbEntity
  8
GREEN
  6
CONTINUOUS
100
AcDbLine
 39
1.0
 10
12.891553
 20
19.075025
 30
0.0
 11
13.865832
 21
18.512525
 31
0.0
  0
LINE
  5
668
100
AcDbEntity
  8
GREEN
  6
CONTINUOUS
100
AcDbLine
 39
1.0
 10
12.891553
 20
19.508775
 30
0.0
 11
12.891553
 21
19.075025
 31
0.0
  0
ARC
  5
669
100
AcDbEntity
  8
GREEN
  6
CONTINUOUS
100
AcDbCircle
 39
1.0
 10
12.895303
 20
19.508775
 30
0.0
 40
0.00375
100
AcDbArc
 50
90.0
 51
180.0
  0
LINE
  5
66A
100
AcDbEntity
  8
GREEN
  6
CONTINUOUS
100
AcDbLine
 39
1.0
 10
12.957811
 20
19.475533
 30
0.0
 11
12.895303
 21
19.512525
 31
0.0
  0
ARC
  5
66B
100
AcDbEntity
  8
GREEN
  6
CONTINUOUS
100
AcDbCircle
 39
1.0
 10
12.955311
 20
19.471203
 30
0.0
 40
0.005
100
AcDbArc
 50
265.0
 51
60.0
  0
LINE
  5
66C
100
AcDbEntity
  8
GREEN
  6
CONTINUOUS
100
AcDbLine
 39
1.0
 10
12.947581
 20
19.46686
 30
0.0
 11
12.954875
 21
19.466222
 31
0.0
  0
LINE
  5
66D
100
AcDbEntity
  8
GREEN
  6
CONTINUOUS
100
AcDbLine
 39
1.0
 10
12.942766
 20
19.456776
 30
0.0
 11
12.947581
 21
19.46686
 31
0.0
  0
LINE
  5
66E
100
AcDbEntity
  8
GREEN
  6
CONTINUOUS
100
AcDbLine
 39
1.0
 10
12.949803
 20
19.443397
 30
0.0
 11
12.942766
 21
19.456776
 31
0.0
  0
ARC
  5
66F
100
AcDbEntity
  8
GREEN
  6
CONTINUOUS
100
AcDbCircle
 39
1.0
 10
12.94699
 20
19.438526
 30
0.0
 40
0.005625
100
AcDbArc
 50
240.0
 51
60.0
  0
LINE
  5
670
100
AcDbEntity
  8
GREEN
  6
CONTINUOUS
100
AcDbLine
 39
1.0
 10
12.918914
 20
19.45706
 30
0.0
 11
12.944178
 21
19.433654
 31
0.0
  0
ARC
  5
671
100
AcDbEntity
  8
GREEN
  6
CONTINUOUS
100
AcDbCircle
 39
1.0
 10
12.915231
 20
19.456249
 30
0.0
 40
0.003771
100
AcDbArc
 50
12.423788
 51
197.604591
  0
LINE
  5
672
100
AcDbEntity
  8
GREEN
  6
CONTINUOUS
100
AcDbLine
 39
1.0
 10
12.911553
 20
19.131275
 30
0.0
 11
12.911637
 21
19.455109
 31
0.0
  0
ARC
  5
673
100
AcDbEntity
  8
GREEN
  6
CONTINUOUS
100
AcDbCircle
 39
1.0
 10
12.989192
 20
19.137417
 30
0.0
 40
0.077881
100
AcDbArc
 50
184.523413
 51
238.446514
  0
LINE
  5
674
100
AcDbEntity
  8
GREEN
  6
CONTINUOUS
100
AcDbLine
 39
1.0
 10
13.833948
 20
18.559801
 30
0.0
 11
12.948437
 21
19.071051
 31
0.0
  0
LINE
  5
675
100
AcDbEntity
  8
0
 62
     3
100
AcDbLine
 10
13.606169
 20
19.099983
 30
0.0
 11
13.798558
 21
18.988908
 31
0.0
  0
LINE
  5
676
100
AcDbEntity
  8
2
  6
CONTINUOUS
 62
     4
100
AcDbLine
 10
13.510418
 20
19.17937
 30
0.0
 11
13.726925
 21
19.05437
 31
0.0
  0
LINE
  5
677
100
AcDbEntity
  8
2
  6
CONTINUOUS
 62
     4
100
AcDbLine
 10
13.510418
 20
19.17437
 30
0.0
 11
13.726925
 21
19.04937
 31
0.0
  0
LINE
  5
678
100
AcDbEntity
  8
2
  6
CONTINUOUS
 62
     4
100
AcDbLine
 10
14.050563
 20
19.241222
 30
0.0
 11
13.726925
 21
19.05437
 31
0.0
  0
LINE
  5
679
100
AcDbEntity
  8
2
  6
CONTINUOUS
 62
     4
100
AcDbLine
 10
14.054893
 20
19.238722
 30
0.0
 11
13.726925
 21
19.04937
 31
0.0
  0
HATCH
  5
67A
100
AcDbEntity
  8
2
  6
CONTINUOUS
 62
     9
100
AcDbHatch
 10
0.0
 20
0.0
 30
0.0
210
0.0
220
0.0
230
1.0
  2
SOLID
 70
     1
 71
     0
 91
        2
 92
       23
 72
     1
 73
     1
 93
       20
 10
13.77436882362457
 20
18.97920176108383
 42
0.0
 10
13.7713037442616
 20
18.97389288789794
 42
0.6681786379192962
 10
13.77833402206714
 20
18.96473085148363
 42
0.0
 10
13.79372098986495
 20
18.96885377707901
 42
0.6681786379192695
 10
13.79492689463944
 20
18.97801353322938
 42
0.0
 10
13.7910302356477
 20
18.98026327034721
 42
-0.6681786379192408
 10
13.79163318803495
 20
18.98484314842239
 42
0.0
 10
13.79825615671474
 20
18.98661776753164
 42
0.6681786379193185
 10
13.79855763290837
 20
18.98890770656923
 42
0.0
 10
13.60616946112139
 20
19.09998306933934
 42
0.0
 10
12.96085000315516
 20
19.47255843210945
 42
0.668178637919208
 10
12.9590175958723
 20
19.47115237654834
 42
0.0
 10
12.96079221498155
 20
19.46452940786854
 42
-0.6681786379193225
 10
12.95712740041582
 20
19.46171729674632
 42
0.0
 10
12.95323074142408
 20
19.46396703386415
 42
0.6681786379193126
 10
12.94590111229264
 20
19.45834281161971
 42
0.0
 10
12.95002403788802
 20
19.4429558438219
 42
0.6681786379193007
 10
12.96147373307599
 20
19.4414484628538
 42
0.0
 10
12.96453881243896
 20
19.44675733603969
 42
0.0
 10
13.0643963695487
 20
19.38910454856176
 42
0.0
 97
        0
 92
        7
 72
     1
 73
     1
 93
       37
 10
12.89530298450767
 20
19.51252506253339
 42
0.4142135623731299
 10
12.89155298450767
 20
19.50877506253339
 42
0.0
 10
12.89155298450767
 20
19.07502506253339
 42
0.0
 10
13.86583156376516
 20
18.51252506253339
 42
0.0
 10
13.86583156376516
 20
18.94627506253339
 42
0.1316524975873667
 10
13.86298599234603
 20
18.9512037368079
 42
0.0
 10
13.79990537687725
 20
18.98762334712944
 42
0.0376464264871547
 10
13.79915564207242
 20
18.98756681733997
 42
-0.2823673447488831
 10
13.79825615671474
 20
18.98661776753164
 42
0.0
 10
13.79630777036683
 20
18.98609569898317
 42
0.5149511874561723
 10
13.79779228556855
 20
18.97809180819426
 42
0.0
 10
13.80442787466977
 20
18.97499758217999
 42
0.0
 10
13.79692846213683
 20
18.97150719618694
 42
-0.2180320882791709
 10
13.79372098986495
 20
18.96885377707901
 42
0.0
 10
13.78784373653392
 20
18.96727897179525
 42
0.0
 10
13.78149049315027
 20
18.96432203728614
 42
0.0
 10
13.77336549315027
 20
18.96432203728614
 42
1.0
 10
13.77336549315027
 20
18.95307203728614
 42
0.0
 10
13.8145829595454
 20
18.94080362999419
 42
-0.5578319223640622
 10
13.84583156376516
 20
18.90327506253339
 42
0.0
 10
13.84583156376516
 20
18.56877506253339
 42
-0.5129809895031772
 10
13.83394776182121
 20
18.559800697628
 42
0.0
 10
12.94843678645162
 20
19.071050697628
 42
-0.2397239142270584
 10
12.91155298450767
 20
19.13127506253339
 42
0.0
 10
12.9116369913259
 20
19.45510874126434
 42
-1.046264757040728
 10
12.91891358081744
 20
19.45706042910305
 42
0.0
 10
12.94417767266567
 20
19.43365417598397
 42
0.6309633877406034
 10
12.95254589345631
 20
19.43940567767833
 42
-0.1798205534880095
 10
12.95002403788802
 20
19.4429558438219
 42
0.0
 10
12.95001300173741
 20
19.4429970312967
 42
0.0
 10
12.94276621625991
 20
19.45677644072067
 42
0.0
 10
12.94758136677875
 20
19.46686014002136
 42
0.0
 10
12.95487506851662
 20
19.46622202380416
 42
0.293926452988122
 10
12.95966339167085
 20
19.46874223381685
 42
0.0
 10
12.9590175958723
 20
19.47115237654834
 42
-0.4565659268922137
 10
12.96007611641777
 20
19.47271700177661
 42
0.1814616707363846
 10
12.95790350492075
 20
19.47547828981098
 42
0.0
 97
        0
 75
     0
 76
     1
 47
0.011788
 98
        2
 10
13.080868
 20
19.389066
 10
12.930469
 20
19.477473
  0
LINE
  5
67B
100
AcDbEntity
  8
0
 62
     3
100
AcDbLine
 10
13.774369
 20
18.979202
 30
0.0
 11
13.064396
 21
19.389105
 31
0.0
  0
LINE
  5
67C
100
AcDbEntity
  8
GREEN
100
AcDbLine
 10
13.865832
 20
18.512525
 30
0.0
 11
14.264287
 21
18.742573
 31
0.0
  0
LINE
  5
67D
100
AcDbEntity
  8
2
  6
CONTINUOUS
 62
     4
100
AcDbLine
 10
13.894321
 20
18.604621
 30
0.0
 11
14.264287
 21
18.818221
 31
0.0
  0
LINE
  5
67E
100
AcDbEntity
  8
2
  6
CONTINUOUS
 62
     4
100
AcDbLine
 10
13.885661
 20
18.859621
 30
0.0
 11
13.885661
 21
18.609621
 31
0.0
  0
LINE
  5
67F
100
AcDbEntity
  8
2
  6
CONTINUOUS
 62
     4
100
AcDbLine
 10
13.894321
 20
18.854621
 30
0.0
 11
13.894321
 21
18.604621
 31
0.0
  0
LINE
  5
680
100
AcDbEntity
  8
2
  6
CONTINUOUS
 62
     4
100
AcDbLine
 10
13.885661
 20
18.609621
 30
0.0
 11
13.894321
 21
18.604621
 31
0.0
  0
ARC
  5
681
100
AcDbEntity
  8
0
 62
     3
100
AcDbCircle
 10
13.776716
 20
18.970768
 30
0.0
 40
0.00625
100
AcDbArc
 50
150.0
 51
285.0
  0
LINE
  5
682
100
AcDbEntity
  8
0
 62
     3
100
AcDbLine
 10
13.771304
 20
18.973893
 30
0.0
 11
13.774369
 21
18.979202
 31
0.0
  0
LINE
  5
683
100
AcDbEntity
  8
2
  6
CONTINUOUS
 62
     4
100
AcDbLine
 10
13.726925
 20
19.05437
 30
0.0
 11
13.726925
 21
19.04937
 31
0.0
  0
LINE
  5
684
100
AcDbEntity
  8
2
  6
CONTINUOUS
 62
     4
100
AcDbLine
 10
13.885661
 20
18.859621
 30
0.0
 11
13.894321
 21
18.854621
 31
0.0
  0
LINE
  5
685
100
AcDbEntity
  8
0
 62
     3
100
AcDbLine
 10
13.798256
 20
18.986618
 30
0.0
 11
13.791633
 21
18.984843
 31
0.0
  0
ARC
  5
686
100
AcDbEntity
  8
0
 62
     3
100
AcDbCircle
 10
13.797933
 20
18.987825
 30
0.0
 40
0.00125
100
AcDbArc
 50
285.0
 51
60.0
  0
LINE
  5
687
100
AcDbEntity
  8
0
 62
     3
100
AcDbLine
 10
13.793721
 20
18.968854
 30
0.0
 11
13.778334
 21
18.964731
 31
0.0
  0
ARC
  5
688
100
AcDbEntity
  8
0
 62
     3
100
AcDbCircle
 10
13.792427
 20
18.973683
 30
0.0
 40
0.005
100
AcDbArc
 50
285.0
 51
60.0
  0
LINE
  5
689
100
AcDbEntity
  8
0
 62
     3
100
AcDbLine
 10
13.79103
 20
18.980263
 30
0.0
 11
13.794927
 21
18.978014
 31
0.0
  0
ARC
  5
68A
100
AcDbEntity
  8
0
 62
     3
100
AcDbCircle
 10
13.79228
 20
18.982428
 30
0.0
 40
0.0025
100
AcDbArc
 50
105.0
 51
240.0
  0
LINE
  5
68B
100
AcDbEntity
  8
1
  6
CONTINUOUS
 62
     5
100
AcDbLine
 10
14.168762
 20
18.639561
 30
0.0
 11
14.264025
 21
18.694561
 31
0.0
  0
LWPOLYLINE
  5
68C
100
AcDbEntity
  8
1
  6
CONTINUOUS
 62
     5
100
AcDbPolyline
 90
        2
 70
     0
 43
0.005
 10
14.170026
 20
18.637418
 10
14.265288
 20
18.692418
  0
LINE
  5
68D
100
AcDbEntity
  8
1
  6
CONTINUOUS
 62
     5
100
AcDbLine
 10
14.264025
 20
18.597551
 30
0.0
 11
14.264025
 21
19.059561
 31
0.0
  0
LINE
  5
68E
100
AcDbEntity
  8
1
  6
CONTINUOUS
 62
     5
100
AcDbLine
 10
14.274851
 20
18.593956
 30
0.0
 11
14.274851
 21
19.053311
 31
0.0
  0
LINE
  5
68F
100
AcDbEntity
  8
1
  6
CONTINUOUS
 62
     5
100
AcDbLine
 10
14.264025
 20
18.597551
 30
0.0
 11
14.264025
 21
19.059561
 31
0.0
  0
LINE
  5
690
100
AcDbEntity
  8
1
  6
CONTINUOUS
 62
     5
100
AcDbLine
 10
14.274851
 20
18.593956
 30
0.0
 11
14.274851
 21
19.053311
 31
0.0
  0
ARC
  5
691
100
AcDbEntity
  8
1
  6
CONTINUOUS
 62
     5
100
AcDbCircle
 10
14.256525
 20
18.597551
 30
0.0
 40
0.0075
100
AcDbArc
 50
240.0
 51
0.0
  0
ARC
  5
692
100
AcDbEntity
  8
1
  6
CONTINUOUS
 62
     5
100
AcDbCircle
 10
14.256525
 20
18.597551
 30
0.0
 40
0.0075
100
AcDbArc
 50
240.0
 51
0.0
  0
LINE
  5
693
100
AcDbEntity
  8
1
  6
CONTINUOUS
 62
     5
100
AcDbLine
 10
14.168762
 20
18.639561
 30
0.0
 11
14.168762
 21
18.627061
 31
0.0
  0
LINE
  5
694
100
AcDbEntity
  8
1
  6
CONTINUOUS
 62
     5
100
AcDbLine
 10
14.168762
 20
18.639561
 30
0.0
 11
14.168762
 21
18.627061
 31
0.0
  0
LINE
  5
695
100
AcDbEntity
  8
1
  6
CONTINUOUS
 62
     5
100
AcDbLine
 10
14.250476
 20
18.579883
 30
0.0
 11
14.168762
 21
18.627061
 31
0.0
  0
LINE
  5
696
100
AcDbEntity
  8
1
  6
CONTINUOUS
 62
     5
100
AcDbLine
 10
14.250476
 20
18.579883
 30
0.0
 11
14.168762
 21
18.627061
 31
0.0
  0
LINE
  5
697
100
AcDbEntity
  8
1
  6
CONTINUOUS
 62
     5
100
AcDbLine
 10
14.252775
 20
18.591056
 30
0.0
 11
14.168762
 21
18.639561
 31
0.0
  0
LINE
  5
698
100
AcDbEntity
  8
1
  6
CONTINUOUS
 62
     5
100
AcDbLine
 10
14.252775
 20
18.591056
 30
0.0
 11
14.168762
 21
18.639561
 31
0.0
  0
ARC
  5
699
100
AcDbEntity
  8
1
  6
CONTINUOUS
 62
     5
100
AcDbCircle
 10
14.258601
 20
18.593956
 30
0.0
 40
0.01625
100
AcDbArc
 50
240.0
 51
0.0
  0
ARC
  5
69A
100
AcDbEntity
  8
1
  6
CONTINUOUS
 62
     5
100
AcDbCircle
 10
14.258601
 20
18.593956
 30
0.0
 40
0.01625
100
AcDbArc
 50
240.0
 51
0.0
  0
LINE
  5
69B
100
AcDbEntity
  8
1
  6
CONTINUOUS
 62
     5
100
AcDbLine
 10
14.264025
 20
19.059561
 30
0.0
 11
14.274851
 21
19.053311
 31
0.0
  0
LINE
  5
69C
100
AcDbEntity
  8
1
  6
CONTINUOUS
 62
     5
100
AcDbLine
 10
14.264025
 20
19.059561
 30
0.0
 11
14.274851
 21
19.053311
 31
0.0
  0
LWPOLYLINE
  5
69D
100
AcDbEntity
  8
1
  6
CONTINUOUS
 62
     5
100
AcDbPolyline
 90
        2
 70
     0
 43
0.005
 10
14.128645
 20
20.399364
 10
13.095915
 20
19.803117
  0
LINE
  5
69E
100
AcDbEntity
  8
1
 62
     5
100
AcDbLine
 10
13.094686
 20
19.805296
 30
0.0
 11
14.1263
 21
20.398011
 31
0.0
  0
LINE
  5
69F
100
AcDbEntity
  8
1
  6
CONTINUOUS
100
AcDbLine
 39
0.05
 10
13.094686
 20
19.792796
 30
0.0
 11
14.086285
 21
19.220296
 31
0.0
  0
LINE
  5
6A0
100
AcDbEntity
  8
1
  6
CONTINUOUS
100
AcDbLine
 10
13.094686
 20
19.792796
 30
0.0
 11
14.086285
 21
19.226546
 31
0.0
  0
LINE
  5
6A1
100
AcDbEntity
  8
1
  6
CONTINUOUS
 62
     5
100
AcDbLine
 39
0.05
 10
13.094686
 20
19.792796
 30
0.0
 11
14.086285
 21
19.220296
 31
0.0
  0
LINE
  5
6A2
100
AcDbEntity
  8
1
  6
CONTINUOUS
100
AcDbLine
 10
13.094686
 20
19.792796
 30
0.0
 11
14.086285
 21
19.226546
 31
0.0
  0
LINE
  5
6A3
100
AcDbEntity
  8
0
 62
     3
100
AcDbLine
 10
12.96085
 20
19.472558
 30
0.0
 11
13.606169
 21
19.099983
 31
0.0
  0
LINE
  5
6A4
100
AcDbEntity
  8
2
  6
CONTINUOUS
 62
     4
100
AcDbLine
 10
13.61755
 20
19.491222
 30
0.0
 11
13.293912
 21
19.30437
 31
0.0
  0
LINE
  5
6A5
100
AcDbEntity
  8
2
  6
CONTINUOUS
 62
     4
100
AcDbLine
 10
13.62188
 20
19.488722
 30
0.0
 11
13.293912
 21
19.29937
 31
0.0
  0
LINE
  5
6A6
100
AcDbEntity
  8
1
  6
CONTINUOUS
100
AcDbLine
 39
0.05
 10
13.094686
 20
19.805296
 30
0.0
 11
14.086285
 21
19.232796
 31
0.0
  0
LINE
  5
6A7
100
AcDbEntity
  8
1
  6
CONTINUOUS
 62
     5
100
AcDbLine
 39
0.05
 10
13.094686
 20
19.805296
 30
0.0
 11
14.086285
 21
19.232796
 31
0.0
  0
HATCH
  5
6A8
100
AcDbEntity
  8
2
  6
CONTINUOUS
 62
     9
100
AcDbHatch
 10
0.0
 20
0.0
 30
0.0
210
0.0
220
0.0
230
1.0
  2
SOLID
 70
     1
 71
     0
 91
        1
 92
        7
 72
     1
 73
     1
 93
        7
 10
13.09468635573318
 20
19.79279571375313
 42
0.0
 10
13.09468635573318
 20
19.80529571375313
 42
0.0
 10
14.12531133502409
 20
20.40032732298028
 42
0.0369683020279065
 10
13.95556938088454
 20
20.43579975048174
 42
0.0
 10
12.91793920666147
 20
19.83672369007477
 42
0.0
 10
12.91793920666147
 20
19.52559409148732
 42
0.0
 10
13.23771617401193
 20
19.71021740966776
 42
0.0
 97
        0
 75
     0
 76
     1
 47
0.022773
 98
        1
 10
13.068261
 20
19.766151
  0
LINE
  5
6A9
100
AcDbEntity
  8
1
  6
CONTINUOUS
 62
     5
100
AcDbLine
 10
12.907114
 20
19.842974
 30
0.0
 11
13.937514
 21
20.437875
 31
0.0
  0
LINE
  5
6AA
100
AcDbEntity
  8
1
  6
CONTINUOUS
100
AcDbLine
 10
12.917939
 20
19.836724
 30
0.0
 11
13.955308
 21
20.435649
 31
0.0
  0
LINE
  5
6AB
100
AcDbEntity
  8
1
  6
CONTINUOUS
 62
     5
100
AcDbLine
 10
14.12505
 20
20.400176
 30
0.0
 11
13.094686
 21
19.805296
 31
0.0
  0
LINE
  5
6AC
100
AcDbEntity
  8
1
  6
CONTINUOUS
 62
     5
100
AcDbLine
 10
12.907114
 20
19.842974
 30
0.0
 11
13.937514
 21
20.437875
 31
0.0
  0
LINE
  5
6AD
100
AcDbEntity
  8
1
  6
CONTINUOUS
 62
     5
100
AcDbLine
 10
12.917939
 20
19.836724
 30
0.0
 11
13.955308
 21
20.435649
 31
0.0
  0
LINE
  5
6AE
100
AcDbEntity
  8
1
  6
CONTINUOUS
 62
     5
100
AcDbLine
 10
13.095936
 20
19.803131
 30
0.0
 11
14.1263
 21
20.398011
 31
0.0
  0
LINE
  5
6AF
100
AcDbEntity
  8
1
  6
CONTINUOUS
 62
     5
100
AcDbLine
 10
12.907114
 20
19.842974
 30
0.0
 11
12.917939
 21
19.836724
 31
0.0
  0
LINE
  5
6B0
100
AcDbEntity
  8
1
  6
CONTINUOUS
 62
     5
100
AcDbLine
 10
12.907114
 20
19.842974
 30
0.0
 11
12.917939
 21
19.836724
 31
0.0
  0
LINE
  5
6B1
100
AcDbEntity
  8
GREEN
100
AcDbLine
 10
12.895303
 20
19.512525
 30
0.0
 11
13.237978
 21
19.710368
 31
0.0
  0
LINE
  5
6B2
100
AcDbEntity
  8
1
  6
CONTINUOUS
 62
     5
100
AcDbLine
 10
12.907114
 20
19.519344
 30
0.0
 11
12.907114
 21
19.842974
 31
0.0
  0
LINE
  5
6B3
100
AcDbEntity
  8
1
  6
CONTINUOUS
 62
     5
100
AcDbLine
 10
12.907114
 20
19.519344
 30
0.0
 11
12.907114
 21
19.842974
 31
0.0
  0
LINE
  5
6B4
100
AcDbEntity
  8
GREEN
100
AcDbLine
 10
12.959799
 20
19.473406
 30
0.0
 11
13.304104
 21
19.67219
 31
0.0
  0
LINE
  5
6B5
100
AcDbEntity
  8
2
  6
CONTINUOUS
 62
     4
100
AcDbLine
 10
13.401044
 20
19.616222
 30
0.0
 11
13.077406
 21
19.42937
 31
0.0
  0
LINE
  5
6B6
100
AcDbEntity
  8
2
  6
CONTINUOUS
 62
     4
100
AcDbLine
 10
13.077406
 20
19.42937
 30
0.0
 11
13.293912
 21
19.30437
 31
0.0
  0
LINE
  5
6B7
100
AcDbEntity
  8
2
  6
CONTINUOUS
 62
     4
100
AcDbLine
 10
13.077406
 20
19.42437
 30
0.0
 11
13.293912
 21
19.29937
 31
0.0
  0
LINE
  5
6B8
100
AcDbEntity
  8
2
  6
CONTINUOUS
 62
     4
100
AcDbLine
 10
13.077406
 20
19.42937
 30
0.0
 11
13.077406
 21
19.42437
 31
0.0
  0
LINE
  5
6B9
100
AcDbEntity
  8
0
 62
     3
100
AcDbLine
 10
12.964539
 20
19.446757
 30
0.0
 11
12.961474
 21
19.441448
 31
0.0
  0
ARC
  5
6BA
100
AcDbEntity
  8
0
 62
     3
100
AcDbCircle
 10
12.960225
 20
19.471476
 30
0.0
 40
0.00125
100
AcDbArc
 50
60.0
 51
195.0
  0
LINE
  5
6BB
100
AcDbEntity
  8
0
 62
     3
100
AcDbLine
 10
12.960792
 20
19.464529
 30
0.0
 11
12.959018
 21
19.471152
 31
0.0
  0
ARC
  5
6BC
100
AcDbEntity
  8
0
 62
     3
100
AcDbCircle
 10
12.958377
 20
19.463882
 30
0.0
 40
0.0025
100
AcDbArc
 50
240.0
 51
15.0
  0
LINE
  5
6BD
100
AcDbEntity
  8
0
 62
     3
100
AcDbLine
 10
12.953231
 20
19.463967
 30
0.0
 11
12.957127
 21
19.461717
 31
0.0
  0
ARC
  5
6BE
100
AcDbEntity
  8
0
 62
     3
100
AcDbCircle
 10
12.950731
 20
19.459637
 30
0.0
 40
0.005
100
AcDbArc
 50
60.0
 51
195.0
  0
LINE
  5
6BF
100
AcDbEntity
  8
0
 62
     3
100
AcDbLine
 10
12.950024
 20
19.442956
 30
0.0
 11
12.945901
 21
19.458343
 31
0.0
  0
ARC
  5
6C0
100
AcDbEntity
  8
0
 62
     3
100
AcDbCircle
 10
12.956061
 20
19.444573
 30
0.0
 40
0.00625
100
AcDbArc
 50
195.0
 51
330.0
  0
LINE
  5
6C1
100
AcDbEntity
  8
0
 62
     3
100
AcDbLine
 10
13.064396
 20
19.389105
 30
0.0
 11
12.964539
 21
19.446757
 31
0.0
  0
LINE
  5
6C2
100
AcDbEntity
  8
2
  6
CONTINUOUS
 62
     4
100
AcDbLine
 10
13.293912
 20
19.30437
 30
0.0
 11
13.293912
 21
19.29937
 31
0.0
  0
LINE
  5
6C3
100
AcDbEntity
  8
1
  6
CONTINUOUS
 62
     5
100
AcDbLine
 39
0.05
 10
13.094686
 20
19.805296
 30
0.0
 11
13.094686
 21
19.792796
 31
0.0
  0
LINE
  5
6C4
100
AcDbEntity
  8
1
  6
CONTINUOUS
 62
     5
100
AcDbLine
 39
0.05
 10
13.094686
 20
19.805296
 30
0.0
 11
13.094686
 21
19.792796
 31
0.0
  0
LINE
  5
6C5
100
AcDbEntity
  8
1
  6
CONTINUOUS
 62
     5
100
AcDbLine
 10
13.094686
 20
19.805296
 30
0.0
 11
13.094686
 21
19.792796
 31
0.0
  0
LINE
  5
6C6
100
AcDbEntity
  8
1
  6
CONTINUOUS
 62
     5
100
AcDbLine
 10
13.094686
 20
19.805296
 30
0.0
 11
13.094686
 21
19.792796
 31
0.0
  0
LINE
  5
6C7
100
AcDbEntity
  8
1
  6
CONTINUOUS
 62
     5
100
AcDbLine
 10
12.917939
 20
19.525594
 30
0.0
 11
12.917939
 21
19.836724
 31
0.0
  0
LINE
  5
6C8
100
AcDbEntity
  8
1
  6
CONTINUOUS
 62
     5
100
AcDbLine
 10
12.917939
 20
19.525594
 30
0.0
 11
12.917939
 21
19.836724
 31
0.0
  0
LINE
  5
6C9
100
AcDbEntity
  8
2
  6
CONTINUOUS
 62
     4
100
AcDbLine
 10
13.834056
 20
19.366222
 30
0.0
 11
13.510418
 21
19.17937
 31
0.0
  0
LINE
  5
6CA
100
AcDbEntity
  8
2
  6
CONTINUOUS
 62
     4
100
AcDbLine
 10
13.510418
 20
19.17937
 30
0.0
 11
13.510418
 21
19.17437
 31
0.0
  0
LINE
  5
6CB
100
AcDbEntity
  8
1
  6
CONTINUOUS
100
AcDbLine
 39
0.05
 10
14.086285
 20
19.232796
 30
0.0
 11
14.086285
 21
19.220296
 31
0.0
  0
DIMENSION
  5
722
100
AcDbEntity
  8
0
100
AcDbDimension
  2
*D17
 10
3.199527
 20
6.005774
 30
0.0
 11
3.199527
 21
10.040885
 31
0.0
 70
    32
  3
ROMANS
100
AcDbAlignedDimension
 13
7.154386
 23
14.075997
 33
0.0
 14
4.465023
 24
6.005774
 34
0.0
 50
90.0
100
AcDbRotatedDimension
1001
ACAD
1000
DSTYLE
1002
{
1070
   270
1070
     4
1070
     4
1000
mm
1070
   274
1070
     0
1070
   171
1070
     0
1070
   170
1070
     1
1002
}
  0
DIMENSION
  5
730
100
AcDbEntity
  8
0
100
AcDbDimension
  2
*D18
 10
8.465059
 20
17.669663
 30
0.0
 11
10.505059
 21
17.669663
 31
0.0
 70
    32
  3
ROMANS
100
AcDbAlignedDimension
 13
6.471016
 23
16.066774
 33
0.0
 14
8.465059
 24
16.066774
 34
0.0
100
AcDbRotatedDimension
1001
ACAD
1000
DSTYLE
1002
{
1070
   270
1070
     4
1070
     4
1000
mm
1070
   274
1070
     0
1070
   171
1070
     0
1070
   170
1070
     1
1002
}
  0
DIMENSION
  5
750
100
AcDbEntity
  8
0
100
AcDbDimension
  2
*D20
 10
14.614859
 20
6.005774
 30
0.0
 11
12.737716
 21
5.285774
 31
0.0
 12
-0.05401
 22
0.0
 32
0.0
 70
    32
  3
ROMANS
100
AcDbAlignedDimension
 13
8.41081
 23
6.255774
 33
0.0
 14
10.411013
 24
6.005774
 34
0.0
 50
90.0
100
AcDbRotatedDimension
1001
ACAD
1000
DSTYLE
1002
{
1070
   270
1070
     4
1070
     4
1000
mm
1070
   274
1070
     0
1070
   171
1070
     0
1070
   170
1070
     1
1002
}
  0
ENDSEC
  0
SECTION
  2
OBJECTS
  0
DICTIONARY
  5
C
100
AcDbDictionary
  3
ACAD_GROUP
350
D
  3
ACAD_MLINESTYLE
350
1B
  0
DICTIONARY
  5
D
102
{ACAD_REACTORS
330
C
102
}
100
AcDbDictionary
  0
DICTIONARY
  5
1B
102
{ACAD_REACTORS
330
C
102
}
100
AcDbDictionary
  3
STANDARD
350
1C
  0
MLINESTYLE
  5
1C
102
{ACAD_REACTORS
330
1B
102
}
100
AcDbMlineStyle
  2
STANDARD
 70
     0
  3

 62
   256
 51
90.0
 52
90.0
 71
     2
 49
0.5
 62
   256
  6
BYLAYER
 49
-0.5
 62
   256
  6
BYLAYER
  0
ENDSEC
  0
EOF
