  0
SECTION
  2
HEADER
  9
$ACADVER
  1
AC1014
  9
$ACADMAINTVER
 70
     9
  9
$DWGCODEPAGE
  3
ANSI_1252
  9
$INSBASE
 10
0.0
 20
0.0
 30
0.0
  9
$EXTMIN
 10
0.0
 20
0.0
 30
0.0
  9
$EXTMAX
 10
25.693238
 20
34.200072
 30
15.0
  9
$LIMMIN
 10
0.0
 20
0.0
  9
$LIMMAX
 10
25.693238
 20
34.200072
  9
$ORTHOMODE
 70
     1
  9
$REGENMODE
 70
     1
  9
$FILLMODE
 70
     1
  9
$QTEXTMODE
 70
     0
  9
$MIRRTEXT
 70
     1
  9
$DRAGMODE
 70
     2
  9
$LTSCALE
 40
1.0
  9
$OSMODE
 70
     1
  9
$ATTMODE
 70
     1
  9
$TEXTSIZE
 40
0.2
  9
$TRACEWID
 40
0.05
  9
$TEXTSTYLE
  7
STANDARD
  9
$CLAYER
  8
0
  9
$CELTYPE
  6
BYLAYER
  9
$CECOLOR
 62
   256
  9
$CELTSCALE
 40
1.0
  9
$DELOBJ
 70
     1
  9
$DISPSILH
 70
     0
  9
$DIMSCALE
 40
2.0
  9
$DIMASZ
 40
0.18
  9
$DIMEXO
 40
0.0625
  9
$DIMDLI
 40
0.38
  9
$DIMRND
 40
0.0
  9
$DIMDLE
 40
0.0
  9
$DIMEXE
 40
0.18
  9
$DIMTP
 40
0.0
  9
$DIMTM
 40
0.0
  9
$DIMTXT
 40
0.18
  9
$DIMCEN
 40
0.09
  9
$DIMTSZ
 40
0.0
  9
$DIMTOL
 70
     0
  9
$DIMLIM
 70
     0
  9
$DIMTIH
 70
     1
  9
$DIMTOH
 70
     1
  9
$DIMSE1
 70
     0
  9
$DIMSE2
 70
     0
  9
$DIMTAD
 70
     0
  9
$DIMZIN
 70
     0
  9
$DIMBLK
  1

  9
$DIMASO
 70
     1
  9
$DIMSHO
 70
     1
  9
$DIMPOST
  1

  9
$DIMAPOST
  1
mm
  9
$DIMALT
 70
     1
  9
$DIMALTD
 70
     0
  9
$DIMALTF
 40
25.4
  9
$DIMLFAC
 40
1.0
  9
$DIMTOFL
 70
     0
  9
$DIMTVP
 40
0.0
  9
$DIMTIX
 70
     0
  9
$DIMSOXD
 70
     0
  9
$DIMSAH
 70
     0
  9
$DIMBLK1
  1

  9
$DIMBLK2
  1

  9
$DIMSTYLE
  2
STANDARD
  9
$DIMCLRD
 70
     0
  9
$DIMCLRE
 70
     0
  9
$DIMCLRT
 70
     0
  9
$DIMTFAC
 40
1.0
  9
$DIMGAP
 40
0.09
  9
$DIMJUST
 70
     0
  9
$DIMSD1
 70
     0
  9
$DIMSD2
 70
     0
  9
$DIMTOLJ
 70
     1
  9
$DIMTZIN
 70
     0
  9
$DIMALTZ
 70
     0
  9
$DIMALTTZ
 70
     0
  9
$DIMFIT
 70
     3
  9
$DIMUPT
 70
     1
  9
$DIMUNIT
 70
     4
  9
$DIMDEC
 70
     4
  9
$DIMTDEC
 70
     4
  9
$DIMALTU
 70
     2
  9
$DIMALTTD
 70
     0
  9
$DIMTXSTY
  7
STANDARD
  9
$DIMAUNIT
 70
     0
  9
$LUNITS
 70
     2
  9
$LUPREC
 70
     4
  9
$SKETCHINC
 40
0.1
  9
$FILLETRAD
 40
0.5
  9
$AUNITS
 70
     0
  9
$AUPREC
 70
     0
  9
$MENU
  1
.
  9
$ELEVATION
 40
0.0
  9
$PELEVATION
 40
0.0
  9
$THICKNESS
 40
0.0
  9
$LIMCHECK
 70
     0
  9
$BLIPMODE
 70
     0
  9
$CHAMFERA
 40
0.5
  9
$CHAMFERB
 40
0.5
  9
$CHAMFERC
 40
1.0
  9
$CHAMFERD
 40
0.0
  9
$SKPOLY
 70
     0
  9
$TDCREATE
 40
2451964.325000023
  9
$TDUPDATE
 40
2452102.416209456
  9
$TDINDWG
 40
0.1319055324
  9
$TDUSRTIMER
 40
0.1319055324
  9
$USRTIMER
 70
     1
  9
$ANGBASE
 50
0.0
  9
$ANGDIR
 70
     0
  9
$PDMODE
 70
     0
  9
$PDSIZE
 40
0.0
  9
$PLINEWID
 40
0.0
  9
$COORDS
 70
     1
  9
$SPLFRAME
 70
     0
  9
$SPLINETYPE
 70
     6
  9
$SPLINESEGS
 70
     8
  9
$ATTDIA
 70
     0
  9
$ATTREQ
 70
     1
  9
$HANDLING
 70
     1
  9
$HANDSEED
  5
8D5
  9
$SURFTAB1
 70
     6
  9
$SURFTAB2
 70
     6
  9
$SURFTYPE
 70
     6
  9
$SURFU
 70
     6
  9
$SURFV
 70
     6
  9
$UCSNAME
  2
SM-TEMP
  9
$UCSORG
 10
0.0
 20
0.0
 30
0.0
  9
$UCSXDIR
 10
1.0
 20
0.0
 30
0.0
  9
$UCSYDIR
 10
0.0
 20
1.0
 30
0.0
  9
$PUCSNAME
  2

  9
$PUCSORG
 10
0.0
 20
0.0
 30
0.0
  9
$PUCSXDIR
 10
1.0
 20
0.0
 30
0.0
  9
$PUCSYDIR
 10
0.0
 20
1.0
 30
0.0
  9
$USERI1
 70
     0
  9
$USERI2
 70
     0
  9
$USERI3
 70
     0
  9
$USERI4
 70
     0
  9
$USERI5
 70
     0
  9
$USERR1
 40
0.0
  9
$USERR2
 40
0.0
  9
$USERR3
 40
0.0
  9
$USERR4
 40
0.0
  9
$USERR5
 40
0.0
  9
$WORLDVIEW
 70
     1
  9
$SHADEDGE
 70
     3
  9
$SHADEDIF
 70
    70
  9
$TILEMODE
 70
     1
  9
$MAXACTVP
 70
    48
  9
$PINSBASE
 10
0.0
 20
0.0
 30
0.0
  9
$PLIMCHECK
 70
     0
  9
$PEXTMIN
 10
1.000000E+20
 20
1.000000E+20
 30
1.000000E+20
  9
$PEXTMAX
 10
-1.000000E+20
 20
-1.000000E+20
 30
-1.000000E+20
  9
$PLIMMIN
 10
0.0
 20
0.0
  9
$PLIMMAX
 10
12.0
 20
9.0
  9
$UNITMODE
 70
     0
  9
$VISRETAIN
 70
     1
  9
$PLINEGEN
 70
     0
  9
$PSLTSCALE
 70
     1
  9
$TREEDEPTH
 70
  3020
  9
$PICKSTYLE
 70
     1
  9
$CMLSTYLE
  2
STANDARD
  9
$CMLJUST
 70
     0
  9
$CMLSCALE
 40
1.0
  9
$PROXYGRAPHICS
 70
     1
  9
$MEASUREMENT
 70
     0
  0
ENDSEC
  0
SECTION
  2
CLASSES
  0
CLASS
  1
HATCH
  2
AcDbHatch
  3
"ACAD_SEDONA"
 90
        0
280
     0
281
     1
  0
CLASS
  1
LWPOLYLINE
  2
AcDbPolyline
  3
"AutoCAD"
 90
        0
280
     0
281
     1
  0
ENDSEC
  0
SECTION
  2
TABLES
  0
TABLE
  2
VPORT
  5
8
100
AcDbSymbolTable
 70
     1
  0
VPORT
  5
8CD
100
AcDbSymbolTableRecord
100
AcDbViewportTableRecord
  2
*ACTIVE
 70
     0
 10
0.0
 20
0.0
 11
1.0
 21
1.0
 12
12.846619
 22
17.100036
 13
0.0
 23
0.0
 14
0.5
 24
0.5
 15
0.5
 25
0.5
 16
0.0
 26
0.0
 36
1.0
 17
0.0
 27
0.0
 37
0.0
 40
34.564087
 41
1.74735
 42
50.0
 43
0.0
 44
0.0
 50
0.0
 51
0.0
 71
     0
 72
   100
 73
     1
 74
     1
 75
     0
 76
     0
 77
     0
 78
     0
  0
ENDTAB
  0
TABLE
  2
LTYPE
  5
5
100
AcDbSymbolTable
 70
     2
  0
LTYPE
  5
12
100
AcDbSymbolTableRecord
100
AcDbLinetypeTableRecord
  2
BYBLOCK
 70
     0
  3

 72
    65
 73
     0
 40
0.0
  0
LTYPE
  5
13
100
AcDbSymbolTableRecord
100
AcDbLinetypeTableRecord
  2
BYLAYER
 70
     0
  3

 72
    65
 73
     0
 40
0.0
  0
LTYPE
  5
14
100
AcDbSymbolTableRecord
100
AcDbLinetypeTableRecord
  2
CONTINUOUS
 70
     0
  3
Solid line
 72
    65
 73
     0
 40
0.0
  0
LTYPE
  5
633
100
AcDbSymbolTableRecord
100
AcDbLinetypeTableRecord
  2
HIDDEN
 70
     0
  3
Hidden __ __ __ __ __ __ __ __ __ __ __ __ __ _
 72
    65
 73
     2
 40
0.375
 49
0.25
 74
     0
 49
-0.125
 74
     0
  0
ENDTAB
  0
TABLE
  2
LAYER
  5
2
100
AcDbSymbolTable
 70
    11
  0
LAYER
  5
E
100
AcDbSymbolTableRecord
100
AcDbLayerTableRecord
  2
0
 70
     0
 62
     7
  6
CONTINUOUS
  0
LAYER
  5
37
100
AcDbSymbolTableRecord
100
AcDbLayerTableRecord
  2
DEFPOINTS
 70
     0
 62
     7
  6
CONTINUOUS
  0
LAYER
  5
38
100
AcDbSymbolTableRecord
100
AcDbLayerTableRecord
  2
DIMN
 70
     0
 62
     4
  6
CONTINUOUS
  0
LAYER
  5
39
100
AcDbSymbolTableRecord
100
AcDbLayerTableRecord
  2
BORDER
 70
     0
 62
     4
  6
CONTINUOUS
  0
LAYER
  5
3A
100
AcDbSymbolTableRecord
100
AcDbLayerTableRecord
  2
BOARDER
 70
     0
 62
     7
  6
CONTINUOUS
  0
LAYER
  5
3B
100
AcDbSymbolTableRecord
100
AcDbLayerTableRecord
  2
R-DOOR-ANNO
 70
     0
 62
     7
  6
CONTINUOUS
  0
LAYER
  5
3C
100
AcDbSymbolTableRecord
100
AcDbLayerTableRecord
  2
R-DOOR-PATT
 70
     0
 62
     5
  6
CONTINUOUS
  0
LAYER
  5
3D
100
AcDbSymbolTableRecord
100
AcDbLayerTableRecord
  2
R-DOOR-DETL
 70
     0
 62
     3
  6
CONTINUOUS
  0
LAYER
  5
634
100
AcDbSymbolTableRecord
100
AcDbLayerTableRecord
  2
1
 70
     0
 62
     1
  6
CONTINUOUS
  0
LAYER
  5
635
100
AcDbSymbolTableRecord
100
AcDbLayerTableRecord
  2
2
 70
     0
 62
     2
  6
HIDDEN
  0
LAYER
  5
636
100
AcDbSymbolTableRecord
100
AcDbLayerTableRecord
  2
GREEN
 70
     0
 62
     3
  6
CONTINUOUS
  0
ENDTAB
  0
TABLE
  2
STYLE
  5
3
100
AcDbSymbolTable
 70
     2
  0
STYLE
  5
F
100
AcDbSymbolTableRecord
100
AcDbTextStyleTableRecord
  2
STANDARD
 70
     0
 40
0.0
 41
1.0
 50
0.0
 71
     0
 42
0.2
  3
txt
  4

  0
STYLE
  5
3E
100
AcDbSymbolTableRecord
100
AcDbTextStyleTableRecord
  2
ROMANS
 70
     0
 40
0.0
 41
1.0
 50
0.0
 71
     0
 42
0.5
  3
romans
  4

  0
ENDTAB
  0
TABLE
  2
VIEW
  5
6
100
AcDbSymbolTable
 70
     0
  0
ENDTAB
  0
TABLE
  2
UCS
  5
7
100
AcDbSymbolTable
 70
     0
  0
ENDTAB
  0
TABLE
  2
APPID
  5
9
100
AcDbSymbolTable
 70
     1
  0
APPID
  5
10
100
AcDbSymbolTableRecord
100
AcDbRegAppTableRecord
  2
ACAD
 70
     0
  0
ENDTAB
  0
TABLE
  2
DIMSTYLE
  5
A
100
AcDbSymbolTable
 70
     1
  0
DIMSTYLE
105
1D
102
{ACAD_REACTORS
330
842
330
860
330
8BE
330
8CC
102
}
100
AcDbSymbolTableRecord
100
AcDbDimStyleTableRecord
  2
STANDARD
 70
     0
  3

  4

  5

  6

  7

 40
1.0
 41
0.18
 42
0.0625
 43
0.38
 44
0.18
 45
0.0
 46
0.0
 47
0.0
 48
0.0
140
0.18
141
0.09
142
0.0
143
25.4
144
1.0
145
0.0
146
1.0
147
0.09
 71
     0
 72
     0
 73
     1
 74
     1
 75
     0
 76
     0
 77
     0
 78
     0
170
     0
171
     2
172
     0
173
     0
174
     0
175
     0
176
     0
177
     0
178
     0
270
     2
271
     4
272
     4
273
     2
274
     2
340
F
275
     0
280
     0
281
     0
282
     0
283
     1
284
     0
285
     0
286
     0
287
     3
288
     0
  0
ENDTAB
  0
TABLE
  2
BLOCK_RECORD
  5
1
100
AcDbSymbolTable
 70
    22
  0
BLOCK_RECORD
  5
18
100
AcDbSymbolTableRecord
100
AcDbBlockTableRecord
  2
*MODEL_SPACE
  0
BLOCK_RECORD
  5
15
100
AcDbSymbolTableRecord
100
AcDbBlockTableRecord
  2
*PAPER_SPACE
  0
BLOCK_RECORD
  5
20
100
AcDbSymbolTableRecord
100
AcDbBlockTableRecord
  2
A$C2189253D
  0
BLOCK_RECORD
  5
24
100
AcDbSymbolTableRecord
100
AcDbBlockTableRecord
  2
A$C21405640
  0
BLOCK_RECORD
  5
2C
100
AcDbSymbolTableRecord
100
AcDbBlockTableRecord
  2
A$C35F20450
  0
BLOCK_RECORD
  5
30
100
AcDbSymbolTableRecord
100
AcDbBlockTableRecord
  2
_DOTSMALL
  0
BLOCK_RECORD
  5
3F
100
AcDbSymbolTableRecord
100
AcDbBlockTableRecord
  2
A$C5F844271
  0
BLOCK_RECORD
  5
5C4
100
AcDbSymbolTableRecord
100
AcDbBlockTableRecord
  2
A$C6BE867F4
  0
BLOCK_RECORD
  5
5CC
100
AcDbSymbolTableRecord
100
AcDbBlockTableRecord
  2
A$C0E897680
  0
BLOCK_RECORD
  5
5D0
100
AcDbSymbolTableRecord
100
AcDbBlockTableRecord
  2
A$C60D73A4C
  0
BLOCK_RECORD
  5
5D4
100
AcDbSymbolTableRecord
100
AcDbBlockTableRecord
  2
A$C74654F65
  0
BLOCK_RECORD
  5
5D8
100
AcDbSymbolTableRecord
100
AcDbBlockTableRecord
  2
A$C5FA07A05
  0
BLOCK_RECORD
  5
5DC
100
AcDbSymbolTableRecord
100
AcDbBlockTableRecord
  2
A$C46F93324
  0
BLOCK_RECORD
  5
637
100
AcDbSymbolTableRecord
100
AcDbBlockTableRecord
  2
A$C404D06BD
  0
BLOCK_RECORD
  5
711
100
AcDbSymbolTableRecord
100
AcDbBlockTableRecord
  2
A$C0F445EDA
  0
BLOCK_RECORD
  5
835
100
AcDbSymbolTableRecord
100
AcDbBlockTableRecord
  2
*D14
  0
BLOCK_RECORD
  5
852
100
AcDbSymbolTableRecord
100
AcDbBlockTableRecord
  2
*D16
  0
BLOCK_RECORD
  5
861
100
AcDbSymbolTableRecord
100
AcDbBlockTableRecord
  2
A$C433421F4
  0
BLOCK_RECORD
  5
8B0
100
AcDbSymbolTableRecord
100
AcDbBlockTableRecord
  2
*D20
  0
BLOCK_RECORD
  5
8BF
100
AcDbSymbolTableRecord
100
AcDbBlockTableRecord
  2
*D21
  0
ENDTAB
  0
ENDSEC
  0
SECTION
  2
BLOCKS
  0
BLOCK
  5
19
100
AcDbEntity
  8
0
100
AcDbBlockBegin
  2
*MODEL_SPACE
 70
     0
 10
0.0
 20
0.0
 30
0.0
  3
*MODEL_SPACE
  1

  0
ENDBLK
  5
1A
100
AcDbEntity
  8
0
100
AcDbBlockEnd
  0
BLOCK
  5
16
100
AcDbEntity
 67
     1
  8
0
100
AcDbBlockBegin
  2
*PAPER_SPACE
 70
     0
 10
0.0
 20
0.0
 30
0.0
  3
*PAPER_SPACE
  1

  0
ENDBLK
  5
17
100
AcDbEntity
 67
     1
  8
0
100
AcDbBlockEnd
  0
BLOCK
  5
22
100
AcDbEntity
  8
0
100
AcDbBlockBegin
  2
A$C2189253D
 70
     0
 10
0.0
 20
0.0
 30
0.0
  3
A$C2189253D
  1

  0
HATCH
  5
21
100
AcDbEntity
  8
BOARDER
  6
CONTINUOUS
 62
     4
100
AcDbHatch
 10
0.0
 20
0.0
 30
0.0
210
0.0
220
0.0
230
1.0
  2
ANSI31
 70
     0
 71
     0
 91
        3
 92
        7
 72
     1
 73
     1
 93
        8
 10
0.1273646403742585
 20
0.2547293417921961
 42
1.0
 10
0.1273646403742585
 20
0.0000000027943585
 42
0.0
 10
0.2547293098731842
 20
0.000000002794359
 42
0.0
 10
0.2547293098731842
 20
0.1198050709874456
 42
0.0
 10
0.1273646403742585
 20
0.1198050709874452
 42
-1.0
 10
0.1273646403742585
 20
0.1349242735991094
 42
0.0
 10
0.2547293098731842
 20
0.1349242735991099
 42
0.0
 10
0.2547293098731842
 20
0.2547293417921961
 42
0.0
 97
        0
 92
        7
 72
     1
 73
     1
 93
       12
 10
0.2729453093314724
 20
0.2547293417921956
 42
0.0
 10
0.2729453093314742
 20
0.0000000027943585
 42
0.0
 10
0.3927503775245586
 20
0.0000000027943585
 42
0.0
 10
0.3927503775245586
 20
0.1273646722932775
 42
-1.0
 10
0.4078695801362234
 20
0.1273646722932775
 42
0.0
 10
0.4078695801362234
 20
0.0000000027943581
 42
0.0
 10
0.5276746483293114
 20
0.0000000027943576
 42
0.0
 10
0.5276746483293114
 20
0.1106172266293384
 42
0.4142135623730797
 10
0.5109272026653731
 20
0.1273646722932775
 42
0.4142135623730875
 10
0.5276746483293114
 20
0.1441121179572162
 42
0.0
 10
0.5276746483293114
 20
0.2379818961282574
 42
0.4142135623731106
 10
0.5109272026653713
 20
0.2547293417921961
 42
0.0
 97
        0
 92
        7
 72
     0
 73
     1
 93
        6
 10
0.5458906477876049
 20
0.2547293417921961
 10
0.5458906477876031
 20
0.0000000027943576
 10
0.8006199867854384
 20
0.0000000027943581
 10
0.8006199867854402
 20
0.127364672293278
 10
0.6732553172865199
 20
0.1273646722932771
 10
0.6732553172865181
 20
0.2547293417921961
 97
        0
 75
     0
 76
     1
 52
0.0
 41
0.040373
 77
     0
 78
     1
 53
45.0
 43
-7.406223
 44
-1.968858
 45
-0.0035684948455219
 46
0.0035684948455219
 79
     0
 47
0.0009
 98
        3
 10
0.137804
 20
0.196439
 10
0.137804
 20
0.196439
 10
0.137804
 20
0.196439
  0
ENDBLK
  5
23
100
AcDbEntity
  8
0
100
AcDbBlockEnd
  0
BLOCK
  5
2A
100
AcDbEntity
  8
0
100
AcDbBlockBegin
  2
A$C21405640
 70
     0
 10
0.0
 20
0.0
 30
0.0
  3
A$C21405640
  1

  0
MTEXT
  5
25
100
AcDbEntity
  8
0
100
AcDbMText
 10
0.504549
 20
2.99683
 30
0.0
 40
0.614073
 41
19.242589
 71
     1
 72
     5
  1
\fArial|b0|i1|c0|p34;Phone Orders (800) 421-6144\PFax Orders     (800) 262-3299\PWWW.CRLAURENCE.COM
  0
MTEXT
  5
26
100
AcDbEntity
  8
0
100
AcDbMText
 10
7.702431
 20
6.455969
 30
0.0
 40
0.876824
 41
21.937261
 71
     1
 72
     5
  1
\fArial|b1|i0|c0|p34;DOOR RAIL SYSTEM
  0
LWPOLYLINE
  5
27
100
AcDbEntity
  8
0
100
AcDbPolyline
 90
        2
 70
     0
 43
0.098252
 10
0.440527
 20
5.243578
 10
19.707511
 20
5.243578
  0
MTEXT
  5
28
100
AcDbEntity
  8
0
100
AcDbMText
 10
0.488738
 20
4.418164
 30
0.0
 40
0.776802
 41
19.420041
 71
     1
 72
     5
  1
\fArial|b1|i1|c0|p34;C.R. Laurence Architectural Products
  0
INSERT
  5
29
100
AcDbEntity
  8
0
 62
     7
100
AcDbBlockReference
  2
A$C2189253D
 10
0.460151
 20
5.536767
 30
0.0
 41
8.113806
 42
8.113806
 43
8.113806
  0
ENDBLK
  5
2B
100
AcDbEntity
  8
0
100
AcDbBlockEnd
  0
BLOCK
  5
2E
100
AcDbEntity
  8
0
 62
     3
100
AcDbBlockBegin
  2
A$C35F20450
 70
     0
 10
0.0
 20
0.0
 30
0.0
  3
A$C35F20450
  1

  0
INSERT
  5
2D
100
AcDbEntity
  8
DIMN
100
AcDbBlockReference
  2
A$C21405640
 10
0.0
 20
0.0
 30
0.0
 41
0.5
 42
0.5
 43
0.5
  0
ENDBLK
  5
2F
100
AcDbEntity
  8
0
 62
     3
100
AcDbBlockEnd
  0
BLOCK
  5
35
100
AcDbEntity
  8
0
100
AcDbBlockBegin
  2
_DOTSMALL
 70
     0
 10
0.0
 20
0.0
 30
0.0
  3
_DOTSMALL
  1

  0
POLYLINE
  5
31
100
AcDbEntity
  8
0
  6
BYBLOCK
 62
     0
100
AcDb2dPolyline
 66
     1
 10
0.0
 20
0.0
 30
0.0
 70
     1
 40
0.5
 41
0.5
  0
VERTEX
  5
32
100
AcDbEntity
  8
0
  6
BYBLOCK
 62
     0
100
AcDbVertex
100
AcDb2dVertex
 10
-0.0625
 20
0.0
 30
0.0
 42
1.0
  0
VERTEX
  5
33
100
AcDbEntity
  8
0
  6
BYBLOCK
 62
     0
100
AcDbVertex
100
AcDb2dVertex
 10
0.0625
 20
0.0
 30
0.0
 42
1.0
  0
SEQEND
  5
34
100
AcDbEntity
  8
0
  6
BYBLOCK
 62
     0
  0
ENDBLK
  5
36
100
AcDbEntity
  8
0
100
AcDbBlockEnd
  0
BLOCK
  5
2FA
100
AcDbEntity
  8
0
100
AcDbBlockBegin
  2
A$C5F844271
 70
     0
 10
0.0
 20
0.0
 30
0.0
  3
A$C5F844271
  1

  0
LINE
  5
40
100
AcDbEntity
  8
0
  6
BYBLOCK
 62
     0
100
AcDbLine
 10
19.190537
 20
9.415349
 30
0.0
 11
19.190537
 21
17.252264
 31
0.0
  0
LINE
  5
41
100
AcDbEntity
  8
BORDER
100
AcDbLine
 10
25.693238
 20
0.0
 30
0.0
 11
25.693238
 21
34.200072
 31
0.0
  0
LINE
  5
42
100
AcDbEntity
  8
R-DOOR-DETL
100
AcDbLine
 10
13.056933
 20
16.465731
 30
0.0
 11
13.056933
 21
12.347649
 31
0.0
  0
LINE
  5
43
100
AcDbEntity
  8
R-DOOR-DETL
100
AcDbLine
 10
12.994433
 20
16.454652
 30
0.0
 11
12.994433
 21
12.347649
 31
0.0
  0
LINE
  5
44
100
AcDbEntity
  8
R-DOOR-DETL
100
AcDbLine
 10
12.931933
 20
16.407777
 30
0.0
 11
12.931933
 21
12.347649
 31
0.0
  0
LINE
  5
45
100
AcDbEntity
  8
R-DOOR-DETL
100
AcDbLine
 10
13.109859
 20
16.427949
 30
0.0
 11
13.109859
 21
12.347649
 31
0.0
  0
LINE
  5
46
100
AcDbEntity
  8
R-DOOR-DETL
100
AcDbLine
 10
12.806933
 20
16.464847
 30
0.0
 11
12.806933
 21
12.347649
 31
0.0
  0
LINE
  5
47
100
AcDbEntity
  8
R-DOOR-DETL
100
AcDbLine
 10
12.744433
 20
16.426116
 30
0.0
 11
12.744433
 21
12.347649
 31
0.0
  0
LINE
  5
48
100
AcDbEntity
  8
R-DOOR-DETL
100
AcDbLine
 10
12.681933
 20
16.401424
 30
0.0
 11
12.681933
 21
12.347649
 31
0.0
  0
LINE
  5
49
100
AcDbEntity
  8
R-DOOR-DETL
100
AcDbLine
 10
12.624433
 20
16.41954
 30
0.0
 11
12.624433
 21
12.347649
 31
0.0
  0
LINE
  5
4A
100
AcDbEntity
  8
0
  6
BYBLOCK
 62
     0
100
AcDbLine
 10
5.809663
 20
12.662649
 30
0.0
 11
5.809663
 21
16.463414
 31
0.0
  0
LINE
  5
4B
100
AcDbEntity
  8
BORDER
100
AcDbLine
 10
0.0
 20
34.200072
 30
0.0
 11
0.0
 21
0.0
 31
0.0
  0
TEXT
  5
4C
100
AcDbEntity
  8
0
100
AcDbText
 10
9.291097
 20
10.776185
 30
0.0
 40
0.36
  1
SHOE
  7
ROMANS
100
AcDbText
  0
LINE
  5
4D
100
AcDbEntity
  8
0
  6
BYBLOCK
 62
     0
100
AcDbLine
 10
12.274469
 20
12.347649
 30
0.0
 11
5.494663
 21
12.347649
 31
0.0
  0
LINE
  5
4E
100
AcDbEntity
  8
0
  6
BYBLOCK
 62
     0
100
AcDbLine
 10
12.383844
 20
12.347649
 30
0.0
 11
5.474369
 21
12.347649
 31
0.0
  0
LINE
  5
4F
100
AcDbEntity
  8
0
  6
BYBLOCK
 62
     0
100
AcDbLine
 10
12.493219
 20
12.347649
 30
0.0
 11
6.101167
 21
12.347649
 31
0.0
  0
LINE
  5
50
100
AcDbEntity
  8
0
  6
BYBLOCK
 62
     0
100
AcDbLine
 10
9.758844
 20
9.100349
 30
0.0
 11
5.474369
 21
9.100349
 31
0.0
  0
TEXT
  5
51
100
AcDbEntity
  8
R-DOOR-ANNO
  6
CONTINUOUS
100
AcDbText
 10
7.660774
 20
5.846593
 30
0.0
 40
0.46875
  1
CRL 4" SQUARE DOOR RAIL 
  7
ROMANS
 72
     1
 11
12.906309
 21
5.846593
 31
0.0
100
AcDbText
  0
TEXT
  5
52
100
AcDbEntity
  8
R-DOOR-ANNO
  6
CONTINUOUS
100
AcDbText
 10
9.267916
 20
4.433771
 30
0.0
 40
0.46875
  1
CLAD OR NON CLAD
  7
ROMANS
 72
     1
 11
12.906309
 21
4.433771
 31
0.0
100
AcDbText
  0
INSERT
  5
53
100
AcDbEntity
  8
R-DOOR-ANNO
  6
CONTINUOUS
100
AcDbBlockReference
  2
A$C35F20450
 10
0.260405
 20
0.351814
 30
0.0
  0
LINE
  5
54
100
AcDbEntity
  8
BORDER
100
AcDbLine
 10
0.0
 20
0.0
 30
0.0
 11
25.693238
 21
0.0
 31
0.0
  0
LINE
  5
55
100
AcDbEntity
  8
0
  6
BYBLOCK
 62
     0
100
AcDbLine
 10
5.789369
 20
9.415349
 30
0.0
 11
5.789369
 21
10.146499
 31
0.0
  0
SOLID
  5
56
100
AcDbEntity
  8
0
  6
BYBLOCK
 62
     0
100
AcDbTrace
 10
5.736869
 20
9.415349
 30
0.0
 11
5.841869
 21
9.415349
 31
0.0
 12
5.789369
 22
9.100349
 32
0.0
 13
5.789369
 23
9.100349
 33
0.0
  0
POINT
  5
57
100
AcDbEntity
  8
DEFPOINTS
  6
BYBLOCK
 62
     0
100
AcDbPoint
 10
5.789369
 20
9.100349
 30
0.0
  0
LINE
  5
58
100
AcDbEntity
  8
0
  6
BYBLOCK
 62
     0
100
AcDbLine
 10
5.789369
 20
12.032649
 30
0.0
 11
5.789369
 21
11.301499
 31
0.0
  0
MTEXT
  5
59
100
AcDbEntity
  8
0
  6
BYBLOCK
 62
     0
100
AcDbMText
 10
5.789369
 20
10.780314
 30
0.0
 40
0.315
 41
0.0
 71
     5
 72
     1
  1
\A1;3 1/4\P[83mm]
  0
SOLID
  5
5A
100
AcDbEntity
  8
0
  6
BYBLOCK
 62
     0
100
AcDbTrace
 10
5.736869
 20
12.032649
 30
0.0
 11
5.841869
 21
12.032649
 31
0.0
 12
5.789369
 22
12.347649
 32
0.0
 13
5.789369
 23
12.347649
 33
0.0
  0
POINT
  5
5B
100
AcDbEntity
  8
DEFPOINTS
  6
BYBLOCK
 62
     0
100
AcDbPoint
 10
6.461167
 20
12.347649
 30
0.0
  0
POINT
  5
5C
100
AcDbEntity
  8
DEFPOINTS
  6
BYBLOCK
 62
     0
100
AcDbPoint
 10
5.809663
 20
12.347649
 30
0.0
  0
SOLID
  5
5D
100
AcDbEntity
  8
0
  6
BYBLOCK
 62
     0
100
AcDbTrace
 10
5.757163
 20
12.662649
 30
0.0
 11
5.862163
 21
12.662649
 31
0.0
 12
5.809663
 22
12.347649
 32
0.0
 13
5.809663
 23
12.347649
 33
0.0
  0
TEXT
  5
5E
100
AcDbEntity
  8
R-DOOR-ANNO
  6
CONTINUOUS
100
AcDbText
 10
20.938531
 20
0.5
 30
0.0
 40
0.625
  1
STYLE 02
  7
ROMANS
100
AcDbText
  0
LINE
  5
5F
100
AcDbEntity
  8
R-DOOR-DETL
  6
BYBLOCK
 62
     3
100
AcDbLine
 10
13.799212
 20
9.365349
 30
0.0
 11
13.799212
 21
13.224341
 31
0.0
  0
LINE
  5
60
100
AcDbEntity
  8
R-DOOR-DETL
  6
BYBLOCK
 62
     3
100
AcDbLine
 10
13.809212
 20
9.350349
 30
0.0
 11
13.809212
 21
13.224341
 31
0.0
  0
LINE
  5
61
100
AcDbEntity
  8
R-DOOR-DETL
  6
BYBLOCK
 62
     3
100
AcDbLine
 10
13.859212
 20
13.224341
 30
0.0
 11
13.859212
 21
9.350349
 31
0.0
  0
LINE
  5
62
100
AcDbEntity
  8
R-DOOR-DETL
  6
BYBLOCK
 62
     3
100
AcDbLine
 10
11.937227
 20
13.224341
 30
0.0
 11
11.937227
 21
9.365349
 31
0.0
  0
LINE
  5
63
100
AcDbEntity
  8
R-DOOR-DETL
  6
BYBLOCK
 62
     3
100
AcDbLine
 10
12.087227
 20
9.775349
 30
0.0
 11
12.087227
 21
10.429146
 31
0.0
  0
LINE
  5
64
100
AcDbEntity
  8
R-DOOR-DETL
  6
BYBLOCK
 62
     3
100
AcDbLine
 10
13.649212
 20
10.429146
 30
0.0
 11
13.649212
 21
9.775349
 31
0.0
  0
MTEXT
  5
65
100
AcDbEntity
  8
0
  6
BYBLOCK
 62
     0
100
AcDbMText
 10
17.887538
 20
9.980349
 30
0.0
 40
0.315
 41
0.0
 71
     5
 72
     1
  1
\A1;1/4\P[6mm]
  0
LINE
  5
66
100
AcDbEntity
  8
R-DOOR-PATT
  6
CONTINUOUS
 62
     5
100
AcDbLine
 10
15.771038
 20
7.100349
 30
0.0
 11
13.771038
 21
9.100349
 31
0.0
  0
LINE
  5
67
100
AcDbEntity
  8
R-DOOR-PATT
  6
CONTINUOUS
 62
     5
100
AcDbLine
 10
15.329096
 20
7.100349
 30
0.0
 11
13.329096
 21
9.100349
 31
0.0
  0
LINE
  5
68
100
AcDbEntity
  8
R-DOOR-PATT
  6
CONTINUOUS
 62
     5
100
AcDbLine
 10
14.887154
 20
7.100349
 30
0.0
 11
12.887154
 21
9.100349
 31
0.0
  0
LINE
  5
69
100
AcDbEntity
  8
R-DOOR-PATT
  6
CONTINUOUS
 62
     5
100
AcDbLine
 10
14.445212
 20
7.100349
 30
0.0
 11
12.445212
 21
9.100349
 31
0.0
  0
LINE
  5
6A
100
AcDbEntity
  8
R-DOOR-PATT
  6
CONTINUOUS
 62
     5
100
AcDbLine
 10
11.793562
 20
7.100349
 30
0.0
 11
9.865741
 21
9.02817
 31
0.0
  0
LINE
  5
6B
100
AcDbEntity
  8
R-DOOR-PATT
  6
CONTINUOUS
 62
     5
100
AcDbLine
 10
11.35162
 20
7.100349
 30
0.0
 11
9.865741
 21
8.586228
 31
0.0
  0
LINE
  5
6C
100
AcDbEntity
  8
R-DOOR-PATT
  6
CONTINUOUS
 62
     5
100
AcDbLine
 10
10.909678
 20
7.100349
 30
0.0
 11
9.865741
 21
8.144286
 31
0.0
  0
LINE
  5
6D
100
AcDbEntity
  8
R-DOOR-PATT
  6
CONTINUOUS
 62
     5
100
AcDbLine
 10
14.003271
 20
7.100349
 30
0.0
 11
12.003271
 21
9.100349
 31
0.0
  0
LINE
  5
6E
100
AcDbEntity
  8
R-DOOR-PATT
  6
CONTINUOUS
 62
     5
100
AcDbLine
 10
13.561329
 20
7.100349
 30
0.0
 11
11.561329
 21
9.100349
 31
0.0
  0
LINE
  5
6F
100
AcDbEntity
  8
R-DOOR-PATT
  6
CONTINUOUS
 62
     5
100
AcDbLine
 10
13.119387
 20
7.100349
 30
0.0
 11
11.119387
 21
9.100349
 31
0.0
  0
LINE
  5
70
100
AcDbEntity
  8
R-DOOR-PATT
  6
CONTINUOUS
 62
     5
100
AcDbLine
 10
12.677445
 20
7.100349
 30
0.0
 11
10.677445
 21
9.100349
 31
0.0
  0
LINE
  5
71
100
AcDbEntity
  8
R-DOOR-PATT
  6
CONTINUOUS
 62
     5
100
AcDbLine
 10
12.235504
 20
7.100349
 30
0.0
 11
10.235504
 21
9.100349
 31
0.0
  0
LINE
  5
72
100
AcDbEntity
  8
R-DOOR-PATT
  6
CONTINUOUS
 62
     5
100
AcDbLine
 10
10.467737
 20
7.100349
 30
0.0
 11
9.865741
 21
7.702344
 31
0.0
  0
TEXT
  5
73
100
AcDbEntity
  8
R-DOOR-ANNO
  6
CONTINUOUS
100
AcDbText
 10
9.781309
 20
5.152378
 30
0.0
 40
0.46875
  1
TOP AND BOTTOM
  7
ROMANS
 72
     1
 11
12.906309
 21
5.152378
 31
0.0
100
AcDbText
  0
LINE
  5
74
100
AcDbEntity
  8
R-DOOR-PATT
  6
CONTINUOUS
 62
     5
100
AcDbLine
 10
10.025795
 20
7.100349
 30
0.0
 11
9.865741
 21
7.260403
 31
0.0
  0
LINE
  5
75
100
AcDbEntity
  8
0
  6
BYBLOCK
 62
     0
100
AcDbLine
 10
13.836246
 20
9.100349
 30
0.0
 11
19.505537
 21
9.100349
 31
0.0
  0
LINE
  5
76
100
AcDbEntity
  8
0
  6
BYBLOCK
 62
     0
100
AcDbLine
 10
16.785038
 20
8.785349
 30
0.0
 11
16.785038
 21
8.470349
 31
0.0
  0
LINE
  5
77
100
AcDbEntity
  8
R-DOOR-PATT
  6
CONTINUOUS
 62
     5
100
AcDbLine
 10
15.865741
 20
8.33147
 30
0.0
 11
15.096863
 21
9.100349
 31
0.0
  0
LINE
  5
78
100
AcDbEntity
  8
R-DOOR-PATT
  6
CONTINUOUS
 62
     5
100
AcDbLine
 10
15.865741
 20
7.889529
 30
0.0
 11
14.654921
 21
9.100349
 31
0.0
  0
LINE
  5
79
100
AcDbEntity
  8
R-DOOR-PATT
  6
CONTINUOUS
 62
     5
100
AcDbLine
 10
15.865741
 20
7.447587
 30
0.0
 11
14.212979
 21
9.100349
 31
0.0
  0
LINE
  5
7A
100
AcDbEntity
  8
0
100
AcDbLine
 10
10.774719
 20
9.100349
 30
0.0
 11
14.961719
 21
9.100349
 31
0.0
  0
LINE
  5
7B
100
AcDbEntity
  8
0
100
AcDbLine
 10
9.868219
 20
9.100349
 30
0.0
 11
15.868219
 21
9.100349
 31
0.0
  0
LINE
  5
7C
100
AcDbEntity
  8
R-DOOR-DETL
  6
BYBLOCK
 62
     3
100
AcDbLine
 10
12.037227
 20
9.365349
 30
0.0
 11
12.037227
 21
9.745349
 31
0.0
  0
POINT
  5
7D
100
AcDbEntity
  8
DEFPOINTS
  6
BYBLOCK
 62
     0
100
AcDbPoint
 10
9.868219
 20
9.100349
 30
0.0
  0
ARC
  5
7E
100
AcDbEntity
  8
R-DOOR-DETL
  6
BYBLOCK
 62
     3
100
AcDbCircle
 10
11.952227
 20
9.365349
 30
0.0
 40
0.015
100
AcDbArc
 50
180.0
 51
270.0
  0
LINE
  5
7F
100
AcDbEntity
  8
R-DOOR-DETL
  6
BYBLOCK
 62
     3
100
AcDbLine
 10
11.952227
 20
9.350349
 30
0.0
 11
12.022227
 21
9.350349
 31
0.0
  0
ARC
  5
80
100
AcDbEntity
  8
R-DOOR-DETL
  6
BYBLOCK
 62
     3
100
AcDbCircle
 10
12.022227
 20
9.365349
 30
0.0
 40
0.015
100
AcDbArc
 50
270.0
 51
0.0
  0
ARC
  5
81
100
AcDbEntity
  8
R-DOOR-DETL
  6
BYBLOCK
 62
     3
100
AcDbCircle
 10
12.052227
 20
9.745349
 30
0.0
 40
0.015
100
AcDbArc
 50
90.0
 51
180.0
  0
LINE
  5
82
100
AcDbEntity
  8
R-DOOR-DETL
  6
BYBLOCK
 62
     3
100
AcDbLine
 10
12.052227
 20
9.760349
 30
0.0
 11
12.072227
 21
9.760349
 31
0.0
  0
ARC
  5
83
100
AcDbEntity
  8
R-DOOR-DETL
  6
BYBLOCK
 62
     3
100
AcDbCircle
 10
12.072227
 20
9.775349
 30
0.0
 40
0.015
100
AcDbArc
 50
270.0
 51
0.0
  0
SOLID
  5
84
100
AcDbEntity
  8
0
  6
BYBLOCK
 62
     0
100
AcDbTrace
 10
16.732538
 20
9.665349
 30
0.0
 11
16.837538
 21
9.665349
 31
0.0
 12
16.785038
 22
9.350349
 32
0.0
 13
16.785038
 23
9.350349
 33
0.0
  0
LINE
  5
85
100
AcDbEntity
  8
R-DOOR-DETL
  6
BYBLOCK
 62
     3
100
AcDbLine
 10
13.699212
 20
9.745349
 30
0.0
 11
13.699212
 21
9.365349
 31
0.0
  0
LINE
  5
86
100
AcDbEntity
  8
0
  6
BYBLOCK
 62
     0
100
AcDbLine
 10
13.858587
 20
9.350349
 30
0.0
 11
17.100038
 21
9.350349
 31
0.0
  0
LINE
  5
87
100
AcDbEntity
  8
R-DOOR-PATT
  6
CONTINUOUS
 62
     5
100
AcDbLine
 10
15.865741
 20
8.773412
 30
0.0
 11
15.538805
 21
9.100349
 31
0.0
  0
POINT
  5
88
100
AcDbEntity
  8
DEFPOINTS
  6
BYBLOCK
 62
     0
100
AcDbPoint
 10
15.538805
 20
9.100349
 30
0.0
  0
ARC
  5
89
100
AcDbEntity
  8
R-DOOR-DETL
  6
BYBLOCK
 62
     3
100
AcDbCircle
 10
13.784212
 20
9.365349
 30
0.0
 40
0.015
100
AcDbArc
 50
270.0
 51
0.0
  0
LINE
  5
8A
100
AcDbEntity
  8
R-DOOR-DETL
  6
BYBLOCK
 62
     3
100
AcDbLine
 10
13.714212
 20
9.350349
 30
0.0
 11
13.784212
 21
9.350349
 31
0.0
  0
ARC
  5
8B
100
AcDbEntity
  8
R-DOOR-DETL
  6
BYBLOCK
 62
     3
100
AcDbCircle
 10
13.714212
 20
9.365349
 30
0.0
 40
0.015
100
AcDbArc
 50
180.0
 51
270.0
  0
POINT
  5
8C
100
AcDbEntity
  8
R-DOOR-DETL
  6
BYBLOCK
 62
     3
100
AcDbPoint
 10
13.749212
 20
9.350349
 30
0.0
  0
LINE
  5
8D
100
AcDbEntity
  8
R-DOOR-DETL
  6
BYBLOCK
 62
     3
100
AcDbLine
 10
13.859212
 20
9.350349
 30
0.0
 11
13.809212
 21
9.350349
 31
0.0
  0
LINE
  5
8E
100
AcDbEntity
  8
0
  6
BYBLOCK
 62
     0
100
AcDbLine
 10
15.64818
 20
9.100349
 30
0.0
 11
17.100038
 21
9.100349
 31
0.0
  0
POINT
  5
8F
100
AcDbEntity
  8
DEFPOINTS
  6
BYBLOCK
 62
     0
100
AcDbPoint
 10
16.785038
 20
9.350349
 30
0.0
  0
SOLID
  5
90
100
AcDbEntity
  8
0
  6
BYBLOCK
 62
     0
100
AcDbTrace
 10
16.732538
 20
8.785349
 30
0.0
 11
16.837538
 21
8.785349
 31
0.0
 12
16.785038
 22
9.100349
 32
0.0
 13
16.785038
 23
9.100349
 33
0.0
  0
ARC
  5
91
100
AcDbEntity
  8
R-DOOR-DETL
  6
BYBLOCK
 62
     3
100
AcDbCircle
 10
13.684212
 20
9.745349
 30
0.0
 40
0.015
100
AcDbArc
 50
0.0
 51
90.0
  0
LINE
  5
92
100
AcDbEntity
  8
R-DOOR-DETL
  6
BYBLOCK
 62
     3
100
AcDbLine
 10
13.664212
 20
9.760349
 30
0.0
 11
13.684212
 21
9.760349
 31
0.0
  0
ARC
  5
93
100
AcDbEntity
  8
R-DOOR-DETL
  6
BYBLOCK
 62
     3
100
AcDbCircle
 10
13.664212
 20
9.775349
 30
0.0
 40
0.015
100
AcDbArc
 50
180.0
 51
270.0
  0
LINE
  5
94
100
AcDbEntity
  8
0
  6
BYBLOCK
 62
     0
100
AcDbLine
 10
16.785038
 20
9.980349
 30
0.0
 11
17.100038
 21
9.980349
 31
0.0
  0
LINE
  5
95
100
AcDbEntity
  8
0
  6
BYBLOCK
 62
     0
100
AcDbLine
 10
16.785038
 20
9.665349
 30
0.0
 11
16.785038
 21
9.980349
 31
0.0
  0
SOLID
  5
96
100
AcDbEntity
  8
0
  6
BYBLOCK
 62
     0
100
AcDbTrace
 10
19.138037
 20
9.415349
 30
0.0
 11
19.243037
 21
9.415349
 31
0.0
 12
19.190537
 22
9.100349
 32
0.0
 13
19.190537
 23
9.100349
 33
0.0
  0
POINT
  5
97
100
AcDbEntity
  8
DEFPOINTS
  6
BYBLOCK
 62
     0
100
AcDbPoint
 10
19.190537
 20
9.100349
 30
0.0
  0
LWPOLYLINE
  5
98
100
AcDbEntity
  8
R-DOOR-ANNO
  6
CONTINUOUS
100
AcDbPolyline
 90
        3
 70
     0
 43
0.0
 10
13.850869
 20
13.103827
 10
14.919926
 20
12.504364
 10
15.099926
 20
12.504364
1001
ACAD
1000
DSTYLE
1002
{
1070
   173
1070
     1
1070
     6
1000
_DOTSMALL
1002
}
  0
LINE
  5
99
100
AcDbEntity
  8
R-DOOR-DETL
  6
BYBLOCK
 62
     3
100
AcDbLine
 10
13.328169
 20
12.677976
 30
0.0
 11
13.305778
 21
13.168706
 31
0.0
  0
LINE
  5
9A
100
AcDbEntity
  8
R-DOOR-DETL
  6
BYBLOCK
 62
     3
100
AcDbLine
 10
12.406124
 20
12.677976
 30
0.0
 11
12.428515
 21
13.168706
 31
0.0
  0
LINE
  5
9B
100
AcDbEntity
  8
R-DOOR-DETL
  6
BYBLOCK
 62
     3
100
AcDbLine
 10
13.649212
 20
13.210673
 30
0.0
 11
13.649212
 21
12.792309
 31
0.0
  0
LINE
  5
9C
100
AcDbEntity
  8
R-DOOR-DETL
  6
BYBLOCK
 62
     3
100
AcDbLine
 10
12.087227
 20
12.792309
 30
0.0
 11
12.087227
 21
13.210673
 31
0.0
  0
LINE
  5
9D
100
AcDbEntity
  8
R-DOOR-DETL
  6
BYBLOCK
 62
     3
100
AcDbLine
 10
12.574433
 20
13.159359
 30
0.0
 11
12.574433
 21
12.307491
 31
0.0
  0
LINE
  5
9E
100
AcDbEntity
  8
R-DOOR-DETL
  6
BYBLOCK
 62
     3
100
AcDbLine
 10
12.624433
 20
13.159359
 30
0.0
 11
12.624433
 21
12.409359
 31
0.0
  0
LINE
  5
9F
100
AcDbEntity
  8
R-DOOR-DETL
  6
BYBLOCK
 62
     3
100
AcDbLine
 10
12.574433
 20
12.409359
 30
0.0
 11
12.574433
 21
13.159359
 31
0.0
  0
LINE
  5
A0
100
AcDbEntity
  8
R-DOOR-DETL
  6
BYBLOCK
 62
     3
100
AcDbLine
 10
13.159859
 20
13.159359
 30
0.0
 11
13.159859
 21
12.307491
 31
0.0
  0
LINE
  5
A1
100
AcDbEntity
  8
R-DOOR-DETL
  6
BYBLOCK
 62
     3
100
AcDbLine
 10
13.109859
 20
13.159359
 30
0.0
 11
13.109859
 21
12.409359
 31
0.0
  0
LINE
  5
A2
100
AcDbEntity
  8
R-DOOR-DETL
  6
BYBLOCK
 62
     3
100
AcDbLine
 10
13.159859
 20
12.409359
 30
0.0
 11
13.159859
 21
13.159359
 31
0.0
  0
TEXT
  5
A3
100
AcDbEntity
  8
0
100
AcDbText
 10
15.158498
 20
12.324364
 30
0.0
 40
0.36
  1
CLADDING
  7
ROMANS
100
AcDbText
  0
TEXT
  5
A4
100
AcDbEntity
  8
0
100
AcDbText
 10
14.884104
 20
11.29301
 30
0.0
 40
0.36
  1
GLASS CLAMP
  7
ROMANS
100
AcDbText
  0
INSERT
  5
A5
100
AcDbEntity
  8
DIMN
 62
     7
100
AcDbBlockReference
  2
_DOTSMALL
 10
12.001302
 20
11.558534
 30
0.0
 41
0.18
 42
0.18
 43
0.18
 50
153.778112
1001
ACAD
1000
DSTYLE
1002
{
1070
   173
1070
     1
1070
     6
1000
_DOTSMALL
1002
}
  0
LWPOLYLINE
  5
A6
100
AcDbEntity
  8
DIMN
 62
     7
100
AcDbPolyline
 90
        3
 70
     0
 43
0.0
 10
13.157382
 20
12.205977
 10
14.645533
 20
11.47301
 10
14.825533
 20
11.47301
1001
ACAD
1000
DSTYLE
1002
{
1070
   173
1070
     1
1070
     6
1000
_DOTSMALL
1002
}
  0
ARC
  5
A7
100
AcDbEntity
  8
R-DOOR-DETL
  6
BYBLOCK
 62
     3
100
AcDbCircle
 10
13.634212
 20
10.429146
 30
0.0
 40
0.015
100
AcDbArc
 50
0.0
 51
90.0
  0
ARC
  5
A8
100
AcDbEntity
  8
R-DOOR-DETL
  6
BYBLOCK
 62
     3
100
AcDbCircle
 10
13.619212
 20
10.900349
 30
0.0
 40
0.03
100
AcDbArc
 50
0.0
 51
90.0
  0
ARC
  5
A9
100
AcDbEntity
  8
R-DOOR-DETL
  6
BYBLOCK
 62
     3
100
AcDbCircle
 10
13.613212
 20
10.899349
 30
0.0
 40
0.031
100
AcDbArc
 50
0.0
 51
90.0
  0
ARC
  5
AA
100
AcDbEntity
  8
R-DOOR-DETL
  6
BYBLOCK
 62
     3
100
AcDbCircle
 10
13.634212
 20
10.659146
 30
0.0
 40
0.015
100
AcDbArc
 50
270.0
 51
0.0
  0
ARC
  5
AB
100
AcDbEntity
  8
R-DOOR-DETL
  6
BYBLOCK
 62
     3
100
AcDbCircle
 10
13.629212
 20
10.669146
 30
0.0
 40
0.015
100
AcDbArc
 50
270.0
 51
0.0
  0
LINE
  5
AC
100
AcDbEntity
  8
R-DOOR-DETL
  6
BYBLOCK
 62
     3
100
AcDbLine
 10
13.249399
 20
10.731747
 30
0.0
 11
13.143685
 21
10.914849
 31
0.0
  0
LINE
  5
AD
100
AcDbEntity
  8
R-DOOR-DETL
  6
BYBLOCK
 62
     3
100
AcDbLine
 10
13.442753
 20
10.914849
 30
0.0
 11
13.337039
 21
10.731747
 31
0.0
  0
LINE
  5
AE
100
AcDbEntity
  8
R-DOOR-DETL
  6
BYBLOCK
 62
     3
100
AcDbLine
 10
12.399399
 20
10.731747
 30
0.0
 11
12.293685
 21
10.914849
 31
0.0
  0
LINE
  5
AF
100
AcDbEntity
  8
R-DOOR-DETL
  6
BYBLOCK
 62
     3
100
AcDbLine
 10
12.592753
 20
10.914849
 30
0.0
 11
12.487039
 21
10.731747
 31
0.0
  0
LINE
  5
B0
100
AcDbEntity
  8
R-DOOR-DETL
  6
BYBLOCK
 62
     3
100
AcDbLine
 10
12.087227
 20
10.659146
 30
0.0
 11
12.087227
 21
10.900349
 31
0.0
  0
LINE
  5
B1
100
AcDbEntity
  8
R-DOOR-DETL
  6
BYBLOCK
 62
     3
100
AcDbLine
 10
12.092227
 20
10.899349
 30
0.0
 11
12.092227
 21
10.669146
 31
0.0
  0
LINE
  5
B2
100
AcDbEntity
  8
R-DOOR-DETL
  6
BYBLOCK
 62
     3
100
AcDbLine
 10
13.550719
 20
10.380349
 30
0.0
 11
13.550719
 21
10.930349
 31
0.0
  0
LINE
  5
B3
100
AcDbEntity
  8
R-DOOR-DETL
  6
BYBLOCK
 62
     3
100
AcDbLine
 10
12.185719
 20
10.380349
 30
0.0
 11
12.185719
 21
10.930349
 31
0.0
  0
LINE
  5
B4
100
AcDbEntity
  8
R-DOOR-DETL
  6
BYBLOCK
 62
     3
100
AcDbLine
 10
13.282567
 20
10.497331
 30
0.0
 11
13.194347
 21
10.560564
 31
0.0
  0
CIRCLE
  5
B5
100
AcDbEntity
  8
R-DOOR-DETL
  6
BYBLOCK
 62
     3
100
AcDbCircle
 10
13.293219
 20
10.605349
 30
0.0
 40
0.1875
  0
CIRCLE
  5
B6
100
AcDbEntity
  8
R-DOOR-DETL
  6
BYBLOCK
 62
     3
100
AcDbCircle
 10
13.293219
 20
10.605349
 30
0.0
 40
0.1625
  0
ARC
  5
B7
100
AcDbEntity
  8
R-DOOR-DETL
  6
BYBLOCK
 62
     3
100
AcDbCircle
 10
13.293219
 20
10.605349
 30
0.0
 40
0.1005
100
AcDbArc
 50
122.506128
 51
57.493872
  0
LINE
  5
B8
100
AcDbEntity
  8
R-DOOR-DETL
  6
BYBLOCK
 62
     3
100
AcDbLine
 10
13.392091
 20
10.650133
 30
0.0
 11
13.38144
 21
10.542115
 31
0.0
  0
LINE
  5
B9
100
AcDbEntity
  8
R-DOOR-DETL
  6
BYBLOCK
 62
     3
100
AcDbLine
 10
13.553219
 20
10.629146
 30
0.0
 11
13.553219
 21
10.459146
 31
0.0
  0
CIRCLE
  5
BA
100
AcDbEntity
  8
R-DOOR-DETL
  6
BYBLOCK
 62
     3
100
AcDbCircle
 10
12.443219
 20
10.605349
 30
0.0
 40
0.1875
  0
CIRCLE
  5
BB
100
AcDbEntity
  8
R-DOOR-DETL
  6
BYBLOCK
 62
     3
100
AcDbCircle
 10
12.443219
 20
10.605349
 30
0.0
 40
0.1625
  0
LINE
  5
BC
100
AcDbEntity
  8
R-DOOR-DETL
  6
BYBLOCK
 62
     3
100
AcDbLine
 10
12.519161
 20
10.527798
 30
0.0
 11
12.548351
 21
10.632341
 31
0.0
  0
ARC
  5
BD
100
AcDbEntity
  8
R-DOOR-DETL
  6
BYBLOCK
 62
     3
100
AcDbCircle
 10
12.443219
 20
10.605349
 30
0.0
 40
0.1005
100
AcDbArc
 50
122.506128
 51
57.493872
  0
LINE
  5
BE
100
AcDbEntity
  8
R-DOOR-DETL
  6
BYBLOCK
 62
     3
100
AcDbLine
 10
12.813948
 20
10.511349
 30
0.0
 11
12.759677
 21
10.605349
 31
0.0
  0
LINE
  5
BF
100
AcDbEntity
  8
R-DOOR-DETL
  6
BYBLOCK
 62
     3
100
AcDbLine
 10
12.92249
 20
10.511349
 30
0.0
 11
12.976761
 21
10.605349
 31
0.0
  0
LINE
  5
C0
100
AcDbEntity
  8
R-DOOR-DETL
  6
BYBLOCK
 62
     3
100
AcDbLine
 10
12.338087
 20
10.578357
 30
0.0
 11
12.414029
 21
10.500806
 31
0.0
  0
CIRCLE
  5
C1
100
AcDbEntity
  8
R-DOOR-DETL
  6
BYBLOCK
 62
     3
100
AcDbCircle
 10
12.868219
 20
10.605349
 30
0.0
 40
0.1875
  0
CIRCLE
  5
C2
100
AcDbEntity
  8
R-DOOR-DETL
  6
BYBLOCK
 62
     3
100
AcDbCircle
 10
12.868219
 20
10.605349
 30
0.0
 40
0.1625
  0
LINE
  5
C3
100
AcDbEntity
  8
R-DOOR-DETL
  6
BYBLOCK
 62
     3
100
AcDbLine
 10
12.183219
 20
10.459146
 30
0.0
 11
12.183219
 21
10.629146
 31
0.0
  0
LINE
  5
C4
100
AcDbEntity
  8
R-DOOR-DETL
  6
BYBLOCK
 62
     3
100
AcDbLine
 10
13.568219
 20
10.444146
 30
0.0
 11
13.634212
 21
10.444146
 31
0.0
  0
LINE
  5
C5
100
AcDbEntity
  8
R-DOOR-DETL
  6
BYBLOCK
 62
     3
100
AcDbLine
 10
13.38144
 20
10.542115
 30
0.0
 11
13.282567
 21
10.497331
 31
0.0
  0
ARC
  5
C6
100
AcDbEntity
  8
R-DOOR-DETL
  6
BYBLOCK
 62
     3
100
AcDbCircle
 10
13.568219
 20
10.459146
 30
0.0
 40
0.015
100
AcDbArc
 50
180.0
 51
270.0
  0
LINE
  5
C7
100
AcDbEntity
  8
R-DOOR-DETL
  6
BYBLOCK
 62
     3
100
AcDbLine
 10
12.414029
 20
10.500806
 30
0.0
 11
12.519161
 21
10.527798
 31
0.0
  0
LINE
  5
C8
100
AcDbEntity
  8
R-DOOR-DETL
  6
BYBLOCK
 62
     3
100
AcDbLine
 10
12.813948
 20
10.511349
 30
0.0
 11
12.92249
 21
10.511349
 31
0.0
  0
ARC
  5
C9
100
AcDbEntity
  8
R-DOOR-DETL
  6
BYBLOCK
 62
     3
100
AcDbCircle
 10
12.168219
 20
10.459146
 30
0.0
 40
0.015
100
AcDbArc
 50
270.0
 51
0.0
  0
LINE
  5
CA
100
AcDbEntity
  8
R-DOOR-DETL
  6
BYBLOCK
 62
     3
100
AcDbLine
 10
13.634212
 20
10.644146
 30
0.0
 11
13.568219
 21
10.644146
 31
0.0
  0
LINE
  5
CB
100
AcDbEntity
  8
R-DOOR-DETL
  6
BYBLOCK
 62
     3
100
AcDbLine
 10
13.563219
 20
10.654146
 30
0.0
 11
13.629212
 21
10.654146
 31
0.0
  0
LINE
  5
CC
100
AcDbEntity
  8
R-DOOR-DETL
  6
BYBLOCK
 62
     3
100
AcDbLine
 10
13.303871
 20
10.713367
 30
0.0
 11
13.204999
 21
10.668582
 31
0.0
  0
ARC
  5
CD
100
AcDbEntity
  8
R-DOOR-DETL
  6
BYBLOCK
 62
     3
100
AcDbCircle
 10
13.222552
 20
10.716247
 30
0.0
 40
0.031
100
AcDbArc
 50
302.506128
 51
30.0
  0
LINE
  5
CE
100
AcDbEntity
  8
R-DOOR-DETL
  6
BYBLOCK
 62
     3
100
AcDbLine
 10
13.204999
 20
10.668582
 30
0.0
 11
13.194347
 21
10.560564
 31
0.0
  0
LINE
  5
CF
100
AcDbEntity
  8
R-DOOR-DETL
  6
BYBLOCK
 62
     3
100
AcDbLine
 10
13.392091
 20
10.650133
 30
0.0
 11
13.303871
 21
10.713367
 31
0.0
  0
ARC
  5
D0
100
AcDbEntity
  8
R-DOOR-DETL
  6
BYBLOCK
 62
     3
100
AcDbCircle
 10
13.568219
 20
10.629146
 30
0.0
 40
0.015
100
AcDbArc
 50
90.0
 51
180.0
  0
ARC
  5
D1
100
AcDbEntity
  8
R-DOOR-DETL
  6
BYBLOCK
 62
     3
100
AcDbCircle
 10
13.363886
 20
10.716247
 30
0.0
 40
0.031
100
AcDbArc
 50
150.0
 51
237.493872
  0
ARC
  5
D2
100
AcDbEntity
  8
R-DOOR-DETL
  6
BYBLOCK
 62
     3
100
AcDbCircle
 10
13.563219
 20
10.639146
 30
0.0
 40
0.015
100
AcDbArc
 50
90.0
 51
180.0
  0
LINE
  5
D3
100
AcDbEntity
  8
R-DOOR-DETL
  6
BYBLOCK
 62
     3
100
AcDbLine
 10
12.472409
 20
10.709892
 30
0.0
 11
12.548351
 21
10.632341
 31
0.0
  0
ARC
  5
D4
100
AcDbEntity
  8
R-DOOR-DETL
  6
BYBLOCK
 62
     3
100
AcDbCircle
 10
12.513886
 20
10.716247
 30
0.0
 40
0.031
100
AcDbArc
 50
150.0
 51
237.493872
  0
ARC
  5
D5
100
AcDbEntity
  8
R-DOOR-DETL
  6
BYBLOCK
 62
     3
100
AcDbCircle
 10
12.372552
 20
10.716247
 30
0.0
 40
0.031
100
AcDbArc
 50
302.506128
 51
30.0
  0
LINE
  5
D6
100
AcDbEntity
  8
R-DOOR-DETL
  6
BYBLOCK
 62
     3
100
AcDbLine
 10
12.759677
 20
10.605349
 30
0.0
 11
12.813948
 21
10.699349
 31
0.0
  0
LINE
  5
D7
100
AcDbEntity
  8
R-DOOR-DETL
  6
BYBLOCK
 62
     3
100
AcDbLine
 10
12.813948
 20
10.699349
 30
0.0
 11
12.92249
 21
10.699349
 31
0.0
  0
LINE
  5
D8
100
AcDbEntity
  8
R-DOOR-DETL
  6
BYBLOCK
 62
     3
100
AcDbLine
 10
12.976761
 20
10.605349
 30
0.0
 11
12.92249
 21
10.699349
 31
0.0
  0
LINE
  5
D9
100
AcDbEntity
  8
R-DOOR-DETL
  6
BYBLOCK
 62
     3
100
AcDbLine
 10
12.338087
 20
10.578357
 30
0.0
 11
12.367277
 21
10.6829
 31
0.0
  0
LINE
  5
DA
100
AcDbEntity
  8
R-DOOR-DETL
  6
BYBLOCK
 62
     3
100
AcDbLine
 10
12.367277
 20
10.6829
 30
0.0
 11
12.472409
 21
10.709892
 31
0.0
  0
LINE
  5
DB
100
AcDbEntity
  8
R-DOOR-DETL
  6
BYBLOCK
 62
     3
100
AcDbLine
 10
12.185719
 20
10.805349
 30
0.0
 11
13.550719
 21
10.805349
 31
0.0
  0
ARC
  5
DC
100
AcDbEntity
  8
R-DOOR-DETL
  6
BYBLOCK
 62
     3
100
AcDbCircle
 10
12.168219
 20
10.629146
 30
0.0
 40
0.015
100
AcDbArc
 50
0.0
 51
90.0
  0
ARC
  5
DD
100
AcDbEntity
  8
R-DOOR-DETL
  6
BYBLOCK
 62
     3
100
AcDbCircle
 10
12.173219
 20
10.639146
 30
0.0
 40
0.015
100
AcDbArc
 50
0.0
 51
90.0
  0
ARC
  5
DE
100
AcDbEntity
  8
R-DOOR-DETL
  6
BYBLOCK
 62
     3
100
AcDbCircle
 10
12.102227
 20
10.429146
 30
0.0
 40
0.015
100
AcDbArc
 50
90.0
 51
180.0
  0
ARC
  5
DF
100
AcDbEntity
  8
R-DOOR-DETL
  6
BYBLOCK
 62
     3
100
AcDbCircle
 10
12.102227
 20
10.659146
 30
0.0
 40
0.015
100
AcDbArc
 50
180.0
 51
270.0
  0
ARC
  5
E0
100
AcDbEntity
  8
R-DOOR-DETL
  6
BYBLOCK
 62
     3
100
AcDbCircle
 10
12.107227
 20
10.669146
 30
0.0
 40
0.015
100
AcDbArc
 50
180.0
 51
270.0
  0
LINE
  5
E1
100
AcDbEntity
  8
R-DOOR-DETL
  6
BYBLOCK
 62
     3
100
AcDbLine
 10
12.102227
 20
10.444146
 30
0.0
 11
12.168219
 21
10.444146
 31
0.0
  0
LINE
  5
E2
100
AcDbEntity
  8
R-DOOR-DETL
  6
BYBLOCK
 62
     3
100
AcDbLine
 10
12.168219
 20
10.644146
 30
0.0
 11
12.102227
 21
10.644146
 31
0.0
  0
LINE
  5
E3
100
AcDbEntity
  8
R-DOOR-DETL
  6
BYBLOCK
 62
     3
100
AcDbLine
 10
12.107227
 20
10.654146
 30
0.0
 11
12.173219
 21
10.654146
 31
0.0
  0
ARC
  5
E4
100
AcDbEntity
  8
R-DOOR-DETL
  6
BYBLOCK
 62
     3
100
AcDbCircle
 10
13.533219
 20
10.369349
 30
0.0
 40
0.015
100
AcDbArc
 50
270.0
 51
0.0
  0
LINE
  5
E5
100
AcDbEntity
  8
R-DOOR-DETL
  6
BYBLOCK
 62
     3
100
AcDbLine
 10
12.203219
 20
10.354349
 30
0.0
 11
13.533219
 21
10.354349
 31
0.0
  0
LINE
  5
E6
100
AcDbEntity
  8
R-DOOR-DETL
  6
BYBLOCK
 62
     3
100
AcDbLine
 10
12.185719
 20
10.380349
 30
0.0
 11
13.550719
 21
10.380349
 31
0.0
  0
ARC
  5
E7
100
AcDbEntity
  8
R-DOOR-DETL
  6
BYBLOCK
 62
     3
100
AcDbCircle
 10
12.203219
 20
10.369349
 30
0.0
 40
0.015
100
AcDbArc
 50
180.0
 51
270.0
  0
LINE
  5
E8
100
AcDbEntity
  8
R-DOOR-DETL
  6
BYBLOCK
 62
     3
100
AcDbLine
 10
13.548219
 20
10.369349
 30
0.0
 11
13.548219
 21
10.639146
 31
0.0
  0
LINE
  5
E9
100
AcDbEntity
  8
R-DOOR-DETL
  6
BYBLOCK
 62
     3
100
AcDbLine
 10
12.188219
 20
10.639146
 30
0.0
 11
12.188219
 21
10.369349
 31
0.0
  0
LINE
  5
EA
100
AcDbEntity
  8
R-DOOR-ANNO
  6
CONTINUOUS
100
AcDbLine
 10
12.001302
 20
11.558534
 30
0.0
 11
10.930248
 21
10.962644
 31
0.0
1001
ACAD
1000
DSTYLE
1002
{
1070
   173
1070
     1
1070
     6
1000
_DOTSMALL
1002
}
  0
LINE
  5
EB
100
AcDbEntity
  8
R-DOOR-ANNO
  6
CONTINUOUS
100
AcDbLine
 10
10.930248
 20
10.962644
 30
0.0
 11
10.750249
 21
10.963245
 31
0.0
1001
ACAD
1000
DSTYLE
1002
{
1070
   173
1070
     1
1070
     6
1000
_DOTSMALL
1002
}
  0
LINE
  5
EC
100
AcDbEntity
  8
R-DOOR-DETL
  6
BYBLOCK
 62
     3
100
AcDbLine
 10
13.371508
 20
11.371391
 30
0.0
 11
13.371508
 21
11.211349
 31
0.0
  0
LINE
  5
ED
100
AcDbEntity
  8
R-DOOR-DETL
  6
BYBLOCK
 62
     3
100
AcDbLine
 10
12.364931
 20
11.211349
 30
0.0
 11
12.364931
 21
11.371391
 31
0.0
  0
ARC
  5
EE
100
AcDbEntity
  8
R-DOOR-DETL
  6
BYBLOCK
 62
     3
100
AcDbCircle
 10
12.868219
 20
11.176904
 30
0.0
 40
0.15678
100
AcDbArc
 50
145.437475
 51
169.684923
  0
ARC
  5
EF
100
AcDbEntity
  8
R-DOOR-DETL
  6
BYBLOCK
 62
     3
100
AcDbCircle
 10
12.779637
 20
11.237927
 30
0.0
 40
0.049213
100
AcDbArc
 50
332.582198
 51
145.437475
  0
ARC
  5
F0
100
AcDbEntity
  8
R-DOOR-DETL
  6
BYBLOCK
 62
     3
100
AcDbCircle
 10
12.956802
 20
11.237927
 30
0.0
 40
0.049213
100
AcDbArc
 50
34.562525
 51
207.417802
  0
ARC
  5
F1
100
AcDbEntity
  8
R-DOOR-DETL
  6
BYBLOCK
 62
     3
100
AcDbCircle
 10
12.868219
 20
11.176904
 30
0.0
 40
0.15678
100
AcDbArc
 50
10.315077
 51
34.562525
  0
LINE
  5
F2
100
AcDbEntity
  8
R-DOOR-DETL
  6
BYBLOCK
 62
     3
100
AcDbLine
 10
13.340508
 20
11.180349
 30
0.0
 11
13.05198
 21
11.180349
 31
0.0
  0
ARC
  5
F3
100
AcDbEntity
  8
R-DOOR-DETL
  6
BYBLOCK
 62
     3
100
AcDbCircle
 10
13.05198
 20
11.210349
 30
0.0
 40
0.03
100
AcDbArc
 50
190.315077
 51
270.0
  0
ARC
  5
F4
100
AcDbEntity
  8
R-DOOR-DETL
  6
BYBLOCK
 62
     3
100
AcDbCircle
 10
13.340508
 20
11.211349
 30
0.0
 40
0.031
100
AcDbArc
 50
270.0
 51
0.0
  0
ARC
  5
F5
100
AcDbEntity
  8
R-DOOR-DETL
  6
BYBLOCK
 62
     3
100
AcDbCircle
 10
12.395931
 20
11.211349
 30
0.0
 40
0.031
100
AcDbArc
 50
180.0
 51
270.0
  0
LINE
  5
F6
100
AcDbEntity
  8
R-DOOR-DETL
  6
BYBLOCK
 62
     3
100
AcDbLine
 10
12.684458
 20
11.180349
 30
0.0
 11
12.395931
 21
11.180349
 31
0.0
  0
ARC
  5
F7
100
AcDbEntity
  8
R-DOOR-DETL
  6
BYBLOCK
 62
     3
100
AcDbCircle
 10
12.684458
 20
11.210349
 30
0.0
 40
0.03
100
AcDbArc
 50
270.0
 51
349.684923
  0
ARC
  5
F8
100
AcDbEntity
  8
R-DOOR-DETL
  6
BYBLOCK
 62
     3
100
AcDbCircle
 10
12.868219
 20
11.176904
 30
0.0
 40
0.059055
100
AcDbArc
 50
139.488274
 51
40.511726
  0
ARC
  5
F9
100
AcDbEntity
  8
R-DOOR-DETL
  6
BYBLOCK
 62
     3
100
AcDbCircle
 10
13.421658
 20
11.548554
 30
0.0
 40
0.049212
100
AcDbArc
 50
260.249923
 51
311.403987
  0
ARC
  5
FA
100
AcDbEntity
  8
R-DOOR-DETL
  6
BYBLOCK
 62
     3
100
AcDbCircle
 10
13.482212
 20
11.459649
 30
0.0
 40
0.059055
100
AcDbArc
 50
229.185014
 51
118.310064
  0
ARC
  5
FB
100
AcDbEntity
  8
R-DOOR-DETL
  6
BYBLOCK
 62
     3
100
AcDbCircle
 10
13.42072
 20
11.371391
 30
0.0
 40
0.049213
100
AcDbArc
 50
62.278938
 51
180.0
  0
LINE
  5
FC
100
AcDbEntity
  8
R-DOOR-DETL
  6
BYBLOCK
 62
     3
100
AcDbLine
 10
12.323115
 20
11.500052
 30
0.0
 11
12.868219
 21
11.500052
 31
0.0
  0
ARC
  5
FD
100
AcDbEntity
  8
R-DOOR-DETL
  6
BYBLOCK
 62
     3
100
AcDbCircle
 10
12.315718
 20
11.371391
 30
0.0
 40
0.049213
100
AcDbArc
 50
0.0
 51
117.721062
  0
ARC
  5
FE
100
AcDbEntity
  8
R-DOOR-DETL
  6
BYBLOCK
 62
     3
100
AcDbCircle
 10
12.31478
 20
11.548554
 30
0.0
 40
0.049213
100
AcDbArc
 50
228.596013
 51
279.750077
  0
ARC
  5
FF
100
AcDbEntity
  8
R-DOOR-DETL
  6
BYBLOCK
 62
     3
100
AcDbCircle
 10
12.254227
 20
11.459649
 30
0.0
 40
0.059055
100
AcDbArc
 50
61.689936
 51
310.814986
  0
LINE
  5
100
100
AcDbEntity
  8
R-DOOR-DETL
  6
BYBLOCK
 62
     3
100
AcDbLine
 10
12.868219
 20
11.500052
 30
0.0
 11
13.413324
 21
11.500052
 31
0.0
  0
LINE
  5
101
100
AcDbEntity
  8
R-DOOR-DETL
  6
BYBLOCK
 62
     3
100
AcDbLine
 10
13.613212
 20
10.930349
 30
0.0
 11
13.4696
 21
10.930349
 31
0.0
  0
LINE
  5
102
100
AcDbEntity
  8
R-DOOR-DETL
  6
BYBLOCK
 62
     3
100
AcDbLine
 10
12.868219
 20
10.930349
 30
0.0
 11
13.619212
 21
10.930349
 31
0.0
  0
ARC
  5
103
100
AcDbEntity
  8
R-DOOR-DETL
  6
BYBLOCK
 62
     3
100
AcDbCircle
 10
13.116839
 20
10.899349
 30
0.0
 40
0.031
100
AcDbArc
 50
30.0
 51
90.0
  0
ARC
  5
104
100
AcDbEntity
  8
R-DOOR-DETL
  6
BYBLOCK
 62
     3
100
AcDbCircle
 10
13.4696
 20
10.899349
 30
0.0
 40
0.031
100
AcDbArc
 50
90.0
 51
150.0
  0
ARC
  5
105
100
AcDbEntity
  8
R-DOOR-DETL
  6
BYBLOCK
 62
     3
100
AcDbCircle
 10
12.6196
 20
10.899349
 30
0.0
 40
0.031
100
AcDbArc
 50
90.0
 51
150.0
  0
ARC
  5
106
100
AcDbEntity
  8
R-DOOR-DETL
  6
BYBLOCK
 62
     3
100
AcDbCircle
 10
12.266839
 20
10.899349
 30
0.0
 40
0.031
100
AcDbArc
 50
30.0
 51
90.0
  0
LINE
  5
107
100
AcDbEntity
  8
R-DOOR-DETL
  6
BYBLOCK
 62
     3
100
AcDbLine
 10
13.116839
 20
10.930349
 30
0.0
 11
12.6196
 21
10.930349
 31
0.0
  0
LINE
  5
108
100
AcDbEntity
  8
R-DOOR-DETL
  6
BYBLOCK
 62
     3
100
AcDbLine
 10
12.185719
 20
10.930349
 30
0.0
 11
13.550719
 21
10.930349
 31
0.0
  0
LINE
  5
109
100
AcDbEntity
  8
R-DOOR-DETL
  6
BYBLOCK
 62
     3
100
AcDbLine
 10
12.266839
 20
10.930349
 30
0.0
 11
12.123227
 21
10.930349
 31
0.0
  0
ARC
  5
10A
100
AcDbEntity
  8
R-DOOR-DETL
  6
BYBLOCK
 62
     3
100
AcDbCircle
 10
12.117227
 20
10.900349
 30
0.0
 40
0.03
100
AcDbArc
 50
90.0
 51
180.0
  0
ARC
  5
10B
100
AcDbEntity
  8
R-DOOR-DETL
  6
BYBLOCK
 62
     3
100
AcDbCircle
 10
12.123227
 20
10.899349
 30
0.0
 40
0.031
100
AcDbArc
 50
90.0
 51
180.0
  0
LINE
  5
10C
100
AcDbEntity
  8
R-DOOR-DETL
  6
BYBLOCK
 62
     3
100
AcDbLine
 10
12.117227
 20
10.930349
 30
0.0
 11
12.868219
 21
10.930349
 31
0.0
  0
LINE
  5
10D
100
AcDbEntity
  8
R-DOOR-DETL
  6
BYBLOCK
 62
     3
100
AcDbLine
 10
13.649212
 20
10.900349
 30
0.0
 11
13.649212
 21
10.659146
 31
0.0
  0
LINE
  5
10E
100
AcDbEntity
  8
R-DOOR-DETL
  6
BYBLOCK
 62
     3
100
AcDbLine
 10
13.644212
 20
10.669146
 30
0.0
 11
13.644212
 21
10.899349
 31
0.0
  0
ARC
  5
10F
100
AcDbEntity
  8
R-DOOR-DETL
  6
BYBLOCK
 62
     3
100
AcDbCircle
 10
13.399212
 20
12.792309
 30
0.0
 40
0.25
100
AcDbArc
 50
330.0
 51
0.0
  0
LINE
  5
110
100
AcDbEntity
  8
R-DOOR-DETL
  6
BYBLOCK
 62
     3
100
AcDbLine
 10
13.150017
 20
12.297649
 30
0.0
 11
13.150017
 21
12.347649
 31
0.0
  0
ARC
  5
111
100
AcDbEntity
  8
R-DOOR-DETL
  6
BYBLOCK
 62
     3
100
AcDbCircle
 10
13.150017
 20
12.307491
 30
0.0
 40
0.009842
100
AcDbArc
 50
270.0
 51
360.0
  0
LINE
  5
112
100
AcDbEntity
  8
R-DOOR-DETL
  6
BYBLOCK
 62
     3
100
AcDbLine
 10
12.584276
 20
12.297649
 30
0.0
 11
12.584276
 21
12.347649
 31
0.0
  0
LINE
  5
113
100
AcDbEntity
  8
R-DOOR-DETL
  6
BYBLOCK
 62
     3
100
AcDbLine
 10
12.834276
 20
12.347649
 30
0.0
 11
12.834276
 21
12.297649
 31
0.0
  0
LINE
  5
114
100
AcDbEntity
  8
R-DOOR-DETL
  6
BYBLOCK
 62
     3
100
AcDbLine
 10
12.900017
 20
12.347649
 30
0.0
 11
12.900017
 21
12.297649
 31
0.0
  0
ARC
  5
115
100
AcDbEntity
  8
R-DOOR-DETL
  6
BYBLOCK
 62
     3
100
AcDbCircle
 10
12.584276
 20
12.307491
 30
0.0
 40
0.009842
100
AcDbArc
 50
180.0
 51
270.0
  0
ARC
  5
116
100
AcDbEntity
  8
R-DOOR-DETL
  6
BYBLOCK
 62
     3
100
AcDbCircle
 10
12.816569
 20
12.282649
 30
0.0
 40
0.015
100
AcDbArc
 50
0.0
 51
90.0
  0
ARC
  5
117
100
AcDbEntity
  8
R-DOOR-DETL
  6
BYBLOCK
 62
     3
100
AcDbCircle
 10
12.917724
 20
12.282649
 30
0.0
 40
0.015
100
AcDbArc
 50
90.0
 51
180.0
  0
LINE
  5
118
100
AcDbEntity
  8
R-DOOR-DETL
  6
BYBLOCK
 62
     3
100
AcDbLine
 10
13.615718
 20
12.667309
 30
0.0
 11
13.322238
 21
12.158988
 31
0.0
  0
LINE
  5
119
100
AcDbEntity
  8
R-DOOR-DETL
  6
BYBLOCK
 62
     3
100
AcDbLine
 10
12.4142
 20
12.158988
 30
0.0
 11
12.12072
 21
12.667309
 31
0.0
  0
LINE
  5
11A
100
AcDbEntity
  8
R-DOOR-DETL
  6
BYBLOCK
 62
     3
100
AcDbLine
 10
13.282009
 20
12.105016
 30
0.0
 11
13.560101
 21
12.56784
 31
0.0
  0
LINE
  5
11B
100
AcDbEntity
  8
R-DOOR-DETL
  6
BYBLOCK
 62
     3
100
AcDbLine
 10
12.452284
 20
12.105016
 30
0.0
 11
12.174191
 21
12.56784
 31
0.0
  0
LINE
  5
11C
100
AcDbEntity
  8
R-DOOR-DETL
  6
BYBLOCK
 62
     3
100
AcDbLine
 10
13.115313
 20
12.017377
 30
0.0
 11
13.115313
 21
11.892377
 31
0.0
  0
LINE
  5
11D
100
AcDbEntity
  8
R-DOOR-DETL
  6
BYBLOCK
 62
     3
100
AcDbLine
 10
13.115313
 20
11.923463
 30
0.0
 11
13.021398
 21
12.017377
 31
0.0
  0
LINE
  5
11E
100
AcDbEntity
  8
R-DOOR-DETL
  6
BYBLOCK
 62
     3
100
AcDbLine
 10
13.132724
 20
12.027649
 30
0.0
 11
13.132724
 21
11.900649
 31
0.0
  0
LINE
  5
11F
100
AcDbEntity
  8
R-DOOR-DETL
  6
BYBLOCK
 62
     3
100
AcDbLine
 10
13.277724
 20
11.834649
 30
0.0
 11
13.277724
 21
12.089565
 31
0.0
  0
LINE
  5
120
100
AcDbEntity
  8
R-DOOR-DETL
  6
BYBLOCK
 62
     3
100
AcDbLine
 10
12.615313
 20
12.017377
 30
0.0
 11
12.615313
 21
11.892377
 31
0.0
  0
LINE
  5
121
100
AcDbEntity
  8
R-DOOR-DETL
  6
BYBLOCK
 62
     3
100
AcDbLine
 10
12.654938
 20
11.892377
 30
0.0
 11
12.741313
 21
11.978752
 31
0.0
  0
LINE
  5
122
100
AcDbEntity
  8
R-DOOR-DETL
  6
BYBLOCK
 62
     3
100
AcDbLine
 10
12.619583
 20
11.892377
 30
0.0
 11
12.741313
 21
12.014107
 31
0.0
  0
LINE
  5
123
100
AcDbEntity
  8
R-DOOR-DETL
  6
BYBLOCK
 62
     3
100
AcDbLine
 10
12.615313
 20
11.923463
 30
0.0
 11
12.709228
 21
12.017377
 31
0.0
  0
LINE
  5
124
100
AcDbEntity
  8
R-DOOR-DETL
  6
BYBLOCK
 62
     3
100
AcDbLine
 10
12.456569
 20
11.834649
 30
0.0
 11
12.456569
 21
12.089565
 31
0.0
  0
LINE
  5
125
100
AcDbEntity
  8
R-DOOR-DETL
  6
BYBLOCK
 62
     3
100
AcDbLine
 10
12.601569
 20
12.027649
 30
0.0
 11
12.601569
 21
11.900649
 31
0.0
  0
LINE
  5
126
100
AcDbEntity
  8
R-DOOR-DETL
  6
BYBLOCK
 62
     3
100
AcDbLine
 10
13.111043
 20
11.892377
 30
0.0
 11
12.989313
 21
12.014107
 31
0.0
  0
LINE
  5
127
100
AcDbEntity
  8
R-DOOR-DETL
  6
BYBLOCK
 62
     3
100
AcDbLine
 10
13.075688
 20
11.892377
 30
0.0
 11
12.989313
 21
11.978752
 31
0.0
  0
ARC
  5
128
100
AcDbEntity
  8
R-DOOR-DETL
  6
BYBLOCK
 62
     3
100
AcDbCircle
 10
13.117724
 20
11.900649
 30
0.0
 40
0.015
100
AcDbArc
 50
270.0
 51
0.0
  0
LINE
  5
129
100
AcDbEntity
  8
R-DOOR-DETL
  6
BYBLOCK
 62
     3
100
AcDbLine
 10
13.117724
 20
11.885649
 30
0.0
 11
13.031724
 21
11.885649
 31
0.0
  0
LINE
  5
12A
100
AcDbEntity
  8
R-DOOR-DETL
  6
BYBLOCK
 62
     3
100
AcDbLine
 10
12.725649
 20
11.892377
 30
0.0
 11
12.741313
 21
11.908041
 31
0.0
  0
LINE
  5
12B
100
AcDbEntity
  8
R-DOOR-DETL
  6
BYBLOCK
 62
     3
100
AcDbLine
 10
12.690294
 20
11.892377
 30
0.0
 11
12.741313
 21
11.943397
 31
0.0
  0
LINE
  5
12C
100
AcDbEntity
  8
R-DOOR-DETL
  6
BYBLOCK
 62
     3
100
AcDbLine
 10
13.004977
 20
11.892377
 30
0.0
 11
12.989313
 21
11.908041
 31
0.0
  0
ARC
  5
12D
100
AcDbEntity
  8
R-DOOR-DETL
  6
BYBLOCK
 62
     3
100
AcDbCircle
 10
12.616569
 20
11.900649
 30
0.0
 40
0.015
100
AcDbArc
 50
180.0
 51
270.0
  0
LINE
  5
12E
100
AcDbEntity
  8
R-DOOR-DETL
  6
BYBLOCK
 62
     3
100
AcDbLine
 10
12.616569
 20
11.885649
 30
0.0
 11
12.702569
 21
11.885649
 31
0.0
  0
ARC
  5
12F
100
AcDbEntity
  8
R-DOOR-DETL
  6
BYBLOCK
 62
     3
100
AcDbCircle
 10
12.702569
 20
11.870649
 30
0.0
 40
0.015
100
AcDbArc
 50
0.0
 51
90.0
  0
LINE
  5
130
100
AcDbEntity
  8
R-DOOR-DETL
  6
BYBLOCK
 62
     3
100
AcDbLine
 10
12.958878
 20
11.814019
 30
0.0
 11
12.770878
 21
11.814019
 31
0.0
  0
LINE
  5
131
100
AcDbEntity
  8
R-DOOR-DETL
  6
BYBLOCK
 62
     3
100
AcDbLine
 10
12.958878
 20
11.874019
 30
0.0
 11
12.770878
 21
11.874019
 31
0.0
  0
LINE
  5
132
100
AcDbEntity
  8
R-DOOR-DETL
  6
BYBLOCK
 62
     3
100
AcDbLine
 10
12.958878
 20
11.934019
 30
0.0
 11
12.770878
 21
11.934019
 31
0.0
  0
LINE
  5
133
100
AcDbEntity
  8
R-DOOR-DETL
  6
BYBLOCK
 62
     3
100
AcDbLine
 10
12.988878
 20
11.904019
 30
0.0
 11
12.740878
 21
11.904019
 31
0.0
  0
LINE
  5
134
100
AcDbEntity
  8
R-DOOR-DETL
  6
BYBLOCK
 62
     3
100
AcDbLine
 10
12.988878
 20
11.844019
 30
0.0
 11
12.740878
 21
11.844019
 31
0.0
  0
LINE
  5
135
100
AcDbEntity
  8
R-DOOR-DETL
  6
BYBLOCK
 62
     3
100
AcDbLine
 10
13.115313
 20
11.892377
 30
0.0
 11
12.615313
 21
11.892377
 31
0.0
  0
LINE
  5
136
100
AcDbEntity
  8
R-DOOR-DETL
  6
BYBLOCK
 62
     3
100
AcDbLine
 10
13.040332
 20
11.892377
 30
0.0
 11
12.989313
 21
11.943397
 31
0.0
  0
ARC
  5
137
100
AcDbEntity
  8
R-DOOR-DETL
  6
BYBLOCK
 62
     3
100
AcDbCircle
 10
13.031724
 20
11.870649
 30
0.0
 40
0.015
100
AcDbArc
 50
90.0
 51
180.0
  0
LINE
  5
138
100
AcDbEntity
  8
R-DOOR-DETL
  6
BYBLOCK
 62
     3
100
AcDbLine
 10
13.115313
 20
11.994173
 30
0.0
 11
13.092109
 21
12.017377
 31
0.0
  0
LINE
  5
139
100
AcDbEntity
  8
R-DOOR-DETL
  6
BYBLOCK
 62
     3
100
AcDbLine
 10
13.115313
 20
11.958818
 30
0.0
 11
13.056754
 21
12.017377
 31
0.0
  0
INSERT
  5
13A
100
AcDbEntity
  8
DIMN
 62
     7
100
AcDbBlockReference
  2
_DOTSMALL
 10
13.157382
 20
12.205977
 30
0.0
 41
0.18
 42
0.18
 43
0.18
 50
153.778112
1001
ACAD
1000
DSTYLE
1002
{
1070
   173
1070
     1
1070
     6
1000
_DOTSMALL
1002
}
  0
ARC
  5
13B
100
AcDbEntity
  8
R-DOOR-DETL
  6
BYBLOCK
 62
     3
100
AcDbCircle
 10
13.348219
 20
12.143988
 30
0.0
 40
0.03
100
AcDbArc
 50
150.0
 51
180.0
  0
ARC
  5
13C
100
AcDbEntity
  8
R-DOOR-DETL
  6
BYBLOCK
 62
     3
100
AcDbCircle
 10
13.307724
 20
12.089565
 30
0.0
 40
0.03
100
AcDbArc
 50
149.0
 51
180.0
  0
ARC
  5
13D
100
AcDbEntity
  8
R-DOOR-DETL
  6
BYBLOCK
 62
     3
100
AcDbCircle
 10
12.388219
 20
12.143988
 30
0.0
 40
0.03
100
AcDbArc
 50
0.0
 51
30.0
  0
LINE
  5
13E
100
AcDbEntity
  8
R-DOOR-DETL
  6
BYBLOCK
 62
     3
100
AcDbLine
 10
12.615313
 20
11.958818
 30
0.0
 11
12.673872
 21
12.017377
 31
0.0
  0
LINE
  5
13F
100
AcDbEntity
  8
R-DOOR-DETL
  6
BYBLOCK
 62
     3
100
AcDbLine
 10
12.615313
 20
11.994173
 30
0.0
 11
12.638517
 21
12.017377
 31
0.0
  0
LINE
  5
140
100
AcDbEntity
  8
R-DOOR-DETL
  6
BYBLOCK
 62
     3
100
AcDbLine
 10
12.834276
 20
12.297649
 30
0.0
 11
12.584276
 21
12.297649
 31
0.0
  0
LINE
  5
141
100
AcDbEntity
  8
R-DOOR-DETL
  6
BYBLOCK
 62
     3
100
AcDbLine
 10
12.584276
 20
12.297649
 30
0.0
 11
12.816569
 21
12.297649
 31
0.0
  0
LINE
  5
142
100
AcDbEntity
  8
R-DOOR-DETL
  6
BYBLOCK
 62
     3
100
AcDbLine
 10
12.831569
 20
12.282649
 30
0.0
 11
12.831569
 21
12.167649
 31
0.0
  0
ARC
  5
143
100
AcDbEntity
  8
R-DOOR-DETL
  6
BYBLOCK
 62
     3
100
AcDbCircle
 10
12.816569
 20
12.167649
 30
0.0
 40
0.015
100
AcDbArc
 50
270.0
 51
0.0
  0
LINE
  5
144
100
AcDbEntity
  8
R-DOOR-DETL
  6
BYBLOCK
 62
     3
100
AcDbLine
 10
12.816569
 20
12.152649
 30
0.0
 11
12.726569
 21
12.152649
 31
0.0
  0
ARC
  5
145
100
AcDbEntity
  8
R-DOOR-DETL
  6
BYBLOCK
 62
     3
100
AcDbCircle
 10
12.426569
 20
12.089565
 30
0.0
 40
0.03
100
AcDbArc
 50
0.0
 51
31.0
  0
ARC
  5
146
100
AcDbEntity
  8
R-DOOR-DETL
  6
BYBLOCK
 62
     3
100
AcDbCircle
 10
12.726569
 20
12.027649
 30
0.0
 40
0.125
100
AcDbArc
 50
90.0
 51
180.0
  0
LINE
  5
147
100
AcDbEntity
  8
R-DOOR-DETL
  6
BYBLOCK
 62
     3
100
AcDbLine
 10
12.902724
 20
12.282649
 30
0.0
 11
12.902724
 21
12.167649
 31
0.0
  0
ARC
  5
148
100
AcDbEntity
  8
R-DOOR-DETL
  6
BYBLOCK
 62
     3
100
AcDbCircle
 10
12.917724
 20
12.167649
 30
0.0
 40
0.015
100
AcDbArc
 50
180.0
 51
270.0
  0
LINE
  5
149
100
AcDbEntity
  8
R-DOOR-DETL
  6
BYBLOCK
 62
     3
100
AcDbLine
 10
12.917724
 20
12.152649
 30
0.0
 11
13.007724
 21
12.152649
 31
0.0
  0
ARC
  5
14A
100
AcDbEntity
  8
R-DOOR-DETL
  6
BYBLOCK
 62
     3
100
AcDbCircle
 10
12.958878
 20
12.100511
 30
0.0
 40
0.03
100
AcDbArc
 50
0.0
 51
90.0
  0
ARC
  5
14B
100
AcDbEntity
  8
R-DOOR-DETL
  6
BYBLOCK
 62
     3
100
AcDbCircle
 10
12.770878
 20
12.100511
 30
0.0
 40
0.03
100
AcDbArc
 50
90.0
 51
180.0
  0
LINE
  5
14C
100
AcDbEntity
  8
R-DOOR-DETL
  6
BYBLOCK
 62
     3
100
AcDbLine
 10
12.958878
 20
12.114019
 30
0.0
 11
12.770878
 21
12.114019
 31
0.0
  0
LINE
  5
14D
100
AcDbEntity
  8
R-DOOR-DETL
  6
BYBLOCK
 62
     3
100
AcDbLine
 10
12.958878
 20
12.130511
 30
0.0
 11
12.770878
 21
12.130511
 31
0.0
  0
LINE
  5
14E
100
AcDbEntity
  8
R-DOOR-DETL
  6
BYBLOCK
 62
     3
100
AcDbLine
 10
12.958878
 20
12.054019
 30
0.0
 11
12.770878
 21
12.054019
 31
0.0
  0
LINE
  5
14F
100
AcDbEntity
  8
R-DOOR-DETL
  6
BYBLOCK
 62
     3
100
AcDbLine
 10
12.988878
 20
12.084019
 30
0.0
 11
12.740878
 21
12.084019
 31
0.0
  0
LINE
  5
150
100
AcDbEntity
  8
R-DOOR-DETL
  6
BYBLOCK
 62
     3
100
AcDbLine
 10
12.958878
 20
11.994019
 30
0.0
 11
12.770878
 21
11.994019
 31
0.0
  0
LINE
  5
151
100
AcDbEntity
  8
R-DOOR-DETL
  6
BYBLOCK
 62
     3
100
AcDbLine
 10
12.988878
 20
11.964019
 30
0.0
 11
12.740878
 21
11.964019
 31
0.0
  0
LINE
  5
152
100
AcDbEntity
  8
R-DOOR-DETL
  6
BYBLOCK
 62
     3
100
AcDbLine
 10
12.988878
 20
12.024019
 30
0.0
 11
12.740878
 21
12.024019
 31
0.0
  0
LINE
  5
153
100
AcDbEntity
  8
R-DOOR-DETL
  6
BYBLOCK
 62
     3
100
AcDbLine
 10
13.115313
 20
12.017377
 30
0.0
 11
12.615313
 21
12.017377
 31
0.0
  0
LINE
  5
154
100
AcDbEntity
  8
R-DOOR-DETL
  6
BYBLOCK
 62
     3
100
AcDbLine
 10
12.900017
 20
12.297649
 30
0.0
 11
13.150017
 21
12.297649
 31
0.0
  0
LINE
  5
155
100
AcDbEntity
  8
R-DOOR-DETL
  6
BYBLOCK
 62
     3
100
AcDbLine
 10
13.150017
 20
12.297649
 30
0.0
 11
12.917724
 21
12.297649
 31
0.0
  0
ARC
  5
156
100
AcDbEntity
  8
R-DOOR-DETL
  6
BYBLOCK
 62
     3
100
AcDbCircle
 10
13.007724
 20
12.027649
 30
0.0
 40
0.125
100
AcDbArc
 50
0.0
 51
90.0
  0
LINE
  5
157
100
AcDbEntity
  8
R-DOOR-DETL
  6
BYBLOCK
 62
     3
100
AcDbLine
 10
13.031724
 20
11.740649
 30
0.0
 11
13.183724
 21
11.740649
 31
0.0
  0
LINE
  5
158
100
AcDbEntity
  8
R-DOOR-DETL
  6
BYBLOCK
 62
     3
100
AcDbLine
 10
12.702569
 20
11.740649
 30
0.0
 11
12.550569
 21
11.740649
 31
0.0
  0
ARC
  5
159
100
AcDbEntity
  8
R-DOOR-DETL
  6
BYBLOCK
 62
     3
100
AcDbCircle
 10
12.702569
 20
11.755649
 30
0.0
 40
0.015
100
AcDbArc
 50
270.0
 51
0.0
  0
LINE
  5
15A
100
AcDbEntity
  8
R-DOOR-DETL
  6
BYBLOCK
 62
     3
100
AcDbLine
 10
12.958878
 20
11.754019
 30
0.0
 11
12.770878
 21
11.754019
 31
0.0
  0
LINE
  5
15B
100
AcDbEntity
  8
R-DOOR-DETL
  6
BYBLOCK
 62
     3
100
AcDbLine
 10
12.988878
 20
11.784019
 30
0.0
 11
12.740878
 21
11.784019
 31
0.0
  0
LINE
  5
15C
100
AcDbEntity
  8
R-DOOR-DETL
  6
BYBLOCK
 62
     3
100
AcDbLine
 10
12.988878
 20
11.724019
 30
0.0
 11
12.740878
 21
11.724019
 31
0.0
  0
ARC
  5
15D
100
AcDbEntity
  8
R-DOOR-DETL
  6
BYBLOCK
 62
     3
100
AcDbCircle
 10
13.031724
 20
11.755649
 30
0.0
 40
0.015
100
AcDbArc
 50
180.0
 51
270.0
  0
LINE
  5
15E
100
AcDbEntity
  8
R-DOOR-DETL
  6
BYBLOCK
 62
     3
100
AcDbLine
 10
12.868219
 20
11.650052
 30
0.0
 11
12.478219
 21
11.650052
 31
0.0
  0
LINE
  5
15F
100
AcDbEntity
  8
R-DOOR-DETL
  6
BYBLOCK
 62
     3
100
AcDbLine
 10
12.988878
 20
11.664019
 30
0.0
 11
12.740878
 21
11.664019
 31
0.0
  0
LINE
  5
160
100
AcDbEntity
  8
R-DOOR-DETL
  6
BYBLOCK
 62
     3
100
AcDbLine
 10
12.958878
 20
11.694019
 30
0.0
 11
12.770878
 21
11.694019
 31
0.0
  0
LINE
  5
161
100
AcDbEntity
  8
R-DOOR-DETL
  6
BYBLOCK
 62
     3
100
AcDbLine
 10
13.258219
 20
11.650052
 30
0.0
 11
12.868219
 21
11.650052
 31
0.0
  0
ARC
  5
162
100
AcDbEntity
  8
R-DOOR-DETL
  6
BYBLOCK
 62
     3
100
AcDbCircle
 10
12.478219
 20
11.710052
 30
0.0
 40
0.06
100
AcDbArc
 50
180.0
 51
270.0
  0
ARC
  5
163
100
AcDbEntity
  8
R-DOOR-DETL
  6
BYBLOCK
 62
     3
100
AcDbCircle
 10
13.258219
 20
11.710052
 30
0.0
 40
0.06
100
AcDbArc
 50
270.0
 51
0.0
  0
LINE
  5
164
100
AcDbEntity
  8
R-DOOR-DETL
  6
BYBLOCK
 62
     3
100
AcDbLine
 10
13.318219
 20
12.143988
 30
0.0
 11
13.318219
 21
11.710052
 31
0.0
  0
LINE
  5
165
100
AcDbEntity
  8
R-DOOR-DETL
  6
BYBLOCK
 62
     3
100
AcDbLine
 10
12.418219
 20
11.710052
 30
0.0
 11
12.418219
 21
12.143988
 31
0.0
  0
ARC
  5
166
100
AcDbEntity
  8
R-DOOR-DETL
  6
BYBLOCK
 62
     3
100
AcDbCircle
 10
13.183724
 20
11.834649
 30
0.0
 40
0.094
100
AcDbArc
 50
270.0
 51
0.0
  0
LINE
  5
167
100
AcDbEntity
  8
R-DOOR-DETL
  6
BYBLOCK
 62
     3
100
AcDbLine
 10
13.016724
 20
11.870649
 30
0.0
 11
13.016724
 21
11.755649
 31
0.0
  0
ARC
  5
168
100
AcDbEntity
  8
R-DOOR-DETL
  6
BYBLOCK
 62
     3
100
AcDbCircle
 10
12.550569
 20
11.834649
 30
0.0
 40
0.094
100
AcDbArc
 50
180.0
 51
270.0
  0
LINE
  5
169
100
AcDbEntity
  8
R-DOOR-DETL
  6
BYBLOCK
 62
     3
100
AcDbLine
 10
12.717569
 20
11.870649
 30
0.0
 11
12.717569
 21
11.755649
 31
0.0
  0
ARC
  5
16A
100
AcDbEntity
  8
R-DOOR-DETL
  6
BYBLOCK
 62
     3
100
AcDbCircle
 10
13.358138
 20
12.679343
 30
0.0
 40
0.03
100
AcDbArc
 50
182.612502
 51
270.0
  0
ARC
  5
16B
100
AcDbEntity
  8
R-DOOR-DETL
  6
BYBLOCK
 62
     3
100
AcDbCircle
 10
12.376155
 20
12.679343
 30
0.0
 40
0.03
100
AcDbArc
 50
270.0
 51
357.387498
  0
LINE
  5
16C
100
AcDbEntity
  8
R-DOOR-DETL
  6
BYBLOCK
 62
     3
100
AcDbLine
 10
13.474385
 20
12.649343
 30
0.0
 11
13.358138
 21
12.649343
 31
0.0
  0
ARC
  5
16D
100
AcDbEntity
  8
R-DOOR-DETL
  6
BYBLOCK
 62
     3
100
AcDbCircle
 10
13.474385
 20
12.619343
 30
0.0
 40
0.03
100
AcDbArc
 50
59.0
 51
90.0
  0
LINE
  5
16E
100
AcDbEntity
  8
R-DOOR-DETL
  6
BYBLOCK
 62
     3
100
AcDbLine
 10
13.549837
 20
12.609006
 30
0.0
 11
13.489836
 21
12.645058
 31
0.0
  0
ARC
  5
16F
100
AcDbEntity
  8
R-DOOR-DETL
  6
BYBLOCK
 62
     3
100
AcDbCircle
 10
13.534386
 20
12.583291
 30
0.0
 40
0.03
100
AcDbArc
 50
329.0
 51
59.0
  0
LINE
  5
170
100
AcDbEntity
  8
R-DOOR-DETL
  6
BYBLOCK
 62
     3
100
AcDbLine
 10
12.259908
 20
12.649343
 30
0.0
 11
12.376155
 21
12.649343
 31
0.0
  0
ARC
  5
171
100
AcDbEntity
  8
R-DOOR-DETL
  6
BYBLOCK
 62
     3
100
AcDbCircle
 10
12.259908
 20
12.619343
 30
0.0
 40
0.03
100
AcDbArc
 50
90.0
 51
121.0
  0
ARC
  5
172
100
AcDbEntity
  8
R-DOOR-DETL
  6
BYBLOCK
 62
     3
100
AcDbCircle
 10
12.199906
 20
12.583291
 30
0.0
 40
0.03
100
AcDbArc
 50
121.0
 51
211.0
  0
LINE
  5
173
100
AcDbEntity
  8
R-DOOR-DETL
  6
BYBLOCK
 62
     3
100
AcDbLine
 10
12.184455
 20
12.609006
 30
0.0
 11
12.244457
 21
12.645058
 31
0.0
  0
ARC
  5
174
100
AcDbEntity
  8
R-DOOR-DETL
  6
BYBLOCK
 62
     3
100
AcDbCircle
 10
12.337227
 20
12.792309
 30
0.0
 40
0.25
100
AcDbArc
 50
180.0
 51
210.0
  0
LINE
  5
175
100
AcDbEntity
  8
R-DOOR-DETL
  6
BYBLOCK
 62
     3
100
AcDbLine
 10
13.109859
 20
12.409359
 30
0.0
 11
13.159859
 21
12.409359
 31
0.0
  0
POINT
  5
176
100
AcDbEntity
  8
R-DOOR-DETL
  6
BYBLOCK
 62
     3
100
AcDbPoint
 10
12.383844
 20
12.347649
 30
0.0
  0
POINT
  5
177
100
AcDbEntity
  8
R-DOOR-DETL
  6
BYBLOCK
 62
     3
100
AcDbPoint
 10
12.493219
 20
12.347649
 30
0.0
  0
LINE
  5
178
100
AcDbEntity
  8
R-DOOR-DETL
  6
BYBLOCK
 62
     3
100
AcDbLine
 10
12.584276
 20
12.347649
 30
0.0
 11
12.834276
 21
12.347649
 31
0.0
  0
LINE
  5
179
100
AcDbEntity
  8
R-DOOR-DETL
  6
BYBLOCK
 62
     3
100
AcDbLine
 10
12.624433
 20
12.409359
 30
0.0
 11
12.574433
 21
12.409359
 31
0.0
  0
LINE
  5
17A
100
AcDbEntity
  8
R-DOOR-DETL
  6
BYBLOCK
 62
     3
100
AcDbLine
 10
13.150017
 20
12.347649
 30
0.0
 11
12.900017
 21
12.347649
 31
0.0
  0
LINE
  5
17B
100
AcDbEntity
  8
R-DOOR-DETL
  6
BYBLOCK
 62
     3
100
AcDbLine
 10
13.056933
 20
12.347649
 30
0.0
 11
12.681933
 21
12.347649
 31
0.0
  0
LINE
  5
17C
100
AcDbEntity
  8
R-DOOR-DETL
  6
BYBLOCK
 62
     3
100
AcDbLine
 10
13.114433
 20
12.347649
 30
0.0
 11
12.624433
 21
12.347649
 31
0.0
  0
LINE
  5
17D
100
AcDbEntity
  8
R-DOOR-DETL
  6
BYBLOCK
 62
     3
100
AcDbLine
 10
13.643212
 20
13.380341
 30
0.0
 11
13.171292
 21
13.380341
 31
0.0
  0
LINE
  5
17E
100
AcDbEntity
  8
R-DOOR-DETL
  6
BYBLOCK
 62
     3
100
AcDbLine
 10
13.161292
 20
13.430341
 30
0.0
 11
13.653212
 21
13.430341
 31
0.0
  0
LINE
  5
17F
100
AcDbEntity
  8
R-DOOR-DETL
  6
BYBLOCK
 62
     3
100
AcDbLine
 10
13.653212
 20
13.380341
 30
0.0
 11
13.161292
 21
13.380341
 31
0.0
  0
ARC
  5
180
100
AcDbEntity
  8
R-DOOR-DETL
  6
BYBLOCK
 62
     3
100
AcDbCircle
 10
13.619212
 20
13.210673
 30
0.0
 40
0.03
100
AcDbArc
 50
0.0
 51
80.0
  0
LINE
  5
181
100
AcDbEntity
  8
R-DOOR-DETL
  6
BYBLOCK
 62
     3
100
AcDbLine
 10
13.161292
 20
13.370341
 30
0.0
 11
13.161292
 21
13.301128
 31
0.0
  0
LINE
  5
182
100
AcDbEntity
  8
R-DOOR-DETL
  6
BYBLOCK
 62
     3
100
AcDbLine
 10
12.575147
 20
13.301128
 30
0.0
 11
12.575147
 21
13.370341
 31
0.0
  0
LINE
  5
183
100
AcDbEntity
  8
R-DOOR-DETL
  6
BYBLOCK
 62
     3
100
AcDbLine
 10
13.337383
 20
13.29083
 30
0.0
 11
13.624421
 21
13.240218
 31
0.0
  0
LINE
  5
184
100
AcDbEntity
  8
R-DOOR-DETL
  6
BYBLOCK
 62
     3
100
AcDbLine
 10
13.171134
 20
13.291286
 30
0.0
 11
13.332174
 21
13.291286
 31
0.0
  0
ARC
  5
185
100
AcDbEntity
  8
R-DOOR-DETL
  6
BYBLOCK
 62
     3
100
AcDbCircle
 10
13.171134
 20
13.301128
 30
0.0
 40
0.009843
100
AcDbArc
 50
180.0
 51
270.0
  0
ARC
  5
186
100
AcDbEntity
  8
R-DOOR-DETL
  6
BYBLOCK
 62
     3
100
AcDbCircle
 10
13.332174
 20
13.261286
 30
0.0
 40
0.03
100
AcDbArc
 50
80.0
 51
90.0
  0
ARC
  5
187
100
AcDbEntity
  8
R-DOOR-DETL
  6
BYBLOCK
 62
     3
100
AcDbCircle
 10
12.404264
 20
13.261286
 30
0.0
 40
0.03
100
AcDbArc
 50
90.0
 51
100.0
  0
LINE
  5
188
100
AcDbEntity
  8
R-DOOR-DETL
  6
BYBLOCK
 62
     3
100
AcDbLine
 10
12.404264
 20
13.291286
 30
0.0
 11
12.565304
 21
13.291286
 31
0.0
  0
ARC
  5
189
100
AcDbEntity
  8
R-DOOR-DETL
  6
BYBLOCK
 62
     3
100
AcDbCircle
 10
12.565304
 20
13.301128
 30
0.0
 40
0.009843
100
AcDbArc
 50
270.0
 51
0.0
  0
ARC
  5
18A
100
AcDbEntity
  8
R-DOOR-DETL
  6
BYBLOCK
 62
     3
100
AcDbCircle
 10
13.171292
 20
13.370341
 30
0.0
 40
0.01
100
AcDbArc
 50
90.0
 51
180.0
  0
LINE
  5
18B
100
AcDbEntity
  8
R-DOOR-DETL
  6
BYBLOCK
 62
     3
100
AcDbLine
 10
13.161292
 20
13.380341
 30
0.0
 11
13.161292
 21
13.430341
 31
0.0
  0
ARC
  5
18C
100
AcDbEntity
  8
R-DOOR-DETL
  6
BYBLOCK
 62
     3
100
AcDbCircle
 10
12.565147
 20
13.370341
 30
0.0
 40
0.01
100
AcDbArc
 50
0.0
 51
90.0
  0
LINE
  5
18D
100
AcDbEntity
  8
R-DOOR-DETL
  6
BYBLOCK
 62
     3
100
AcDbLine
 10
12.112017
 20
13.240218
 30
0.0
 11
12.399055
 21
13.29083
 31
0.0
  0
LINE
  5
18E
100
AcDbEntity
  8
R-DOOR-DETL
  6
BYBLOCK
 62
     3
100
AcDbLine
 10
12.565147
 20
13.380341
 30
0.0
 11
12.093227
 21
13.380341
 31
0.0
  0
LINE
  5
18F
100
AcDbEntity
  8
R-DOOR-DETL
  6
BYBLOCK
 62
     3
100
AcDbLine
 10
13.265819
 20
13.206882
 30
0.0
 11
13.159859
 21
13.206882
 31
0.0
  0
LINE
  5
190
100
AcDbEntity
  8
R-DOOR-DETL
  6
BYBLOCK
 62
     3
100
AcDbLine
 10
12.468474
 20
13.206882
 30
0.0
 11
12.574433
 21
13.206882
 31
0.0
  0
ARC
  5
191
100
AcDbEntity
  8
R-DOOR-DETL
  6
BYBLOCK
 62
     3
100
AcDbCircle
 10
13.150017
 20
13.159359
 30
0.0
 40
0.009843
100
AcDbArc
 50
0.0
 51
70.528779
  0
LINE
  5
192
100
AcDbEntity
  8
R-DOOR-DETL
  6
BYBLOCK
 62
     3
100
AcDbLine
 10
13.159859
 20
13.159359
 30
0.0
 11
13.109859
 21
13.159359
 31
0.0
  0
ARC
  5
193
100
AcDbEntity
  8
R-DOOR-DETL
  6
BYBLOCK
 62
     3
100
AcDbCircle
 10
12.584276
 20
13.159359
 30
0.0
 40
0.009843
100
AcDbArc
 50
109.471221
 51
180.0
  0
LINE
  5
194
100
AcDbEntity
  8
R-DOOR-DETL
  6
BYBLOCK
 62
     3
100
AcDbLine
 10
12.574433
 20
13.159359
 30
0.0
 11
12.624433
 21
13.159359
 31
0.0
  0
ARC
  5
195
100
AcDbEntity
  8
R-DOOR-DETL
  6
BYBLOCK
 62
     3
100
AcDbCircle
 10
12.574433
 20
13.187197
 30
0.0
 40
0.019685
100
AcDbArc
 50
289.471221
 51
90.0
  0
ARC
  5
196
100
AcDbEntity
  8
R-DOOR-DETL
  6
BYBLOCK
 62
     3
100
AcDbCircle
 10
12.468474
 20
13.166882
 30
0.0
 40
0.04
100
AcDbArc
 50
90.0
 51
177.387498
  0
ARC
  5
197
100
AcDbEntity
  8
R-DOOR-DETL
  6
BYBLOCK
 62
     3
100
AcDbCircle
 10
13.159859
 20
13.187197
 30
0.0
 40
0.019685
100
AcDbArc
 50
90.0
 51
250.528779
  0
ARC
  5
198
100
AcDbEntity
  8
R-DOOR-DETL
  6
BYBLOCK
 62
     3
100
AcDbCircle
 10
13.265819
 20
13.166882
 30
0.0
 40
0.04
100
AcDbArc
 50
2.612502
 51
90.0
  0
ARC
  5
199
100
AcDbEntity
  8
R-DOOR-DETL
  6
BYBLOCK
 62
     3
100
AcDbCircle
 10
12.093227
 20
13.224341
 30
0.0
 40
0.156
100
AcDbArc
 50
90.0
 51
180.0
  0
ARC
  5
19A
100
AcDbEntity
  8
R-DOOR-DETL
  6
BYBLOCK
 62
     3
100
AcDbCircle
 10
12.117227
 20
13.210673
 30
0.0
 40
0.03
100
AcDbArc
 50
100.0
 51
180.0
  0
INSERT
  5
19B
100
AcDbEntity
  8
DIMN
 62
     7
100
AcDbBlockReference
  2
_DOTSMALL
 10
13.850869
 20
13.103827
 30
0.0
 41
0.18
 42
0.18
 43
0.18
 50
150.718927
1001
ACAD
1000
DSTYLE
1002
{
1070
   173
1070
     1
1070
     6
1000
_DOTSMALL
1002
}
  0
ARC
  5
19C
100
AcDbEntity
  8
R-DOOR-DETL
  6
BYBLOCK
 62
     3
100
AcDbCircle
 10
13.643212
 20
13.224341
 30
0.0
 40
0.156
100
AcDbArc
 50
0.0
 51
90.0
  0
ARC
  5
19D
100
AcDbEntity
  8
R-DOOR-DETL
  6
BYBLOCK
 62
     3
100
AcDbCircle
 10
13.653212
 20
13.224341
 30
0.0
 40
0.156
100
AcDbArc
 50
0.0
 51
90.0
  0
ARC
  5
19E
100
AcDbEntity
  8
R-DOOR-DETL
  6
BYBLOCK
 62
     3
100
AcDbCircle
 10
13.653212
 20
13.224341
 30
0.0
 40
0.206
100
AcDbArc
 50
0.0
 51
90.0
  0
LINE
  5
19F
100
AcDbEntity
  8
0
  6
BYBLOCK
 62
     0
100
AcDbLine
 10
9.756366
 20
26.034179
 30
0.0
 11
5.476806
 21
26.034179
 31
0.0
  0
TEXT
  5
1A0
100
AcDbEntity
  8
0
100
AcDbText
 10
9.291097
 20
23.09487
 30
0.0
 40
0.36
  1
SHOE
  7
ROMANS
100
AcDbText
  0
LINE
  5
1A1
100
AcDbEntity
  8
0
  6
BYBLOCK
 62
     0
100
AcDbLine
 10
12.146991
 20
22.784179
 30
0.0
 11
5.494663
 21
22.784179
 31
0.0
  0
LINE
  5
1A2
100
AcDbEntity
  8
0
  6
BYBLOCK
 62
     0
100
AcDbLine
 10
12.256366
 20
22.784179
 30
0.0
 11
5.476806
 21
22.784179
 31
0.0
  0
LINE
  5
1A3
100
AcDbEntity
  8
0
  6
BYBLOCK
 62
     0
100
AcDbLine
 10
12.365741
 20
22.784179
 30
0.0
 11
6.101167
 21
22.784179
 31
0.0
  0
LINE
  5
1A4
100
AcDbEntity
  8
BORDER
100
AcDbLine
 10
25.693238
 20
34.200072
 30
0.0
 11
0.0
 21
34.200072
 31
0.0
  0
LINE
  5
1A5
100
AcDbEntity
  8
0
  6
BYBLOCK
 62
     0
100
AcDbLine
 10
5.809663
 20
22.469179
 30
0.0
 11
5.809663
 21
18.668414
 31
0.0
  0
MTEXT
  5
1A6
100
AcDbEntity
  8
0
  6
BYBLOCK
 62
     0
100
AcDbMText
 10
5.809663
 20
17.622229
 30
0.0
 40
0.315
 41
0.0
 71
     5
 72
     1
  1
\A1;GLASS\PCLEAR OPENING\PLESS 6 1/2"\P[165mm]
  0
MTEXT
  5
1A7
100
AcDbEntity
  8
0
  6
BYBLOCK
 62
     0
100
AcDbMText
 10
5.791806
 20
24.43188
 30
0.0
 40
0.315
 41
0.0
 71
     5
 72
     1
  1
\A1;3 1/4\P[83mm]
  0
SOLID
  5
1A8
100
AcDbEntity
  8
0
  6
BYBLOCK
 62
     0
100
AcDbTrace
 10
5.739306
 20
23.099179
 30
0.0
 11
5.844306
 21
23.099179
 31
0.0
 12
5.791806
 22
22.784179
 32
0.0
 13
5.791806
 23
22.784179
 33
0.0
  0
SOLID
  5
1A9
100
AcDbEntity
  8
0
  6
BYBLOCK
 62
     0
100
AcDbTrace
 10
5.757163
 20
22.469179
 30
0.0
 11
5.862163
 21
22.469179
 31
0.0
 12
5.809663
 22
22.784179
 32
0.0
 13
5.809663
 23
22.784179
 33
0.0
  0
POINT
  5
1AA
100
AcDbEntity
  8
DEFPOINTS
  6
BYBLOCK
 62
     0
100
AcDbPoint
 10
5.791806
 20
22.784179
 30
0.0
  0
LINE
  5
1AB
100
AcDbEntity
  8
0
  6
BYBLOCK
 62
     0
100
AcDbLine
 10
5.791806
 20
23.099179
 30
0.0
 11
5.791806
 21
23.831679
 31
0.0
  0
SOLID
  5
1AC
100
AcDbEntity
  8
0
  6
BYBLOCK
 62
     0
100
AcDbTrace
 10
5.739306
 20
25.719179
 30
0.0
 11
5.844306
 21
25.719179
 31
0.0
 12
5.791806
 22
26.034179
 32
0.0
 13
5.791806
 23
26.034179
 33
0.0
  0
LINE
  5
1AD
100
AcDbEntity
  8
0
  6
BYBLOCK
 62
     0
100
AcDbLine
 10
5.791806
 20
25.719179
 30
0.0
 11
5.791806
 21
24.986679
 31
0.0
  0
LINE
  5
1AE
100
AcDbEntity
  8
R-DOOR-PATT
  6
CONTINUOUS
 62
     5
100
AcDbLine
 10
15.329096
 20
28.034179
 30
0.0
 11
13.329096
 21
26.034179
 31
0.0
  0
LINE
  5
1AF
100
AcDbEntity
  8
R-DOOR-PATT
  6
CONTINUOUS
 62
     5
100
AcDbLine
 10
14.445212
 20
28.034179
 30
0.0
 11
12.445212
 21
26.034179
 31
0.0
  0
LINE
  5
1B0
100
AcDbEntity
  8
R-DOOR-PATT
  6
CONTINUOUS
 62
     5
100
AcDbLine
 10
14.887154
 20
28.034179
 30
0.0
 11
12.887154
 21
26.034179
 31
0.0
  0
LINE
  5
1B1
100
AcDbEntity
  8
R-DOOR-PATT
  6
CONTINUOUS
 62
     5
100
AcDbLine
 10
15.771038
 20
28.034179
 30
0.0
 11
13.771038
 21
26.034179
 31
0.0
  0
LINE
  5
1B2
100
AcDbEntity
  8
R-DOOR-PATT
  6
CONTINUOUS
 62
     5
100
AcDbLine
 10
15.865741
 20
27.686941
 30
0.0
 11
14.212979
 21
26.034179
 31
0.0
  0
LINE
  5
1B3
100
AcDbEntity
  8
R-DOOR-PATT
  6
CONTINUOUS
 62
     5
100
AcDbLine
 10
11.793562
 20
28.034179
 30
0.0
 11
9.865741
 21
26.106359
 31
0.0
  0
LINE
  5
1B4
100
AcDbEntity
  8
R-DOOR-PATT
  6
CONTINUOUS
 62
     5
100
AcDbLine
 10
10.909678
 20
28.034179
 30
0.0
 11
9.865741
 21
26.990242
 31
0.0
  0
LINE
  5
1B5
100
AcDbEntity
  8
R-DOOR-PATT
  6
CONTINUOUS
 62
     5
100
AcDbLine
 10
11.35162
 20
28.034179
 30
0.0
 11
9.865741
 21
26.5483
 31
0.0
  0
LINE
  5
1B6
100
AcDbEntity
  8
R-DOOR-PATT
  6
CONTINUOUS
 62
     5
100
AcDbLine
 10
12.235504
 20
28.034179
 30
0.0
 11
10.235504
 21
26.034179
 31
0.0
  0
LINE
  5
1B7
100
AcDbEntity
  8
R-DOOR-PATT
  6
CONTINUOUS
 62
     5
100
AcDbLine
 10
12.677445
 20
28.034179
 30
0.0
 11
10.677445
 21
26.034179
 31
0.0
  0
LINE
  5
1B8
100
AcDbEntity
  8
R-DOOR-PATT
  6
CONTINUOUS
 62
     5
100
AcDbLine
 10
13.119387
 20
28.034179
 30
0.0
 11
11.119387
 21
26.034179
 31
0.0
  0
LINE
  5
1B9
100
AcDbEntity
  8
R-DOOR-PATT
  6
CONTINUOUS
 62
     5
100
AcDbLine
 10
13.561329
 20
28.034179
 30
0.0
 11
11.561329
 21
26.034179
 31
0.0
  0
LINE
  5
1BA
100
AcDbEntity
  8
R-DOOR-PATT
  6
CONTINUOUS
 62
     5
100
AcDbLine
 10
14.003271
 20
28.034179
 30
0.0
 11
12.003271
 21
26.034179
 31
0.0
  0
LINE
  5
1BB
100
AcDbEntity
  8
0
  6
BYBLOCK
 62
     0
100
AcDbLine
 10
19.190537
 20
25.719179
 30
0.0
 11
19.190537
 21
17.882264
 31
0.0
  0
LINE
  5
1BC
100
AcDbEntity
  8
R-DOOR-DETL
100
AcDbLine
 10
13.055439
 20
18.776511
 30
0.0
 11
13.055439
 21
22.784285
 31
0.0
  0
LINE
  5
1BD
100
AcDbEntity
  8
R-DOOR-DETL
  6
BYBLOCK
 62
     3
100
AcDbLine
 10
13.112939
 20
18.758395
 30
0.0
 11
13.112939
 21
22.784285
 31
0.0
  0
LINE
  5
1BE
100
AcDbEntity
  8
R-DOOR-DETL
100
AcDbLine
 10
12.992939
 20
18.751819
 30
0.0
 11
12.992939
 21
22.784285
 31
0.0
  0
LINE
  5
1BF
100
AcDbEntity
  8
R-DOOR-DETL
100
AcDbLine
 10
12.930439
 20
18.713088
 30
0.0
 11
12.930439
 21
22.784285
 31
0.0
  0
LINE
  5
1C0
100
AcDbEntity
  8
R-DOOR-DETL
100
AcDbLine
 10
12.620941
 20
18.75325
 30
0.0
 11
12.620941
 21
22.784285
 31
0.0
  0
LINE
  5
1C1
100
AcDbEntity
  8
R-DOOR-DETL
100
AcDbLine
 10
12.805439
 20
18.770158
 30
0.0
 11
12.805439
 21
22.784285
 31
0.0
  0
LINE
  5
1C2
100
AcDbEntity
  8
R-DOOR-DETL
100
AcDbLine
 10
12.742939
 20
18.723283
 30
0.0
 11
12.742939
 21
22.784285
 31
0.0
  0
LINE
  5
1C3
100
AcDbEntity
  8
R-DOOR-DETL
100
AcDbLine
 10
12.680439
 20
18.712204
 30
0.0
 11
12.680439
 21
22.784285
 31
0.0
  0
LINE
  5
1C4
100
AcDbEntity
  8
R-DOOR-DETL
100
AcDbLine
 10
12.704892
 20
18.694748
 30
0.0
 11
12.829892
 21
18.788498
 31
0.0
  0
LINE
  5
1C5
100
AcDbEntity
  8
R-DOOR-DETL
100
AcDbLine
 10
12.622939
 20
18.75325
 30
0.0
 11
12.704892
 21
18.694748
 31
0.0
  0
LINE
  5
1C6
100
AcDbEntity
  8
R-DOOR-DETL
100
AcDbLine
 10
12.829892
 20
18.788498
 30
0.0
 11
12.954892
 21
18.694748
 31
0.0
  0
LINE
  5
1C7
100
AcDbEntity
  8
R-DOOR-DETL
100
AcDbLine
 10
12.954892
 20
18.694748
 30
0.0
 11
13.017392
 21
18.788498
 31
0.0
  0
MTEXT
  5
1C8
100
AcDbEntity
  8
0
  6
BYBLOCK
 62
     0
100
AcDbMText
 10
19.190537
 20
17.567264
 30
0.0
 40
0.315
 41
0.0
 71
     5
 72
     1
  1
\A1;CLEAR OPENING
  0
LINE
  5
1C9
100
AcDbEntity
  8
R-DOOR-DETL
100
AcDbLine
 10
13.109859
 20
16.427949
 30
0.0
 11
13.03248
 21
16.483187
 31
0.0
  0
LINE
  5
1CA
100
AcDbEntity
  8
R-DOOR-DETL
100
AcDbLine
 10
12.78248
 20
16.483187
 30
0.0
 11
12.71998
 21
16.389437
 31
0.0
  0
LINE
  5
1CB
100
AcDbEntity
  8
R-DOOR-DETL
100
AcDbLine
 10
12.71998
 20
16.389437
 30
0.0
 11
12.624433
 21
16.41954
 31
0.0
  0
LINE
  5
1CC
100
AcDbEntity
  8
R-DOOR-DETL
100
AcDbLine
 10
12.90748
 20
16.389437
 30
0.0
 11
12.78248
 21
16.483187
 31
0.0
  0
LINE
  5
1CD
100
AcDbEntity
  8
R-DOOR-DETL
100
AcDbLine
 10
13.03248
 20
16.483187
 30
0.0
 11
12.90748
 21
16.389437
 31
0.0
  0
LINE
  5
1CE
100
AcDbEntity
  8
R-DOOR-DETL
100
AcDbLine
 10
13.017392
 20
18.788498
 30
0.0
 11
13.112939
 21
18.758395
 31
0.0
  0
LINE
  5
1CF
100
AcDbEntity
  8
R-DOOR-DETL
  6
BYBLOCK
 62
     3
100
AcDbLine
 10
13.261551
 20
24.424636
 30
0.0
 11
13.185609
 21
24.502187
 31
0.0
  0
LINE
  5
1D0
100
AcDbEntity
  8
R-DOOR-DETL
  6
BYBLOCK
 62
     3
100
AcDbLine
 10
13.395873
 20
24.556171
 30
0.0
 11
13.366683
 21
24.451628
 31
0.0
  0
LINE
  5
1D1
100
AcDbEntity
  8
R-DOOR-DETL
  6
BYBLOCK
 62
     3
100
AcDbLine
 10
12.757199
 20
24.529179
 30
0.0
 11
12.81147
 21
24.435179
 31
0.0
  0
LINE
  5
1D2
100
AcDbEntity
  8
R-DOOR-DETL
  6
BYBLOCK
 62
     3
100
AcDbLine
 10
12.974283
 20
24.529179
 30
0.0
 11
12.920012
 21
24.435179
 31
0.0
  0
LINE
  5
1D3
100
AcDbEntity
  8
R-DOOR-DETL
  6
BYBLOCK
 62
     3
100
AcDbLine
 10
12.341869
 20
24.484395
 30
0.0
 11
12.43009
 21
24.421161
 31
0.0
  0
ARC
  5
1D4
100
AcDbEntity
  8
R-DOOR-DETL
100
AcDbCircle
 10
13.626734
 20
24.465383
 30
0.0
 40
0.015
100
AcDbArc
 50
0.0
 51
90.0
  0
LINE
  5
1D5
100
AcDbEntity
  8
R-DOOR-DETL
100
AcDbLine
 10
13.646734
 20
24.475383
 30
0.0
 11
13.646734
 21
24.234179
 31
0.0
  0
ARC
  5
1D6
100
AcDbEntity
  8
R-DOOR-DETL
100
AcDbCircle
 10
12.104749
 20
24.465383
 30
0.0
 40
0.015
100
AcDbArc
 50
90.0
 51
180.0
  0
LINE
  5
1D7
100
AcDbEntity
  8
R-DOOR-DETL
100
AcDbLine
 10
12.084749
 20
24.234179
 30
0.0
 11
12.084749
 21
24.475383
 31
0.0
  0
CIRCLE
  5
1D8
100
AcDbEntity
  8
R-DOOR-DETL
  6
BYBLOCK
 62
     3
100
AcDbCircle
 10
13.290741
 20
24.529179
 30
0.0
 40
0.1875
  0
CIRCLE
  5
1D9
100
AcDbEntity
  8
R-DOOR-DETL
  6
BYBLOCK
 62
     3
100
AcDbCircle
 10
13.290741
 20
24.529179
 30
0.0
 40
0.1625
  0
ARC
  5
1DA
100
AcDbEntity
  8
R-DOOR-DETL
  6
BYBLOCK
 62
     3
100
AcDbCircle
 10
13.290741
 20
24.529179
 30
0.0
 40
0.1005
100
AcDbArc
 50
302.506128
 51
237.493872
  0
CIRCLE
  5
1DB
100
AcDbEntity
  8
R-DOOR-DETL
  6
BYBLOCK
 62
     3
100
AcDbCircle
 10
12.440741
 20
24.529179
 30
0.0
 40
0.1875
  0
CIRCLE
  5
1DC
100
AcDbEntity
  8
R-DOOR-DETL
  6
BYBLOCK
 62
     3
100
AcDbCircle
 10
12.440741
 20
24.529179
 30
0.0
 40
0.1625
  0
ARC
  5
1DD
100
AcDbEntity
  8
R-DOOR-DETL
  6
BYBLOCK
 62
     3
100
AcDbCircle
 10
12.440741
 20
24.529179
 30
0.0
 40
0.1005
100
AcDbArc
 50
302.506128
 51
237.493872
  0
CIRCLE
  5
1DE
100
AcDbEntity
  8
R-DOOR-DETL
  6
BYBLOCK
 62
     3
100
AcDbCircle
 10
12.865741
 20
24.529179
 30
0.0
 40
0.1875
  0
CIRCLE
  5
1DF
100
AcDbEntity
  8
R-DOOR-DETL
  6
BYBLOCK
 62
     3
100
AcDbCircle
 10
12.865741
 20
24.529179
 30
0.0
 40
0.1625
  0
LINE
  5
1E0
100
AcDbEntity
  8
R-DOOR-DETL
100
AcDbLine
 10
13.548241
 20
24.754179
 30
0.0
 11
13.548241
 21
24.204179
 31
0.0
  0
LINE
  5
1E1
100
AcDbEntity
  8
R-DOOR-DETL
  6
BYBLOCK
 62
     3
100
AcDbLine
 10
13.806734
 20
25.784179
 30
0.0
 11
13.806734
 21
21.910187
 31
0.0
  0
LINE
  5
1E2
100
AcDbEntity
  8
R-DOOR-DETL
  6
BYBLOCK
 62
     3
100
AcDbLine
 10
13.856734
 20
21.910187
 30
0.0
 11
13.856734
 21
25.784179
 31
0.0
  0
LINE
  5
1E3
100
AcDbEntity
  8
R-DOOR-DETL
  6
BYBLOCK
 62
     3
100
AcDbLine
 10
13.796734
 20
21.910187
 30
0.0
 11
13.796734
 21
25.769179
 31
0.0
  0
LINE
  5
1E4
100
AcDbEntity
  8
R-DOOR-DETL
100
AcDbLine
 10
12.183241
 20
24.754179
 30
0.0
 11
12.183241
 21
24.204179
 31
0.0
  0
LINE
  5
1E5
100
AcDbEntity
  8
R-DOOR-DETL
100
AcDbLine
 10
11.934749
 20
25.769179
 30
0.0
 11
11.934749
 21
21.910187
 31
0.0
  0
LINE
  5
1E6
100
AcDbEntity
  8
R-DOOR-DETL
  6
BYBLOCK
 62
     3
100
AcDbLine
 10
12.528962
 20
24.465946
 30
0.0
 11
12.539613
 21
24.573964
 31
0.0
  0
TEXT
  5
1E7
100
AcDbEntity
  8
0
100
AcDbText
 10
15.186151
 20
23.09487
 30
0.0
 40
0.36
  1
CLADDING
  7
ROMANS
100
AcDbText
  0
TEXT
  5
1E8
100
AcDbEntity
  8
0
100
AcDbText
 10
15.04558
 20
21.934141
 30
0.0
 40
0.36
  1
GLASS CLAMP
  7
ROMANS
100
AcDbText
  0
ARC
  5
1E9
100
AcDbEntity
  8
R-DOOR-DETL
  6
BYBLOCK
 62
     3
100
AcDbCircle
 10
13.310803
 20
23.042368
 30
0.0
 40
0.03
100
AcDbArc
 50
180.0
 51
211.0
  0
ARC
  5
1EA
100
AcDbEntity
  8
R-DOOR-DETL
  6
BYBLOCK
 62
     3
100
AcDbCircle
 10
12.723076
 20
23.104285
 30
0.0
 40
0.125
100
AcDbArc
 50
180.0
 51
270.0
  0
ARC
  5
1EB
100
AcDbEntity
  8
R-DOOR-DETL
  6
BYBLOCK
 62
     3
100
AcDbCircle
 10
12.423076
 20
23.042368
 30
0.0
 40
0.03
100
AcDbArc
 50
329.0
 51
0.0
  0
ARC
  5
1EC
100
AcDbEntity
  8
R-DOOR-DETL
  6
BYBLOCK
 62
     3
100
AcDbCircle
 10
13.010803
 20
23.104285
 30
0.0
 40
0.125
100
AcDbArc
 50
270.0
 51
0.0
  0
LINE
  5
1ED
100
AcDbEntity
  8
R-DOOR-DETL
  6
BYBLOCK
 62
     3
100
AcDbLine
 10
13.315741
 20
23.424476
 30
0.0
 11
13.315741
 21
22.99054
 31
0.0
  0
LINE
  5
1EE
100
AcDbEntity
  8
R-DOOR-DETL
  6
BYBLOCK
 62
     3
100
AcDbLine
 10
12.415741
 20
22.99054
 30
0.0
 11
12.415741
 21
23.424476
 31
0.0
  0
LINE
  5
1EF
100
AcDbEntity
  8
R-DOOR-DETL
  6
BYBLOCK
 62
     3
100
AcDbLine
 10
13.650734
 20
21.754187
 30
0.0
 11
13.158814
 21
21.754187
 31
0.0
  0
LINE
  5
1F0
100
AcDbEntity
  8
R-DOOR-DETL
  6
BYBLOCK
 62
     3
100
AcDbLine
 10
13.168814
 20
21.754187
 30
0.0
 11
13.640734
 21
21.754187
 31
0.0
  0
ARC
  5
1F1
100
AcDbEntity
  8
R-DOOR-DETL
  6
BYBLOCK
 62
     3
100
AcDbCircle
 10
13.616734
 20
21.923855
 30
0.0
 40
0.03
100
AcDbArc
 50
280.0
 51
360.0
  0
ARC
  5
1F2
100
AcDbEntity
  8
R-DOOR-DETL
100
AcDbCircle
 10
13.396734
 20
22.342219
 30
0.0
 40
0.25
100
AcDbArc
 50
360.0
 51
30.0
  0
LWPOLYLINE
  5
1F3
100
AcDbEntity
  8
DIMN
 62
     7
100
AcDbPolyline
 90
        3
 70
     0
 43
0.0
 10
13.318858
 20
22.847108
 10
14.807009
 20
22.114141
 10
14.987009
 20
22.114141
1001
ACAD
1000
DSTYLE
1002
{
1070
   173
1070
     1
1070
     6
1000
_DOTSMALL
1002
}
  0
LINE
  5
1F4
100
AcDbEntity
  8
R-DOOR-DETL
  6
BYBLOCK
 62
     3
100
AcDbLine
 10
13.158814
 20
21.704187
 30
0.0
 11
13.650734
 21
21.704187
 31
0.0
  0
LINE
  5
1F5
100
AcDbEntity
  8
R-DOOR-DETL
100
AcDbLine
 10
12.084749
 20
21.923855
 30
0.0
 11
12.084749
 21
22.342219
 31
0.0
  0
LINE
  5
1F6
100
AcDbEntity
  8
R-DOOR-DETL
  6
BYBLOCK
 62
     3
100
AcDbLine
 10
12.620941
 20
21.972575
 30
0.0
 11
12.620941
 21
22.722575
 31
0.0
  0
LINE
  5
1F7
100
AcDbEntity
  8
R-DOOR-DETL
  6
BYBLOCK
 62
     3
100
AcDbLine
 10
12.570941
 20
22.722575
 30
0.0
 11
12.570941
 21
21.972575
 31
0.0
  0
LINE
  5
1F8
100
AcDbEntity
  8
R-DOOR-DETL
  6
BYBLOCK
 62
     3
100
AcDbLine
 10
13.112939
 20
21.972575
 30
0.0
 11
13.112939
 21
22.722575
 31
0.0
  0
LINE
  5
1F9
100
AcDbEntity
  8
R-DOOR-DETL
  6
BYBLOCK
 62
     3
100
AcDbLine
 10
13.162939
 20
22.722575
 30
0.0
 11
13.162939
 21
21.972575
 31
0.0
  0
LINE
  5
1FA
100
AcDbEntity
  8
R-DOOR-DETL
  6
BYBLOCK
 62
     3
100
AcDbLine
 10
12.570941
 20
21.972575
 30
0.0
 11
12.570941
 21
22.824442
 31
0.0
  0
LINE
  5
1FB
100
AcDbEntity
  8
R-DOOR-DETL
  6
BYBLOCK
 62
     3
100
AcDbLine
 10
13.162939
 20
21.972575
 30
0.0
 11
13.162939
 21
22.824442
 31
0.0
  0
LINE
  5
1FC
100
AcDbEntity
  8
R-DOOR-DETL
  6
BYBLOCK
 62
     3
100
AcDbLine
 10
12.402631
 20
22.453957
 30
0.0
 11
12.425022
 21
21.963228
 31
0.0
  0
LINE
  5
1FD
100
AcDbEntity
  8
R-DOOR-DETL
  6
BYBLOCK
 62
     3
100
AcDbLine
 10
13.331248
 20
22.453957
 30
0.0
 11
13.308857
 21
21.963228
 31
0.0
  0
LINE
  5
1FE
100
AcDbEntity
  8
R-DOOR-DETL
  6
BYBLOCK
 62
     3
100
AcDbLine
 10
13.158814
 20
21.8334
 30
0.0
 11
13.158814
 21
21.764187
 31
0.0
  0
LINE
  5
1FF
100
AcDbEntity
  8
R-DOOR-DETL
  6
BYBLOCK
 62
     3
100
AcDbLine
 10
12.572669
 20
21.764187
 30
0.0
 11
12.572669
 21
21.8334
 31
0.0
  0
ARC
  5
200
100
AcDbEntity
  8
R-DOOR-DETL
  6
BYBLOCK
 62
     3
100
AcDbCircle
 10
13.168814
 20
21.764187
 30
0.0
 40
0.01
100
AcDbArc
 50
180.0
 51
270.0
  0
ARC
  5
201
100
AcDbEntity
  8
R-DOOR-DETL
  6
BYBLOCK
 62
     3
100
AcDbCircle
 10
12.562669
 20
21.764187
 30
0.0
 40
0.01
100
AcDbArc
 50
270.0
 51
360.0
  0
LINE
  5
202
100
AcDbEntity
  8
R-DOOR-DETL
  6
BYBLOCK
 62
     3
100
AcDbLine
 10
13.621943
 20
21.894311
 30
0.0
 11
13.334905
 21
21.843698
 31
0.0
  0
LINE
  5
203
100
AcDbEntity
  8
R-DOOR-DETL
  6
BYBLOCK
 62
     3
100
AcDbLine
 10
13.268898
 20
21.925051
 30
0.0
 11
13.162939
 21
21.925051
 31
0.0
  0
LINE
  5
204
100
AcDbEntity
  8
R-DOOR-DETL
  6
BYBLOCK
 62
     3
100
AcDbLine
 10
13.329696
 20
21.843242
 30
0.0
 11
13.168656
 21
21.843242
 31
0.0
  0
LINE
  5
205
100
AcDbEntity
  8
R-DOOR-DETL
  6
BYBLOCK
 62
     3
100
AcDbLine
 10
13.162939
 20
21.972575
 30
0.0
 11
13.112939
 21
21.972575
 31
0.0
  0
ARC
  5
206
100
AcDbEntity
  8
R-DOOR-DETL
  6
BYBLOCK
 62
     3
100
AcDbCircle
 10
13.162939
 20
21.944736
 30
0.0
 40
0.019685
100
AcDbArc
 50
109.471221
 51
270.0
  0
ARC
  5
207
100
AcDbEntity
  8
R-DOOR-DETL
  6
BYBLOCK
 62
     3
100
AcDbCircle
 10
13.153096
 20
21.972575
 30
0.0
 40
0.009843
100
AcDbArc
 50
289.471221
 51
0.0
  0
ARC
  5
208
100
AcDbEntity
  8
R-DOOR-DETL
  6
BYBLOCK
 62
     3
100
AcDbCircle
 10
13.168656
 20
21.8334
 30
0.0
 40
0.009843
100
AcDbArc
 50
90.0
 51
180.0
  0
ARC
  5
209
100
AcDbEntity
  8
R-DOOR-DETL
  6
BYBLOCK
 62
     3
100
AcDbCircle
 10
13.268898
 20
21.965051
 30
0.0
 40
0.04
100
AcDbArc
 50
270.0
 51
357.387498
  0
ARC
  5
20A
100
AcDbEntity
  8
R-DOOR-DETL
  6
BYBLOCK
 62
     3
100
AcDbCircle
 10
13.329696
 20
21.873242
 30
0.0
 40
0.03
100
AcDbArc
 50
270.0
 51
280.0
  0
LINE
  5
20B
100
AcDbEntity
  8
R-DOOR-DETL
  6
BYBLOCK
 62
     3
100
AcDbLine
 10
12.570941
 20
21.972575
 30
0.0
 11
12.620941
 21
21.972575
 31
0.0
  0
ARC
  5
20C
100
AcDbEntity
  8
R-DOOR-DETL
  6
BYBLOCK
 62
     3
100
AcDbCircle
 10
12.570941
 20
21.944736
 30
0.0
 40
0.019685
100
AcDbArc
 50
270.0
 51
70.528779
  0
LINE
  5
20D
100
AcDbEntity
  8
R-DOOR-DETL
  6
BYBLOCK
 62
     3
100
AcDbLine
 10
12.464981
 20
21.925051
 30
0.0
 11
12.570941
 21
21.925051
 31
0.0
  0
ARC
  5
20E
100
AcDbEntity
  8
R-DOOR-DETL
  6
BYBLOCK
 62
     3
100
AcDbCircle
 10
12.580783
 20
21.972575
 30
0.0
 40
0.009843
100
AcDbArc
 50
180.0
 51
250.528779
  0
ARC
  5
20F
100
AcDbEntity
  8
R-DOOR-DETL
  6
BYBLOCK
 62
     3
100
AcDbCircle
 10
12.464981
 20
21.965051
 30
0.0
 40
0.04
100
AcDbArc
 50
182.612502
 51
270.0
  0
ARC
  5
210
100
AcDbEntity
  8
R-DOOR-DETL
  6
BYBLOCK
 62
     3
100
AcDbCircle
 10
12.562826
 20
21.8334
 30
0.0
 40
0.009843
100
AcDbArc
 50
0.0
 51
90.0
  0
LINE
  5
211
100
AcDbEntity
  8
R-DOOR-DETL
  6
BYBLOCK
 62
     3
100
AcDbLine
 10
12.562826
 20
21.843242
 30
0.0
 11
12.401786
 21
21.843242
 31
0.0
  0
ARC
  5
212
100
AcDbEntity
  8
R-DOOR-DETL
  6
BYBLOCK
 62
     3
100
AcDbCircle
 10
12.401786
 20
21.873242
 30
0.0
 40
0.03
100
AcDbArc
 50
260.0
 51
270.0
  0
ARC
  5
213
100
AcDbEntity
  8
R-DOOR-DETL
100
AcDbCircle
 10
12.114749
 20
21.923855
 30
0.0
 40
0.03
100
AcDbArc
 50
180.0
 51
260.0
  0
LINE
  5
214
100
AcDbEntity
  8
R-DOOR-DETL
100
AcDbLine
 10
12.090749
 20
21.754187
 30
0.0
 11
12.562669
 21
21.754187
 31
0.0
  0
LINE
  5
215
100
AcDbEntity
  8
R-DOOR-DETL
100
AcDbLine
 10
12.396577
 20
21.843698
 30
0.0
 11
12.109539
 21
21.894311
 31
0.0
  0
ARC
  5
216
100
AcDbEntity
  8
R-DOOR-DETL
100
AcDbCircle
 10
12.090749
 20
21.910187
 30
0.0
 40
0.156
100
AcDbArc
 50
180.0
 51
270.0
  0
LINE
  5
217
100
AcDbEntity
  8
R-DOOR-DETL
  6
BYBLOCK
 62
     3
100
AcDbLine
 10
13.158814
 20
21.754187
 30
0.0
 11
13.158814
 21
21.704187
 31
0.0
  0
LINE
  5
218
100
AcDbEntity
  8
R-DOOR-DETL
  6
BYBLOCK
 62
     3
100
AcDbLine
 10
13.31976
 20
22.97554
 30
0.0
 11
13.61324
 21
22.467219
 31
0.0
  0
LINE
  5
219
100
AcDbEntity
  8
R-DOOR-DETL
  6
BYBLOCK
 62
     3
100
AcDbLine
 10
13.552917
 20
22.522927
 30
0.0
 11
13.492915
 21
22.486875
 31
0.0
  0
LINE
  5
21A
100
AcDbEntity
  8
R-DOOR-DETL
  6
BYBLOCK
 62
     3
100
AcDbLine
 10
12.180963
 20
22.522927
 30
0.0
 11
12.240964
 21
22.486875
 31
0.0
  0
ARC
  5
21B
100
AcDbEntity
  8
R-DOOR-DETL
  6
BYBLOCK
 62
     3
100
AcDbCircle
 10
13.361217
 20
22.45259
 30
0.0
 40
0.03
100
AcDbArc
 50
90.0
 51
177.387498
  0
LINE
  5
21C
100
AcDbEntity
  8
R-DOOR-DETL
  6
BYBLOCK
 62
     3
100
AcDbLine
 10
13.477464
 20
22.48259
 30
0.0
 11
13.361217
 21
22.48259
 31
0.0
  0
ARC
  5
21D
100
AcDbEntity
  8
R-DOOR-DETL
  6
BYBLOCK
 62
     3
100
AcDbCircle
 10
13.477464
 20
22.51259
 30
0.0
 40
0.03
100
AcDbArc
 50
270.0
 51
301.0
  0
LINE
  5
21E
100
AcDbEntity
  8
R-DOOR-DETL
  6
BYBLOCK
 62
     3
100
AcDbLine
 10
12.256415
 20
22.48259
 30
0.0
 11
12.372662
 21
22.48259
 31
0.0
  0
ARC
  5
21F
100
AcDbEntity
  8
R-DOOR-DETL
  6
BYBLOCK
 62
     3
100
AcDbCircle
 10
12.256415
 20
22.51259
 30
0.0
 40
0.03
100
AcDbArc
 50
239.0
 51
270.0
  0
ARC
  5
220
100
AcDbEntity
  8
R-DOOR-DETL
  6
BYBLOCK
 62
     3
100
AcDbCircle
 10
12.372662
 20
22.45259
 30
0.0
 40
0.03
100
AcDbArc
 50
2.612502
 51
90.0
  0
INSERT
  5
221
100
AcDbEntity
  8
DIMN
 62
     7
100
AcDbBlockReference
  2
_DOTSMALL
 10
13.318858
 20
22.847108
 30
0.0
 41
0.18
 42
0.18
 43
0.18
 50
153.778112
1001
ACAD
1000
DSTYLE
1002
{
1070
   173
1070
     1
1070
     6
1000
_DOTSMALL
1002
}
  0
ARC
  5
222
100
AcDbEntity
  8
R-DOOR-DETL
  6
BYBLOCK
 62
     3
100
AcDbCircle
 10
13.345741
 20
22.99054
 30
0.0
 40
0.03
100
AcDbArc
 50
180.0
 51
210.0
  0
LINE
  5
223
100
AcDbEntity
  8
R-DOOR-DETL
  6
BYBLOCK
 62
     3
100
AcDbLine
 10
12.828076
 20
22.849285
 30
0.0
 11
12.828076
 21
22.964285
 31
0.0
  0
LINE
  5
224
100
AcDbEntity
  8
R-DOOR-DETL
  6
BYBLOCK
 62
     3
100
AcDbLine
 10
12.905803
 20
22.849285
 30
0.0
 11
12.905803
 21
22.964285
 31
0.0
  0
ARC
  5
225
100
AcDbEntity
  8
R-DOOR-DETL
  6
BYBLOCK
 62
     3
100
AcDbCircle
 10
12.813076
 20
22.964285
 30
0.0
 40
0.015
100
AcDbArc
 50
0.0
 51
90.0
  0
LINE
  5
226
100
AcDbEntity
  8
R-DOOR-DETL
  6
BYBLOCK
 62
     3
100
AcDbLine
 10
12.813076
 20
22.979285
 30
0.0
 11
12.723076
 21
22.979285
 31
0.0
  0
ARC
  5
227
100
AcDbEntity
  8
R-DOOR-DETL
  6
BYBLOCK
 62
     3
100
AcDbCircle
 10
12.920803
 20
22.964285
 30
0.0
 40
0.015
100
AcDbArc
 50
90.0
 51
180.0
  0
LINE
  5
228
100
AcDbEntity
  8
R-DOOR-DETL
  6
BYBLOCK
 62
     3
100
AcDbLine
 10
12.920803
 20
22.979285
 30
0.0
 11
13.010803
 21
22.979285
 31
0.0
  0
ARC
  5
229
100
AcDbEntity
  8
R-DOOR-DETL
  6
BYBLOCK
 62
     3
100
AcDbCircle
 10
12.385741
 20
22.99054
 30
0.0
 40
0.03
100
AcDbArc
 50
330.0
 51
360.0
  0
LINE
  5
22A
100
AcDbEntity
  8
R-DOOR-DETL
  6
BYBLOCK
 62
     3
100
AcDbLine
 10
13.153096
 20
22.834285
 30
0.0
 11
13.153096
 21
22.784285
 31
0.0
  0
LINE
  5
22B
100
AcDbEntity
  8
R-DOOR-DETL
  6
BYBLOCK
 62
     3
100
AcDbLine
 10
13.112939
 20
22.722575
 30
0.0
 11
13.162939
 21
22.722575
 31
0.0
  0
ARC
  5
22C
100
AcDbEntity
  8
0
100
AcDbCircle
 10
13.537466
 20
22.548642
 30
0.0
 40
0.03
100
AcDbArc
 50
301.0
 51
31.0
  0
POINT
  5
22D
100
AcDbEntity
  8
R-DOOR-DETL
  6
BYBLOCK
 62
     3
100
AcDbPoint
 10
12.256366
 20
22.784179
 30
0.0
  0
POINT
  5
22E
100
AcDbEntity
  8
R-DOOR-DETL
  6
BYBLOCK
 62
     3
100
AcDbPoint
 10
12.365741
 20
22.784179
 30
0.0
  0
LINE
  5
22F
100
AcDbEntity
  8
R-DOOR-DETL
  6
BYBLOCK
 62
     3
100
AcDbLine
 10
12.576019
 20
22.784285
 30
0.0
 11
12.826019
 21
22.784285
 31
0.0
  0
LINE
  5
230
100
AcDbEntity
  8
R-DOOR-DETL
  6
BYBLOCK
 62
     3
100
AcDbLine
 10
12.826019
 20
22.784285
 30
0.0
 11
12.826019
 21
22.834285
 31
0.0
  0
LINE
  5
231
100
AcDbEntity
  8
R-DOOR-DETL
  6
BYBLOCK
 62
     3
100
AcDbLine
 10
12.576019
 20
22.834285
 30
0.0
 11
12.576019
 21
22.784285
 31
0.0
  0
LINE
  5
232
100
AcDbEntity
  8
R-DOOR-DETL
  6
BYBLOCK
 62
     3
100
AcDbLine
 10
12.826019
 20
22.834285
 30
0.0
 11
12.576019
 21
22.834285
 31
0.0
  0
LINE
  5
233
100
AcDbEntity
  8
R-DOOR-DETL
  6
BYBLOCK
 62
     3
100
AcDbLine
 10
12.903096
 20
22.784285
 30
0.0
 11
12.903096
 21
22.834285
 31
0.0
  0
LINE
  5
234
100
AcDbEntity
  8
R-DOOR-DETL
  6
BYBLOCK
 62
     3
100
AcDbLine
 10
12.620941
 20
22.722575
 30
0.0
 11
12.570941
 21
22.722575
 31
0.0
  0
LINE
  5
235
100
AcDbEntity
  8
R-DOOR-DETL
  6
BYBLOCK
 62
     3
100
AcDbLine
 10
12.580783
 20
22.834285
 30
0.0
 11
12.813076
 21
22.834285
 31
0.0
  0
LINE
  5
236
100
AcDbEntity
  8
R-DOOR-DETL
  6
BYBLOCK
 62
     3
100
AcDbLine
 10
13.153096
 20
22.784285
 30
0.0
 11
12.903096
 21
22.784285
 31
0.0
  0
LINE
  5
237
100
AcDbEntity
  8
R-DOOR-DETL
  6
BYBLOCK
 62
     3
100
AcDbLine
 10
12.903096
 20
22.834285
 30
0.0
 11
13.153096
 21
22.834285
 31
0.0
  0
LINE
  5
238
100
AcDbEntity
  8
R-DOOR-DETL
  6
BYBLOCK
 62
     3
100
AcDbLine
 10
13.153096
 20
22.834285
 30
0.0
 11
12.920803
 21
22.834285
 31
0.0
  0
LINE
  5
239
100
AcDbEntity
  8
R-DOOR-DETL
100
AcDbLine
 10
12.622939
 20
22.784285
 30
0.0
 11
13.112939
 21
22.784285
 31
0.0
  0
LINE
  5
23A
100
AcDbEntity
  8
R-DOOR-DETL
100
AcDbLine
 10
12.680439
 20
22.784285
 30
0.0
 11
13.055439
 21
22.784285
 31
0.0
  0
LINE
  5
23B
100
AcDbEntity
  8
R-DOOR-DETL
  6
BYBLOCK
 62
     3
100
AcDbLine
 10
13.285088
 20
23.026917
 30
0.0
 11
13.563181
 21
22.564094
 31
0.0
  0
ARC
  5
23C
100
AcDbEntity
  8
R-DOOR-DETL
  6
BYBLOCK
 62
     3
100
AcDbCircle
 10
12.580783
 20
22.824442
 30
0.0
 40
0.009842
100
AcDbArc
 50
90.0
 51
180.0
  0
ARC
  5
23D
100
AcDbEntity
  8
R-DOOR-DETL
  6
BYBLOCK
 62
     3
100
AcDbCircle
 10
12.813076
 20
22.849285
 30
0.0
 40
0.015
100
AcDbArc
 50
270.0
 51
0.0
  0
ARC
  5
23E
100
AcDbEntity
  8
R-DOOR-DETL
  6
BYBLOCK
 62
     3
100
AcDbCircle
 10
13.153096
 20
22.824442
 30
0.0
 40
0.009842
100
AcDbArc
 50
0.0
 51
90.0
  0
ARC
  5
23F
100
AcDbEntity
  8
R-DOOR-DETL
  6
BYBLOCK
 62
     3
100
AcDbCircle
 10
12.920803
 20
22.849285
 30
0.0
 40
0.015
100
AcDbArc
 50
180.0
 51
270.0
  0
ARC
  5
240
100
AcDbEntity
  8
R-DOOR-DETL
  6
BYBLOCK
 62
     3
100
AcDbCircle
 10
12.196414
 20
22.548642
 30
0.0
 40
0.03
100
AcDbArc
 50
149.0
 51
239.0
  0
LINE
  5
241
100
AcDbEntity
  8
R-DOOR-DETL
  6
BYBLOCK
 62
     3
100
AcDbLine
 10
12.448791
 20
23.026917
 30
0.0
 11
12.170699
 21
22.564094
 31
0.0
  0
LINE
  5
242
100
AcDbEntity
  8
R-DOOR-DETL
  6
BYBLOCK
 62
     3
100
AcDbLine
 10
12.118242
 20
22.467219
 30
0.0
 11
12.411722
 21
22.97554
 31
0.0
  0
ARC
  5
243
100
AcDbEntity
  8
R-DOOR-DETL
100
AcDbCircle
 10
12.334749
 20
22.342219
 30
0.0
 40
0.25
100
AcDbArc
 50
150.0
 51
180.0
  0
LINE
  5
244
100
AcDbEntity
  8
R-DOOR-DETL
  6
BYBLOCK
 62
     3
100
AcDbLine
 10
13.646734
 20
22.342219
 30
0.0
 11
13.646734
 21
21.923855
 31
0.0
  0
ARC
  5
245
100
AcDbEntity
  8
R-DOOR-DETL
  6
BYBLOCK
 62
     3
100
AcDbCircle
 10
13.650734
 20
21.910187
 30
0.0
 40
0.156
100
AcDbArc
 50
270.0
 51
0.0
  0
ARC
  5
246
100
AcDbEntity
  8
R-DOOR-DETL
  6
BYBLOCK
 62
     3
100
AcDbCircle
 10
13.640734
 20
21.910187
 30
0.0
 40
0.156
100
AcDbArc
 50
270.0
 51
360.0
  0
ARC
  5
247
100
AcDbEntity
  8
R-DOOR-DETL
  6
BYBLOCK
 62
     3
100
AcDbCircle
 10
13.650734
 20
21.910187
 30
0.0
 40
0.206
100
AcDbArc
 50
270.0
 51
0.0
  0
ARC
  5
248
100
AcDbEntity
  8
R-DOOR-DETL
100
AcDbCircle
 10
13.610734
 20
24.235179
 30
0.0
 40
0.031
100
AcDbArc
 50
270.0
 51
0.0
  0
ARC
  5
249
100
AcDbEntity
  8
R-DOOR-DETL
100
AcDbCircle
 10
13.616734
 20
24.234179
 30
0.0
 40
0.03
100
AcDbArc
 50
270.0
 51
0.0
  0
ARC
  5
24A
100
AcDbEntity
  8
R-DOOR-DETL
100
AcDbCircle
 10
13.418242
 20
23.763137
 30
0.0
 40
0.049213
100
AcDbArc
 50
180.0
 51
297.721062
  0
ARC
  5
24B
100
AcDbEntity
  8
R-DOOR-DETL
100
AcDbCircle
 10
12.31324
 20
23.763137
 30
0.0
 40
0.049213
100
AcDbArc
 50
242.278938
 51
0.0
  0
LINE
  5
24C
100
AcDbEntity
  8
R-DOOR-ANNO
  6
CONTINUOUS
100
AcDbLine
 10
12.001302
 20
23.877219
 30
0.0
 11
10.930248
 21
23.281329
 31
0.0
1001
ACAD
1000
DSTYLE
1002
{
1070
   173
1070
     1
1070
     6
1000
_DOTSMALL
1002
}
  0
LINE
  5
24D
100
AcDbEntity
  8
R-DOOR-ANNO
  6
CONTINUOUS
100
AcDbLine
 10
10.930248
 20
23.281329
 30
0.0
 11
10.750249
 21
23.28193
 31
0.0
1001
ACAD
1000
DSTYLE
1002
{
1070
   173
1070
     1
1070
     6
1000
_DOTSMALL
1002
}
  0
LINE
  5
24E
100
AcDbEntity
  8
R-DOOR-DETL
  6
BYBLOCK
 62
     3
100
AcDbLine
 10
12.776724
 20
23.200509
 30
0.0
 11
12.964724
 21
23.200509
 31
0.0
  0
LINE
  5
24F
100
AcDbEntity
  8
R-DOOR-DETL
  6
BYBLOCK
 62
     3
100
AcDbLine
 10
12.746724
 20
23.170509
 30
0.0
 11
12.994724
 21
23.170509
 31
0.0
  0
ARC
  5
250
100
AcDbEntity
  8
R-DOOR-DETL
  6
BYBLOCK
 62
     3
100
AcDbCircle
 10
13.479734
 20
23.674879
 30
0.0
 40
0.059055
100
AcDbArc
 50
241.689936
 51
130.814986
  0
ARC
  5
251
100
AcDbEntity
  8
R-DOOR-DETL
  6
BYBLOCK
 62
     3
100
AcDbCircle
 10
13.41918
 20
23.585974
 30
0.0
 40
0.049213
100
AcDbArc
 50
48.596013
 51
99.750077
  0
ARC
  5
252
100
AcDbEntity
  8
R-DOOR-DETL
100
AcDbCircle
 10
12.251749
 20
23.674879
 30
0.0
 40
0.059055
100
AcDbArc
 50
49.185014
 51
298.310064
  0
LINE
  5
253
100
AcDbEntity
  8
R-DOOR-DETL
100
AcDbLine
 10
12.865741
 20
23.634476
 30
0.0
 11
12.320637
 21
23.634476
 31
0.0
  0
ARC
  5
254
100
AcDbEntity
  8
R-DOOR-DETL
100
AcDbCircle
 10
12.312302
 20
23.585974
 30
0.0
 40
0.049212
100
AcDbArc
 50
80.249923
 51
131.403987
  0
LINE
  5
255
100
AcDbEntity
  8
R-DOOR-DETL
  6
BYBLOCK
 62
     3
100
AcDbLine
 10
13.410846
 20
23.634476
 30
0.0
 11
12.865741
 21
23.634476
 31
0.0
  0
ARC
  5
256
100
AcDbEntity
  8
R-DOOR-DETL
  6
BYBLOCK
 62
     3
100
AcDbCircle
 10
13.186803
 20
23.297285
 30
0.0
 40
0.094
100
AcDbArc
 50
0.0
 51
90.0
  0
ARC
  5
257
100
AcDbEntity
  8
R-DOOR-DETL
  6
BYBLOCK
 62
     3
100
AcDbCircle
 10
13.120803
 20
23.231285
 30
0.0
 40
0.015
100
AcDbArc
 50
0.0
 51
90.0
  0
LINE
  5
258
100
AcDbEntity
  8
R-DOOR-DETL
  6
BYBLOCK
 62
     3
100
AcDbLine
 10
13.034803
 20
23.391285
 30
0.0
 11
13.186803
 21
23.391285
 31
0.0
  0
LINE
  5
259
100
AcDbEntity
  8
R-DOOR-DETL
  6
BYBLOCK
 62
     3
100
AcDbLine
 10
13.120803
 20
23.246285
 30
0.0
 11
13.034803
 21
23.246285
 31
0.0
  0
ARC
  5
25A
100
AcDbEntity
  8
R-DOOR-DETL
  6
BYBLOCK
 62
     3
100
AcDbCircle
 10
13.034803
 20
23.376285
 30
0.0
 40
0.015
100
AcDbArc
 50
90.0
 51
180.0
  0
ARC
  5
25B
100
AcDbEntity
  8
R-DOOR-DETL
  6
BYBLOCK
 62
     3
100
AcDbCircle
 10
13.034803
 20
23.261285
 30
0.0
 40
0.015
100
AcDbArc
 50
180.0
 51
270.0
  0
LINE
  5
25C
100
AcDbEntity
  8
R-DOOR-DETL
  6
BYBLOCK
 62
     3
100
AcDbLine
 10
13.019803
 20
23.261285
 30
0.0
 11
13.019803
 21
23.376285
 31
0.0
  0
ARC
  5
25D
100
AcDbEntity
  8
R-DOOR-DETL
  6
BYBLOCK
 62
     3
100
AcDbCircle
 10
13.255741
 20
23.424476
 30
0.0
 40
0.06
100
AcDbArc
 50
360.0
 51
90.0
  0
ARC
  5
25E
100
AcDbEntity
  8
R-DOOR-DETL
  6
BYBLOCK
 62
     3
100
AcDbCircle
 10
12.613076
 20
23.231285
 30
0.0
 40
0.015
100
AcDbArc
 50
90.0
 51
180.0
  0
ARC
  5
25F
100
AcDbEntity
  8
R-DOOR-DETL
  6
BYBLOCK
 62
     3
100
AcDbCircle
 10
12.547076
 20
23.297285
 30
0.0
 40
0.094
100
AcDbArc
 50
90.0
 51
180.0
  0
LINE
  5
260
100
AcDbEntity
  8
R-DOOR-DETL
  6
BYBLOCK
 62
     3
100
AcDbLine
 10
12.613076
 20
23.246285
 30
0.0
 11
12.699076
 21
23.246285
 31
0.0
  0
LINE
  5
261
100
AcDbEntity
  8
R-DOOR-DETL
  6
BYBLOCK
 62
     3
100
AcDbLine
 10
12.699076
 20
23.391285
 30
0.0
 11
12.547076
 21
23.391285
 31
0.0
  0
ARC
  5
262
100
AcDbEntity
  8
R-DOOR-DETL
  6
BYBLOCK
 62
     3
100
AcDbCircle
 10
12.699076
 20
23.261285
 30
0.0
 40
0.015
100
AcDbArc
 50
270.0
 51
0.0
  0
ARC
  5
263
100
AcDbEntity
  8
R-DOOR-DETL
  6
BYBLOCK
 62
     3
100
AcDbCircle
 10
12.699076
 20
23.376285
 30
0.0
 40
0.015
100
AcDbArc
 50
0.0
 51
90.0
  0
LINE
  5
264
100
AcDbEntity
  8
R-DOOR-DETL
  6
BYBLOCK
 62
     3
100
AcDbLine
 10
12.714076
 20
23.261285
 30
0.0
 11
12.714076
 21
23.376285
 31
0.0
  0
ARC
  5
265
100
AcDbEntity
  8
R-DOOR-DETL
  6
BYBLOCK
 62
     3
100
AcDbCircle
 10
12.475741
 20
23.424476
 30
0.0
 40
0.06
100
AcDbArc
 50
90.0
 51
180.0
  0
LINE
  5
266
100
AcDbEntity
  8
R-DOOR-DETL
  6
BYBLOCK
 62
     3
100
AcDbLine
 10
12.475741
 20
23.484476
 30
0.0
 11
12.865741
 21
23.484476
 31
0.0
  0
LINE
  5
267
100
AcDbEntity
  8
R-DOOR-DETL
  6
BYBLOCK
 62
     3
100
AcDbLine
 10
12.776724
 20
23.260509
 30
0.0
 11
12.964724
 21
23.260509
 31
0.0
  0
LINE
  5
268
100
AcDbEntity
  8
R-DOOR-DETL
  6
BYBLOCK
 62
     3
100
AcDbLine
 10
12.776724
 20
23.320509
 30
0.0
 11
12.964724
 21
23.320509
 31
0.0
  0
LINE
  5
269
100
AcDbEntity
  8
R-DOOR-DETL
  6
BYBLOCK
 62
     3
100
AcDbLine
 10
12.746724
 20
23.290509
 30
0.0
 11
12.994724
 21
23.290509
 31
0.0
  0
LINE
  5
26A
100
AcDbEntity
  8
R-DOOR-DETL
  6
BYBLOCK
 62
     3
100
AcDbLine
 10
12.746724
 20
23.350509
 30
0.0
 11
12.994724
 21
23.350509
 31
0.0
  0
LINE
  5
26B
100
AcDbEntity
  8
R-DOOR-DETL
  6
BYBLOCK
 62
     3
100
AcDbLine
 10
12.746724
 20
23.230509
 30
0.0
 11
12.994724
 21
23.230509
 31
0.0
  0
LINE
  5
26C
100
AcDbEntity
  8
R-DOOR-DETL
  6
BYBLOCK
 62
     3
100
AcDbLine
 10
12.776724
 20
23.380509
 30
0.0
 11
12.964724
 21
23.380509
 31
0.0
  0
LINE
  5
26D
100
AcDbEntity
  8
R-DOOR-DETL
  6
BYBLOCK
 62
     3
100
AcDbLine
 10
12.776724
 20
23.440509
 30
0.0
 11
12.964724
 21
23.440509
 31
0.0
  0
LINE
  5
26E
100
AcDbEntity
  8
R-DOOR-DETL
  6
BYBLOCK
 62
     3
100
AcDbLine
 10
12.746724
 20
23.410509
 30
0.0
 11
12.994724
 21
23.410509
 31
0.0
  0
LINE
  5
26F
100
AcDbEntity
  8
R-DOOR-DETL
  6
BYBLOCK
 62
     3
100
AcDbLine
 10
12.746724
 20
23.470509
 30
0.0
 11
12.994724
 21
23.470509
 31
0.0
  0
LINE
  5
270
100
AcDbEntity
  8
R-DOOR-DETL
  6
BYBLOCK
 62
     3
100
AcDbLine
 10
12.865741
 20
23.484476
 30
0.0
 11
13.255741
 21
23.484476
 31
0.0
  0
LINE
  5
271
100
AcDbEntity
  8
R-DOOR-DETL
  6
BYBLOCK
 62
     3
100
AcDbLine
 10
12.620724
 20
23.235644
 30
0.0
 11
13.120724
 21
23.235644
 31
0.0
  0
LINE
  5
272
100
AcDbEntity
  8
R-DOOR-DETL
  6
BYBLOCK
 62
     3
100
AcDbLine
 10
12.776724
 20
23.080509
 30
0.0
 11
12.964724
 21
23.080509
 31
0.0
  0
LINE
  5
273
100
AcDbEntity
  8
R-DOOR-DETL
  6
BYBLOCK
 62
     3
100
AcDbLine
 10
12.776724
 20
23.140509
 30
0.0
 11
12.964724
 21
23.140509
 31
0.0
  0
LINE
  5
274
100
AcDbEntity
  8
R-DOOR-DETL
  6
BYBLOCK
 62
     3
100
AcDbLine
 10
12.746724
 20
23.110509
 30
0.0
 11
12.994724
 21
23.110509
 31
0.0
  0
LINE
  5
275
100
AcDbEntity
  8
R-DOOR-DETL
  6
BYBLOCK
 62
     3
100
AcDbLine
 10
12.620724
 20
23.110644
 30
0.0
 11
13.120724
 21
23.110644
 31
0.0
  0
LINE
  5
276
100
AcDbEntity
  8
R-DOOR-DETL
  6
BYBLOCK
 62
     3
100
AcDbLine
 10
13.120724
 20
23.110644
 30
0.0
 11
13.120724
 21
23.235644
 31
0.0
  0
LINE
  5
277
100
AcDbEntity
  8
R-DOOR-DETL
  6
BYBLOCK
 62
     3
100
AcDbLine
 10
13.135803
 20
23.104285
 30
0.0
 11
13.135803
 21
23.231285
 31
0.0
  0
LINE
  5
278
100
AcDbEntity
  8
R-DOOR-DETL
  6
BYBLOCK
 62
     3
100
AcDbLine
 10
13.280803
 20
23.297285
 30
0.0
 11
13.280803
 21
23.042368
 31
0.0
  0
LINE
  5
279
100
AcDbEntity
  8
R-DOOR-DETL
  6
BYBLOCK
 62
     3
100
AcDbLine
 10
12.620724
 20
23.110644
 30
0.0
 11
12.620724
 21
23.235644
 31
0.0
  0
LINE
  5
27A
100
AcDbEntity
  8
R-DOOR-DETL
  6
BYBLOCK
 62
     3
100
AcDbLine
 10
12.598076
 20
23.104285
 30
0.0
 11
12.598076
 21
23.231285
 31
0.0
  0
LINE
  5
27B
100
AcDbEntity
  8
R-DOOR-DETL
  6
BYBLOCK
 62
     3
100
AcDbLine
 10
12.453076
 20
23.297285
 30
0.0
 11
12.453076
 21
23.042368
 31
0.0
  0
LINE
  5
27C
100
AcDbEntity
  8
R-DOOR-DETL
100
AcDbLine
 10
13.467122
 20
24.204179
 30
0.0
 11
13.610734
 21
24.204179
 31
0.0
  0
LINE
  5
27D
100
AcDbEntity
  8
R-DOOR-DETL
100
AcDbLine
 10
13.616734
 20
24.204179
 30
0.0
 11
12.865741
 21
24.204179
 31
0.0
  0
ARC
  5
27E
100
AcDbEntity
  8
R-DOOR-DETL
100
AcDbCircle
 10
12.865741
 20
23.957624
 30
0.0
 40
0.15678
100
AcDbArc
 50
190.315077
 51
214.562525
  0
ARC
  5
27F
100
AcDbEntity
  8
R-DOOR-DETL
100
AcDbCircle
 10
12.865741
 20
23.957624
 30
0.0
 40
0.059055
100
AcDbArc
 50
319.488274
 51
220.511726
  0
ARC
  5
280
100
AcDbEntity
  8
R-DOOR-DETL
100
AcDbCircle
 10
12.865741
 20
23.957624
 30
0.0
 40
0.15678
100
AcDbArc
 50
325.437475
 51
349.684923
  0
ARC
  5
281
100
AcDbEntity
  8
R-DOOR-DETL
  6
BYBLOCK
 62
     3
100
AcDbCircle
 10
13.220074
 20
24.418281
 30
0.0
 40
0.031
100
AcDbArc
 50
330.0
 51
57.493872
  0
LINE
  5
282
100
AcDbEntity
  8
R-DOOR-DETL
  6
BYBLOCK
 62
     3
100
AcDbLine
 10
13.366683
 20
24.451628
 30
0.0
 11
13.261551
 21
24.424636
 31
0.0
  0
ARC
  5
283
100
AcDbEntity
  8
R-DOOR-DETL
  6
BYBLOCK
 62
     3
100
AcDbCircle
 10
13.361408
 20
24.418281
 30
0.0
 40
0.031
100
AcDbArc
 50
122.506128
 51
210.0
  0
LINE
  5
284
100
AcDbEntity
  8
R-DOOR-DETL
  6
BYBLOCK
 62
     3
100
AcDbLine
 10
12.920012
 20
24.435179
 30
0.0
 11
12.81147
 21
24.435179
 31
0.0
  0
LINE
  5
285
100
AcDbEntity
  8
R-DOOR-DETL
  6
BYBLOCK
 62
     3
100
AcDbLine
 10
12.43009
 20
24.421161
 30
0.0
 11
12.528962
 21
24.465946
 31
0.0
  0
ARC
  5
286
100
AcDbEntity
  8
R-DOOR-DETL
  6
BYBLOCK
 62
     3
100
AcDbCircle
 10
12.511408
 20
24.418281
 30
0.0
 40
0.031
100
AcDbArc
 50
122.506128
 51
210.0
  0
ARC
  5
287
100
AcDbEntity
  8
R-DOOR-DETL
  6
BYBLOCK
 62
     3
100
AcDbCircle
 10
12.370074
 20
24.418281
 30
0.0
 40
0.031
100
AcDbArc
 50
330.0
 51
57.493872
  0
LINE
  5
288
100
AcDbEntity
  8
R-DOOR-DETL
100
AcDbLine
 10
13.049502
 20
23.954179
 30
0.0
 11
13.33803
 21
23.954179
 31
0.0
  0
ARC
  5
289
100
AcDbEntity
  8
R-DOOR-DETL
  6
BYBLOCK
 62
     3
100
AcDbCircle
 10
13.114361
 20
24.235179
 30
0.0
 40
0.031
100
AcDbArc
 50
270.0
 51
330.0
  0
ARC
  5
28A
100
AcDbEntity
  8
R-DOOR-DETL
100
AcDbCircle
 10
13.049502
 20
23.924179
 30
0.0
 40
0.03
100
AcDbArc
 50
90.0
 51
169.684923
  0
ARC
  5
28B
100
AcDbEntity
  8
R-DOOR-DETL
  6
BYBLOCK
 62
     3
100
AcDbCircle
 10
13.467122
 20
24.235179
 30
0.0
 40
0.031
100
AcDbArc
 50
210.0
 51
270.0
  0
ARC
  5
28C
100
AcDbEntity
  8
R-DOOR-DETL
100
AcDbCircle
 10
13.33803
 20
23.923179
 30
0.0
 40
0.031
100
AcDbArc
 50
360.0
 51
90.0
  0
ARC
  5
28D
100
AcDbEntity
  8
R-DOOR-DETL
  6
BYBLOCK
 62
     3
100
AcDbCircle
 10
12.264361
 20
24.235179
 30
0.0
 40
0.031
100
AcDbArc
 50
270.0
 51
330.0
  0
ARC
  5
28E
100
AcDbEntity
  8
R-DOOR-DETL
  6
BYBLOCK
 62
     3
100
AcDbCircle
 10
12.617122
 20
24.235179
 30
0.0
 40
0.031
100
AcDbArc
 50
210.0
 51
270.0
  0
LINE
  5
28F
100
AcDbEntity
  8
R-DOOR-DETL
100
AcDbLine
 10
12.393453
 20
23.954179
 30
0.0
 11
12.68198
 21
23.954179
 31
0.0
  0
ARC
  5
290
100
AcDbEntity
  8
R-DOOR-DETL
100
AcDbCircle
 10
12.393453
 20
23.923179
 30
0.0
 40
0.031
100
AcDbArc
 50
90.0
 51
180.0
  0
ARC
  5
291
100
AcDbEntity
  8
R-DOOR-DETL
100
AcDbCircle
 10
12.68198
 20
23.924179
 30
0.0
 40
0.03
100
AcDbArc
 50
10.315077
 51
90.0
  0
LINE
  5
292
100
AcDbEntity
  8
R-DOOR-DETL
  6
BYBLOCK
 62
     3
100
AcDbLine
 10
12.617122
 20
24.204179
 30
0.0
 11
13.114361
 21
24.204179
 31
0.0
  0
LINE
  5
293
100
AcDbEntity
  8
R-DOOR-DETL
  6
BYBLOCK
 62
     3
100
AcDbLine
 10
13.141207
 20
24.219679
 30
0.0
 11
13.246921
 21
24.402781
 31
0.0
  0
LINE
  5
294
100
AcDbEntity
  8
R-DOOR-DETL
  6
BYBLOCK
 62
     3
100
AcDbLine
 10
13.334561
 20
24.402781
 30
0.0
 11
13.440275
 21
24.219679
 31
0.0
  0
LINE
  5
295
100
AcDbEntity
  8
R-DOOR-DETL
  6
BYBLOCK
 62
     3
100
AcDbLine
 10
12.484561
 20
24.402781
 30
0.0
 11
12.590275
 21
24.219679
 31
0.0
  0
LINE
  5
296
100
AcDbEntity
  8
R-DOOR-DETL
  6
BYBLOCK
 62
     3
100
AcDbLine
 10
12.291207
 20
24.219679
 30
0.0
 11
12.396921
 21
24.402781
 31
0.0
  0
LINE
  5
297
100
AcDbEntity
  8
R-DOOR-DETL
100
AcDbLine
 10
13.548241
 20
24.204179
 30
0.0
 11
12.183241
 21
24.204179
 31
0.0
  0
LINE
  5
298
100
AcDbEntity
  8
R-DOOR-DETL
100
AcDbLine
 10
13.548241
 20
24.329179
 30
0.0
 11
12.183241
 21
24.329179
 31
0.0
  0
ARC
  5
299
100
AcDbEntity
  8
R-DOOR-DETL
100
AcDbCircle
 10
12.120749
 20
24.235179
 30
0.0
 40
0.031
100
AcDbArc
 50
180.0
 51
270.0
  0
ARC
  5
29A
100
AcDbEntity
  8
R-DOOR-DETL
100
AcDbCircle
 10
12.114749
 20
24.234179
 30
0.0
 40
0.03
100
AcDbArc
 50
180.0
 51
270.0
  0
LINE
  5
29B
100
AcDbEntity
  8
R-DOOR-DETL
100
AcDbLine
 10
12.089749
 20
24.465383
 30
0.0
 11
12.089749
 21
24.235179
 31
0.0
  0
LINE
  5
29C
100
AcDbEntity
  8
R-DOOR-DETL
100
AcDbLine
 10
12.865741
 20
24.204179
 30
0.0
 11
12.114749
 21
24.204179
 31
0.0
  0
LINE
  5
29D
100
AcDbEntity
  8
R-DOOR-DETL
100
AcDbLine
 10
12.120749
 20
24.204179
 30
0.0
 11
12.264361
 21
24.204179
 31
0.0
  0
LINE
  5
29E
100
AcDbEntity
  8
R-DOOR-DETL
100
AcDbLine
 10
13.36903
 20
23.923179
 30
0.0
 11
13.36903
 21
23.763137
 31
0.0
  0
LINE
  5
29F
100
AcDbEntity
  8
R-DOOR-DETL
100
AcDbLine
 10
12.362453
 20
23.763137
 30
0.0
 11
12.362453
 21
23.923179
 31
0.0
  0
POLYLINE
  5
2A0
100
AcDbEntity
  8
0
  6
BYBLOCK
 62
     0
100
AcDb2dPolyline
 66
     1
 10
0.0
 20
0.0
 30
0.0
 70
     1
 40
0.09
 41
0.09
  0
VERTEX
  5
2A1
100
AcDbEntity
  8
0
  6
BYBLOCK
 62
     0
100
AcDbVertex
100
AcDb2dVertex
 10
12.011114
 20
23.871716
 30
0.0
 42
1.0
  0
VERTEX
  5
2A2
100
AcDbEntity
  8
0
  6
BYBLOCK
 62
     0
100
AcDbVertex
100
AcDb2dVertex
 10
11.991489
 20
23.882721
 30
0.0
 42
1.0
  0
SEQEND
  5
2A3
100
AcDbEntity
  8
0
  6
BYBLOCK
 62
     0
  0
ARC
  5
2A4
100
AcDbEntity
  8
R-DOOR-DETL
100
AcDbCircle
 10
12.954324
 20
23.896601
 30
0.0
 40
0.049213
100
AcDbArc
 50
152.582198
 51
325.437475
  0
ARC
  5
2A5
100
AcDbEntity
  8
R-DOOR-DETL
100
AcDbCircle
 10
12.777159
 20
23.896601
 30
0.0
 40
0.049213
100
AcDbArc
 50
214.562525
 51
27.417802
  0
LINE
  5
2A6
100
AcDbEntity
  8
R-DOOR-ANNO
  6
CONTINUOUS
100
AcDbLine
 10
13.878522
 20
23.874333
 30
0.0
 11
14.94758
 21
23.27487
 31
0.0
1001
ACAD
1000
DSTYLE
1002
{
1070
   173
1070
     1
1070
     6
1000
_DOTSMALL
1002
}
  0
LINE
  5
2A7
100
AcDbEntity
  8
R-DOOR-ANNO
  6
CONTINUOUS
100
AcDbLine
 10
14.94758
 20
23.27487
 30
0.0
 11
15.12758
 21
23.27487
 31
0.0
1001
ACAD
1000
DSTYLE
1002
{
1070
   173
1070
     1
1070
     6
1000
_DOTSMALL
1002
}
  0
LINE
  5
2A8
100
AcDbEntity
  8
R-DOOR-DETL
100
AcDbLine
 10
13.641734
 20
24.235179
 30
0.0
 11
13.641734
 21
24.465383
 31
0.0
  0
POLYLINE
  5
2A9
100
AcDbEntity
  8
0
  6
BYBLOCK
 62
     0
100
AcDb2dPolyline
 66
     1
 10
0.0
 20
0.0
 30
0.0
 70
     1
 40
0.09
 41
0.09
  0
VERTEX
  5
2AA
100
AcDbEntity
  8
0
  6
BYBLOCK
 62
     0
100
AcDbVertex
100
AcDb2dVertex
 10
13.870111
 20
23.879076
 30
0.0
 42
1.0
  0
VERTEX
  5
2AB
100
AcDbEntity
  8
0
  6
BYBLOCK
 62
     0
100
AcDbVertex
100
AcDb2dVertex
 10
13.850486
 20
23.890081
 30
0.0
 42
1.0
  0
SEQEND
  5
2AC
100
AcDbEntity
  8
0
  6
BYBLOCK
 62
     0
  0
LINE
  5
2AD
100
AcDbEntity
  8
0
  6
BYBLOCK
 62
     0
100
AcDbLine
 10
13.394304
 20
26.034179
 30
0.0
 11
19.505537
 21
26.034179
 31
0.0
  0
ARC
  5
2AE
100
AcDbEntity
  8
R-DOOR-DETL
100
AcDbCircle
 10
13.631734
 20
24.705383
 30
0.0
 40
0.015
100
AcDbArc
 50
270.0
 51
0.0
  0
ARC
  5
2AF
100
AcDbEntity
  8
R-DOOR-DETL
100
AcDbCircle
 10
13.631734
 20
24.475383
 30
0.0
 40
0.015
100
AcDbArc
 50
0.0
 51
90.0
  0
LINE
  5
2B0
100
AcDbEntity
  8
R-DOOR-DETL
100
AcDbLine
 10
12.084749
 20
24.705383
 30
0.0
 11
12.084749
 21
25.359179
 31
0.0
  0
LINE
  5
2B1
100
AcDbEntity
  8
R-DOOR-DETL
  6
BYBLOCK
 62
     3
100
AcDbLine
 10
13.319932
 20
24.633722
 30
0.0
 11
13.214799
 21
24.60673
 31
0.0
  0
LINE
  5
2B2
100
AcDbEntity
  8
R-DOOR-DETL
  6
BYBLOCK
 62
     3
100
AcDbLine
 10
12.451393
 20
24.637197
 30
0.0
 11
12.539613
 21
24.573964
 31
0.0
  0
LINE
  5
2B3
100
AcDbEntity
  8
R-DOOR-DETL
  6
BYBLOCK
 62
     3
100
AcDbLine
 10
12.352521
 20
24.592413
 30
0.0
 11
12.451393
 21
24.637197
 31
0.0
  0
LINE
  5
2B4
100
AcDbEntity
  8
R-DOOR-DETL
  6
BYBLOCK
 62
     3
100
AcDbLine
 10
12.920012
 20
24.623179
 30
0.0
 11
12.81147
 21
24.623179
 31
0.0
  0
LINE
  5
2B5
100
AcDbEntity
  8
R-DOOR-DETL
100
AcDbLine
 10
13.631734
 20
24.690383
 30
0.0
 11
13.565741
 21
24.690383
 31
0.0
  0
ARC
  5
2B6
100
AcDbEntity
  8
R-DOOR-DETL
100
AcDbCircle
 10
13.530741
 20
24.765179
 30
0.0
 40
0.015
100
AcDbArc
 50
360.0
 51
90.0
  0
ARC
  5
2B7
100
AcDbEntity
  8
R-DOOR-DETL
100
AcDbCircle
 10
13.565741
 20
24.675383
 30
0.0
 40
0.015
100
AcDbArc
 50
90.0
 51
180.0
  0
LINE
  5
2B8
100
AcDbEntity
  8
R-DOOR-DETL
100
AcDbLine
 10
13.530741
 20
24.780179
 30
0.0
 11
12.200741
 21
24.780179
 31
0.0
  0
ARC
  5
2B9
100
AcDbEntity
  8
R-DOOR-DETL
100
AcDbCircle
 10
12.165741
 20
24.675383
 30
0.0
 40
0.015
100
AcDbArc
 50
0.0
 51
90.0
  0
LINE
  5
2BA
100
AcDbEntity
  8
R-DOOR-DETL
100
AcDbLine
 10
13.548241
 20
24.754179
 30
0.0
 11
12.183241
 21
24.754179
 31
0.0
  0
ARC
  5
2BB
100
AcDbEntity
  8
R-DOOR-DETL
100
AcDbCircle
 10
12.200741
 20
24.765179
 30
0.0
 40
0.015
100
AcDbArc
 50
90.0
 51
180.0
  0
ARC
  5
2BC
100
AcDbEntity
  8
R-DOOR-DETL
100
AcDbCircle
 10
12.099749
 20
24.705383
 30
0.0
 40
0.015
100
AcDbArc
 50
180.0
 51
270.0
  0
LINE
  5
2BD
100
AcDbEntity
  8
R-DOOR-DETL
100
AcDbLine
 10
12.165741
 20
24.690383
 30
0.0
 11
12.099749
 21
24.690383
 31
0.0
  0
LINE
  5
2BE
100
AcDbEntity
  8
R-DOOR-DETL
100
AcDbLine
 10
13.626734
 20
24.480383
 30
0.0
 11
13.560741
 21
24.480383
 31
0.0
  0
LINE
  5
2BF
100
AcDbEntity
  8
R-DOOR-DETL
100
AcDbLine
 10
13.565741
 20
24.490383
 30
0.0
 11
13.631734
 21
24.490383
 31
0.0
  0
ARC
  5
2C0
100
AcDbEntity
  8
R-DOOR-DETL
100
AcDbCircle
 10
13.560741
 20
24.495383
 30
0.0
 40
0.015
100
AcDbArc
 50
180.0
 51
270.0
  0
ARC
  5
2C1
100
AcDbEntity
  8
R-DOOR-DETL
100
AcDbCircle
 10
13.565741
 20
24.505383
 30
0.0
 40
0.015
100
AcDbArc
 50
180.0
 51
270.0
  0
ARC
  5
2C2
100
AcDbEntity
  8
R-DOOR-DETL
100
AcDbCircle
 10
12.165741
 20
24.505383
 30
0.0
 40
0.015
100
AcDbArc
 50
270.0
 51
0.0
  0
ARC
  5
2C3
100
AcDbEntity
  8
R-DOOR-DETL
100
AcDbCircle
 10
12.170741
 20
24.495383
 30
0.0
 40
0.015
100
AcDbArc
 50
270.0
 51
360.0
  0
ARC
  5
2C4
100
AcDbEntity
  8
R-DOOR-DETL
100
AcDbCircle
 10
12.099749
 20
24.475383
 30
0.0
 40
0.015
100
AcDbArc
 50
90.0
 51
180.0
  0
LINE
  5
2C5
100
AcDbEntity
  8
R-DOOR-DETL
100
AcDbLine
 10
12.170741
 20
24.480383
 30
0.0
 11
12.104749
 21
24.480383
 31
0.0
  0
LINE
  5
2C6
100
AcDbEntity
  8
R-DOOR-DETL
100
AcDbLine
 10
12.099749
 20
24.490383
 30
0.0
 11
12.165741
 21
24.490383
 31
0.0
  0
LINE
  5
2C7
100
AcDbEntity
  8
R-DOOR-DETL
  6
BYBLOCK
 62
     3
100
AcDbLine
 10
13.395873
 20
24.556171
 30
0.0
 11
13.319932
 21
24.633722
 31
0.0
  0
LINE
  5
2C8
100
AcDbEntity
  8
R-DOOR-DETL
100
AcDbLine
 10
13.550741
 20
24.675383
 30
0.0
 11
13.550741
 21
24.505383
 31
0.0
  0
LINE
  5
2C9
100
AcDbEntity
  8
R-DOOR-DETL
100
AcDbLine
 10
13.545741
 20
24.495383
 30
0.0
 11
13.545741
 21
24.765179
 31
0.0
  0
LINE
  5
2CA
100
AcDbEntity
  8
R-DOOR-DETL
100
AcDbLine
 10
12.180741
 20
24.505383
 30
0.0
 11
12.180741
 21
24.675383
 31
0.0
  0
LINE
  5
2CB
100
AcDbEntity
  8
R-DOOR-DETL
100
AcDbLine
 10
12.185741
 20
24.765179
 30
0.0
 11
12.185741
 21
24.495383
 31
0.0
  0
LINE
  5
2CC
100
AcDbEntity
  8
R-DOOR-DETL
  6
BYBLOCK
 62
     3
100
AcDbLine
 10
13.214799
 20
24.60673
 30
0.0
 11
13.185609
 21
24.502187
 31
0.0
  0
LINE
  5
2CD
100
AcDbEntity
  8
R-DOOR-DETL
  6
BYBLOCK
 62
     3
100
AcDbLine
 10
12.81147
 20
24.623179
 30
0.0
 11
12.757199
 21
24.529179
 31
0.0
  0
LINE
  5
2CE
100
AcDbEntity
  8
R-DOOR-DETL
  6
BYBLOCK
 62
     3
100
AcDbLine
 10
12.920012
 20
24.623179
 30
0.0
 11
12.974283
 21
24.529179
 31
0.0
  0
LINE
  5
2CF
100
AcDbEntity
  8
R-DOOR-DETL
  6
BYBLOCK
 62
     3
100
AcDbLine
 10
12.341869
 20
24.484395
 30
0.0
 11
12.352521
 21
24.592413
 31
0.0
  0
LINE
  5
2D0
100
AcDbEntity
  8
R-DOOR-DETL
100
AcDbLine
 10
12.019749
 20
25.784179
 30
0.0
 11
11.949749
 21
25.784179
 31
0.0
  0
ARC
  5
2D1
100
AcDbEntity
  8
R-DOOR-DETL
100
AcDbCircle
 10
11.949749
 20
25.769179
 30
0.0
 40
0.015
100
AcDbArc
 50
90.0
 51
180.0
  0
ARC
  5
2D2
100
AcDbEntity
  8
R-DOOR-DETL
100
AcDbCircle
 10
12.019749
 20
25.769179
 30
0.0
 40
0.015
100
AcDbArc
 50
0.0
 51
90.0
  0
LINE
  5
2D3
100
AcDbEntity
  8
R-DOOR-DETL
100
AcDbLine
 10
12.069749
 20
25.374179
 30
0.0
 11
12.049749
 21
25.374179
 31
0.0
  0
ARC
  5
2D4
100
AcDbEntity
  8
R-DOOR-DETL
100
AcDbCircle
 10
12.069749
 20
25.359179
 30
0.0
 40
0.015
100
AcDbArc
 50
0.0
 51
90.0
  0
ARC
  5
2D5
100
AcDbEntity
  8
R-DOOR-DETL
100
AcDbCircle
 10
12.049749
 20
25.389179
 30
0.0
 40
0.015
100
AcDbArc
 50
180.0
 51
270.0
  0
LINE
  5
2D6
100
AcDbEntity
  8
R-DOOR-DETL
100
AcDbLine
 10
12.034749
 20
25.389179
 30
0.0
 11
12.034749
 21
25.769179
 31
0.0
  0
LINE
  5
2D7
100
AcDbEntity
  8
0
  6
BYBLOCK
 62
     0
100
AcDbLine
 10
16.980048
 20
25.469179
 30
0.0
 11
16.980048
 21
25.154179
 31
0.0
  0
MTEXT
  5
2D8
100
AcDbEntity
  8
0
  6
BYBLOCK
 62
     0
100
AcDbMText
 10
15.877548
 20
25.154179
 30
0.0
 40
0.315
 41
0.0
 71
     5
 72
     1
  1
\A1;1/4\P[6mm]
  0
LINE
  5
2D9
100
AcDbEntity
  8
R-DOOR-DETL
100
AcDbLine
 10
13.646734
 20
25.359179
 30
0.0
 11
13.646734
 21
24.705383
 31
0.0
  0
LINE
  5
2DA
100
AcDbEntity
  8
0
  6
BYBLOCK
 62
     0
100
AcDbLine
 10
16.980048
 20
25.154179
 30
0.0
 11
16.665048
 21
25.154179
 31
0.0
  0
LINE
  5
2DB
100
AcDbEntity
  8
0
  6
BYBLOCK
 62
     0
100
AcDbLine
 10
13.856109
 20
25.784179
 30
0.0
 11
17.295048
 21
25.784179
 31
0.0
  0
POINT
  5
2DC
100
AcDbEntity
  8
R-DOOR-DETL
  6
BYBLOCK
 62
     3
100
AcDbPoint
 10
13.746734
 20
25.784179
 30
0.0
  0
ARC
  5
2DD
100
AcDbEntity
  8
R-DOOR-DETL
  6
BYBLOCK
 62
     3
100
AcDbCircle
 10
13.711734
 20
25.769179
 30
0.0
 40
0.015
100
AcDbArc
 50
90.0
 51
180.0
  0
LINE
  5
2DE
100
AcDbEntity
  8
R-DOOR-DETL
  6
BYBLOCK
 62
     3
100
AcDbLine
 10
13.781734
 20
25.784179
 30
0.0
 11
13.711734
 21
25.784179
 31
0.0
  0
ARC
  5
2DF
100
AcDbEntity
  8
R-DOOR-DETL
  6
BYBLOCK
 62
     3
100
AcDbCircle
 10
13.781734
 20
25.769179
 30
0.0
 40
0.015
100
AcDbArc
 50
0.0
 51
90.0
  0
ARC
  5
2E0
100
AcDbEntity
  8
R-DOOR-DETL
100
AcDbCircle
 10
13.661734
 20
25.359179
 30
0.0
 40
0.015
100
AcDbArc
 50
90.0
 51
180.0
  0
LINE
  5
2E1
100
AcDbEntity
  8
R-DOOR-DETL
100
AcDbLine
 10
13.681734
 20
25.374179
 30
0.0
 11
13.661734
 21
25.374179
 31
0.0
  0
ARC
  5
2E2
100
AcDbEntity
  8
R-DOOR-DETL
100
AcDbCircle
 10
13.681734
 20
25.389179
 30
0.0
 40
0.015
100
AcDbArc
 50
270.0
 51
0.0
  0
LINE
  5
2E3
100
AcDbEntity
  8
R-DOOR-DETL
100
AcDbLine
 10
13.696734
 20
25.769179
 30
0.0
 11
13.696734
 21
25.389179
 31
0.0
  0
LINE
  5
2E4
100
AcDbEntity
  8
R-DOOR-DETL
  6
BYBLOCK
 62
     3
100
AcDbLine
 10
13.856734
 20
25.784179
 30
0.0
 11
13.806734
 21
25.784179
 31
0.0
  0
SOLID
  5
2E5
100
AcDbEntity
  8
0
  6
BYBLOCK
 62
     0
100
AcDbTrace
 10
16.927548
 20
25.469179
 30
0.0
 11
17.032548
 21
25.469179
 31
0.0
 12
16.980048
 22
25.784179
 32
0.0
 13
16.980048
 23
25.784179
 33
0.0
  0
POINT
  5
2E6
100
AcDbEntity
  8
DEFPOINTS
  6
BYBLOCK
 62
     0
100
AcDbPoint
 10
16.980048
 20
25.784179
 30
0.0
  0
LINE
  5
2E7
100
AcDbEntity
  8
0
100
AcDbLine
 10
15.865741
 20
26.034179
 30
0.0
 11
9.865741
 21
26.034179
 31
0.0
  0
POINT
  5
2E8
100
AcDbEntity
  8
DEFPOINTS
  6
BYBLOCK
 62
     0
100
AcDbPoint
 10
9.865741
 20
26.034179
 30
0.0
  0
LINE
  5
2E9
100
AcDbEntity
  8
0
  6
BYBLOCK
 62
     0
100
AcDbLine
 10
16.980048
 20
26.349179
 30
0.0
 11
16.980048
 21
26.664179
 31
0.0
  0
LINE
  5
2EA
100
AcDbEntity
  8
R-DOOR-PATT
  6
CONTINUOUS
 62
     5
100
AcDbLine
 10
15.865741
 20
27.244999
 30
0.0
 11
14.654921
 21
26.034179
 31
0.0
  0
LINE
  5
2EB
100
AcDbEntity
  8
R-DOOR-PATT
  6
CONTINUOUS
 62
     5
100
AcDbLine
 10
15.865741
 20
26.803058
 30
0.0
 11
15.096863
 21
26.034179
 31
0.0
  0
LINE
  5
2EC
100
AcDbEntity
  8
R-DOOR-PATT
  6
CONTINUOUS
 62
     5
100
AcDbLine
 10
15.865741
 20
26.361116
 30
0.0
 11
15.538805
 21
26.034179
 31
0.0
  0
SOLID
  5
2ED
100
AcDbEntity
  8
0
  6
BYBLOCK
 62
     0
100
AcDbTrace
 10
16.927548
 20
26.349179
 30
0.0
 11
17.032548
 21
26.349179
 31
0.0
 12
16.980048
 22
26.034179
 32
0.0
 13
16.980048
 23
26.034179
 33
0.0
  0
POINT
  5
2EE
100
AcDbEntity
  8
DEFPOINTS
  6
BYBLOCK
 62
     0
100
AcDbPoint
 10
15.865741
 20
26.034179
 30
0.0
  0
LINE
  5
2EF
100
AcDbEntity
  8
0
  6
BYBLOCK
 62
     0
100
AcDbLine
 10
15.975116
 20
26.034179
 30
0.0
 11
17.295048
 21
26.034179
 31
0.0
  0
SOLID
  5
2F0
100
AcDbEntity
  8
0
  6
BYBLOCK
 62
     0
100
AcDbTrace
 10
19.138037
 20
25.719179
 30
0.0
 11
19.243037
 21
25.719179
 31
0.0
 12
19.190537
 22
26.034179
 32
0.0
 13
19.190537
 23
26.034179
 33
0.0
  0
TEXT
  5
2F1
100
AcDbEntity
  8
DIMN
100
AcDbText
 10
13.093052
 20
30.134887
 30
0.0
 40
0.375
  1
TO GLASS INCREASES BY 1/2"
100
AcDbText
  0
TEXT
  5
2F2
100
AcDbEntity
  8
DIMN
100
AcDbText
 10
13.137357
 20
29.515103
 30
0.0
 40
0.375
  1
I.E. GLASS IS CLEAR OPENING LESS 7
100
AcDbText
  0
LINE
  5
2F3
100
AcDbEntity
  8
R-DOOR-PATT
  6
CONTINUOUS
 62
     5
100
AcDbLine
 10
10.025795
 20
28.034179
 30
0.0
 11
9.865741
 21
27.874126
 31
0.0
  0
LINE
  5
2F4
100
AcDbEntity
  8
R-DOOR-PATT
  6
CONTINUOUS
 62
     5
100
AcDbLine
 10
10.467737
 20
28.034179
 30
0.0
 11
9.865741
 21
27.432184
 31
0.0
  0
TEXT
  5
2F5
100
AcDbEntity
  8
DIMN
100
AcDbText
 10
12.32331
 20
32.643894
 30
0.0
 40
0.375
  1
1. DIMENSIONS ARE THE SAME FOR
100
AcDbText
  0
TEXT
  5
2F6
100
AcDbEntity
  8
DIMN
100
AcDbText
 10
13.093052
 20
32.018894
 30
0.0
 40
0.375
  1
CLAD AND NON-CLAD RAILS
100
AcDbText
  0
TEXT
  5
2F7
100
AcDbEntity
  8
DIMN
100
AcDbText
 10
13.093052
 20
30.761367
 30
0.0
 40
0.375
  1
THE DIMENSION FROM FLOOR
100
AcDbText
  0
TEXT
  5
2F8
100
AcDbEntity
  8
DIMN
100
AcDbText
 10
12.222028
 20
31.397004
 30
0.0
 40
0.375
  1
2. IF 1/2" THRESHOLD IS USED, 
100
AcDbText
  0
TEXT
  5
2F9
100
AcDbEntity
  8
DIMN
100
AcDbText
 10
12.32331
 20
33.268894
 30
0.0
 40
0.375
  1
NOTES:
100
AcDbText
  0
ENDBLK
  5
2FB
100
AcDbEntity
  8
0
100
AcDbBlockEnd
  0
BLOCK
  5
5CA
100
AcDbEntity
  8
0
100
AcDbBlockBegin
  2
A$C6BE867F4
 70
     0
 10
0.0
 20
0.0
 30
0.0
  3
A$C6BE867F4
  1

  0
MTEXT
  5
5C5
100
AcDbEntity
  8
0
 62
     4
100
AcDbMText
 10
2.434972
 20
2.319778
 30
0.0
 40
0.274008
 41
6.855394
 71
     1
 72
     5
  1
\fArial|b1|i0|c0|p34;DOOR RAIL SYSTEM
  0
LWPOLYLINE
  5
5C6
100
AcDbEntity
  8
0
 62
     4
100
AcDbPolyline
 90
        2
 70
     0
 43
0.030704
 10
0.137665
 20
1.940905
 10
6.158597
 20
1.940905
  0
MTEXT
  5
5C7
100
AcDbEntity
  8
0
 62
     4
100
AcDbMText
 10
0.152731
 20
1.682964
 30
0.0
 40
0.242751
 41
6.068763
 71
     1
 72
     5
  1
\fArial|b1|i1|c0|p34;C.R. Laurence Architectural Products
  0
MTEXT
  5
5C8
100
AcDbEntity
  8
0
 62
     4
100
AcDbMText
 10
0.157672
 20
1.238797
 30
0.0
 40
0.191898
 41
6.0133
 71
     1
 72
     5
  1
\fArial|b0|i1|c0|p34;Phone Orders (800) 421-6144\PFax Orders     (800) 262-3299\PWWW.CRLAURENCE.COM\PPatent Pending
  0
INSERT
  5
5C9
100
AcDbEntity
  8
0
 62
     4
100
AcDbBlockReference
  2
A$C2189253D
 10
0.143797
 20
2.032527
 30
0.0
 41
2.535564
 42
2.535564
 43
2.535564
  0
ENDBLK
  5
5CB
100
AcDbEntity
  8
0
100
AcDbBlockEnd
  0
BLOCK
  5
5CE
100
AcDbEntity
  8
0
100
AcDbBlockBegin
  2
A$C0E897680
 70
     0
 10
0.0
 20
0.0
 30
0.0
  3
A$C0E897680
  1

  0
INSERT
  5
5CD
100
AcDbEntity
  8
0
100
AcDbBlockReference
  2
A$C6BE867F4
 10
0.0
 20
0.0
 30
0.0
  0
ENDBLK
  5
5CF
100
AcDbEntity
  8
0
100
AcDbBlockEnd
  0
BLOCK
  5
5D2
100
AcDbEntity
  8
0
100
AcDbBlockBegin
  2
A$C60D73A4C
 70
     0
 10
0.0
 20
0.0
 30
0.0
  3
A$C60D73A4C
  1

  0
INSERT
  5
5D1
100
AcDbEntity
  8
R-DOOR-DETL
100
AcDbBlockReference
  2
A$C0E897680
 10
0.0
 20
0.0
 30
0.0
  0
ENDBLK
  5
5D3
100
AcDbEntity
  8
0
100
AcDbBlockEnd
  0
BLOCK
  5
5D6
100
AcDbEntity
  8
0
100
AcDbBlockBegin
  2
A$C74654F65
 70
     0
 10
0.0
 20
0.0
 30
0.0
  3
A$C74654F65
  1

  0
INSERT
  5
5D5
100
AcDbEntity
  8
R-DOOR-ANNO
100
AcDbBlockReference
  2
A$C60D73A4C
 10
0.0
 20
0.0
 30
0.0
  0
ENDBLK
  5
5D7
100
AcDbEntity
  8
0
100
AcDbBlockEnd
  0
BLOCK
  5
5DA
100
AcDbEntity
  8
0
100
AcDbBlockBegin
  2
A$C5FA07A05
 70
     0
 10
0.0
 20
0.0
 30
0.0
  3
A$C5FA07A05
  1

  0
INSERT
  5
5D9
100
AcDbEntity
  8
0
100
AcDbBlockReference
  2
A$C74654F65
 10
0.0
 20
0.0
 30
0.0
  0
ENDBLK
  5
5DB
100
AcDbEntity
  8
0
100
AcDbBlockEnd
  0
BLOCK
  5
5DE
100
AcDbEntity
  8
0
100
AcDbBlockBegin
  2
A$C46F93324
 70
     0
 10
0.0
 20
0.0
 30
0.0
  3
A$C46F93324
  1

  0
INSERT
  5
5DD
100
AcDbEntity
  8
0
100
AcDbBlockReference
  2
A$C5FA07A05
 10
0.0
 20
0.0
 30
0.0
 41
1.5
 42
1.5
 43
1.5
  0
ENDBLK
  5
5DF
100
AcDbEntity
  8
0
100
AcDbBlockEnd
  0
BLOCK
  5
69F
100
AcDbEntity
  8
0
100
AcDbBlockBegin
  2
A$C404D06BD
 70
     0
 10
0.0
 20
0.0
 30
0.0
  3
A$C404D06BD
  1

  0
LINE
  5
638
100
AcDbEntity
  8
0
 62
     3
100
AcDbLine
 10
20.745532
 20
3.130183
 30
0.0
 11
21.09183
 21
2.930247
 31
0.0
  0
LINE
  5
639
100
AcDbEntity
  8
2
  6
CONTINUOUS
 62
     4
100
AcDbLine
 10
21.155728
 20
3.609413
 30
0.0
 11
20.57318
 21
3.273079
 31
0.0
  0
LINE
  5
63A
100
AcDbEntity
  8
2
  6
CONTINUOUS
 62
     4
100
AcDbLine
 10
20.57318
 20
3.264079
 30
0.0
 11
20.962891
 21
3.039079
 31
0.0
  0
LINE
  5
63B
100
AcDbEntity
  8
2
  6
CONTINUOUS
 62
     4
100
AcDbLine
 10
20.57318
 20
3.273079
 30
0.0
 11
20.962891
 21
3.048079
 31
0.0
  0
LWPOLYLINE
  5
63C
100
AcDbEntity
  8
1
100
AcDbPolyline
 90
        2
 70
     0
 43
0.01
 10
19.824862
 20
4.399746
 10
21.679516
 20
5.470531
  0
LINE
  5
63D
100
AcDbEntity
  8
1
  6
CONTINUOUS
100
AcDbLine
 10
19.824862
 20
4.377246
 30
0.0
 11
21.60974
 21
3.357996
 31
0.0
  0
HATCH
  5
63E
100
AcDbEntity
  8
2
  6
CONTINUOUS
 62
     9
100
AcDbHatch
 10
0.0
 20
0.0
 30
0.0
210
0.0
220
0.0
230
1.0
  2
ANSI31
 70
     0
 71
     0
 91
        1
 92
        7
 72
     1
 73
     1
 93
        7
 10
19.82486193855265
 20
4.377245545898972
 42
0.0
 10
19.82486193855265
 20
4.399745545898973
 42
0.0
 10
21.67998690127629
 20
5.470802442507853
 42
0.0369683020279065
 10
21.3744513838251
 20
5.53465281201047
 42
0.0
 10
19.50671707022358
 20
4.456315903277925
 42
0.0
 10
19.50671707022358
 20
3.896282625820518
 42
0.0
 10
20.0823156114544
 20
4.228604598545295
 42
0.0
 97
        0
 75
     0
 76
     1
 52
0.0
 41
0.05
 77
     0
 78
     1
 53
45.0
 43
-3.101508
 44
-29.891156
 45
-0.0044194173824159
 46
0.0044194173824159
 79
     0
 47
0.022773
 98
        1
 10
19.777296
 20
4.329285
  0
HATCH
  5
63F
100
AcDbEntity
  8
2
  6
CONTINUOUS
 62
     9
100
AcDbHatch
 10
0.0
 20
0.0
 30
0.0
210
0.0
220
0.0
230
1.0
  2
ANSI31
 70
     0
 71
     0
 91
        1
 92
        7
 72
     1
 73
     1
 93
        8
 10
21.68418734318259
 20
5.469590262077275
 42
0.0
 10
21.6810911648744
 20
5.467802682697588
 42
0.0
 10
21.68131616487441
 20
5.467412971265886
 42
0.0
 10
21.6815411648744
 20
5.467023259834185
 42
0.0
 10
21.68176616487441
 20
5.466633548402484
 42
0.0
 10
19.82936193855266
 20
4.397147469687624
 42
0.0
 10
21.60974029575239
 20
3.369245545898969
 42
0.0
 10
23.06456164019556
 20
4.209187040736054
 42
0.2330962772361932
 97
        0
 75
     0
 76
     1
 52
0.0
 41
0.05
 77
     0
 78
     1
 53
45.0
 43
-3.101508
 44
-29.891156
 45
-0.0044194173824159
 46
0.0044194173824159
 79
     0
 47
0.017346
 98
        1
 10
21.491201
 20
4.530326
  0
LINE
  5
640
100
AcDbEntity
  8
1
  6
CONTINUOUS
 62
     5
100
AcDbLine
 10
19.827112
 20
4.395848
 30
0.0
 11
21.681766
 21
5.466634
 31
0.0
  0
LINE
  5
641
100
AcDbEntity
  8
1
  6
CONTINUOUS
 62
     5
100
AcDbLine
 10
19.506717
 20
4.456316
 30
0.0
 11
21.373981
 21
5.534381
 31
0.0
  0
LINE
  5
642
100
AcDbEntity
  8
1
  6
CONTINUOUS
 62
     5
100
AcDbLine
 10
19.487231
 20
4.467566
 30
0.0
 11
21.341951
 21
5.538389
 31
0.0
  0
LINE
  5
643
100
AcDbEntity
  8
1
  6
CONTINUOUS
100
AcDbLine
 10
19.506717
 20
4.456316
 30
0.0
 11
21.373981
 21
5.534381
 31
0.0
  0
LINE
  5
644
100
AcDbEntity
  8
1
  6
CONTINUOUS
 62
     5
100
AcDbLine
 10
19.487231
 20
4.467566
 30
0.0
 11
21.341951
 21
5.538389
 31
0.0
  0
LINE
  5
645
100
AcDbEntity
  8
0
 62
     3
100
AcDbLine
 10
21.04829
 20
2.912776
 30
0.0
 11
19.77034
 21
3.650601
 31
0.0
  0
LINE
  5
646
100
AcDbEntity
  8
1
  6
CONTINUOUS
 62
     5
100
AcDbLine
 39
0.09
 10
19.824862
 20
4.377246
 30
0.0
 11
21.60974
 21
3.346746
 31
0.0
  0
LINE
  5
647
100
AcDbEntity
  8
1
  6
CONTINUOUS
 62
     5
100
AcDbLine
 39
0.09
 10
19.824862
 20
4.399746
 30
0.0
 11
21.60974
 21
3.369246
 31
0.0
  0
LINE
  5
648
100
AcDbEntity
  8
1
  6
CONTINUOUS
100
AcDbLine
 10
19.824862
 20
4.377246
 30
0.0
 11
21.60974
 21
3.357996
 31
0.0
  0
LINE
  5
649
100
AcDbEntity
  8
1
  6
CONTINUOUS
100
AcDbLine
 39
0.09
 10
19.824862
 20
4.377246
 30
0.0
 11
21.60974
 21
3.346746
 31
0.0
  0
LINE
  5
64A
100
AcDbEntity
  8
1
  6
CONTINUOUS
100
AcDbLine
 39
0.09
 10
19.824862
 20
4.399746
 30
0.0
 11
21.60974
 21
3.369246
 31
0.0
  0
HATCH
  5
64B
100
AcDbEntity
  8
2
  6
CONTINUOUS
 62
     9
100
AcDbHatch
 10
0.0
 20
0.0
 30
0.0
210
0.0
220
0.0
230
1.0
  2
SOLID
 70
     1
 71
     0
 91
        2
 92
       23
 72
     1
 73
     1
 93
       20
 10
21.04829038075715
 20
2.912776431094236
 42
0.0
 10
21.04277323790381
 20
2.903220459359623
 42
0.6681786379192962
 10
21.05542773795379
 20
2.886728793813873
 42
0.0
 10
21.08312427998984
 20
2.894150059885561
 42
0.6681786379192695
 10
21.08529490858392
 20
2.910637620956222
 42
0.0
 10
21.07828092239878
 20
2.914687147768312
 42
-0.6681786379192408
 10
21.07936623669583
 20
2.922930928303642
 42
0.0
 10
21.09128758031945
 20
2.926125242700287
 42
0.6681786379193185
 10
21.09183023746798
 20
2.930247132967956
 42
0.0
 10
20.74553152825143
 20
3.130182785954147
 42
0.0
 10
19.58395650391222
 20
3.800818438940339
 42
0.668178637919208
 10
19.58065817080306
 20
3.798287538930345
 42
0.0
 10
19.58385248519971
 20
3.786366195306705
 42
-0.6681786379193225
 10
19.57725581898141
 20
3.781304395286717
 42
0.0
 10
19.57024183279627
 20
3.785353922098799
 42
0.6681786379193126
 10
19.55704850035968
 20
3.775230322058817
 42
0.0
 10
19.56446976643136
 20
3.747533780022763
 42
0.6681786379193007
 10
19.5850792177697
 20
3.744820494280169
 42
0.0
 10
19.59059636062304
 20
3.754376466014775
 42
0.0
 10
19.77033996342058
 20
3.650601448554496
 42
0.0
 97
        0
 92
        7
 72
     1
 73
     1
 93
       37
 10
19.46597187034673
 20
3.872758373703433
 42
0.4142135623731299
 10
19.45922187034672
 20
3.866008373703444
 42
0.0
 10
19.45922187034672
 20
3.085258373703439
 42
0.0
 10
21.21292331301021
 20
2.072758373703443
 42
0.0
 10
21.21292331301022
 20
2.853508373703441
 42
0.1316524975873667
 10
21.20780128445576
 20
2.862379987397552
 42
0.0
 10
21.09425617661198
 20
2.927935285976325
 42
0.0376464264871547
 10
21.09290665396327
 20
2.927833532355286
 42
-0.2823673447488831
 10
21.09128758031945
 20
2.926125242700287
 42
0.0
 10
21.0877804848932
 20
2.925185519313046
 42
0.5149511874561723
 10
21.09045261225631
 20
2.910778515892999
 42
0.0
 10
21.10239667263852
 20
2.905208909067312
 42
0.0
 10
21.08889773007922
 20
2.898926214279825
 42
-0.2180320882791709
 10
21.08312427998984
 20
2.894150059885561
 42
0.0
 10
21.07254522399398
 20
2.891315410374794
 42
0.0
 10
21.06110938590341
 20
2.885992928258389
 42
0.0
 10
21.04648438590341
 20
2.885992928258389
 42
1.0
 10
21.04648438590341
 20
2.865742928258391
 42
0.0
 10
21.12067582541464
 20
2.843659795132886
 42
-0.5578319223640622
 10
21.17692331301022
 20
2.776108373703451
 42
0.0
 10
21.17692331301022
 20
2.174008373703436
 42
-0.5129809895031772
 10
21.15553246951109
 20
2.157854516873733
 42
0.0
 10
19.56161271384584
 20
3.078104516873743
 42
-0.2397239142270584
 10
19.49522187034673
 20
3.186508373703439
 42
0.0
 10
19.49537308261954
 20
3.769408995419148
 42
-1.046264757040728
 10
19.50847094370432
 20
3.772922033528836
 42
0.0
 10
19.55394630903113
 20
3.730790777914485
 42
0.6309633877406034
 10
19.56900910645429
 20
3.741143480964325
 42
-0.1798205534880095
 10
19.56446976643136
 20
3.747533780022763
 42
0.0
 10
19.56444990136027
 20
3.747607917477402
 42
0.0
 10
19.55140568750077
 20
3.772410854440543
 42
0.0
 10
19.56007295843467
 20
3.790561513181792
 42
0.0
 10
19.57320162156283
 20
3.789412903990829
 42
0.293926452988122
 10
19.58182060324045
 20
3.79394928201367
 42
0.0
 10
19.58065817080306
 20
3.798287538930345
 42
-0.4565659268922137
 10
19.5825635077849
 20
3.801103864341236
 42
0.1814616707363846
 10
19.57865280709027
 20
3.806074182803108
 42
0.0
 97
        0
 75
     0
 76
     1
 47
0.011788
 98
        2
 10
19.799989
 20
3.650532
 10
19.52927
 20
3.809665
  0
LINE
  5
64C
100
AcDbEntity
  8
GREEN
  6
CONTINUOUS
100
AcDbLine
 39
1.8
 10
21.155532
 20
2.157855
 30
0.0
 11
19.561613
 21
3.078105
 31
0.0
  0
LINE
  5
64D
100
AcDbEntity
  8
GREEN
  6
CONTINUOUS
100
AcDbLine
 39
1.8
 10
19.459222
 20
2.43741
 30
0.0
 11
21.212923
 21
1.42491
 31
0.0
  0
MTEXT
  5
64E
100
AcDbEntity
  8
2
  6
CONTINUOUS
 62
     9
100
AcDbMText
 10
19.419792
 20
0.951607
 30
0.0
 40
0.6939
 41
4.9041
 71
     1
 72
     5
  1
\fArial|b1|i0|c0|p34;\C7;C L A D
  7
ROMANS
  0
HATCH
  5
64F
100
AcDbEntity
  8
1
  6
CONTINUOUS
 62
     5
100
AcDbHatch
 10
0.0
 20
0.0
 30
0.0
210
0.0
220
0.0
230
1.0
  2
SOLID
 70
     1
 71
     0
 91
        7
 92
        7
 72
     1
 73
     1
 93
        4
 10
21.37398064742291
 20
5.534381032221951
 42
0.003817909443379
 10
21.34195090589734
 20
5.538388652330077
 42
0.0
 10
19.48723149863843
 20
4.467565903277922
 42
0.0
 10
19.50671707022358
 20
4.456315903277925
 42
0.0
 97
        0
 92
        7
 72
     0
 73
     1
 93
        4
 10
19.50671707022358
 20
4.456315903277925
 10
19.48723149863843
 20
4.467565903277922
 10
19.48723149863843
 20
3.885032625820521
 10
19.50671707022358
 20
3.896282625820518
 97
        0
 92
        7
 72
     0
 73
     1
 93
        4
 10
19.82486193855265
 20
4.399745545898973
 10
19.82486193855265
 20
4.377245545898972
 10
21.60974029575239
 20
3.357995545898972
 10
21.60974029575239
 20
3.369245545898969
 97
        0
 92
        7
 72
     1
 73
     1
 93
        4
 10
23.07118859130659
 20
4.190513112743914
 42
0.002332807343841
 10
23.0640909037936
 20
4.208915260947662
 42
0.0
 10
21.60974029575239
 20
3.369245545898969
 42
0.0
 10
21.60974029575239
 20
3.346745545898976
 42
0.0
 97
        0
 92
        7
 72
     1
 73
     1
 93
        4
 10
23.18482610478548
 20
3.75958583549184
 42
0.0024685623280776
 10
23.18155955953991
 20
3.780199894714989
 42
0.0
 10
21.92967195420258
 20
3.057422248778323
 42
0.0
 10
21.94915752578774
 20
3.046172248778326
 42
0.0
 97
        0
 92
        7
 72
     1
 73
     1
 93
        8
 10
21.94915752578774
 20
3.046172248778326
 42
0.0
 10
21.92967195420258
 20
3.05742224877833
 42
0.0
 10
21.92967195420258
 20
2.22580493468051
 42
-0.5773502691896262
 10
21.90942195420259
 20
2.214113591729415
 42
0.0
 10
21.75819892425327
 20
2.30142224877833
 42
0.0
 10
21.75819892425327
 20
2.278922248778329
 42
0.0
 10
21.90528252578773
 20
2.194003491839019
 42
0.577350269189633
 10
21.94915752578774
 20
2.21933473489971
 42
0.0
 97
        0
 92
        7
 72
     0
 73
     1
 93
        3
 10
19.82486193855267
 20
4.377245545898958
 10
21.60974029575239
 20
3.346745545898976
 10
21.60974029575239
 20
3.357995545898972
 97
        0
 75
     0
 76
     1
 47
0.006507
 98
        7
 10
19.529293
 20
4.482957
 10
19.496613
 20
4.430424
 10
19.837615
 20
4.38499
 10
21.744374
 20
3.439681
 10
22.116545
 20
3.158559
 10
21.940716
 20
2.991643
 10
21.553892
 20
3.38697
  0
HATCH
  5
650
100
AcDbEntity
  8
1
  6
CONTINUOUS
 62
     5
100
AcDbHatch
 10
0.0
 20
0.0
 30
0.0
210
0.0
220
0.0
230
1.0
  2
SOLID
 70
     1
 71
     0
 91
        7
 92
        7
 72
     1
 73
     1
 93
        4
 10
21.37398064742291
 20
5.534381032221951
 42
0.003817909443379
 10
21.34195090589734
 20
5.538388652330077
 42
0.0
 10
19.48723149863843
 20
4.467565903277922
 42
0.0
 10
19.50671707022358
 20
4.456315903277925
 42
0.0
 97
        0
 92
        7
 72
     0
 73
     1
 93
        4
 10
19.50671707022358
 20
4.456315903277925
 10
19.48723149863843
 20
4.467565903277922
 10
19.48723149863843
 20
3.885032625820521
 10
19.50671707022358
 20
3.896282625820525
 97
        0
 92
        7
 72
     0
 73
     1
 93
        4
 10
19.82486193855265
 20
4.399745545898973
 10
19.82486193855265
 20
4.377245545898972
 10
21.60974029575239
 20
3.357995545898972
 10
21.60974029575239
 20
3.369245545898969
 97
        0
 92
        7
 72
     1
 73
     1
 93
        4
 10
23.07118859130659
 20
4.190513112743914
 42
0.002332807343841
 10
23.0640909037936
 20
4.208915260947662
 42
0.0
 10
21.60974029575239
 20
3.369245545898969
 42
0.0
 10
21.60974029575239
 20
3.346745545898976
 42
0.0
 97
        0
 92
        7
 72
     1
 73
     1
 93
        4
 10
23.18482610478548
 20
3.75958583549184
 42
0.0024685623280776
 10
23.18155955953991
 20
3.780199894714989
 42
0.0
 10
21.92967195420258
 20
3.05742224877833
 42
0.0
 10
21.94915752578774
 20
3.046172248778326
 42
0.0
 97
        0
 92
        7
 72
     1
 73
     1
 93
        8
 10
21.94915752578774
 20
3.046172248778326
 42
0.0
 10
21.92967195420258
 20
3.05742224877833
 42
0.0
 10
21.92967195420258
 20
2.22580493468051
 42
-0.5773502691896262
 10
21.90942195420259
 20
2.214113591729415
 42
0.0
 10
21.75819892425327
 20
2.30142224877833
 42
0.0
 10
21.75819892425327
 20
2.278922248778329
 42
0.0
 10
21.90528252578773
 20
2.194003491839019
 42
0.577350269189633
 10
21.94915752578774
 20
2.21933473489971
 42
0.0
 97
        0
 92
        7
 72
     0
 73
     1
 93
        3
 10
19.82486193855267
 20
4.377245545898958
 10
21.60974029575239
 20
3.346745545898976
 10
21.60974029575239
 20
3.357995545898972
 97
        0
 75
     0
 76
     1
 47
0.006507
 98
        7
 10
19.529293
 20
4.482957
 10
19.496613
 20
4.430424
 10
19.837615
 20
4.38499
 10
21.744374
 20
3.439681
 10
22.116545
 20
3.158559
 10
21.940716
 20
2.991643
 10
21.553892
 20
3.38697
  0
LWPOLYLINE
  5
651
100
AcDbEntity
  8
1
  6
CONTINUOUS
 62
     5
100
AcDbPolyline
 90
        2
 70
     0
 43
0.0225
 10
21.35703
 20
5.536894
 42
70374.114908
 10
21.357149
 20
5.536879
 42
70374.114908
  0
LINE
  5
652
100
AcDbEntity
  8
GREEN
100
AcDbLine
 10
19.582065
 20
3.802344
 30
0.0
 11
20.201814
 21
4.160156
 31
0.0
  0
LINE
  5
653
100
AcDbEntity
  8
2
  6
CONTINUOUS
 62
     4
100
AcDbLine
 10
20.376305
 20
4.059413
 30
0.0
 11
19.793757
 21
3.723079
 31
0.0
  0
LINE
  5
654
100
AcDbEntity
  8
2
  6
CONTINUOUS
 62
     4
100
AcDbLine
 10
20.773811
 20
3.829913
 30
0.0
 11
20.183468
 21
3.489079
 31
0.0
  0
LINE
  5
655
100
AcDbEntity
  8
2
  6
CONTINUOUS
 62
     4
100
AcDbLine
 10
20.766017
 20
3.834413
 30
0.0
 11
20.183468
 21
3.498079
 31
0.0
  0
LINE
  5
656
100
AcDbEntity
  8
GREEN
100
AcDbLine
 10
19.465972
 20
3.22491
 30
0.0
 11
20.082786
 21
3.581028
 31
0.0
  0
LINE
  5
657
100
AcDbEntity
  8
2
  6
CONTINUOUS
 62
     4
100
AcDbLine
 10
19.793757
 20
3.714079
 30
0.0
 11
20.183468
 21
3.489079
 31
0.0
  0
LINE
  5
658
100
AcDbEntity
  8
2
  6
CONTINUOUS
 62
     4
100
AcDbLine
 10
19.793757
 20
3.723079
 30
0.0
 11
20.183468
 21
3.498079
 31
0.0
  0
LINE
  5
659
100
AcDbEntity
  8
0
 62
     3
100
AcDbLine
 10
19.583957
 20
3.800818
 30
0.0
 11
20.745532
 21
3.130183
 31
0.0
  0
LINE
  5
65A
100
AcDbEntity
  8
0
 62
     3
100
AcDbLine
 10
19.77034
 20
3.002754
 30
0.0
 11
19.590596
 21
3.106529
 31
0.0
  0
LINE
  5
65B
100
AcDbEntity
  8
2
  6
CONTINUOUS
 62
     4
100
AcDbLine
 10
19.793757
 20
3.075231
 30
0.0
 11
19.793757
 21
3.066231
 31
0.0
  0
LINE
  5
65C
100
AcDbEntity
  8
1
  6
CONTINUOUS
 62
     5
100
AcDbLine
 10
19.824862
 20
3.751898
 30
0.0
 11
19.824862
 21
3.729398
 31
0.0
  0
LINE
  5
65D
100
AcDbEntity
  8
1
  6
CONTINUOUS
 62
     5
100
AcDbLine
 10
19.824862
 20
3.751898
 30
0.0
 11
19.824862
 21
3.729398
 31
0.0
  0
LINE
  5
65E
100
AcDbEntity
  8
1
  6
CONTINUOUS
 62
     5
100
AcDbLine
 39
0.09
 10
19.824862
 20
3.751898
 30
0.0
 11
19.824862
 21
3.729398
 31
0.0
  0
LINE
  5
65F
100
AcDbEntity
  8
1
  6
CONTINUOUS
 62
     5
100
AcDbLine
 39
0.09
 10
19.824862
 20
3.751898
 30
0.0
 11
19.824862
 21
3.729398
 31
0.0
  0
LINE
  5
660
100
AcDbEntity
  8
2
  6
CONTINUOUS
 62
     4
100
AcDbLine
 10
20.183468
 20
3.498079
 30
0.0
 11
20.183468
 21
3.489079
 31
0.0
  0
LINE
  5
661
100
AcDbEntity
  8
2
  6
CONTINUOUS
 62
     4
100
AcDbLine
 10
20.57318
 20
3.273079
 30
0.0
 11
20.57318
 21
3.264079
 31
0.0
  0
LINE
  5
662
100
AcDbEntity
  8
R-DOOR-ANNO
100
AcDbLine
 10
25.693238
 20
7.550862
 30
0.0
 11
21.096018
 21
5.553072
 31
0.0
  0
LINE
  5
663
100
AcDbEntity
  8
GREEN
  6
CONTINUOUS
100
AcDbLine
 39
1.8
 10
21.212923
 20
2.072758
 30
0.0
 11
21.212923
 21
2.853508
 31
0.0
  0
ARC
  5
664
100
AcDbEntity
  8
GREEN
  6
CONTINUOUS
100
AcDbCircle
 39
1.8
 10
21.193808
 20
2.848386
 30
0.0
 40
0.01979
100
AcDbArc
 50
15.0
 51
45.0
  0
LINE
  5
665
100
AcDbEntity
  8
GREEN
  6
CONTINUOUS
100
AcDbLine
 39
1.8
 10
21.207801
 20
2.86238
 30
0.0
 11
21.094256
 21
2.927935
 31
0.0
  0
ARC
  5
666
100
AcDbEntity
  8
GREEN
  6
CONTINUOUS
100
AcDbCircle
 39
1.8
 10
21.094256
 20
2.918935
 30
0.0
 40
0.009
100
AcDbArc
 50
90.0
 51
245.0
  0
LINE
  5
667
100
AcDbEntity
  8
GREEN
  6
CONTINUOUS
100
AcDbLine
 39
1.8
 10
21.090453
 20
2.910779
 30
0.0
 11
21.102397
 21
2.905209
 31
0.0
  0
LINE
  5
668
100
AcDbEntity
  8
GREEN
  6
CONTINUOUS
100
AcDbLine
 39
1.8
 10
21.102397
 20
2.905209
 30
0.0
 11
21.061109
 21
2.885993
 31
0.0
  0
LINE
  5
669
100
AcDbEntity
  8
GREEN
  6
CONTINUOUS
100
AcDbLine
 39
1.8
 10
21.061109
 20
2.885993
 30
0.0
 11
21.046484
 21
2.885993
 31
0.0
  0
ARC
  5
66A
100
AcDbEntity
  8
GREEN
  6
CONTINUOUS
100
AcDbCircle
 39
1.8
 10
21.046484
 20
2.875868
 30
0.0
 40
0.010125
100
AcDbArc
 50
90.0
 51
270.0
  0
LINE
  5
66B
100
AcDbEntity
  8
GREEN
  6
CONTINUOUS
100
AcDbLine
 39
1.8
 10
21.046484
 20
2.865743
 30
0.0
 11
21.120676
 21
2.84366
 31
0.0
  0
ARC
  5
66C
100
AcDbEntity
  8
GREEN
  6
CONTINUOUS
100
AcDbCircle
 39
1.8
 10
21.127946
 20
2.79252
 30
0.0
 40
0.051654
100
AcDbArc
 50
341.47451
 51
98.091202
  0
LINE
  5
66D
100
AcDbEntity
  8
GREEN
  6
CONTINUOUS
100
AcDbLine
 39
1.8
 10
21.176923
 20
2.776108
 30
0.0
 11
21.176923
 21
2.174008
 31
0.0
  0
ARC
  5
66E
100
AcDbEntity
  8
GREEN
  6
CONTINUOUS
100
AcDbCircle
 39
1.8
 10
21.160427
 20
1.525765
 30
0.0
 40
0.016501
100
AcDbArc
 50
252.745313
 51
1.373158
  0
HATCH
  5
66F
100
AcDbEntity
  8
2
  6
CONTINUOUS
 62
     9
100
AcDbHatch
 10
0.0
 20
0.0
 30
0.0
210
0.0
220
0.0
230
1.0
  2
ANSI31
 70
     0
 71
     0
 91
        2
 92
        7
 72
     1
 73
     1
 93
        5
 10
21.94915752578774
 20
3.046172248778326
 42
0.0
 10
21.94915752578774
 20
2.219334734899717
 42
-0.1222318301882672
 10
21.94576359315351
 20
2.205658979696565
 42
0.0
 10
23.13820470277926
 20
2.894115175331769
 42
0.1036486555291188
 10
23.18529684114198
 20
3.759857615253984
 42
0.0
 97
        0
 92
        7
 72
     1
 73
     1
 93
        4
 10
21.90942195420258
 20
2.214113591729422
 42
0.5773502691897784
 10
21.92967195420258
 20
2.22580493468051
 42
0.0
 10
21.92967195420258
 20
2.395252270836564
 42
0.0
 10
21.76267625648784
 20
2.298837259807449
 42
0.0
 97
        0
 75
     0
 76
     1
 52
0.0
 41
0.05
 77
     0
 78
     1
 53
45.0
 43
-3.101508
 44
-29.891156
 45
-0.0044194173824159
 46
0.0044194173824159
 79
     0
 47
0.022773
 98
        2
 10
22.556372
 20
3.017589
 10
21.869294
 20
2.290007
  0
LINE
  5
670
100
AcDbEntity
  8
1
  6
CONTINUOUS
100
AcDbLine
 10
21.60974
 20
3.369246
 30
0.0
 11
23.064091
 21
4.208915
 31
0.0
  0
LWPOLYLINE
  5
671
100
AcDbEntity
  8
1
  6
CONTINUOUS
 62
     5
100
AcDbPolyline
 90
        2
 70
     0
 43
0.009
 10
21.934043
 20
2.198892
 10
23.135601
 20
2.892612
  0
LINE
  5
672
100
AcDbEntity
  8
1
  6
CONTINUOUS
 62
     5
100
AcDbLine
 10
21.934533
 20
2.194003
 30
0.0
 11
23.13609
 21
2.887723
 31
0.0
  0
LINE
  5
673
100
AcDbEntity
  8
2
  6
CONTINUOUS
 62
     4
100
AcDbLine
 10
21.264204
 20
2.688532
 30
0.0
 11
23.179698
 21
3.794442
 31
0.0
  0
LINE
  5
674
100
AcDbEntity
  8
2
  6
CONTINUOUS
 62
     4
100
AcDbLine
 10
21.248616
 20
2.697532
 30
0.0
 11
23.176845
 21
3.810795
 31
0.0
  0
LINE
  5
675
100
AcDbEntity
  8
1
  6
CONTINUOUS
 62
     5
100
AcDbLine
 10
21.949158
 20
3.046172
 30
0.0
 11
23.184826
 21
3.759586
 31
0.0
  0
LINE
  5
676
100
AcDbEntity
  8
1
  6
CONTINUOUS
 62
     5
100
AcDbLine
 10
21.929672
 20
3.057422
 30
0.0
 11
23.18156
 21
3.7802
 31
0.0
  0
LINE
  5
677
100
AcDbEntity
  8
1
  6
CONTINUOUS
100
AcDbLine
 10
21.60974
 20
3.346746
 30
0.0
 11
23.071189
 21
4.190513
 31
0.0
  0
LINE
  5
678
100
AcDbEntity
  8
GREEN
100
AcDbLine
 10
21.212923
 20
2.853508
 30
0.0
 11
23.142655
 21
3.967639
 31
0.0
  0
LINE
  5
679
100
AcDbEntity
  8
GREEN
100
AcDbLine
 10
21.08989
 20
2.926806
 30
0.0
 11
23.10671
 21
4.091217
 31
0.0
  0
LWPOLYLINE
  5
67A
100
AcDbEntity
  8
1
  6
CONTINUOUS
 62
     5
100
AcDbPolyline
 90
        2
 70
     0
 43
0.009
 10
21.760473
 20
1.649717
 10
21.931946
 20
1.748717
  0
LINE
  5
67B
100
AcDbEntity
  8
1
  6
CONTINUOUS
 62
     5
100
AcDbLine
 10
21.758199
 20
1.653574
 30
0.0
 11
21.929672
 21
1.752574
 31
0.0
  0
LINE
  5
67C
100
AcDbEntity
  8
1
  6
CONTINUOUS
 62
     5
100
AcDbLine
 10
21.909422
 20
1.566266
 30
0.0
 11
21.758199
 21
1.653574
 31
0.0
  0
LINE
  5
67D
100
AcDbEntity
  8
1
  6
CONTINUOUS
 62
     5
100
AcDbLine
 10
21.909422
 20
1.566266
 30
0.0
 11
21.758199
 21
1.653574
 31
0.0
  0
LINE
  5
67E
100
AcDbEntity
  8
1
  6
CONTINUOUS
 62
     5
100
AcDbLine
 10
21.905283
 20
1.546156
 30
0.0
 11
21.758199
 21
1.631074
 31
0.0
  0
LINE
  5
67F
100
AcDbEntity
  8
1
  6
CONTINUOUS
 62
     5
100
AcDbLine
 10
21.905283
 20
1.546156
 30
0.0
 11
21.758199
 21
1.631074
 31
0.0
  0
LINE
  5
680
100
AcDbEntity
  8
2
  6
CONTINUOUS
 62
     4
100
AcDbLine
 10
21.264204
 20
1.590684
 30
0.0
 11
21.930143
 21
1.975163
 31
0.0
  0
LINE
  5
681
100
AcDbEntity
  8
GREEN
100
AcDbLine
 10
21.212923
 20
1.42491
 30
0.0
 11
21.930143
 21
1.838997
 31
0.0
  0
LINE
  5
682
100
AcDbEntity
  8
2
  6
CONTINUOUS
 62
     4
100
AcDbLine
 10
21.264204
 20
2.040684
 30
0.0
 11
21.264204
 21
1.590684
 31
0.0
  0
LINE
  5
683
100
AcDbEntity
  8
2
  6
CONTINUOUS
 62
     4
100
AcDbLine
 10
21.248616
 20
2.049684
 30
0.0
 11
21.248616
 21
1.599684
 31
0.0
  0
LINE
  5
684
100
AcDbEntity
  8
2
  6
CONTINUOUS
 62
     4
100
AcDbLine
 10
21.248616
 20
1.599684
 30
0.0
 11
21.264204
 21
1.590684
 31
0.0
  0
LINE
  5
685
100
AcDbEntity
  8
2
  6
CONTINUOUS
 62
     4
100
AcDbLine
 10
21.248616
 20
2.049684
 30
0.0
 11
21.264204
 21
2.040684
 31
0.0
  0
LINE
  5
686
100
AcDbEntity
  8
1
  6
CONTINUOUS
 62
     5
100
AcDbLine
 10
21.758199
 20
1.653574
 30
0.0
 11
21.758199
 21
1.631074
 31
0.0
  0
LINE
  5
687
100
AcDbEntity
  8
1
  6
CONTINUOUS
 62
     5
100
AcDbLine
 10
21.758199
 20
1.653574
 30
0.0
 11
21.758199
 21
1.631074
 31
0.0
  0
LINE
  5
688
100
AcDbEntity
  8
2
  6
CONTINUOUS
 62
     4
100
AcDbLine
 10
21.553234
 20
3.379913
 30
0.0
 11
20.962891
 21
3.039079
 31
0.0
  0
LINE
  5
689
100
AcDbEntity
  8
2
  6
CONTINUOUS
 62
     4
100
AcDbLine
 10
21.54544
 20
3.384413
 30
0.0
 11
20.962891
 21
3.048079
 31
0.0
  0
LINE
  5
68A
100
AcDbEntity
  8
2
  6
CONTINUOUS
 62
     4
100
AcDbLine
 10
20.962891
 20
3.048079
 30
0.0
 11
20.962891
 21
3.039079
 31
0.0
  0
ARC
  5
68B
100
AcDbEntity
  8
0
 62
     3
100
AcDbCircle
 10
21.090705
 20
2.928299
 30
0.0
 40
0.00225
100
AcDbArc
 50
285.0
 51
60.0
  0
ARC
  5
68C
100
AcDbEntity
  8
0
 62
     3
100
AcDbCircle
 10
21.080531
 20
2.918584
 30
0.0
 40
0.0045
100
AcDbArc
 50
105.0
 51
240.0
  0
LINE
  5
68D
100
AcDbEntity
  8
0
 62
     3
100
AcDbLine
 10
21.078281
 20
2.914687
 30
0.0
 11
21.085295
 21
2.910638
 31
0.0
  0
ARC
  5
68E
100
AcDbEntity
  8
0
 62
     3
100
AcDbCircle
 10
21.080795
 20
2.902843
 30
0.0
 40
0.009
100
AcDbArc
 50
285.0
 51
60.0
  0
LINE
  5
68F
100
AcDbEntity
  8
0
 62
     3
100
AcDbLine
 10
21.083124
 20
2.89415
 30
0.0
 11
21.055428
 21
2.886729
 31
0.0
  0
ARC
  5
690
100
AcDbEntity
  8
0
 62
     3
100
AcDbCircle
 10
21.052516
 20
2.897595
 30
0.0
 40
0.01125
100
AcDbArc
 50
150.0
 51
285.0
  0
LINE
  5
691
100
AcDbEntity
  8
0
 62
     3
100
AcDbLine
 10
21.042773
 20
2.90322
 30
0.0
 11
21.04829
 21
2.912776
 31
0.0
  0
LINE
  5
692
100
AcDbEntity
  8
0
 62
     3
100
AcDbLine
 10
21.091288
 20
2.926125
 30
0.0
 11
21.079366
 21
2.922931
 31
0.0
  0
LINE
  5
693
100
AcDbEntity
  8
1
  6
CONTINUOUS
100
AcDbLine
 39
0.09
 10
21.60974
 20
3.369246
 30
0.0
 11
21.60974
 21
3.346746
 31
0.0
  0
LINE
  5
694
100
AcDbEntity
  8
1
  6
CONTINUOUS
 62
     5
100
AcDbLine
 10
21.949158
 20
2.219335
 30
0.0
 11
21.949158
 21
3.046172
 31
0.0
  0
LINE
  5
695
100
AcDbEntity
  8
1
  6
CONTINUOUS
 62
     5
100
AcDbLine
 10
21.949158
 20
2.219335
 30
0.0
 11
21.949158
 21
3.046172
 31
0.0
  0
LINE
  5
696
100
AcDbEntity
  8
1
  6
CONTINUOUS
 62
     5
100
AcDbLine
 10
21.929672
 20
2.225805
 30
0.0
 11
21.929672
 21
3.057422
 31
0.0
  0
LINE
  5
697
100
AcDbEntity
  8
1
  6
CONTINUOUS
 62
     5
100
AcDbLine
 10
21.929672
 20
2.225805
 30
0.0
 11
21.929672
 21
3.057422
 31
0.0
  0
ARC
  5
698
100
AcDbEntity
  8
1
  6
CONTINUOUS
 62
     5
100
AcDbCircle
 10
21.916172
 20
1.577957
 30
0.0
 40
0.0135
100
AcDbArc
 50
240.0
 51
0.0
  0
ARC
  5
699
100
AcDbEntity
  8
1
  6
CONTINUOUS
 62
     5
100
AcDbCircle
 10
21.916172
 20
1.577957
 30
0.0
 40
0.0135
100
AcDbArc
 50
240.0
 51
0.0
  0
ARC
  5
69A
100
AcDbEntity
  8
1
  6
CONTINUOUS
 62
     5
100
AcDbCircle
 10
21.919908
 20
1.571487
 30
0.0
 40
0.02925
100
AcDbArc
 50
240.0
 51
0.0
  0
ARC
  5
69B
100
AcDbEntity
  8
1
  6
CONTINUOUS
 62
     5
100
AcDbCircle
 10
21.919908
 20
1.571487
 30
0.0
 40
0.02925
100
AcDbArc
 50
240.0
 51
0.0
  0
LINE
  5
69C
100
AcDbEntity
  8
1
  6
CONTINUOUS
 62
     5
100
AcDbLine
 10
21.929672
 20
3.057422
 30
0.0
 11
21.949158
 21
3.046172
 31
0.0
  0
LINE
  5
69D
100
AcDbEntity
  8
1
  6
CONTINUOUS
 62
     5
100
AcDbLine
 10
21.929672
 20
3.057422
 30
0.0
 11
21.949158
 21
3.046172
 31
0.0
  0
LINE
  5
69E
100
AcDbEntity
  8
R-DOOR-ANNO
100
AcDbLine
 10
1.387126
 20
4.784398
 30
0.0
 11
0.0
 21
4.784398
 31
0.0
  0
ENDBLK
  5
6A0
100
AcDbEntity
  8
0
100
AcDbBlockEnd
  0
BLOCK
  5
793
100
AcDbEntity
  8
0
100
AcDbBlockBegin
  2
A$C0F445EDA
 70
     0
 10
0.0
 20
0.0
 30
0.0
  3
A$C0F445EDA
  1

  0
LINE
  5
712
100
AcDbEntity
  8
0
100
AcDbLine
 10
1.638399
 20
4.3848
 30
0.0
 11
0.0
 21
4.3848
 31
0.0
  0
LINE
  5
713
100
AcDbEntity
  8
0
100
AcDbLine
 10
25.693238
 20
6.388388
 30
0.0
 11
23.44161
 21
3.231049
 31
0.0
  0
ARC
  5
714
100
AcDbEntity
  8
GREEN
  6
CONTINUOUS
100
AcDbCircle
 39
1.8
 10
21.3923
 20
1.96531
 30
0.0
 40
0.016501
100
AcDbArc
 50
252.745313
 51
1.373158
  0
LINE
  5
715
100
AcDbEntity
  8
GREEN
  6
CONTINUOUS
100
AcDbLine
 39
1.8
 10
21.408796
 20
2.567805
 30
0.0
 11
21.408796
 21
1.965705
 31
0.0
  0
ARC
  5
716
100
AcDbEntity
  8
GREEN
  6
CONTINUOUS
100
AcDbCircle
 39
1.8
 10
21.359819
 20
2.584217
 30
0.0
 40
0.051654
100
AcDbArc
 50
341.47451
 51
98.091202
  0
LINE
  5
717
100
AcDbEntity
  8
GREEN
  6
CONTINUOUS
100
AcDbLine
 39
1.8
 10
21.278357
 20
2.65744
 30
0.0
 11
21.352548
 21
2.635357
 31
0.0
  0
ARC
  5
718
100
AcDbEntity
  8
GREEN
  6
CONTINUOUS
100
AcDbCircle
 39
1.8
 10
21.278357
 20
2.667565
 30
0.0
 40
0.010125
100
AcDbArc
 50
90.0
 51
270.0
  0
LINE
  5
719
100
AcDbEntity
  8
GREEN
  6
CONTINUOUS
100
AcDbLine
 39
1.8
 10
21.292982
 20
2.67769
 30
0.0
 11
21.278357
 21
2.67769
 31
0.0
  0
LINE
  5
71A
100
AcDbEntity
  8
GREEN
  6
CONTINUOUS
100
AcDbLine
 39
1.8
 10
21.334269
 20
2.696906
 30
0.0
 11
21.292982
 21
2.67769
 31
0.0
  0
LINE
  5
71B
100
AcDbEntity
  8
GREEN
  6
CONTINUOUS
100
AcDbLine
 39
1.8
 10
21.322325
 20
2.702476
 30
0.0
 11
21.334269
 21
2.696906
 31
0.0
  0
ARC
  5
71C
100
AcDbEntity
  8
GREEN
  6
CONTINUOUS
100
AcDbCircle
 39
1.8
 10
21.326129
 20
2.710632
 30
0.0
 40
0.009
100
AcDbArc
 50
90.0
 51
245.0
  0
LINE
  5
71D
100
AcDbEntity
  8
GREEN
  6
CONTINUOUS
100
AcDbLine
 39
1.8
 10
21.439674
 20
2.654077
 30
0.0
 11
21.326129
 21
2.719632
 31
0.0
  0
ARC
  5
71E
100
AcDbEntity
  8
GREEN
  6
CONTINUOUS
100
AcDbCircle
 39
1.8
 10
21.42568
 20
2.640083
 30
0.0
 40
0.01979
100
AcDbArc
 50
15.0
 51
45.0
  0
LINE
  5
71F
100
AcDbEntity
  8
GREEN
  6
CONTINUOUS
100
AcDbLine
 39
1.8
 10
21.444796
 20
1.864455
 30
0.0
 11
21.444796
 21
2.645205
 31
0.0
  0
LINE
  5
720
100
AcDbEntity
  8
GREEN
  6
CONTINUOUS
100
AcDbLine
 39
1.8
 10
19.691094
 20
2.876955
 30
0.0
 11
21.444796
 21
1.864455
 31
0.0
  0
LINE
  5
721
100
AcDbEntity
  8
GREEN
  6
CONTINUOUS
100
AcDbLine
 39
1.8
 10
21.387405
 20
1.949552
 30
0.0
 11
19.793485
 21
2.869802
 31
0.0
  0
LINE
  5
722
100
AcDbEntity
  8
GREEN
  6
CONTINUOUS
100
AcDbLine
 39
1.8
 10
19.691094
 20
3.657705
 30
0.0
 11
19.691094
 21
2.876955
 31
0.0
  0
ARC
  5
723
100
AcDbEntity
  8
GREEN
  6
CONTINUOUS
100
AcDbCircle
 39
1.8
 10
19.697844
 20
3.657705
 30
0.0
 40
0.00675
100
AcDbArc
 50
90.0
 51
180.0
  0
LINE
  5
724
100
AcDbEntity
  8
GREEN
  6
CONTINUOUS
100
AcDbLine
 39
1.8
 10
19.810359
 20
3.59787
 30
0.0
 11
19.697844
 21
3.664455
 31
0.0
  0
ARC
  5
725
100
AcDbEntity
  8
GREEN
  6
CONTINUOUS
100
AcDbCircle
 39
1.8
 10
19.805859
 20
3.590076
 30
0.0
 40
0.009
100
AcDbArc
 50
265.0
 51
60.0
  0
LINE
  5
726
100
AcDbEntity
  8
GREEN
  6
CONTINUOUS
100
AcDbLine
 39
1.8
 10
19.791946
 20
3.582259
 30
0.0
 11
19.805074
 21
3.58111
 31
0.0
  0
LINE
  5
727
100
AcDbEntity
  8
GREEN
  6
CONTINUOUS
100
AcDbLine
 39
1.8
 10
19.783278
 20
3.564108
 30
0.0
 11
19.791946
 21
3.582259
 31
0.0
  0
LINE
  5
728
100
AcDbEntity
  8
GREEN
  6
CONTINUOUS
100
AcDbLine
 39
1.8
 10
19.795944
 20
3.540025
 30
0.0
 11
19.783278
 21
3.564108
 31
0.0
  0
ARC
  5
729
100
AcDbEntity
  8
GREEN
  6
CONTINUOUS
100
AcDbCircle
 39
1.8
 10
19.790881
 20
3.531256
 30
0.0
 40
0.010125
100
AcDbArc
 50
240.0
 51
60.0
  0
LINE
  5
72A
100
AcDbEntity
  8
GREEN
  6
CONTINUOUS
100
AcDbLine
 39
1.8
 10
19.740344
 20
3.564619
 30
0.0
 11
19.785819
 21
3.522488
 31
0.0
  0
ARC
  5
72B
100
AcDbEntity
  8
GREEN
  6
CONTINUOUS
100
AcDbCircle
 39
1.8
 10
19.733715
 20
3.563159
 30
0.0
 40
0.006787
100
AcDbArc
 50
12.423788
 51
197.604591
  0
LINE
  5
72C
100
AcDbEntity
  8
GREEN
  6
CONTINUOUS
100
AcDbLine
 39
1.8
 10
19.727094
 20
2.978205
 30
0.0
 11
19.727246
 21
3.561106
 31
0.0
  0
ARC
  5
72D
100
AcDbEntity
  8
GREEN
  6
CONTINUOUS
100
AcDbCircle
 39
1.8
 10
19.866844
 20
2.989261
 30
0.0
 40
0.140186
100
AcDbArc
 50
184.523413
 51
238.446514
  0
LINE
  5
72E
100
AcDbEntity
  8
2
  6
CONTINUOUS
 62
     4
100
AcDbLine
 10
20.805052
 20
3.064776
 30
0.0
 11
21.194764
 21
2.839776
 31
0.0
  0
LINE
  5
72F
100
AcDbEntity
  8
2
  6
CONTINUOUS
 62
     4
100
AcDbLine
 10
20.805052
 20
3.055776
 30
0.0
 11
21.194764
 21
2.830776
 31
0.0
  0
LINE
  5
730
100
AcDbEntity
  8
2
  6
CONTINUOUS
 62
     4
100
AcDbLine
 10
21.387601
 20
3.40111
 30
0.0
 11
20.805052
 21
3.064776
 31
0.0
  0
MTEXT
  5
731
100
AcDbEntity
  8
2
  6
CONTINUOUS
 62
     9
100
AcDbMText
 10
19.651664
 20
0.951607
 30
0.0
 40
0.6939
 41
4.9041
 71
     1
 72
     5
  1
\fArial|b1|i0|c0|p34;\C7;C L A D
  7
ROMANS
  0
LWPOLYLINE
  5
732
102
{ACAD_REACTORS
330
76E
102
}
100
AcDbEntity
  8
1
  6
CONTINUOUS
 62
     5
100
AcDbPolyline
 90
        2
 70
     0
 43
0.0225
 10
21.588903
 20
5.328591
 42
70374.114908
 10
21.589022
 20
5.328576
 42
70374.114908
  0
HATCH
  5
733
100
AcDbEntity
  8
1
  6
CONTINUOUS
 62
     5
100
AcDbHatch
 10
0.0
 20
0.0
 30
0.0
210
0.0
220
0.0
230
1.0
  2
SOLID
 70
     1
 71
     0
 91
        7
 92
        7
 72
     1
 73
     1
 93
        4
 10
21.60585326212248
 20
5.326078100398461
 42
0.003817909443379
 10
21.57382352059691
 20
5.330085720506588
 42
0.0
 10
19.71910411333799
 20
4.259262971454432
 42
0.0
 10
19.73858968492314
 20
4.248012971454429
 42
0.0
 97
        0
 92
        7
 72
     0
 73
     1
 93
        4
 10
19.73858968492314
 20
4.248012971454429
 10
19.71910411333799
 20
4.259262971454432
 10
19.71910411333799
 20
3.676729693997028
 10
19.73858968492314
 20
3.687979693997032
 97
        0
 92
        7
 72
     0
 73
     1
 93
        4
 10
20.05673455325222
 20
4.191442614075484
 10
20.05673455325222
 20
4.168942614075479
 10
21.84161291045195
 20
3.14969261407548
 10
21.84161291045195
 20
3.160942614075477
 97
        0
 92
        7
 72
     1
 73
     1
 93
        4
 10
23.30306120600615
 20
3.982210180920422
 42
0.002332807343841
 10
23.29596351849317
 20
4.000612329124169
 42
0.0
 10
21.84161291045195
 20
3.160942614075477
 42
0.0
 10
21.84161291045195
 20
3.138442614075483
 42
0.0
 97
        0
 92
        7
 72
     1
 73
     1
 93
        4
 10
23.41669871948504
 20
3.551282903668347
 42
0.0024685623280776
 10
23.41343217423948
 20
3.571896962891496
 42
0.0
 10
22.16154456890215
 20
2.849119316954837
 42
0.0
 10
22.1810301404873
 20
2.837869316954833
 42
0.0
 97
        0
 92
        7
 72
     1
 73
     1
 93
        8
 10
22.1810301404873
 20
2.837869316954833
 42
0.0
 10
22.16154456890215
 20
2.849119316954837
 42
0.0
 10
22.16154456890215
 20
2.017502002857018
 42
-0.5773502691896262
 10
22.14129456890216
 20
2.005810659905922
 42
0.0
 10
21.99007153895284
 20
2.093119316954837
 42
0.0
 10
21.99007153895284
 20
2.070619316954836
 42
0.0
 10
22.1371551404873
 20
1.985700560015526
 42
0.577350269189633
 10
22.1810301404873
 20
2.011031803076217
 42
0.0
 97
        0
 92
        7
 72
     0
 73
     1
 93
        3
 10
20.05673455325224
 20
4.168942614075465
 10
21.84161291045195
 20
3.138442614075483
 10
21.84161291045195
 20
3.14969261407548
 97
        0
 75
     0
 76
     1
 47
0.006507
 98
        7
 10
19.761165
 20
4.274654
 10
19.728486
 20
4.222121
 10
20.069487
 20
4.176688
 10
21.976246
 20
3.231378
 10
22.348417
 20
2.950256
 10
22.172588
 20
2.78334
 10
21.785765
 20
3.178667
  0
HATCH
  5
734
100
AcDbEntity
  8
1
  6
CONTINUOUS
 62
     5
100
AcDbHatch
 10
0.0
 20
0.0
 30
0.0
210
0.0
220
0.0
230
1.0
  2
SOLID
 70
     1
 71
     0
 91
        7
 92
        7
 72
     1
 73
     1
 93
        4
 10
21.60585326212248
 20
5.326078100398461
 42
0.003817909443379
 10
21.57382352059691
 20
5.330085720506588
 42
0.0
 10
19.71910411333799
 20
4.259262971454432
 42
0.0
 10
19.73858968492314
 20
4.248012971454429
 42
0.0
 97
        0
 92
        7
 72
     0
 73
     1
 93
        4
 10
19.73858968492314
 20
4.248012971454429
 10
19.71910411333799
 20
4.259262971454432
 10
19.71910411333799
 20
3.676729693997028
 10
19.73858968492314
 20
3.687979693997025
 97
        0
 92
        7
 72
     0
 73
     1
 93
        4
 10
20.05673455325222
 20
4.191442614075484
 10
20.05673455325222
 20
4.168942614075479
 10
21.84161291045195
 20
3.14969261407548
 10
21.84161291045195
 20
3.160942614075477
 97
        0
 92
        7
 72
     1
 73
     1
 93
        4
 10
23.30306120600615
 20
3.982210180920422
 42
0.002332807343841
 10
23.29596351849317
 20
4.000612329124169
 42
0.0
 10
21.84161291045195
 20
3.160942614075477
 42
0.0
 10
21.84161291045195
 20
3.138442614075483
 42
0.0
 97
        0
 92
        7
 72
     1
 73
     1
 93
        4
 10
23.41669871948504
 20
3.551282903668347
 42
0.0024685623280776
 10
23.41343217423948
 20
3.571896962891496
 42
0.0
 10
22.16154456890215
 20
2.84911931695483
 42
0.0
 10
22.1810301404873
 20
2.837869316954833
 42
0.0
 97
        0
 92
        7
 72
     1
 73
     1
 93
        8
 10
22.1810301404873
 20
2.837869316954833
 42
0.0
 10
22.16154456890215
 20
2.849119316954837
 42
0.0
 10
22.16154456890215
 20
2.017502002857018
 42
-0.5773502691896262
 10
22.14129456890216
 20
2.005810659905922
 42
0.0
 10
21.99007153895284
 20
2.093119316954837
 42
0.0
 10
21.99007153895284
 20
2.070619316954836
 42
0.0
 10
22.1371551404873
 20
1.985700560015526
 42
0.577350269189633
 10
22.1810301404873
 20
2.011031803076217
 42
0.0
 97
        0
 92
        7
 72
     0
 73
     1
 93
        3
 10
20.05673455325224
 20
4.168942614075465
 10
21.84161291045195
 20
3.138442614075483
 10
21.84161291045195
 20
3.14969261407548
 97
        0
 75
     0
 76
     1
 47
0.006507
 98
        7
 10
19.761165
 20
4.274654
 10
19.728486
 20
4.222121
 10
20.069487
 20
4.176688
 10
21.976246
 20
3.231378
 10
22.348417
 20
2.950256
 10
22.172588
 20
2.78334
 10
21.785765
 20
3.178667
  0
HATCH
  5
735
100
AcDbEntity
  8
2
  6
CONTINUOUS
 62
     9
100
AcDbHatch
 10
0.0
 20
0.0
 30
0.0
210
0.0
220
0.0
230
1.0
  2
SOLID
 70
     1
 71
     0
 91
        2
 92
       23
 72
     1
 73
     1
 93
       20
 10
21.28016299545672
 20
2.704473499270743
 42
0.0
 10
21.27464585260337
 20
2.69491752753613
 42
0.6681786379192962
 10
21.28730035265335
 20
2.67842586199038
 42
0.0
 10
21.3149968946894
 20
2.685847128062068
 42
0.6681786379192695
 10
21.31716752328348
 20
2.70233468913273
 42
0.0
 10
21.31015353709835
 20
2.706384215944819
 42
-0.6681786379192408
 10
21.31123885139539
 20
2.71462799648015
 42
0.0
 10
21.32316019501902
 20
2.717822310876794
 42
0.6681786379193185
 10
21.32370285216754
 20
2.721944201144463
 42
0.0
 10
20.97740414295099
 20
2.921879854130654
 42
0.0
 10
19.81582911861178
 20
3.592515507116846
 42
0.668178637919208
 10
19.81253078550263
 20
3.589984607106853
 42
0.0
 10
19.81572509989927
 20
3.578063263483212
 42
-0.6681786379193225
 10
19.80912843368097
 20
3.573001463463224
 42
0.0
 10
19.80211444749583
 20
3.577050990275306
 42
0.6681786379193126
 10
19.78892111505924
 20
3.566927390235324
 42
0.0
 10
19.79634238113093
 20
3.53923084819927
 42
0.6681786379193007
 10
19.81695183246926
 20
3.536517562456676
 42
0.0
 10
19.82246897532261
 20
3.546073534191283
 42
0.0
 10
20.00221257812015
 20
3.442298516731003
 42
0.0
 97
        0
 92
        7
 72
     1
 73
     1
 93
       37
 10
19.69784448504629
 20
3.66445544187994
 42
0.4142135623731299
 10
19.69109448504628
 20
3.657705441879951
 42
0.0
 10
19.69109448504628
 20
2.876955441879946
 42
0.0
 10
21.44479592770977
 20
1.86445544187995
 42
0.0
 10
21.44479592770978
 20
2.645205441879948
 42
0.1316524975873667
 10
21.43967389915533
 20
2.65407705557406
 42
0.0
 10
21.32612879131154
 20
2.719632354152832
 42
0.0376464264871547
 10
21.32477926866284
 20
2.719530600531793
 42
-0.2823673447488831
 10
21.32316019501902
 20
2.717822310876794
 42
0.0
 10
21.31965309959276
 20
2.716882587489553
 42
0.5149511874561723
 10
21.32232522695588
 20
2.702475584069507
 42
0.0
 10
21.33426928733808
 20
2.696905977243819
 42
0.0
 10
21.32077034477878
 20
2.690623282456332
 42
-0.2180320882791709
 10
21.3149968946894
 20
2.685847128062068
 42
0.0
 10
21.30441783869354
 20
2.683012478551301
 42
0.0
 10
21.29298200060297
 20
2.677689996434896
 42
0.0
 10
21.27835700060297
 20
2.677689996434896
 42
1.0
 10
21.27835700060297
 20
2.657439996434899
 42
0.0
 10
21.35254844011421
 20
2.635356863309393
 42
-0.5578319223640622
 10
21.40879592770978
 20
2.567805441879958
 42
0.0
 10
21.40879592770978
 20
1.965705441879944
 42
-0.5129809895031772
 10
21.38740508421066
 20
1.94955158505024
 42
0.0
 10
19.7934853285454
 20
2.86980158505025
 42
-0.2397239142270584
 10
19.72709448504629
 20
2.978205441879946
 42
0.0
 10
19.7272456973191
 20
3.561106063595655
 42
-1.046264757040728
 10
19.74034355840388
 20
3.564619101705343
 42
0.0
 10
19.78581892373069
 20
3.522487846090992
 42
0.6309633877406034
 10
19.80088172115385
 20
3.532840549140832
 42
-0.1798205534880095
 10
19.79634238113093
 20
3.53923084819927
 42
0.0
 10
19.79632251605983
 20
3.53930498565391
 42
0.0
 10
19.78327830220034
 20
3.564107922617051
 42
0.0
 10
19.79194557313423
 20
3.582258581358299
 42
0.0
 10
19.8050742362624
 20
3.581109972167336
 42
0.293926452988122
 10
19.81369321794001
 20
3.585646350190177
 42
0.0
 10
19.81253078550263
 20
3.589984607106853
 42
-0.4565659268922137
 10
19.81443612248446
 20
3.592800932517743
 42
0.1814616707363846
 10
19.81052542178983
 20
3.597771250979615
 42
0.0
 97
        0
 75
     0
 76
     1
 47
0.011788
 98
        2
 10
20.031861
 20
3.442229
 10
19.761143
 20
3.601363
  0
LINE
  5
736
100
AcDbEntity
  8
1
  6
CONTINUOUS
100
AcDbLine
 39
0.09
 10
20.056735
 20
4.191443
 30
0.0
 11
21.841613
 21
3.160943
 31
0.0
  0
LINE
  5
737
100
AcDbEntity
  8
1
  6
CONTINUOUS
100
AcDbLine
 39
0.09
 10
20.056735
 20
4.168943
 30
0.0
 11
21.841613
 21
3.138443
 31
0.0
  0
LINE
  5
738
100
AcDbEntity
  8
1
  6
CONTINUOUS
100
AcDbLine
 10
20.056735
 20
4.168943
 30
0.0
 11
21.841613
 21
3.149693
 31
0.0
  0
LINE
  5
739
100
AcDbEntity
  8
1
  6
CONTINUOUS
 62
     5
100
AcDbLine
 39
0.09
 10
20.056735
 20
4.191443
 30
0.0
 11
21.841613
 21
3.160943
 31
0.0
  0
LINE
  5
73A
100
AcDbEntity
  8
1
  6
CONTINUOUS
 62
     5
100
AcDbLine
 39
0.09
 10
20.056735
 20
4.168943
 30
0.0
 11
21.841613
 21
3.138443
 31
0.0
  0
LINE
  5
73B
100
AcDbEntity
  8
1
  6
CONTINUOUS
 62
     5
100
AcDbLine
 10
19.719104
 20
4.259263
 30
0.0
 11
21.573824
 21
5.330086
 31
0.0
  0
LINE
  5
73C
100
AcDbEntity
  8
1
  6
CONTINUOUS
100
AcDbLine
 10
19.73859
 20
4.248013
 30
0.0
 11
21.605853
 21
5.326078
 31
0.0
  0
LINE
  5
73D
100
AcDbEntity
  8
1
  6
CONTINUOUS
 62
     5
100
AcDbLine
 10
19.719104
 20
4.259263
 30
0.0
 11
21.573824
 21
5.330086
 31
0.0
  0
LINE
  5
73E
100
AcDbEntity
  8
1
  6
CONTINUOUS
 62
     5
100
AcDbLine
 10
19.73859
 20
4.248013
 30
0.0
 11
21.605853
 21
5.326078
 31
0.0
  0
LINE
  5
73F
100
AcDbEntity
  8
1
  6
CONTINUOUS
 62
     5
100
AcDbLine
 10
20.058985
 20
4.187545
 30
0.0
 11
21.913639
 21
5.258331
 31
0.0
  0
HATCH
  5
740
100
AcDbEntity
  8
2
  6
CONTINUOUS
 62
     9
100
AcDbHatch
 10
0.0
 20
0.0
 30
0.0
210
0.0
220
0.0
230
1.0
  2
ANSI31
 70
     0
 71
     0
 91
        1
 92
        7
 72
     1
 73
     1
 93
        8
 10
21.91605995788215
 20
5.261287330253779
 42
0.0
 10
21.91296377957397
 20
5.259499750874098
 42
0.0
 10
21.91318877957397
 20
5.25911003944239
 42
0.0
 10
21.91341377957397
 20
5.258720328010696
 42
0.0
 10
21.91363877957397
 20
5.258330616578987
 42
0.0
 10
20.06123455325223
 20
4.188844537864127
 42
0.0
 10
21.84161291045195
 20
3.160942614075477
 42
0.0
 10
23.29643425489513
 20
4.000884108912561
 42
0.2330962772361932
 97
        0
 75
     0
 76
     1
 52
0.0
 41
0.05
 77
     0
 78
     1
 53
45.0
 43
-2.869635
 44
-30.099459
 45
-0.0044194173824159
 46
0.0044194173824159
 79
     0
 47
0.017346
 98
        1
 10
21.723074
 20
4.322023
  0
HATCH
  5
741
100
AcDbEntity
  8
2
  6
CONTINUOUS
 62
     9
100
AcDbHatch
 10
0.0
 20
0.0
 30
0.0
210
0.0
220
0.0
230
1.0
  2
ANSI31
 70
     0
 71
     0
 91
        1
 92
        7
 72
     1
 73
     1
 93
        7
 10
20.05673455325222
 20
4.168942614075479
 42
0.0
 10
20.05673455325222
 20
4.191442614075484
 42
0.0
 10
21.91185951597585
 20
5.262499510684364
 42
0.0369683020279065
 10
21.60632399852467
 20
5.326349880186981
 42
0.0
 10
19.73858968492314
 20
4.248012971454429
 42
0.0
 10
19.73858968492314
 20
3.687979693997025
 42
0.0
 10
20.31418822615397
 20
4.020301666721803
 42
0.0
 97
        0
 75
     0
 76
     1
 52
0.0
 41
0.05
 77
     0
 78
     1
 53
45.0
 43
-2.869635
 44
-30.099459
 45
-0.0044194173824159
 46
0.0044194173824159
 79
     0
 47
0.022773
 98
        1
 10
20.009169
 20
4.120982
  0
LINE
  5
742
100
AcDbEntity
  8
1
  6
CONTINUOUS
100
AcDbLine
 10
20.056735
 20
4.168943
 30
0.0
 11
21.841613
 21
3.149693
 31
0.0
  0
LWPOLYLINE
  5
743
100
AcDbEntity
  8
1
100
AcDbPolyline
 90
        2
 70
     0
 43
0.01
 10
20.056735
 20
4.191443
 10
21.911389
 20
5.262228
  0
LINE
  5
744
100
AcDbEntity
  8
0
 62
     3
100
AcDbLine
 10
19.815829
 20
3.592516
 30
0.0
 11
20.977404
 21
2.92188
 31
0.0
  0
LINE
  5
745
100
AcDbEntity
  8
2
  6
CONTINUOUS
 62
     4
100
AcDbLine
 10
20.997889
 20
3.62611
 30
0.0
 11
20.415341
 21
3.289776
 31
0.0
  0
LINE
  5
746
100
AcDbEntity
  8
2
  6
CONTINUOUS
 62
     4
100
AcDbLine
 10
21.005684
 20
3.62161
 30
0.0
 11
20.415341
 21
3.280776
 31
0.0
  0
LINE
  5
747
100
AcDbEntity
  8
0
 62
     3
100
AcDbLine
 10
21.280163
 20
2.704473
 30
0.0
 11
20.002213
 21
3.442299
 31
0.0
  0
LINE
  5
748
100
AcDbEntity
  8
1
  6
CONTINUOUS
 62
     5
100
AcDbLine
 39
0.09
 10
20.056735
 20
4.191443
 30
0.0
 11
20.056735
 21
4.168943
 31
0.0
  0
LINE
  5
749
100
AcDbEntity
  8
1
  6
CONTINUOUS
 62
     5
100
AcDbLine
 39
0.09
 10
20.056735
 20
4.191443
 30
0.0
 11
20.056735
 21
4.168943
 31
0.0
  0
LINE
  5
74A
100
AcDbEntity
  8
GREEN
100
AcDbLine
 10
19.813938
 20
3.594041
 30
0.0
 11
20.433686
 21
3.951853
 31
0.0
  0
LINE
  5
74B
100
AcDbEntity
  8
GREEN
100
AcDbLine
 10
19.697844
 20
3.664455
 30
0.0
 11
20.314659
 21
4.020573
 31
0.0
  0
LINE
  5
74C
100
AcDbEntity
  8
0
 62
     3
100
AcDbLine
 10
20.002213
 20
3.442299
 30
0.0
 11
19.822469
 21
3.546074
 31
0.0
  0
LINE
  5
74D
100
AcDbEntity
  8
1
  6
CONTINUOUS
 62
     5
100
AcDbLine
 10
19.719104
 20
3.67673
 30
0.0
 11
19.719104
 21
4.259263
 31
0.0
  0
LINE
  5
74E
100
AcDbEntity
  8
1
  6
CONTINUOUS
 62
     5
100
AcDbLine
 10
19.719104
 20
3.67673
 30
0.0
 11
19.719104
 21
4.259263
 31
0.0
  0
LINE
  5
74F
100
AcDbEntity
  8
1
  6
CONTINUOUS
 62
     5
100
AcDbLine
 10
19.73859
 20
3.68798
 30
0.0
 11
19.73859
 21
4.248013
 31
0.0
  0
LINE
  5
750
100
AcDbEntity
  8
1
  6
CONTINUOUS
 62
     5
100
AcDbLine
 10
19.73859
 20
3.68798
 30
0.0
 11
19.73859
 21
4.248013
 31
0.0
  0
LINE
  5
751
100
AcDbEntity
  8
0
 62
     3
100
AcDbLine
 10
19.815725
 20
3.578063
 30
0.0
 11
19.812531
 21
3.589985
 31
0.0
  0
LINE
  5
752
100
AcDbEntity
  8
0
 62
     3
100
AcDbLine
 10
19.822469
 20
3.546074
 30
0.0
 11
19.816952
 21
3.536518
 31
0.0
  0
ARC
  5
753
100
AcDbEntity
  8
0
 62
     3
100
AcDbCircle
 10
19.811378
 20
3.576899
 30
0.0
 40
0.0045
100
AcDbArc
 50
240.0
 51
15.0
  0
ARC
  5
754
100
AcDbEntity
  8
0
 62
     3
100
AcDbCircle
 10
19.814704
 20
3.590567
 30
0.0
 40
0.00225
100
AcDbArc
 50
60.0
 51
195.0
  0
LINE
  5
755
100
AcDbEntity
  8
0
 62
     3
100
AcDbLine
 10
19.796342
 20
3.539231
 30
0.0
 11
19.788921
 21
3.566927
 31
0.0
  0
ARC
  5
756
100
AcDbEntity
  8
0
 62
     3
100
AcDbCircle
 10
19.797614
 20
3.569257
 30
0.0
 40
0.009
100
AcDbArc
 50
60.0
 51
195.0
  0
ARC
  5
757
100
AcDbEntity
  8
0
 62
     3
100
AcDbCircle
 10
19.807209
 20
3.542143
 30
0.0
 40
0.01125
100
AcDbArc
 50
195.0
 51
330.0
  0
LINE
  5
758
100
AcDbEntity
  8
0
 62
     3
100
AcDbLine
 10
19.802114
 20
3.577051
 30
0.0
 11
19.809128
 21
3.573001
 31
0.0
  0
LINE
  5
759
100
AcDbEntity
  8
1
  6
CONTINUOUS
 62
     5
100
AcDbLine
 10
19.719104
 20
4.259263
 30
0.0
 11
19.73859
 21
4.248013
 31
0.0
  0
LINE
  5
75A
100
AcDbEntity
  8
1
  6
CONTINUOUS
 62
     5
100
AcDbLine
 10
19.719104
 20
4.259263
 30
0.0
 11
19.73859
 21
4.248013
 31
0.0
  0
LINE
  5
75B
100
AcDbEntity
  8
2
  6
CONTINUOUS
 62
     4
100
AcDbLine
 10
20.025629
 20
3.514776
 30
0.0
 11
20.415341
 21
3.289776
 31
0.0
  0
LINE
  5
75C
100
AcDbEntity
  8
2
  6
CONTINUOUS
 62
     4
100
AcDbLine
 10
20.025629
 20
3.505776
 30
0.0
 11
20.415341
 21
3.280776
 31
0.0
  0
LINE
  5
75D
100
AcDbEntity
  8
2
  6
CONTINUOUS
 62
     4
100
AcDbLine
 10
20.608178
 20
3.85111
 30
0.0
 11
20.025629
 21
3.514776
 31
0.0
  0
LINE
  5
75E
100
AcDbEntity
  8
2
  6
CONTINUOUS
 62
     4
100
AcDbLine
 10
20.025629
 20
3.514776
 30
0.0
 11
20.025629
 21
3.505776
 31
0.0
  0
LINE
  5
75F
100
AcDbEntity
  8
2
  6
CONTINUOUS
 62
     4
100
AcDbLine
 10
20.415341
 20
3.289776
 30
0.0
 11
20.415341
 21
3.280776
 31
0.0
  0
LINE
  5
760
100
AcDbEntity
  8
2
  6
CONTINUOUS
 62
     4
100
AcDbLine
 10
20.805052
 20
3.064776
 30
0.0
 11
20.805052
 21
3.055776
 31
0.0
  0
LINE
  5
761
100
AcDbEntity
  8
1
  6
CONTINUOUS
 62
     5
100
AcDbLine
 10
20.056735
 20
4.191443
 30
0.0
 11
20.056735
 21
4.168943
 31
0.0
  0
LINE
  5
762
100
AcDbEntity
  8
1
  6
CONTINUOUS
 62
     5
100
AcDbLine
 10
20.056735
 20
4.191443
 30
0.0
 11
20.056735
 21
4.168943
 31
0.0
  0
LINE
  5
763
100
AcDbEntity
  8
1
  6
CONTINUOUS
100
AcDbLine
 39
0.09
 10
21.841613
 20
3.160943
 30
0.0
 11
21.841613
 21
3.138443
 31
0.0
  0
LINE
  5
764
100
AcDbEntity
  8
GREEN
100
AcDbLine
 10
21.321763
 20
2.718503
 30
0.0
 11
23.338583
 21
3.882914
 31
0.0
  0
LINE
  5
765
100
AcDbEntity
  8
1
  6
CONTINUOUS
 62
     5
100
AcDbLine
 10
22.161545
 20
2.849119
 30
0.0
 11
23.413432
 21
3.571897
 31
0.0
  0
LINE
  5
766
102
{ACAD_REACTORS
330
76E
102
}
100
AcDbEntity
  8
1
  6
CONTINUOUS
 62
     5
100
AcDbLine
 10
22.18103
 20
2.837869
 30
0.0
 11
23.416699
 21
3.551283
 31
0.0
  0
LINE
  5
767
100
AcDbEntity
  8
2
  6
CONTINUOUS
 62
     4
100
AcDbLine
 10
21.480488
 20
2.489229
 30
0.0
 11
23.408717
 21
3.602492
 31
0.0
  0
LINE
  5
768
100
AcDbEntity
  8
2
  6
CONTINUOUS
 62
     4
100
AcDbLine
 10
21.496077
 20
2.480229
 30
0.0
 11
23.41157
 21
3.586139
 31
0.0
  0
LINE
  5
769
100
AcDbEntity
  8
GREEN
100
AcDbLine
 10
21.444796
 20
2.645205
 30
0.0
 11
23.374527
 21
3.759336
 31
0.0
  0
LINE
  5
76A
100
AcDbEntity
  8
1
  6
CONTINUOUS
100
AcDbLine
 10
21.841613
 20
3.138443
 30
0.0
 11
23.303061
 21
3.98221
 31
0.0
  0
LINE
  5
76B
100
AcDbEntity
  8
1
  6
CONTINUOUS
100
AcDbLine
 10
21.841613
 20
3.160943
 30
0.0
 11
23.295964
 21
4.000612
 31
0.0
  0
LINE
  5
76C
100
AcDbEntity
  8
1
  6
CONTINUOUS
 62
     5
100
AcDbLine
 10
22.166405
 20
1.985701
 30
0.0
 11
23.367963
 21
2.67942
 31
0.0
  0
LWPOLYLINE
  5
76D
102
{ACAD_REACTORS
330
76E
102
}
100
AcDbEntity
  8
1
  6
CONTINUOUS
 62
     5
100
AcDbPolyline
 90
        2
 70
     0
 43
0.009
 10
22.165916
 20
1.990589
 10
23.367473
 20
2.684309
  0
HATCH
  5
76E
100
AcDbEntity
  8
2
  6
CONTINUOUS
 62
     9
100
AcDbHatch
 10
0.0
 20
0.0
 30
0.0
210
0.0
220
0.0
230
1.0
  2
ANSI31
 70
     0
 71
     1
 91
        2
 92
        7
 72
     1
 73
     1
 93
        5
 10
22.1810301404873
 20
2.837869316954833
 42
0.0
 10
22.1810301404873
 20
2.011031803076225
 42
-0.1222318301882331
 10
22.17763620785308
 20
1.997356047873076
 42
0.0
 10
23.37007731747883
 20
2.685812243508284
 42
0.1036486555291187
 10
23.41716945584155
 20
3.551554683430499
 42
0.0
 97
        5
330
766
330
772
330
77A
330
76D
330
732
 92
        7
 72
     1
 73
     1
 93
        4
 10
22.14129456890215
 20
2.005810659905925
 42
0.5773502691893225
 10
22.16154456890215
 20
2.017502002857014
 42
0.0
 10
22.16154456890214
 20
2.186949339013072
 42
0.0
 10
21.99454887118741
 20
2.090534327983952
 42
0.0
 97
        4
330
780
330
77E
330
784
330
770
 75
     0
 76
     1
 52
0.0
 41
0.05
 77
     0
 78
     1
 53
45.0
 43
-2.869635
 44
-30.099459
 45
-0.0044194173824159
 46
0.0044194173824159
 79
     0
 47
0.022773
 98
        2
 10
22.788245
 20
2.809286
 10
22.101167
 20
2.081704
  0
LINE
  5
76F
100
AcDbEntity
  8
1
  6
CONTINUOUS
 62
     5
100
AcDbLine
 10
22.161545
 20
2.017502
 30
0.0
 11
22.161545
 21
2.849119
 31
0.0
  0
LINE
  5
770
102
{ACAD_REACTORS
330
76E
102
}
100
AcDbEntity
  8
1
  6
CONTINUOUS
 62
     5
100
AcDbLine
 10
22.161545
 20
2.017502
 30
0.0
 11
22.161545
 21
2.849119
 31
0.0
  0
LINE
  5
771
100
AcDbEntity
  8
1
  6
CONTINUOUS
 62
     5
100
AcDbLine
 10
22.18103
 20
2.011032
 30
0.0
 11
22.18103
 21
2.837869
 31
0.0
  0
LINE
  5
772
102
{ACAD_REACTORS
330
76E
102
}
100
AcDbEntity
  8
1
  6
CONTINUOUS
 62
     5
100
AcDbLine
 10
22.18103
 20
2.011032
 30
0.0
 11
22.18103
 21
2.837869
 31
0.0
  0
LINE
  5
773
100
AcDbEntity
  8
GREEN
100
AcDbLine
 10
21.444796
 20
1.864455
 30
0.0
 11
22.162015
 21
2.278542
 31
0.0
  0
LINE
  5
774
100
AcDbEntity
  8
2
  6
CONTINUOUS
 62
     4
100
AcDbLine
 10
21.496077
 20
2.030229
 30
0.0
 11
22.162015
 21
2.414708
 31
0.0
  0
LINE
  5
775
100
AcDbEntity
  8
2
  6
CONTINUOUS
 62
     4
100
AcDbLine
 10
21.480488
 20
2.489229
 30
0.0
 11
21.496077
 21
2.480229
 31
0.0
  0
LINE
  5
776
100
AcDbEntity
  8
2
  6
CONTINUOUS
 62
     4
100
AcDbLine
 10
21.480488
 20
2.039229
 30
0.0
 11
21.496077
 21
2.030229
 31
0.0
  0
LINE
  5
777
100
AcDbEntity
  8
2
  6
CONTINUOUS
 62
     4
100
AcDbLine
 10
21.480488
 20
2.489229
 30
0.0
 11
21.480488
 21
2.039229
 31
0.0
  0
LINE
  5
778
100
AcDbEntity
  8
2
  6
CONTINUOUS
 62
     4
100
AcDbLine
 10
21.496077
 20
2.480229
 30
0.0
 11
21.496077
 21
2.030229
 31
0.0
  0
ARC
  5
779
100
AcDbEntity
  8
1
  6
CONTINUOUS
 62
     5
100
AcDbCircle
 10
22.15178
 20
2.011032
 30
0.0
 40
0.02925
100
AcDbArc
 50
240.0
 51
0.0
  0
ARC
  5
77A
102
{ACAD_REACTORS
330
76E
102
}
100
AcDbEntity
  8
1
  6
CONTINUOUS
 62
     5
100
AcDbCircle
 10
22.15178
 20
2.011032
 30
0.0
 40
0.02925
100
AcDbArc
 50
240.0
 51
0.0
  0
LINE
  5
77B
100
AcDbEntity
  8
1
  6
CONTINUOUS
 62
     5
100
AcDbLine
 10
22.137155
 20
1.985701
 30
0.0
 11
21.990072
 21
2.070619
 31
0.0
  0
LINE
  5
77C
100
AcDbEntity
  8
1
  6
CONTINUOUS
 62
     5
100
AcDbLine
 10
22.137155
 20
1.985701
 30
0.0
 11
21.990072
 21
2.070619
 31
0.0
  0
LINE
  5
77D
100
AcDbEntity
  8
1
  6
CONTINUOUS
 62
     5
100
AcDbLine
 10
22.141295
 20
2.005811
 30
0.0
 11
21.990072
 21
2.093119
 31
0.0
  0
LINE
  5
77E
102
{ACAD_REACTORS
330
76E
102
}
100
AcDbEntity
  8
1
  6
CONTINUOUS
 62
     5
100
AcDbLine
 10
22.141295
 20
2.005811
 30
0.0
 11
21.990072
 21
2.093119
 31
0.0
  0
LINE
  5
77F
100
AcDbEntity
  8
1
  6
CONTINUOUS
 62
     5
100
AcDbLine
 10
21.990072
 20
2.093119
 30
0.0
 11
22.161545
 21
2.192119
 31
0.0
  0
LWPOLYLINE
  5
780
102
{ACAD_REACTORS
330
76E
102
}
100
AcDbEntity
  8
1
  6
CONTINUOUS
 62
     5
100
AcDbPolyline
 90
        2
 70
     0
 43
0.009
 10
21.992345
 20
2.089262
 10
22.163818
 20
2.188262
  0
LINE
  5
781
100
AcDbEntity
  8
1
  6
CONTINUOUS
 62
     5
100
AcDbLine
 10
21.990072
 20
2.093119
 30
0.0
 11
21.990072
 21
2.070619
 31
0.0
  0
LINE
  5
782
100
AcDbEntity
  8
1
  6
CONTINUOUS
 62
     5
100
AcDbLine
 10
21.990072
 20
2.093119
 30
0.0
 11
21.990072
 21
2.070619
 31
0.0
  0
ARC
  5
783
100
AcDbEntity
  8
1
  6
CONTINUOUS
 62
     5
100
AcDbCircle
 10
22.148045
 20
2.017502
 30
0.0
 40
0.0135
100
AcDbArc
 50
240.0
 51
0.0
  0
ARC
  5
784
102
{ACAD_REACTORS
330
76E
102
}
100
AcDbEntity
  8
1
  6
CONTINUOUS
 62
     5
100
AcDbCircle
 10
22.148045
 20
2.017502
 30
0.0
 40
0.0135
100
AcDbArc
 50
240.0
 51
0.0
  0
LINE
  5
785
100
AcDbEntity
  8
2
  6
CONTINUOUS
 62
     4
100
AcDbLine
 10
21.777312
 20
3.17611
 30
0.0
 11
21.194764
 21
2.839776
 31
0.0
  0
LINE
  5
786
100
AcDbEntity
  8
2
  6
CONTINUOUS
 62
     4
100
AcDbLine
 10
21.785106
 20
3.17161
 30
0.0
 11
21.194764
 21
2.830776
 31
0.0
  0
LINE
  5
787
100
AcDbEntity
  8
0
 62
     3
100
AcDbLine
 10
20.977404
 20
2.92188
 30
0.0
 11
21.323703
 21
2.721944
 31
0.0
  0
LINE
  5
788
100
AcDbEntity
  8
0
 62
     3
100
AcDbLine
 10
21.32316
 20
2.717822
 30
0.0
 11
21.311239
 21
2.714628
 31
0.0
  0
ARC
  5
789
100
AcDbEntity
  8
0
 62
     3
100
AcDbCircle
 10
21.312668
 20
2.69454
 30
0.0
 40
0.009
100
AcDbArc
 50
285.0
 51
60.0
  0
ARC
  5
78A
100
AcDbEntity
  8
0
 62
     3
100
AcDbCircle
 10
21.322578
 20
2.719996
 30
0.0
 40
0.00225
100
AcDbArc
 50
285.0
 51
60.0
  0
LINE
  5
78B
100
AcDbEntity
  8
0
 62
     3
100
AcDbLine
 10
21.274646
 20
2.694918
 30
0.0
 11
21.280163
 21
2.704473
 31
0.0
  0
ARC
  5
78C
100
AcDbEntity
  8
0
 62
     3
100
AcDbCircle
 10
21.284389
 20
2.689293
 30
0.0
 40
0.01125
100
AcDbArc
 50
150.0
 51
285.0
  0
LINE
  5
78D
100
AcDbEntity
  8
0
 62
     3
100
AcDbLine
 10
21.314997
 20
2.685847
 30
0.0
 11
21.2873
 21
2.678426
 31
0.0
  0
LINE
  5
78E
100
AcDbEntity
  8
0
 62
     3
100
AcDbLine
 10
21.310154
 20
2.706384
 30
0.0
 11
21.317168
 21
2.702335
 31
0.0
  0
ARC
  5
78F
100
AcDbEntity
  8
0
 62
     3
100
AcDbCircle
 10
21.312404
 20
2.710281
 30
0.0
 40
0.0045
100
AcDbArc
 50
105.0
 51
240.0
  0
LINE
  5
790
100
AcDbEntity
  8
2
  6
CONTINUOUS
 62
     4
100
AcDbLine
 10
21.194764
 20
2.839776
 30
0.0
 11
21.194764
 21
2.830776
 31
0.0
  0
LINE
  5
791
100
AcDbEntity
  8
1
  6
CONTINUOUS
 62
     5
100
AcDbLine
 10
22.161545
 20
2.849119
 30
0.0
 11
22.18103
 21
2.837869
 31
0.0
  0
LINE
  5
792
100
AcDbEntity
  8
1
  6
CONTINUOUS
 62
     5
100
AcDbLine
 10
22.161545
 20
2.849119
 30
0.0
 11
22.18103
 21
2.837869
 31
0.0
  0
ENDBLK
  5
794
100
AcDbEntity
  8
0
100
AcDbBlockEnd
  0
BLOCK
  5
88B
100
AcDbEntity
  8
0
100
AcDbBlockBegin
  2
*D14
 70
     1
 10
0.0
 20
0.0
 30
0.0
  3
*D14
  1

  0
LINE
  5
88C
100
AcDbEntity
  8
0
  6
BYBLOCK
 62
     0
100
AcDbLine
 10
9.740741
 20
26.034179
 30
0.0
 11
5.460051
 21
26.034179
 31
0.0
  0
LINE
  5
88D
100
AcDbEntity
  8
0
  6
BYBLOCK
 62
     0
100
AcDbLine
 10
5.976167
 20
22.784179
 30
0.0
 11
5.460051
 21
22.784179
 31
0.0
  0
LINE
  5
88E
100
AcDbEntity
  8
0
  6
BYBLOCK
 62
     0
100
AcDbLine
 10
5.820051
 20
25.674179
 30
0.0
 11
5.820051
 21
25.107176
 31
0.0
  0
LINE
  5
88F
100
AcDbEntity
  8
0
  6
BYBLOCK
 62
     0
100
AcDbLine
 10
5.820051
 20
23.144179
 30
0.0
 11
5.820051
 21
23.907176
 31
0.0
  0
SOLID
  5
890
100
AcDbEntity
  8
0
  6
BYBLOCK
 62
     0
100
AcDbTrace
 10
5.760051
 20
25.674179
 30
0.0
 11
5.880051
 21
25.674179
 31
0.0
 12
5.820051
 22
26.034179
 32
0.0
 13
5.820051
 23
26.034179
 33
0.0
  0
SOLID
  5
891
100
AcDbEntity
  8
0
  6
BYBLOCK
 62
     0
100
AcDbTrace
 10
5.760051
 20
23.144179
 30
0.0
 11
5.880051
 21
23.144179
 31
0.0
 12
5.820051
 22
22.784179
 32
0.0
 13
5.820051
 23
22.784179
 33
0.0
  0
MTEXT
  5
892
100
AcDbEntity
  8
0
  6
BYBLOCK
 62
     0
100
AcDbMText
 10
5.820051
 20
24.507176
 30
0.0
 40
0.36
 41
0.0
 71
     5
 72
     1
  1
\A1;3{\H1.000000x;\S1/4;}" [83mm]
  0
POINT
  5
893
100
AcDbEntity
  8
DEFPOINTS
  6
BYBLOCK
 62
     0
100
AcDbPoint
 10
9.865741
 20
26.034179
 30
0.0
  0
POINT
  5
894
100
AcDbEntity
  8
DEFPOINTS
  6
BYBLOCK
 62
     0
100
AcDbPoint
 10
6.101167
 20
22.784179
 30
0.0
  0
POINT
  5
895
100
AcDbEntity
  8
DEFPOINTS
  6
BYBLOCK
 62
     0
100
AcDbPoint
 10
5.820051
 20
22.784179
 30
0.0
  0
ENDBLK
  5
896
100
AcDbEntity
  8
0
100
AcDbBlockEnd
  0
BLOCK
  5
897
100
AcDbEntity
  8
0
100
AcDbBlockBegin
  2
*D16
 70
     1
 10
0.0
 20
0.0
 30
0.0
  3
*D16
  1

  0
LINE
  5
898
100
AcDbEntity
  8
0
  6
BYBLOCK
 62
     0
100
AcDbLine
 10
15.663804
 20
26.034179
 30
0.0
 11
18.468242
 21
26.034179
 31
0.0
  0
LINE
  5
899
100
AcDbEntity
  8
0
  6
BYBLOCK
 62
     0
100
AcDbLine
 10
13.981734
 20
25.784179
 30
0.0
 11
18.468242
 21
25.784179
 31
0.0
  0
LINE
  5
89A
100
AcDbEntity
  8
0
  6
BYBLOCK
 62
     0
100
AcDbLine
 10
18.108242
 20
26.394179
 30
0.0
 11
18.108242
 21
26.754179
 31
0.0
  0
LINE
  5
89B
100
AcDbEntity
  8
0
  6
BYBLOCK
 62
     0
100
AcDbLine
 10
18.108242
 20
25.424179
 30
0.0
 11
18.108242
 21
25.016192
 31
0.0
  0
LINE
  5
89C
100
AcDbEntity
  8
0
  6
BYBLOCK
 62
     0
100
AcDbLine
 10
18.108242
 20
25.016192
 30
0.0
 11
17.748242
 21
25.016192
 31
0.0
  0
SOLID
  5
89D
100
AcDbEntity
  8
0
  6
BYBLOCK
 62
     0
100
AcDbTrace
 10
18.048242
 20
26.394179
 30
0.0
 11
18.168242
 21
26.394179
 31
0.0
 12
18.108242
 22
26.034179
 32
0.0
 13
18.108242
 23
26.034179
 33
0.0
  0
SOLID
  5
89E
100
AcDbEntity
  8
0
  6
BYBLOCK
 62
     0
100
AcDbTrace
 10
18.048242
 20
25.424179
 30
0.0
 11
18.168242
 21
25.424179
 31
0.0
 12
18.108242
 22
25.784179
 32
0.0
 13
18.108242
 23
25.784179
 33
0.0
  0
MTEXT
  5
89F
100
AcDbEntity
  8
0
  6
BYBLOCK
 62
     0
100
AcDbMText
 10
16.368242
 20
25.016192
 30
0.0
 40
0.36
 41
0.0
 71
     5
 72
     1
  1
\A1;{\H1.000000x;\S1/4;}" [6mm]
  0
POINT
  5
8A0
100
AcDbEntity
  8
DEFPOINTS
  6
BYBLOCK
 62
     0
100
AcDbPoint
 10
15.538804
 20
26.034179
 30
0.0
  0
POINT
  5
8A1
100
AcDbEntity
  8
DEFPOINTS
  6
BYBLOCK
 62
     0
100
AcDbPoint
 10
13.856734
 20
25.784179
 30
0.0
  0
POINT
  5
8A2
100
AcDbEntity
  8
DEFPOINTS
  6
BYBLOCK
 62
     0
100
AcDbPoint
 10
18.108242
 20
25.784179
 30
0.0
  0
ENDBLK
  5
8A3
100
AcDbEntity
  8
0
100
AcDbBlockEnd
  0
BLOCK
  5
86C
100
AcDbEntity
  8
0
100
AcDbBlockBegin
  2
A$C433421F4
 70
     0
 10
0.0
 20
0.0
 30
0.0
  3
A$C433421F4
  1

  0
LINE
  5
862
100
AcDbEntity
  8
R-DOOR-ANNO
100
AcDbLine
 10
3.154888
 20
0.993017
 30
0.0
 11
3.112969
 21
0.897275
 31
0.0
  0
LINE
  5
863
100
AcDbEntity
  8
R-DOOR-ANNO
100
AcDbLine
 10
3.095004
 20
0.993017
 30
0.0
 11
3.053086
 21
0.897275
 31
0.0
  0
TEXT
  5
864
100
AcDbEntity
  8
R-DOOR-ANNO
 62
     0
100
AcDbText
 10
0.690214
 20
0.669488
 30
0.0
 40
0.315
  1
LESS 
100
AcDbText
  0
TEXT
  5
865
100
AcDbEntity
  8
R-DOOR-ANNO
100
AcDbText
 10
2.175729
 20
0.710621
 30
0.0
 40
0.3
  1
6
100
AcDbText
  0
TEXT
  5
866
100
AcDbEntity
  8
R-DOOR-ANNO
 62
     0
100
AcDbText
 10
1.05
 20
0.0
 30
0.0
 40
0.315
  1
[165mm]
100
AcDbText
  0
LINE
  5
867
100
AcDbEntity
  8
R-DOOR-ANNO
100
AcDbLine
 10
2.544988
 20
0.848675
 30
0.0
 11
2.884447
 21
0.848675
 31
0.0
  0
TEXT
  5
868
100
AcDbEntity
  8
R-DOOR-ANNO
100
AcDbText
 10
2.64173
 20
0.496296
 30
0.0
 40
0.27
  1
2
100
AcDbText
  0
TEXT
  5
869
100
AcDbEntity
  8
R-DOOR-ANNO
 62
     0
100
AcDbText
 10
0.0
 20
1.338976
 30
0.0
 40
0.315
  1
CLEAR OPENING
100
AcDbText
  0
TEXT
  5
86A
100
AcDbEntity
  8
R-DOOR-ANNO
 62
     0
100
AcDbText
 10
1.2075
 20
1.863976
 30
0.0
 40
0.315
  1
GLASS 
100
AcDbText
  0
TEXT
  5
86B
100
AcDbEntity
  8
R-DOOR-ANNO
100
AcDbText
 10
2.688322
 20
0.946296
 30
0.0
 40
0.27
  1
1
100
AcDbText
  0
ENDBLK
  5
86D
100
AcDbEntity
  8
0
100
AcDbBlockEnd
  0
BLOCK
  5
8B1
100
AcDbEntity
  8
0
100
AcDbBlockBegin
  2
*D20
 70
     1
 10
0.0
 20
0.0
 30
0.0
  3
*D20
  1

  0
LINE
  5
8B2
100
AcDbEntity
  8
0
  6
BYBLOCK
 62
     0
100
AcDbLine
 10
13.984212
 20
9.350349
 30
0.0
 11
16.428974
 21
9.350349
 31
0.0
  0
LINE
  5
8B3
100
AcDbEntity
  8
0
  6
BYBLOCK
 62
     0
100
AcDbLine
 10
15.221863
 20
9.100349
 30
0.0
 11
16.428974
 21
9.100349
 31
0.0
  0
LINE
  5
8B4
100
AcDbEntity
  8
0
  6
BYBLOCK
 62
     0
100
AcDbLine
 10
16.068974
 20
8.740349
 30
0.0
 11
16.068974
 21
8.380349
 31
0.0
  0
LINE
  5
8B5
100
AcDbEntity
  8
0
  6
BYBLOCK
 62
     0
100
AcDbLine
 10
16.068974
 20
9.710349
 30
0.0
 11
16.068974
 21
10.070349
 31
0.0
  0
LINE
  5
8B6
100
AcDbEntity
  8
0
  6
BYBLOCK
 62
     0
100
AcDbLine
 10
16.068974
 20
10.070349
 30
0.0
 11
16.428974
 21
10.070349
 31
0.0
  0
SOLID
  5
8B7
100
AcDbEntity
  8
0
  6
BYBLOCK
 62
     0
100
AcDbTrace
 10
16.008974
 20
8.740349
 30
0.0
 11
16.128974
 21
8.740349
 31
0.0
 12
16.068974
 22
9.100349
 32
0.0
 13
16.068974
 23
9.100349
 33
0.0
  0
SOLID
  5
8B8
100
AcDbEntity
  8
0
  6
BYBLOCK
 62
     0
100
AcDbTrace
 10
16.008974
 20
9.710349
 30
0.0
 11
16.128974
 21
9.710349
 31
0.0
 12
16.068974
 22
9.350349
 32
0.0
 13
16.068974
 23
9.350349
 33
0.0
  0
MTEXT
  5
8B9
100
AcDbEntity
  8
0
  6
BYBLOCK
 62
     0
100
AcDbMText
 10
17.808974
 20
10.070349
 30
0.0
 40
0.36
 41
0.0
 71
     5
 72
     1
  1
\A1;{\H1.000000x;\S1/4;}" [6mm]
  0
POINT
  5
8BA
100
AcDbEntity
  8
DEFPOINTS
  6
BYBLOCK
 62
     0
100
AcDbPoint
 10
13.859212
 20
9.350349
 30
0.0
  0
POINT
  5
8BB
100
AcDbEntity
  8
DEFPOINTS
  6
BYBLOCK
 62
     0
100
AcDbPoint
 10
15.096863
 20
9.100349
 30
0.0
  0
POINT
  5
8BC
100
AcDbEntity
  8
DEFPOINTS
  6
BYBLOCK
 62
     0
100
AcDbPoint
 10
16.068974
 20
9.100349
 30
0.0
  0
ENDBLK
  5
8BD
100
AcDbEntity
  8
0
100
AcDbBlockEnd
  0
BLOCK
  5
8C0
100
AcDbEntity
  8
0
100
AcDbBlockBegin
  2
*D21
 70
     1
 10
0.0
 20
0.0
 30
0.0
  3
*D21
  1

  0
LINE
  5
8C1
100
AcDbEntity
  8
0
  6
BYBLOCK
 62
     0
100
AcDbLine
 10
9.743219
 20
9.100349
 30
0.0
 11
5.473234
 21
9.100349
 31
0.0
  0
LINE
  5
8C2
100
AcDbEntity
  8
0
  6
BYBLOCK
 62
     0
100
AcDbLine
 10
5.976167
 20
12.367465
 30
0.0
 11
5.473234
 21
12.367465
 31
0.0
  0
LINE
  5
8C3
100
AcDbEntity
  8
0
  6
BYBLOCK
 62
     0
100
AcDbLine
 10
5.833234
 20
9.460349
 30
0.0
 11
5.833234
 21
10.180559
 31
0.0
  0
LINE
  5
8C4
100
AcDbEntity
  8
0
  6
BYBLOCK
 62
     0
100
AcDbLine
 10
5.833234
 20
12.007465
 30
0.0
 11
5.833234
 21
11.380559
 31
0.0
  0
SOLID
  5
8C5
100
AcDbEntity
  8
0
  6
BYBLOCK
 62
     0
100
AcDbTrace
 10
5.773234
 20
9.460349
 30
0.0
 11
5.893234
 21
9.460349
 31
0.0
 12
5.833234
 22
9.100349
 32
0.0
 13
5.833234
 23
9.100349
 33
0.0
  0
SOLID
  5
8C6
100
AcDbEntity
  8
0
  6
BYBLOCK
 62
     0
100
AcDbTrace
 10
5.773234
 20
12.007465
 30
0.0
 11
5.893234
 21
12.007465
 31
0.0
 12
5.833234
 22
12.367465
 32
0.0
 13
5.833234
 23
12.367465
 33
0.0
  0
MTEXT
  5
8C7
100
AcDbEntity
  8
0
  6
BYBLOCK
 62
     0
100
AcDbMText
 10
5.833234
 20
10.780559
 30
0.0
 40
0.36
 41
0.0
 71
     5
 72
     1
  1
\A1;3{\H1.000000x;\S1/4;}" [83mm]
  0
POINT
  5
8C8
100
AcDbEntity
  8
DEFPOINTS
  6
BYBLOCK
 62
     0
100
AcDbPoint
 10
9.868219
 20
9.100349
 30
0.0
  0
POINT
  5
8C9
100
AcDbEntity
  8
DEFPOINTS
  6
BYBLOCK
 62
     0
100
AcDbPoint
 10
6.101167
 20
12.367465
 30
0.0
  0
POINT
  5
8CA
100
AcDbEntity
  8
DEFPOINTS
  6
BYBLOCK
 62
     0
100
AcDbPoint
 10
5.833234
 20
12.367465
 30
0.0
  0
ENDBLK
  5
8CB
100
AcDbEntity
  8
0
100
AcDbBlockEnd
  0
ENDSEC
  0
SECTION
  2
ENTITIES
  0
LINE
  5
302
100
AcDbEntity
  8
0
  6
BYBLOCK
 62
     0
100
AcDbLine
 10
19.190537
 20
9.415349
 30
0.0
 11
19.190537
 21
17.252264
 31
0.0
  0
LINE
  5
303
100
AcDbEntity
  8
BORDER
 62
     7
100
AcDbLine
 39
15.0
 10
25.693238
 20
0.0
 30
0.0
 11
25.693238
 21
34.200072
 31
0.0
  0
LINE
  5
304
100
AcDbEntity
  8
R-DOOR-DETL
100
AcDbLine
 10
13.056933
 20
16.465731
 30
0.0
 11
13.056933
 21
12.347649
 31
0.0
  0
LINE
  5
305
100
AcDbEntity
  8
R-DOOR-DETL
100
AcDbLine
 10
12.994433
 20
16.454652
 30
0.0
 11
12.994433
 21
12.347649
 31
0.0
  0
LINE
  5
306
100
AcDbEntity
  8
R-DOOR-DETL
100
AcDbLine
 10
12.931933
 20
16.407777
 30
0.0
 11
12.931933
 21
12.347649
 31
0.0
  0
LINE
  5
307
100
AcDbEntity
  8
R-DOOR-DETL
100
AcDbLine
 10
13.109859
 20
16.427949
 30
0.0
 11
13.109859
 21
12.347649
 31
0.0
  0
LINE
  5
308
100
AcDbEntity
  8
R-DOOR-DETL
100
AcDbLine
 10
12.806933
 20
16.464847
 30
0.0
 11
12.806933
 21
12.347649
 31
0.0
  0
LINE
  5
309
100
AcDbEntity
  8
R-DOOR-DETL
100
AcDbLine
 10
12.744433
 20
16.426116
 30
0.0
 11
12.744433
 21
12.347649
 31
0.0
  0
LINE
  5
30A
100
AcDbEntity
  8
R-DOOR-DETL
100
AcDbLine
 10
12.681933
 20
16.401424
 30
0.0
 11
12.681933
 21
12.347649
 31
0.0
  0
LINE
  5
30B
100
AcDbEntity
  8
R-DOOR-DETL
100
AcDbLine
 10
12.624433
 20
16.41954
 30
0.0
 11
12.624433
 21
12.347649
 31
0.0
  0
LINE
  5
30C
100
AcDbEntity
  8
0
  6
BYBLOCK
 62
     0
100
AcDbLine
 10
5.809663
 20
12.682465
 30
0.0
 11
5.809663
 21
16.151384
 31
0.0
  0
LINE
  5
30D
100
AcDbEntity
  8
BORDER
 62
     7
100
AcDbLine
 39
15.0
 10
0.0
 20
34.200072
 30
0.0
 11
0.0
 21
0.0
 31
0.0
  0
TEXT
  5
30E
100
AcDbEntity
  8
0
100
AcDbText
 10
9.291097
 20
10.776185
 30
0.0
 40
0.36
  1
SHOE
  7
ROMANS
100
AcDbText
  0
LINE
  5
30F
100
AcDbEntity
  8
0
  6
BYBLOCK
 62
     0
100
AcDbLine
 10
12.274469
 20
12.367465
 30
0.0
 11
5.494663
 21
12.367465
 31
0.0
  0
LINE
  5
310
100
AcDbEntity
  8
0
  6
BYBLOCK
 62
     0
100
AcDbLine
 10
12.383844
 20
12.367465
 30
0.0
 11
5.474369
 21
12.367465
 31
0.0
  0
LINE
  5
311
100
AcDbEntity
  8
0
  6
BYBLOCK
 62
     0
100
AcDbLine
 10
12.493219
 20
12.367465
 30
0.0
 11
6.101167
 21
12.367465
 31
0.0
  0
TEXT
  5
313
100
AcDbEntity
  8
R-DOOR-ANNO
  6
CONTINUOUS
100
AcDbText
 10
8.736707
 20
5.846593
 30
0.0
 40
0.46875
  1
4" SQUARE DOOR RAIL 
  7
ROMANS
 72
     1
 11
13.089385
 21
5.846593
 31
0.0
100
AcDbText
  0
TEXT
  5
314
100
AcDbEntity
  8
R-DOOR-ANNO
  6
CONTINUOUS
100
AcDbText
 10
9.267916
 20
4.433771
 30
0.0
 40
0.46875
  1
CLAD OR NON CLAD
  7
ROMANS
 72
     1
 11
12.906309
 21
4.433771
 31
0.0
100
AcDbText
  0
LINE
  5
316
100
AcDbEntity
  8
BORDER
 62
     7
100
AcDbLine
 39
15.0
 10
0.0
 20
0.0
 30
0.0
 11
25.693238
 21
0.0
 31
0.0
  0
POINT
  5
31D
100
AcDbEntity
  8
DEFPOINTS
  6
BYBLOCK
 62
     0
100
AcDbPoint
 10
6.461167
 20
12.347649
 30
0.0
  0
POINT
  5
31E
100
AcDbEntity
  8
DEFPOINTS
  6
BYBLOCK
 62
     0
100
AcDbPoint
 10
5.809663
 20
12.367465
 30
0.0
  0
SOLID
  5
31F
100
AcDbEntity
  8
0
  6
BYBLOCK
 62
     0
100
AcDbTrace
 10
5.757163
 20
12.682465
 30
0.0
 11
5.862163
 21
12.682465
 31
0.0
 12
5.809663
 22
12.367465
 32
0.0
 13
5.809663
 23
12.367465
 33
0.0
  0
TEXT
  5
320
100
AcDbEntity
  8
R-DOOR-ANNO
  6
CONTINUOUS
100
AcDbText
 10
20.938531
 20
0.5
 30
0.0
 40
0.625
  1
STYLE 02
  7
ROMANS
100
AcDbText
  0
LINE
  5
321
100
AcDbEntity
  8
R-DOOR-DETL
  6
BYBLOCK
 62
     3
100
AcDbLine
 10
13.799212
 20
9.365349
 30
0.0
 11
13.799212
 21
13.224341
 31
0.0
  0
LINE
  5
322
100
AcDbEntity
  8
R-DOOR-DETL
  6
BYBLOCK
 62
     3
100
AcDbLine
 10
13.809212
 20
9.350349
 30
0.0
 11
13.809212
 21
13.224341
 31
0.0
  0
LINE
  5
323
100
AcDbEntity
  8
R-DOOR-DETL
  6
BYBLOCK
 62
     3
100
AcDbLine
 10
13.859212
 20
13.224341
 30
0.0
 11
13.859212
 21
9.350349
 31
0.0
  0
LINE
  5
324
100
AcDbEntity
  8
R-DOOR-DETL
  6
BYBLOCK
 62
     3
100
AcDbLine
 10
11.937226
 20
13.224341
 30
0.0
 11
11.937226
 21
9.365349
 31
0.0
  0
LINE
  5
325
100
AcDbEntity
  8
R-DOOR-DETL
  6
BYBLOCK
 62
     3
100
AcDbLine
 10
12.087226
 20
9.775349
 30
0.0
 11
12.087226
 21
10.429145
 31
0.0
  0
LINE
  5
326
100
AcDbEntity
  8
R-DOOR-DETL
  6
BYBLOCK
 62
     3
100
AcDbLine
 10
13.649212
 20
10.429145
 30
0.0
 11
13.649212
 21
9.775349
 31
0.0
  0
LINE
  5
328
100
AcDbEntity
  8
R-DOOR-PATT
  6
CONTINUOUS
 62
     5
100
AcDbLine
 10
15.771038
 20
7.100349
 30
0.0
 11
13.771038
 21
9.100349
 31
0.0
  0
LINE
  5
329
100
AcDbEntity
  8
R-DOOR-PATT
  6
CONTINUOUS
 62
     5
100
AcDbLine
 10
15.329096
 20
7.100349
 30
0.0
 11
13.329096
 21
9.100349
 31
0.0
  0
LINE
  5
32A
100
AcDbEntity
  8
R-DOOR-PATT
  6
CONTINUOUS
 62
     5
100
AcDbLine
 10
14.887154
 20
7.100349
 30
0.0
 11
12.887154
 21
9.100349
 31
0.0
  0
LINE
  5
32B
100
AcDbEntity
  8
R-DOOR-PATT
  6
CONTINUOUS
 62
     5
100
AcDbLine
 10
14.445212
 20
7.100349
 30
0.0
 11
12.445212
 21
9.100349
 31
0.0
  0
LINE
  5
32C
100
AcDbEntity
  8
R-DOOR-PATT
  6
CONTINUOUS
 62
     5
100
AcDbLine
 10
11.793562
 20
7.100349
 30
0.0
 11
9.865741
 21
9.028169
 31
0.0
  0
LINE
  5
32D
100
AcDbEntity
  8
R-DOOR-PATT
  6
CONTINUOUS
 62
     5
100
AcDbLine
 10
11.35162
 20
7.100349
 30
0.0
 11
9.865741
 21
8.586228
 31
0.0
  0
LINE
  5
32E
100
AcDbEntity
  8
R-DOOR-PATT
  6
CONTINUOUS
 62
     5
100
AcDbLine
 10
10.909678
 20
7.100349
 30
0.0
 11
9.865741
 21
8.144286
 31
0.0
  0
LINE
  5
32F
100
AcDbEntity
  8
R-DOOR-PATT
  6
CONTINUOUS
 62
     5
100
AcDbLine
 10
14.003271
 20
7.100349
 30
0.0
 11
12.003271
 21
9.100349
 31
0.0
  0
LINE
  5
330
100
AcDbEntity
  8
R-DOOR-PATT
  6
CONTINUOUS
 62
     5
100
AcDbLine
 10
13.561329
 20
7.100349
 30
0.0
 11
11.561329
 21
9.100349
 31
0.0
  0
LINE
  5
331
100
AcDbEntity
  8
R-DOOR-PATT
  6
CONTINUOUS
 62
     5
100
AcDbLine
 10
13.119387
 20
7.100349
 30
0.0
 11
11.119387
 21
9.100349
 31
0.0
  0
LINE
  5
332
100
AcDbEntity
  8
R-DOOR-PATT
  6
CONTINUOUS
 62
     5
100
AcDbLine
 10
12.677445
 20
7.100349
 30
0.0
 11
10.677445
 21
9.100349
 31
0.0
  0
LINE
  5
333
100
AcDbEntity
  8
R-DOOR-PATT
  6
CONTINUOUS
 62
     5
100
AcDbLine
 10
12.235504
 20
7.100349
 30
0.0
 11
10.235504
 21
9.100349
 31
0.0
  0
LINE
  5
334
100
AcDbEntity
  8
R-DOOR-PATT
  6
CONTINUOUS
 62
     5
100
AcDbLine
 10
10.467737
 20
7.100349
 30
0.0
 11
9.865741
 21
7.702344
 31
0.0
  0
TEXT
  5
335
100
AcDbEntity
  8
R-DOOR-ANNO
  6
CONTINUOUS
100
AcDbText
 10
9.781309
 20
5.152378
 30
0.0
 40
0.46875
  1
TOP AND BOTTOM
  7
ROMANS
 72
     1
 11
12.906309
 21
5.152378
 31
0.0
100
AcDbText
  0
LINE
  5
336
100
AcDbEntity
  8
R-DOOR-PATT
  6
CONTINUOUS
 62
     5
100
AcDbLine
 10
10.025795
 20
7.100349
 30
0.0
 11
9.865741
 21
7.260403
 31
0.0
  0
LINE
  5
337
100
AcDbEntity
  8
0
  6
BYBLOCK
 62
     0
100
AcDbLine
 10
13.836246
 20
9.100349
 30
0.0
 11
19.505537
 21
9.100349
 31
0.0
  0
LINE
  5
339
100
AcDbEntity
  8
R-DOOR-PATT
  6
CONTINUOUS
 62
     5
100
AcDbLine
 10
15.865741
 20
8.33147
 30
0.0
 11
15.096863
 21
9.100349
 31
0.0
  0
LINE
  5
33A
100
AcDbEntity
  8
R-DOOR-PATT
  6
CONTINUOUS
 62
     5
100
AcDbLine
 10
15.865741
 20
7.889529
 30
0.0
 11
14.654921
 21
9.100349
 31
0.0
  0
LINE
  5
33B
100
AcDbEntity
  8
R-DOOR-PATT
  6
CONTINUOUS
 62
     5
100
AcDbLine
 10
15.865741
 20
7.447587
 30
0.0
 11
14.212979
 21
9.100349
 31
0.0
  0
LINE
  5
33C
100
AcDbEntity
  8
0
100
AcDbLine
 10
10.774719
 20
9.100349
 30
0.0
 11
14.961719
 21
9.100349
 31
0.0
  0
LINE
  5
33D
100
AcDbEntity
  8
0
100
AcDbLine
 10
9.868219
 20
9.100349
 30
0.0
 11
15.868219
 21
9.100349
 31
0.0
  0
LINE
  5
33E
100
AcDbEntity
  8
R-DOOR-DETL
  6
BYBLOCK
 62
     3
100
AcDbLine
 10
12.037226
 20
9.365349
 30
0.0
 11
12.037226
 21
9.745349
 31
0.0
  0
POINT
  5
33F
100
AcDbEntity
  8
DEFPOINTS
  6
BYBLOCK
 62
     0
100
AcDbPoint
 10
9.868219
 20
9.100349
 30
0.0
  0
ARC
  5
340
100
AcDbEntity
  8
R-DOOR-DETL
  6
BYBLOCK
 62
     3
100
AcDbCircle
 10
11.952226
 20
9.365349
 30
0.0
 40
0.015
100
AcDbArc
 50
180.0
 51
270.0
  0
LINE
  5
341
100
AcDbEntity
  8
R-DOOR-DETL
  6
BYBLOCK
 62
     3
100
AcDbLine
 10
11.952226
 20
9.350349
 30
0.0
 11
12.022226
 21
9.350349
 31
0.0
  0
ARC
  5
342
100
AcDbEntity
  8
R-DOOR-DETL
  6
BYBLOCK
 62
     3
100
AcDbCircle
 10
12.022226
 20
9.365349
 30
0.0
 40
0.015
100
AcDbArc
 50
270.0
 51
0.0
  0
ARC
  5
343
100
AcDbEntity
  8
R-DOOR-DETL
  6
BYBLOCK
 62
     3
100
AcDbCircle
 10
12.052226
 20
9.745349
 30
0.0
 40
0.015
100
AcDbArc
 50
90.0
 51
180.0
  0
LINE
  5
344
100
AcDbEntity
  8
R-DOOR-DETL
  6
BYBLOCK
 62
     3
100
AcDbLine
 10
12.052226
 20
9.760349
 30
0.0
 11
12.072226
 21
9.760349
 31
0.0
  0
ARC
  5
345
100
AcDbEntity
  8
R-DOOR-DETL
  6
BYBLOCK
 62
     3
100
AcDbCircle
 10
12.072226
 20
9.775349
 30
0.0
 40
0.015
100
AcDbArc
 50
270.0
 51
0.0
  0
LINE
  5
347
100
AcDbEntity
  8
R-DOOR-DETL
  6
BYBLOCK
 62
     3
100
AcDbLine
 10
13.699212
 20
9.745349
 30
0.0
 11
13.699212
 21
9.365349
 31
0.0
  0
LINE
  5
349
100
AcDbEntity
  8
R-DOOR-PATT
  6
CONTINUOUS
 62
     5
100
AcDbLine
 10
15.865741
 20
8.773412
 30
0.0
 11
15.538804
 21
9.100349
 31
0.0
  0
POINT
  5
34A
100
AcDbEntity
  8
DEFPOINTS
  6
BYBLOCK
 62
     0
100
AcDbPoint
 10
15.538804
 20
9.100349
 30
0.0
  0
ARC
  5
34B
100
AcDbEntity
  8
R-DOOR-DETL
  6
BYBLOCK
 62
     3
100
AcDbCircle
 10
13.784212
 20
9.365349
 30
0.0
 40
0.015
100
AcDbArc
 50
270.0
 51
0.0
  0
LINE
  5
34C
100
AcDbEntity
  8
R-DOOR-DETL
  6
BYBLOCK
 62
     3
100
AcDbLine
 10
13.714212
 20
9.350349
 30
0.0
 11
13.784212
 21
9.350349
 31
0.0
  0
ARC
  5
34D
100
AcDbEntity
  8
R-DOOR-DETL
  6
BYBLOCK
 62
     3
100
AcDbCircle
 10
13.714212
 20
9.365349
 30
0.0
 40
0.015
100
AcDbArc
 50
180.0
 51
270.0
  0
POINT
  5
34E
100
AcDbEntity
  8
R-DOOR-DETL
  6
BYBLOCK
 62
     3
100
AcDbPoint
 10
13.749212
 20
9.350349
 30
0.0
  0
LINE
  5
34F
100
AcDbEntity
  8
R-DOOR-DETL
  6
BYBLOCK
 62
     3
100
AcDbLine
 10
13.859212
 20
9.350349
 30
0.0
 11
13.809212
 21
9.350349
 31
0.0
  0
LINE
  5
350
100
AcDbEntity
  8
0
  6
BYBLOCK
 62
     0
100
AcDbLine
 10
15.648179
 20
9.100349
 30
0.0
 11
17.100038
 21
9.100349
 31
0.0
  0
ARC
  5
353
100
AcDbEntity
  8
R-DOOR-DETL
  6
BYBLOCK
 62
     3
100
AcDbCircle
 10
13.684212
 20
9.745349
 30
0.0
 40
0.015
100
AcDbArc
 50
0.0
 51
90.0
  0
LINE
  5
354
100
AcDbEntity
  8
R-DOOR-DETL
  6
BYBLOCK
 62
     3
100
AcDbLine
 10
13.664212
 20
9.760349
 30
0.0
 11
13.684212
 21
9.760349
 31
0.0
  0
ARC
  5
355
100
AcDbEntity
  8
R-DOOR-DETL
  6
BYBLOCK
 62
     3
100
AcDbCircle
 10
13.664212
 20
9.775349
 30
0.0
 40
0.015
100
AcDbArc
 50
180.0
 51
270.0
  0
SOLID
  5
358
100
AcDbEntity
  8
0
  6
BYBLOCK
 62
     0
100
AcDbTrace
 10
19.138037
 20
9.415349
 30
0.0
 11
19.243037
 21
9.415349
 31
0.0
 12
19.190537
 22
9.100349
 32
0.0
 13
19.190537
 23
9.100349
 33
0.0
  0
POINT
  5
359
100
AcDbEntity
  8
DEFPOINTS
  6
BYBLOCK
 62
     0
100
AcDbPoint
 10
19.190537
 20
9.100349
 30
0.0
  0
LWPOLYLINE
  5
35A
100
AcDbEntity
  8
R-DOOR-ANNO
  6
CONTINUOUS
100
AcDbPolyline
 90
        3
 70
     0
 43
0.0
 10
13.850869
 20
13.103827
 10
14.919926
 20
12.504364
 10
15.099926
 20
12.504364
1001
ACAD
1000
DSTYLE
1002
{
1070
   173
1070
     1
1070
     6
1000
_DOTSMALL
1002
}
  0
LINE
  5
35B
100
AcDbEntity
  8
R-DOOR-DETL
  6
BYBLOCK
 62
     3
100
AcDbLine
 10
13.328169
 20
12.677976
 30
0.0
 11
13.305777
 21
13.168706
 31
0.0
  0
LINE
  5
35C
100
AcDbEntity
  8
R-DOOR-DETL
  6
BYBLOCK
 62
     3
100
AcDbLine
 10
12.406124
 20
12.677976
 30
0.0
 11
12.428515
 21
13.168706
 31
0.0
  0
LINE
  5
35D
100
AcDbEntity
  8
R-DOOR-DETL
  6
BYBLOCK
 62
     3
100
AcDbLine
 10
13.649212
 20
13.210673
 30
0.0
 11
13.649212
 21
12.792309
 31
0.0
  0
LINE
  5
35E
100
AcDbEntity
  8
R-DOOR-DETL
  6
BYBLOCK
 62
     3
100
AcDbLine
 10
12.087226
 20
12.792309
 30
0.0
 11
12.087226
 21
13.210673
 31
0.0
  0
LINE
  5
35F
100
AcDbEntity
  8
R-DOOR-DETL
  6
BYBLOCK
 62
     3
100
AcDbLine
 10
12.574433
 20
13.159359
 30
0.0
 11
12.574433
 21
12.307491
 31
0.0
  0
LINE
  5
360
100
AcDbEntity
  8
R-DOOR-DETL
  6
BYBLOCK
 62
     3
100
AcDbLine
 10
12.624433
 20
13.159359
 30
0.0
 11
12.624433
 21
12.409359
 31
0.0
  0
LINE
  5
361
100
AcDbEntity
  8
R-DOOR-DETL
  6
BYBLOCK
 62
     3
100
AcDbLine
 10
12.574433
 20
12.409359
 30
0.0
 11
12.574433
 21
13.159359
 31
0.0
  0
LINE
  5
362
100
AcDbEntity
  8
R-DOOR-DETL
  6
BYBLOCK
 62
     3
100
AcDbLine
 10
13.159859
 20
13.159359
 30
0.0
 11
13.159859
 21
12.307491
 31
0.0
  0
LINE
  5
363
100
AcDbEntity
  8
R-DOOR-DETL
  6
BYBLOCK
 62
     3
100
AcDbLine
 10
13.109859
 20
13.159359
 30
0.0
 11
13.109859
 21
12.409359
 31
0.0
  0
LINE
  5
364
100
AcDbEntity
  8
R-DOOR-DETL
  6
BYBLOCK
 62
     3
100
AcDbLine
 10
13.159859
 20
12.409359
 30
0.0
 11
13.159859
 21
13.159359
 31
0.0
  0
TEXT
  5
365
100
AcDbEntity
  8
0
100
AcDbText
 10
15.158498
 20
12.324364
 30
0.0
 40
0.36
  1
CLADDING
  7
ROMANS
100
AcDbText
  0
TEXT
  5
366
100
AcDbEntity
  8
0
100
AcDbText
 10
14.884104
 20
11.293009
 30
0.0
 40
0.36
  1
GLASS CLAMP
  7
ROMANS
100
AcDbText
  0
INSERT
  5
367
100
AcDbEntity
  8
DIMN
 62
     7
100
AcDbBlockReference
  2
_DOTSMALL
 10
12.001302
 20
11.558534
 30
0.0
 41
0.18
 42
0.18
 43
0.18
 50
153.778112
1001
ACAD
1000
DSTYLE
1002
{
1070
   173
1070
     1
1070
     6
1000
_DOTSMALL
1002
}
  0
LWPOLYLINE
  5
368
100
AcDbEntity
  8
DIMN
 62
     7
100
AcDbPolyline
 90
        3
 70
     0
 43
0.0
 10
13.157382
 20
12.205977
 10
14.645533
 20
11.473009
 10
14.825533
 20
11.473009
1001
ACAD
1000
DSTYLE
1002
{
1070
   173
1070
     1
1070
     6
1000
_DOTSMALL
1002
}
  0
ARC
  5
369
100
AcDbEntity
  8
R-DOOR-DETL
  6
BYBLOCK
 62
     3
100
AcDbCircle
 10
13.634212
 20
10.429145
 30
0.0
 40
0.015
100
AcDbArc
 50
0.0
 51
90.0
  0
ARC
  5
36A
100
AcDbEntity
  8
R-DOOR-DETL
  6
BYBLOCK
 62
     3
100
AcDbCircle
 10
13.619212
 20
10.900349
 30
0.0
 40
0.03
100
AcDbArc
 50
0.0
 51
90.0
  0
ARC
  5
36B
100
AcDbEntity
  8
R-DOOR-DETL
  6
BYBLOCK
 62
     3
100
AcDbCircle
 10
13.613212
 20
10.899349
 30
0.0
 40
0.031
100
AcDbArc
 50
0.0
 51
90.0
  0
ARC
  5
36C
100
AcDbEntity
  8
R-DOOR-DETL
  6
BYBLOCK
 62
     3
100
AcDbCircle
 10
13.634212
 20
10.659145
 30
0.0
 40
0.015
100
AcDbArc
 50
270.0
 51
0.0
  0
ARC
  5
36D
100
AcDbEntity
  8
R-DOOR-DETL
  6
BYBLOCK
 62
     3
100
AcDbCircle
 10
13.629212
 20
10.669145
 30
0.0
 40
0.015
100
AcDbArc
 50
270.0
 51
0.0
  0
LINE
  5
36E
100
AcDbEntity
  8
R-DOOR-DETL
  6
BYBLOCK
 62
     3
100
AcDbLine
 10
13.249399
 20
10.731747
 30
0.0
 11
13.143685
 21
10.914849
 31
0.0
  0
LINE
  5
36F
100
AcDbEntity
  8
R-DOOR-DETL
  6
BYBLOCK
 62
     3
100
AcDbLine
 10
13.442753
 20
10.914849
 30
0.0
 11
13.337039
 21
10.731747
 31
0.0
  0
LINE
  5
370
100
AcDbEntity
  8
R-DOOR-DETL
  6
BYBLOCK
 62
     3
100
AcDbLine
 10
12.399399
 20
10.731747
 30
0.0
 11
12.293685
 21
10.914849
 31
0.0
  0
LINE
  5
371
100
AcDbEntity
  8
R-DOOR-DETL
  6
BYBLOCK
 62
     3
100
AcDbLine
 10
12.592753
 20
10.914849
 30
0.0
 11
12.487039
 21
10.731747
 31
0.0
  0
LINE
  5
372
100
AcDbEntity
  8
R-DOOR-DETL
  6
BYBLOCK
 62
     3
100
AcDbLine
 10
12.087226
 20
10.659145
 30
0.0
 11
12.087226
 21
10.900349
 31
0.0
  0
LINE
  5
373
100
AcDbEntity
  8
R-DOOR-DETL
  6
BYBLOCK
 62
     3
100
AcDbLine
 10
12.092226
 20
10.899349
 30
0.0
 11
12.092226
 21
10.669145
 31
0.0
  0
LINE
  5
374
100
AcDbEntity
  8
R-DOOR-DETL
  6
BYBLOCK
 62
     3
100
AcDbLine
 10
13.550719
 20
10.380349
 30
0.0
 11
13.550719
 21
10.930349
 31
0.0
  0
LINE
  5
375
100
AcDbEntity
  8
R-DOOR-DETL
  6
BYBLOCK
 62
     3
100
AcDbLine
 10
12.185719
 20
10.380349
 30
0.0
 11
12.185719
 21
10.930349
 31
0.0
  0
LINE
  5
376
100
AcDbEntity
  8
R-DOOR-DETL
  6
BYBLOCK
 62
     3
100
AcDbLine
 10
13.282567
 20
10.497331
 30
0.0
 11
13.194347
 21
10.560564
 31
0.0
  0
CIRCLE
  5
377
100
AcDbEntity
  8
R-DOOR-DETL
  6
BYBLOCK
 62
     3
100
AcDbCircle
 10
13.293219
 20
10.605349
 30
0.0
 40
0.1875
  0
CIRCLE
  5
378
100
AcDbEntity
  8
R-DOOR-DETL
  6
BYBLOCK
 62
     3
100
AcDbCircle
 10
13.293219
 20
10.605349
 30
0.0
 40
0.1625
  0
ARC
  5
379
100
AcDbEntity
  8
R-DOOR-DETL
  6
BYBLOCK
 62
     3
100
AcDbCircle
 10
13.293219
 20
10.605349
 30
0.0
 40
0.1005
100
AcDbArc
 50
122.506128
 51
57.493872
  0
LINE
  5
37A
100
AcDbEntity
  8
R-DOOR-DETL
  6
BYBLOCK
 62
     3
100
AcDbLine
 10
13.392091
 20
10.650133
 30
0.0
 11
13.381439
 21
10.542115
 31
0.0
  0
LINE
  5
37B
100
AcDbEntity
  8
R-DOOR-DETL
  6
BYBLOCK
 62
     3
100
AcDbLine
 10
13.553219
 20
10.629145
 30
0.0
 11
13.553219
 21
10.459145
 31
0.0
  0
CIRCLE
  5
37C
100
AcDbEntity
  8
R-DOOR-DETL
  6
BYBLOCK
 62
     3
100
AcDbCircle
 10
12.443219
 20
10.605349
 30
0.0
 40
0.1875
  0
CIRCLE
  5
37D
100
AcDbEntity
  8
R-DOOR-DETL
  6
BYBLOCK
 62
     3
100
AcDbCircle
 10
12.443219
 20
10.605349
 30
0.0
 40
0.1625
  0
LINE
  5
37E
100
AcDbEntity
  8
R-DOOR-DETL
  6
BYBLOCK
 62
     3
100
AcDbLine
 10
12.519161
 20
10.527798
 30
0.0
 11
12.548351
 21
10.632341
 31
0.0
  0
ARC
  5
37F
100
AcDbEntity
  8
R-DOOR-DETL
  6
BYBLOCK
 62
     3
100
AcDbCircle
 10
12.443219
 20
10.605349
 30
0.0
 40
0.1005
100
AcDbArc
 50
122.506128
 51
57.493872
  0
LINE
  5
380
100
AcDbEntity
  8
R-DOOR-DETL
  6
BYBLOCK
 62
     3
100
AcDbLine
 10
12.813948
 20
10.511349
 30
0.0
 11
12.759677
 21
10.605349
 31
0.0
  0
LINE
  5
381
100
AcDbEntity
  8
R-DOOR-DETL
  6
BYBLOCK
 62
     3
100
AcDbLine
 10
12.92249
 20
10.511349
 30
0.0
 11
12.976761
 21
10.605349
 31
0.0
  0
LINE
  5
382
100
AcDbEntity
  8
R-DOOR-DETL
  6
BYBLOCK
 62
     3
100
AcDbLine
 10
12.338087
 20
10.578357
 30
0.0
 11
12.414029
 21
10.500806
 31
0.0
  0
CIRCLE
  5
383
100
AcDbEntity
  8
R-DOOR-DETL
  6
BYBLOCK
 62
     3
100
AcDbCircle
 10
12.868219
 20
10.605349
 30
0.0
 40
0.1875
  0
CIRCLE
  5
384
100
AcDbEntity
  8
R-DOOR-DETL
  6
BYBLOCK
 62
     3
100
AcDbCircle
 10
12.868219
 20
10.605349
 30
0.0
 40
0.1625
  0
LINE
  5
385
100
AcDbEntity
  8
R-DOOR-DETL
  6
BYBLOCK
 62
     3
100
AcDbLine
 10
12.183219
 20
10.459145
 30
0.0
 11
12.183219
 21
10.629145
 31
0.0
  0
LINE
  5
386
100
AcDbEntity
  8
R-DOOR-DETL
  6
BYBLOCK
 62
     3
100
AcDbLine
 10
13.568219
 20
10.444145
 30
0.0
 11
13.634212
 21
10.444145
 31
0.0
  0
LINE
  5
387
100
AcDbEntity
  8
R-DOOR-DETL
  6
BYBLOCK
 62
     3
100
AcDbLine
 10
13.381439
 20
10.542115
 30
0.0
 11
13.282567
 21
10.497331
 31
0.0
  0
ARC
  5
388
100
AcDbEntity
  8
R-DOOR-DETL
  6
BYBLOCK
 62
     3
100
AcDbCircle
 10
13.568219
 20
10.459145
 30
0.0
 40
0.015
100
AcDbArc
 50
180.0
 51
270.0
  0
LINE
  5
389
100
AcDbEntity
  8
R-DOOR-DETL
  6
BYBLOCK
 62
     3
100
AcDbLine
 10
12.414029
 20
10.500806
 30
0.0
 11
12.519161
 21
10.527798
 31
0.0
  0
LINE
  5
38A
100
AcDbEntity
  8
R-DOOR-DETL
  6
BYBLOCK
 62
     3
100
AcDbLine
 10
12.813948
 20
10.511349
 30
0.0
 11
12.92249
 21
10.511349
 31
0.0
  0
ARC
  5
38B
100
AcDbEntity
  8
R-DOOR-DETL
  6
BYBLOCK
 62
     3
100
AcDbCircle
 10
12.168219
 20
10.459145
 30
0.0
 40
0.015
100
AcDbArc
 50
270.0
 51
0.0
  0
LINE
  5
38C
100
AcDbEntity
  8
R-DOOR-DETL
  6
BYBLOCK
 62
     3
100
AcDbLine
 10
13.634212
 20
10.644145
 30
0.0
 11
13.568219
 21
10.644145
 31
0.0
  0
LINE
  5
38D
100
AcDbEntity
  8
R-DOOR-DETL
  6
BYBLOCK
 62
     3
100
AcDbLine
 10
13.563219
 20
10.654145
 30
0.0
 11
13.629212
 21
10.654145
 31
0.0
  0
LINE
  5
38E
100
AcDbEntity
  8
R-DOOR-DETL
  6
BYBLOCK
 62
     3
100
AcDbLine
 10
13.303871
 20
10.713367
 30
0.0
 11
13.204999
 21
10.668582
 31
0.0
  0
ARC
  5
38F
100
AcDbEntity
  8
R-DOOR-DETL
  6
BYBLOCK
 62
     3
100
AcDbCircle
 10
13.222552
 20
10.716247
 30
0.0
 40
0.031
100
AcDbArc
 50
302.506128
 51
30.0
  0
LINE
  5
390
100
AcDbEntity
  8
R-DOOR-DETL
  6
BYBLOCK
 62
     3
100
AcDbLine
 10
13.204999
 20
10.668582
 30
0.0
 11
13.194347
 21
10.560564
 31
0.0
  0
LINE
  5
391
100
AcDbEntity
  8
R-DOOR-DETL
  6
BYBLOCK
 62
     3
100
AcDbLine
 10
13.392091
 20
10.650133
 30
0.0
 11
13.303871
 21
10.713367
 31
0.0
  0
ARC
  5
392
100
AcDbEntity
  8
R-DOOR-DETL
  6
BYBLOCK
 62
     3
100
AcDbCircle
 10
13.568219
 20
10.629145
 30
0.0
 40
0.015
100
AcDbArc
 50
90.0
 51
180.0
  0
ARC
  5
393
100
AcDbEntity
  8
R-DOOR-DETL
  6
BYBLOCK
 62
     3
100
AcDbCircle
 10
13.363886
 20
10.716247
 30
0.0
 40
0.031
100
AcDbArc
 50
150.0
 51
237.493872
  0
ARC
  5
394
100
AcDbEntity
  8
R-DOOR-DETL
  6
BYBLOCK
 62
     3
100
AcDbCircle
 10
13.563219
 20
10.639145
 30
0.0
 40
0.015
100
AcDbArc
 50
90.0
 51
180.0
  0
LINE
  5
395
100
AcDbEntity
  8
R-DOOR-DETL
  6
BYBLOCK
 62
     3
100
AcDbLine
 10
12.472409
 20
10.709892
 30
0.0
 11
12.548351
 21
10.632341
 31
0.0
  0
ARC
  5
396
100
AcDbEntity
  8
R-DOOR-DETL
  6
BYBLOCK
 62
     3
100
AcDbCircle
 10
12.513886
 20
10.716247
 30
0.0
 40
0.031
100
AcDbArc
 50
150.0
 51
237.493872
  0
ARC
  5
397
100
AcDbEntity
  8
R-DOOR-DETL
  6
BYBLOCK
 62
     3
100
AcDbCircle
 10
12.372552
 20
10.716247
 30
0.0
 40
0.031
100
AcDbArc
 50
302.506128
 51
30.0
  0
LINE
  5
398
100
AcDbEntity
  8
R-DOOR-DETL
  6
BYBLOCK
 62
     3
100
AcDbLine
 10
12.759677
 20
10.605349
 30
0.0
 11
12.813948
 21
10.699349
 31
0.0
  0
LINE
  5
399
100
AcDbEntity
  8
R-DOOR-DETL
  6
BYBLOCK
 62
     3
100
AcDbLine
 10
12.813948
 20
10.699349
 30
0.0
 11
12.92249
 21
10.699349
 31
0.0
  0
LINE
  5
39A
100
AcDbEntity
  8
R-DOOR-DETL
  6
BYBLOCK
 62
     3
100
AcDbLine
 10
12.976761
 20
10.605349
 30
0.0
 11
12.92249
 21
10.699349
 31
0.0
  0
LINE
  5
39B
100
AcDbEntity
  8
R-DOOR-DETL
  6
BYBLOCK
 62
     3
100
AcDbLine
 10
12.338087
 20
10.578357
 30
0.0
 11
12.367277
 21
10.6829
 31
0.0
  0
LINE
  5
39C
100
AcDbEntity
  8
R-DOOR-DETL
  6
BYBLOCK
 62
     3
100
AcDbLine
 10
12.367277
 20
10.6829
 30
0.0
 11
12.472409
 21
10.709892
 31
0.0
  0
LINE
  5
39D
100
AcDbEntity
  8
R-DOOR-DETL
  6
BYBLOCK
 62
     3
100
AcDbLine
 10
12.185719
 20
10.805349
 30
0.0
 11
13.550719
 21
10.805349
 31
0.0
  0
ARC
  5
39E
100
AcDbEntity
  8
R-DOOR-DETL
  6
BYBLOCK
 62
     3
100
AcDbCircle
 10
12.168219
 20
10.629145
 30
0.0
 40
0.015
100
AcDbArc
 50
0.0
 51
90.0
  0
ARC
  5
39F
100
AcDbEntity
  8
R-DOOR-DETL
  6
BYBLOCK
 62
     3
100
AcDbCircle
 10
12.173219
 20
10.639145
 30
0.0
 40
0.015
100
AcDbArc
 50
0.0
 51
90.0
  0
ARC
  5
3A0
100
AcDbEntity
  8
R-DOOR-DETL
  6
BYBLOCK
 62
     3
100
AcDbCircle
 10
12.102226
 20
10.429145
 30
0.0
 40
0.015
100
AcDbArc
 50
90.0
 51
180.0
  0
ARC
  5
3A1
100
AcDbEntity
  8
R-DOOR-DETL
  6
BYBLOCK
 62
     3
100
AcDbCircle
 10
12.102226
 20
10.659145
 30
0.0
 40
0.015
100
AcDbArc
 50
180.0
 51
270.0
  0
ARC
  5
3A2
100
AcDbEntity
  8
R-DOOR-DETL
  6
BYBLOCK
 62
     3
100
AcDbCircle
 10
12.107226
 20
10.669145
 30
0.0
 40
0.015
100
AcDbArc
 50
180.0
 51
270.0
  0
LINE
  5
3A3
100
AcDbEntity
  8
R-DOOR-DETL
  6
BYBLOCK
 62
     3
100
AcDbLine
 10
12.102226
 20
10.444145
 30
0.0
 11
12.168219
 21
10.444145
 31
0.0
  0
LINE
  5
3A4
100
AcDbEntity
  8
R-DOOR-DETL
  6
BYBLOCK
 62
     3
100
AcDbLine
 10
12.168219
 20
10.644145
 30
0.0
 11
12.102226
 21
10.644145
 31
0.0
  0
LINE
  5
3A5
100
AcDbEntity
  8
R-DOOR-DETL
  6
BYBLOCK
 62
     3
100
AcDbLine
 10
12.107226
 20
10.654145
 30
0.0
 11
12.173219
 21
10.654145
 31
0.0
  0
ARC
  5
3A6
100
AcDbEntity
  8
R-DOOR-DETL
  6
BYBLOCK
 62
     3
100
AcDbCircle
 10
13.533219
 20
10.369349
 30
0.0
 40
0.015
100
AcDbArc
 50
270.0
 51
0.0
  0
LINE
  5
3A7
100
AcDbEntity
  8
R-DOOR-DETL
  6
BYBLOCK
 62
     3
100
AcDbLine
 10
12.203219
 20
10.354349
 30
0.0
 11
13.533219
 21
10.354349
 31
0.0
  0
LINE
  5
3A8
100
AcDbEntity
  8
R-DOOR-DETL
  6
BYBLOCK
 62
     3
100
AcDbLine
 10
12.185719
 20
10.380349
 30
0.0
 11
13.550719
 21
10.380349
 31
0.0
  0
ARC
  5
3A9
100
AcDbEntity
  8
R-DOOR-DETL
  6
BYBLOCK
 62
     3
100
AcDbCircle
 10
12.203219
 20
10.369349
 30
0.0
 40
0.015
100
AcDbArc
 50
180.0
 51
270.0
  0
LINE
  5
3AA
100
AcDbEntity
  8
R-DOOR-DETL
  6
BYBLOCK
 62
     3
100
AcDbLine
 10
13.548219
 20
10.369349
 30
0.0
 11
13.548219
 21
10.639145
 31
0.0
  0
LINE
  5
3AB
100
AcDbEntity
  8
R-DOOR-DETL
  6
BYBLOCK
 62
     3
100
AcDbLine
 10
12.188219
 20
10.639145
 30
0.0
 11
12.188219
 21
10.369349
 31
0.0
  0
LINE
  5
3AC
100
AcDbEntity
  8
R-DOOR-ANNO
  6
CONTINUOUS
100
AcDbLine
 10
12.001302
 20
11.558534
 30
0.0
 11
10.930248
 21
10.962644
 31
0.0
1001
ACAD
1000
DSTYLE
1002
{
1070
   173
1070
     1
1070
     6
1000
_DOTSMALL
1002
}
  0
LINE
  5
3AD
100
AcDbEntity
  8
R-DOOR-ANNO
  6
CONTINUOUS
100
AcDbLine
 10
10.930248
 20
10.962644
 30
0.0
 11
10.750249
 21
10.963245
 31
0.0
1001
ACAD
1000
DSTYLE
1002
{
1070
   173
1070
     1
1070
     6
1000
_DOTSMALL
1002
}
  0
LINE
  5
3AE
100
AcDbEntity
  8
R-DOOR-DETL
  6
BYBLOCK
 62
     3
100
AcDbLine
 10
13.371508
 20
11.371391
 30
0.0
 11
13.371508
 21
11.211349
 31
0.0
  0
LINE
  5
3AF
100
AcDbEntity
  8
R-DOOR-DETL
  6
BYBLOCK
 62
     3
100
AcDbLine
 10
12.36493
 20
11.211349
 30
0.0
 11
12.36493
 21
11.371391
 31
0.0
  0
ARC
  5
3B0
100
AcDbEntity
  8
R-DOOR-DETL
  6
BYBLOCK
 62
     3
100
AcDbCircle
 10
12.868219
 20
11.176904
 30
0.0
 40
0.15678
100
AcDbArc
 50
145.437475
 51
169.684923
  0
ARC
  5
3B1
100
AcDbEntity
  8
R-DOOR-DETL
  6
BYBLOCK
 62
     3
100
AcDbCircle
 10
12.779637
 20
11.237927
 30
0.0
 40
0.049213
100
AcDbArc
 50
332.582198
 51
145.437475
  0
ARC
  5
3B2
100
AcDbEntity
  8
R-DOOR-DETL
  6
BYBLOCK
 62
     3
100
AcDbCircle
 10
12.956802
 20
11.237927
 30
0.0
 40
0.049213
100
AcDbArc
 50
34.562525
 51
207.417802
  0
ARC
  5
3B3
100
AcDbEntity
  8
R-DOOR-DETL
  6
BYBLOCK
 62
     3
100
AcDbCircle
 10
12.868219
 20
11.176904
 30
0.0
 40
0.15678
100
AcDbArc
 50
10.315077
 51
34.562525
  0
LINE
  5
3B4
100
AcDbEntity
  8
R-DOOR-DETL
  6
BYBLOCK
 62
     3
100
AcDbLine
 10
13.340508
 20
11.180349
 30
0.0
 11
13.05198
 21
11.180349
 31
0.0
  0
ARC
  5
3B5
100
AcDbEntity
  8
R-DOOR-DETL
  6
BYBLOCK
 62
     3
100
AcDbCircle
 10
13.05198
 20
11.210349
 30
0.0
 40
0.03
100
AcDbArc
 50
190.315077
 51
270.0
  0
ARC
  5
3B6
100
AcDbEntity
  8
R-DOOR-DETL
  6
BYBLOCK
 62
     3
100
AcDbCircle
 10
13.340508
 20
11.211349
 30
0.0
 40
0.031
100
AcDbArc
 50
270.0
 51
0.0
  0
ARC
  5
3B7
100
AcDbEntity
  8
R-DOOR-DETL
  6
BYBLOCK
 62
     3
100
AcDbCircle
 10
12.39593
 20
11.211349
 30
0.0
 40
0.031
100
AcDbArc
 50
180.0
 51
270.0
  0
LINE
  5
3B8
100
AcDbEntity
  8
R-DOOR-DETL
  6
BYBLOCK
 62
     3
100
AcDbLine
 10
12.684458
 20
11.180349
 30
0.0
 11
12.39593
 21
11.180349
 31
0.0
  0
ARC
  5
3B9
100
AcDbEntity
  8
R-DOOR-DETL
  6
BYBLOCK
 62
     3
100
AcDbCircle
 10
12.684458
 20
11.210349
 30
0.0
 40
0.03
100
AcDbArc
 50
270.0
 51
349.684923
  0
ARC
  5
3BA
100
AcDbEntity
  8
R-DOOR-DETL
  6
BYBLOCK
 62
     3
100
AcDbCircle
 10
12.868219
 20
11.176904
 30
0.0
 40
0.059055
100
AcDbArc
 50
139.488274
 51
40.511726
  0
ARC
  5
3BB
100
AcDbEntity
  8
R-DOOR-DETL
  6
BYBLOCK
 62
     3
100
AcDbCircle
 10
13.421658
 20
11.548554
 30
0.0
 40
0.049212
100
AcDbArc
 50
260.249923
 51
311.403987
  0
ARC
  5
3BC
100
AcDbEntity
  8
R-DOOR-DETL
  6
BYBLOCK
 62
     3
100
AcDbCircle
 10
13.482212
 20
11.459649
 30
0.0
 40
0.059055
100
AcDbArc
 50
229.185014
 51
118.310064
  0
ARC
  5
3BD
100
AcDbEntity
  8
R-DOOR-DETL
  6
BYBLOCK
 62
     3
100
AcDbCircle
 10
13.42072
 20
11.371391
 30
0.0
 40
0.049213
100
AcDbArc
 50
62.278938
 51
180.0
  0
LINE
  5
3BE
100
AcDbEntity
  8
R-DOOR-DETL
  6
BYBLOCK
 62
     3
100
AcDbLine
 10
12.323114
 20
11.500052
 30
0.0
 11
12.868219
 21
11.500052
 31
0.0
  0
ARC
  5
3BF
100
AcDbEntity
  8
R-DOOR-DETL
  6
BYBLOCK
 62
     3
100
AcDbCircle
 10
12.315718
 20
11.371391
 30
0.0
 40
0.049213
100
AcDbArc
 50
0.0
 51
117.721062
  0
ARC
  5
3C0
100
AcDbEntity
  8
R-DOOR-DETL
  6
BYBLOCK
 62
     3
100
AcDbCircle
 10
12.31478
 20
11.548554
 30
0.0
 40
0.049213
100
AcDbArc
 50
228.596013
 51
279.750077
  0
ARC
  5
3C1
100
AcDbEntity
  8
R-DOOR-DETL
  6
BYBLOCK
 62
     3
100
AcDbCircle
 10
12.254226
 20
11.459649
 30
0.0
 40
0.059055
100
AcDbArc
 50
61.689936
 51
310.814986
  0
LINE
  5
3C2
100
AcDbEntity
  8
R-DOOR-DETL
  6
BYBLOCK
 62
     3
100
AcDbLine
 10
12.868219
 20
11.500052
 30
0.0
 11
13.413324
 21
11.500052
 31
0.0
  0
LINE
  5
3C3
100
AcDbEntity
  8
R-DOOR-DETL
  6
BYBLOCK
 62
     3
100
AcDbLine
 10
13.613212
 20
10.930349
 30
0.0
 11
13.4696
 21
10.930349
 31
0.0
  0
LINE
  5
3C4
100
AcDbEntity
  8
R-DOOR-DETL
  6
BYBLOCK
 62
     3
100
AcDbLine
 10
12.868219
 20
10.930349
 30
0.0
 11
13.619212
 21
10.930349
 31
0.0
  0
ARC
  5
3C5
100
AcDbEntity
  8
R-DOOR-DETL
  6
BYBLOCK
 62
     3
100
AcDbCircle
 10
13.116838
 20
10.899349
 30
0.0
 40
0.031
100
AcDbArc
 50
30.0
 51
90.0
  0
ARC
  5
3C6
100
AcDbEntity
  8
R-DOOR-DETL
  6
BYBLOCK
 62
     3
100
AcDbCircle
 10
13.4696
 20
10.899349
 30
0.0
 40
0.031
100
AcDbArc
 50
90.0
 51
150.0
  0
ARC
  5
3C7
100
AcDbEntity
  8
R-DOOR-DETL
  6
BYBLOCK
 62
     3
100
AcDbCircle
 10
12.6196
 20
10.899349
 30
0.0
 40
0.031
100
AcDbArc
 50
90.0
 51
150.0
  0
ARC
  5
3C8
100
AcDbEntity
  8
R-DOOR-DETL
  6
BYBLOCK
 62
     3
100
AcDbCircle
 10
12.266838
 20
10.899349
 30
0.0
 40
0.031
100
AcDbArc
 50
30.0
 51
90.0
  0
LINE
  5
3C9
100
AcDbEntity
  8
R-DOOR-DETL
  6
BYBLOCK
 62
     3
100
AcDbLine
 10
13.116838
 20
10.930349
 30
0.0
 11
12.6196
 21
10.930349
 31
0.0
  0
LINE
  5
3CA
100
AcDbEntity
  8
R-DOOR-DETL
  6
BYBLOCK
 62
     3
100
AcDbLine
 10
12.185719
 20
10.930349
 30
0.0
 11
13.550719
 21
10.930349
 31
0.0
  0
LINE
  5
3CB
100
AcDbEntity
  8
R-DOOR-DETL
  6
BYBLOCK
 62
     3
100
AcDbLine
 10
12.266838
 20
10.930349
 30
0.0
 11
12.123226
 21
10.930349
 31
0.0
  0
ARC
  5
3CC
100
AcDbEntity
  8
R-DOOR-DETL
  6
BYBLOCK
 62
     3
100
AcDbCircle
 10
12.117226
 20
10.900349
 30
0.0
 40
0.03
100
AcDbArc
 50
90.0
 51
180.0
  0
ARC
  5
3CD
100
AcDbEntity
  8
R-DOOR-DETL
  6
BYBLOCK
 62
     3
100
AcDbCircle
 10
12.123226
 20
10.899349
 30
0.0
 40
0.031
100
AcDbArc
 50
90.0
 51
180.0
  0
LINE
  5
3CE
100
AcDbEntity
  8
R-DOOR-DETL
  6
BYBLOCK
 62
     3
100
AcDbLine
 10
12.117226
 20
10.930349
 30
0.0
 11
12.868219
 21
10.930349
 31
0.0
  0
LINE
  5
3CF
100
AcDbEntity
  8
R-DOOR-DETL
  6
BYBLOCK
 62
     3
100
AcDbLine
 10
13.649212
 20
10.900349
 30
0.0
 11
13.649212
 21
10.659145
 31
0.0
  0
LINE
  5
3D0
100
AcDbEntity
  8
R-DOOR-DETL
  6
BYBLOCK
 62
     3
100
AcDbLine
 10
13.644212
 20
10.669145
 30
0.0
 11
13.644212
 21
10.899349
 31
0.0
  0
ARC
  5
3D1
100
AcDbEntity
  8
R-DOOR-DETL
  6
BYBLOCK
 62
     3
100
AcDbCircle
 10
13.399212
 20
12.792309
 30
0.0
 40
0.25
100
AcDbArc
 50
330.0
 51
0.0
  0
LINE
  5
3D2
100
AcDbEntity
  8
R-DOOR-DETL
  6
BYBLOCK
 62
     3
100
AcDbLine
 10
13.150017
 20
12.297649
 30
0.0
 11
13.150017
 21
12.347649
 31
0.0
  0
ARC
  5
3D3
100
AcDbEntity
  8
R-DOOR-DETL
  6
BYBLOCK
 62
     3
100
AcDbCircle
 10
13.150017
 20
12.307491
 30
0.0
 40
0.009842
100
AcDbArc
 50
270.0
 51
360.0
  0
LINE
  5
3D5
100
AcDbEntity
  8
R-DOOR-DETL
  6
BYBLOCK
 62
     3
100
AcDbLine
 10
12.834276
 20
12.347649
 30
0.0
 11
12.834276
 21
12.297649
 31
0.0
  0
LINE
  5
3D6
100
AcDbEntity
  8
R-DOOR-DETL
  6
BYBLOCK
 62
     3
100
AcDbLine
 10
12.900017
 20
12.347649
 30
0.0
 11
12.900017
 21
12.297649
 31
0.0
  0
ARC
  5
3D8
100
AcDbEntity
  8
R-DOOR-DETL
  6
BYBLOCK
 62
     3
100
AcDbCircle
 10
12.816569
 20
12.282649
 30
0.0
 40
0.015
100
AcDbArc
 50
0.0
 51
90.0
  0
ARC
  5
3D9
100
AcDbEntity
  8
R-DOOR-DETL
  6
BYBLOCK
 62
     3
100
AcDbCircle
 10
12.917724
 20
12.282649
 30
0.0
 40
0.015
100
AcDbArc
 50
90.0
 51
180.0
  0
LINE
  5
3DA
100
AcDbEntity
  8
R-DOOR-DETL
  6
BYBLOCK
 62
     3
100
AcDbLine
 10
13.615718
 20
12.667309
 30
0.0
 11
13.322238
 21
12.158988
 31
0.0
  0
LINE
  5
3DB
100
AcDbEntity
  8
R-DOOR-DETL
  6
BYBLOCK
 62
     3
100
AcDbLine
 10
12.4142
 20
12.158988
 30
0.0
 11
12.12072
 21
12.667309
 31
0.0
  0
LINE
  5
3DC
100
AcDbEntity
  8
R-DOOR-DETL
  6
BYBLOCK
 62
     3
100
AcDbLine
 10
13.282009
 20
12.105016
 30
0.0
 11
13.560101
 21
12.56784
 31
0.0
  0
LINE
  5
3DD
100
AcDbEntity
  8
R-DOOR-DETL
  6
BYBLOCK
 62
     3
100
AcDbLine
 10
12.452284
 20
12.105016
 30
0.0
 11
12.174191
 21
12.56784
 31
0.0
  0
LINE
  5
3DE
100
AcDbEntity
  8
R-DOOR-DETL
  6
BYBLOCK
 62
     3
100
AcDbLine
 10
13.115313
 20
12.017377
 30
0.0
 11
13.115313
 21
11.892377
 31
0.0
  0
LINE
  5
3DF
100
AcDbEntity
  8
R-DOOR-DETL
  6
BYBLOCK
 62
     3
100
AcDbLine
 10
13.115313
 20
11.923462
 30
0.0
 11
13.021398
 21
12.017377
 31
0.0
  0
LINE
  5
3E0
100
AcDbEntity
  8
R-DOOR-DETL
  6
BYBLOCK
 62
     3
100
AcDbLine
 10
13.132724
 20
12.027649
 30
0.0
 11
13.132724
 21
11.900649
 31
0.0
  0
LINE
  5
3E1
100
AcDbEntity
  8
R-DOOR-DETL
  6
BYBLOCK
 62
     3
100
AcDbLine
 10
13.277724
 20
11.834649
 30
0.0
 11
13.277724
 21
12.089565
 31
0.0
  0
LINE
  5
3E2
100
AcDbEntity
  8
R-DOOR-DETL
  6
BYBLOCK
 62
     3
100
AcDbLine
 10
12.615313
 20
12.017377
 30
0.0
 11
12.615313
 21
11.892377
 31
0.0
  0
LINE
  5
3E3
100
AcDbEntity
  8
R-DOOR-DETL
  6
BYBLOCK
 62
     3
100
AcDbLine
 10
12.654938
 20
11.892377
 30
0.0
 11
12.741313
 21
11.978752
 31
0.0
  0
LINE
  5
3E4
100
AcDbEntity
  8
R-DOOR-DETL
  6
BYBLOCK
 62
     3
100
AcDbLine
 10
12.619583
 20
11.892377
 30
0.0
 11
12.741313
 21
12.014107
 31
0.0
  0
LINE
  5
3E5
100
AcDbEntity
  8
R-DOOR-DETL
  6
BYBLOCK
 62
     3
100
AcDbLine
 10
12.615313
 20
11.923462
 30
0.0
 11
12.709227
 21
12.017377
 31
0.0
  0
LINE
  5
3E6
100
AcDbEntity
  8
R-DOOR-DETL
  6
BYBLOCK
 62
     3
100
AcDbLine
 10
12.456569
 20
11.834649
 30
0.0
 11
12.456569
 21
12.089565
 31
0.0
  0
LINE
  5
3E7
100
AcDbEntity
  8
R-DOOR-DETL
  6
BYBLOCK
 62
     3
100
AcDbLine
 10
12.601569
 20
12.027649
 30
0.0
 11
12.601569
 21
11.900649
 31
0.0
  0
LINE
  5
3E8
100
AcDbEntity
  8
R-DOOR-DETL
  6
BYBLOCK
 62
     3
100
AcDbLine
 10
13.111043
 20
11.892377
 30
0.0
 11
12.989313
 21
12.014107
 31
0.0
  0
LINE
  5
3E9
100
AcDbEntity
  8
R-DOOR-DETL
  6
BYBLOCK
 62
     3
100
AcDbLine
 10
13.075688
 20
11.892377
 30
0.0
 11
12.989313
 21
11.978752
 31
0.0
  0
ARC
  5
3EA
100
AcDbEntity
  8
R-DOOR-DETL
  6
BYBLOCK
 62
     3
100
AcDbCircle
 10
13.117724
 20
11.900649
 30
0.0
 40
0.015
100
AcDbArc
 50
270.0
 51
0.0
  0
LINE
  5
3EB
100
AcDbEntity
  8
R-DOOR-DETL
  6
BYBLOCK
 62
     3
100
AcDbLine
 10
13.117724
 20
11.885649
 30
0.0
 11
13.031724
 21
11.885649
 31
0.0
  0
LINE
  5
3EC
100
AcDbEntity
  8
R-DOOR-DETL
  6
BYBLOCK
 62
     3
100
AcDbLine
 10
12.725649
 20
11.892377
 30
0.0
 11
12.741313
 21
11.908041
 31
0.0
  0
LINE
  5
3ED
100
AcDbEntity
  8
R-DOOR-DETL
  6
BYBLOCK
 62
     3
100
AcDbLine
 10
12.690294
 20
11.892377
 30
0.0
 11
12.741313
 21
11.943396
 31
0.0
  0
LINE
  5
3EE
100
AcDbEntity
  8
R-DOOR-DETL
  6
BYBLOCK
 62
     3
100
AcDbLine
 10
13.004977
 20
11.892377
 30
0.0
 11
12.989313
 21
11.908041
 31
0.0
  0
ARC
  5
3EF
100
AcDbEntity
  8
R-DOOR-DETL
  6
BYBLOCK
 62
     3
100
AcDbCircle
 10
12.616569
 20
11.900649
 30
0.0
 40
0.015
100
AcDbArc
 50
180.0
 51
270.0
  0
LINE
  5
3F0
100
AcDbEntity
  8
R-DOOR-DETL
  6
BYBLOCK
 62
     3
100
AcDbLine
 10
12.616569
 20
11.885649
 30
0.0
 11
12.702569
 21
11.885649
 31
0.0
  0
ARC
  5
3F1
100
AcDbEntity
  8
R-DOOR-DETL
  6
BYBLOCK
 62
     3
100
AcDbCircle
 10
12.702569
 20
11.870649
 30
0.0
 40
0.015
100
AcDbArc
 50
0.0
 51
90.0
  0
LINE
  5
3F2
100
AcDbEntity
  8
R-DOOR-DETL
  6
BYBLOCK
 62
     3
100
AcDbLine
 10
12.958878
 20
11.814019
 30
0.0
 11
12.770878
 21
11.814019
 31
0.0
  0
LINE
  5
3F3
100
AcDbEntity
  8
R-DOOR-DETL
  6
BYBLOCK
 62
     3
100
AcDbLine
 10
12.958878
 20
11.874019
 30
0.0
 11
12.770878
 21
11.874019
 31
0.0
  0
LINE
  5
3F4
100
AcDbEntity
  8
R-DOOR-DETL
  6
BYBLOCK
 62
     3
100
AcDbLine
 10
12.958878
 20
11.934019
 30
0.0
 11
12.770878
 21
11.934019
 31
0.0
  0
LINE
  5
3F5
100
AcDbEntity
  8
R-DOOR-DETL
  6
BYBLOCK
 62
     3
100
AcDbLine
 10
12.988878
 20
11.904019
 30
0.0
 11
12.740878
 21
11.904019
 31
0.0
  0
LINE
  5
3F6
100
AcDbEntity
  8
R-DOOR-DETL
  6
BYBLOCK
 62
     3
100
AcDbLine
 10
12.988878
 20
11.844019
 30
0.0
 11
12.740878
 21
11.844019
 31
0.0
  0
LINE
  5
3F7
100
AcDbEntity
  8
R-DOOR-DETL
  6
BYBLOCK
 62
     3
100
AcDbLine
 10
13.115313
 20
11.892377
 30
0.0
 11
12.615313
 21
11.892377
 31
0.0
  0
LINE
  5
3F8
100
AcDbEntity
  8
R-DOOR-DETL
  6
BYBLOCK
 62
     3
100
AcDbLine
 10
13.040332
 20
11.892377
 30
0.0
 11
12.989313
 21
11.943396
 31
0.0
  0
ARC
  5
3F9
100
AcDbEntity
  8
R-DOOR-DETL
  6
BYBLOCK
 62
     3
100
AcDbCircle
 10
13.031724
 20
11.870649
 30
0.0
 40
0.015
100
AcDbArc
 50
90.0
 51
180.0
  0
LINE
  5
3FA
100
AcDbEntity
  8
R-DOOR-DETL
  6
BYBLOCK
 62
     3
100
AcDbLine
 10
13.115313
 20
11.994173
 30
0.0
 11
13.092109
 21
12.017377
 31
0.0
  0
LINE
  5
3FB
100
AcDbEntity
  8
R-DOOR-DETL
  6
BYBLOCK
 62
     3
100
AcDbLine
 10
13.115313
 20
11.958818
 30
0.0
 11
13.056754
 21
12.017377
 31
0.0
  0
INSERT
  5
3FC
100
AcDbEntity
  8
DIMN
 62
     7
100
AcDbBlockReference
  2
_DOTSMALL
 10
13.157382
 20
12.205977
 30
0.0
 41
0.18
 42
0.18
 43
0.18
 50
153.778112
1001
ACAD
1000
DSTYLE
1002
{
1070
   173
1070
     1
1070
     6
1000
_DOTSMALL
1002
}
  0
ARC
  5
3FD
100
AcDbEntity
  8
R-DOOR-DETL
  6
BYBLOCK
 62
     3
100
AcDbCircle
 10
13.348219
 20
12.143988
 30
0.0
 40
0.03
100
AcDbArc
 50
150.0
 51
180.0
  0
ARC
  5
3FE
100
AcDbEntity
  8
R-DOOR-DETL
  6
BYBLOCK
 62
     3
100
AcDbCircle
 10
13.307724
 20
12.089565
 30
0.0
 40
0.03
100
AcDbArc
 50
149.0
 51
180.0
  0
ARC
  5
3FF
100
AcDbEntity
  8
R-DOOR-DETL
  6
BYBLOCK
 62
     3
100
AcDbCircle
 10
12.388219
 20
12.143988
 30
0.0
 40
0.03
100
AcDbArc
 50
0.0
 51
30.0
  0
LINE
  5
400
100
AcDbEntity
  8
R-DOOR-DETL
  6
BYBLOCK
 62
     3
100
AcDbLine
 10
12.615313
 20
11.958818
 30
0.0
 11
12.673872
 21
12.017377
 31
0.0
  0
LINE
  5
401
100
AcDbEntity
  8
R-DOOR-DETL
  6
BYBLOCK
 62
     3
100
AcDbLine
 10
12.615313
 20
11.994173
 30
0.0
 11
12.638517
 21
12.017377
 31
0.0
  0
LINE
  5
402
100
AcDbEntity
  8
R-DOOR-DETL
  6
BYBLOCK
 62
     3
100
AcDbLine
 10
12.834276
 20
12.297649
 30
0.0
 11
12.584276
 21
12.297649
 31
0.0
  0
LINE
  5
403
100
AcDbEntity
  8
R-DOOR-DETL
  6
BYBLOCK
 62
     3
100
AcDbLine
 10
12.584276
 20
12.297649
 30
0.0
 11
12.816569
 21
12.297649
 31
0.0
  0
LINE
  5
404
100
AcDbEntity
  8
R-DOOR-DETL
  6
BYBLOCK
 62
     3
100
AcDbLine
 10
12.831569
 20
12.282649
 30
0.0
 11
12.831569
 21
12.167649
 31
0.0
  0
ARC
  5
405
100
AcDbEntity
  8
R-DOOR-DETL
  6
BYBLOCK
 62
     3
100
AcDbCircle
 10
12.816569
 20
12.167649
 30
0.0
 40
0.015
100
AcDbArc
 50
270.0
 51
0.0
  0
LINE
  5
406
100
AcDbEntity
  8
R-DOOR-DETL
  6
BYBLOCK
 62
     3
100
AcDbLine
 10
12.816569
 20
12.152649
 30
0.0
 11
12.726569
 21
12.152649
 31
0.0
  0
ARC
  5
407
100
AcDbEntity
  8
R-DOOR-DETL
  6
BYBLOCK
 62
     3
100
AcDbCircle
 10
12.426569
 20
12.089565
 30
0.0
 40
0.03
100
AcDbArc
 50
0.0
 51
31.0
  0
ARC
  5
408
100
AcDbEntity
  8
R-DOOR-DETL
  6
BYBLOCK
 62
     3
100
AcDbCircle
 10
12.726569
 20
12.027649
 30
0.0
 40
0.125
100
AcDbArc
 50
90.0
 51
180.0
  0
LINE
  5
409
100
AcDbEntity
  8
R-DOOR-DETL
  6
BYBLOCK
 62
     3
100
AcDbLine
 10
12.902724
 20
12.282649
 30
0.0
 11
12.902724
 21
12.167649
 31
0.0
  0
ARC
  5
40A
100
AcDbEntity
  8
R-DOOR-DETL
  6
BYBLOCK
 62
     3
100
AcDbCircle
 10
12.917724
 20
12.167649
 30
0.0
 40
0.015
100
AcDbArc
 50
180.0
 51
270.0
  0
LINE
  5
40B
100
AcDbEntity
  8
R-DOOR-DETL
  6
BYBLOCK
 62
     3
100
AcDbLine
 10
12.917724
 20
12.152649
 30
0.0
 11
13.007724
 21
12.152649
 31
0.0
  0
ARC
  5
40C
100
AcDbEntity
  8
R-DOOR-DETL
  6
BYBLOCK
 62
     3
100
AcDbCircle
 10
12.958878
 20
12.100511
 30
0.0
 40
0.03
100
AcDbArc
 50
0.0
 51
90.0
  0
ARC
  5
40D
100
AcDbEntity
  8
R-DOOR-DETL
  6
BYBLOCK
 62
     3
100
AcDbCircle
 10
12.770878
 20
12.100511
 30
0.0
 40
0.03
100
AcDbArc
 50
90.0
 51
180.0
  0
LINE
  5
40E
100
AcDbEntity
  8
R-DOOR-DETL
  6
BYBLOCK
 62
     3
100
AcDbLine
 10
12.958878
 20
12.114019
 30
0.0
 11
12.770878
 21
12.114019
 31
0.0
  0
LINE
  5
40F
100
AcDbEntity
  8
R-DOOR-DETL
  6
BYBLOCK
 62
     3
100
AcDbLine
 10
12.958878
 20
12.130511
 30
0.0
 11
12.770878
 21
12.130511
 31
0.0
  0
LINE
  5
410
100
AcDbEntity
  8
R-DOOR-DETL
  6
BYBLOCK
 62
     3
100
AcDbLine
 10
12.958878
 20
12.054019
 30
0.0
 11
12.770878
 21
12.054019
 31
0.0
  0
LINE
  5
411
100
AcDbEntity
  8
R-DOOR-DETL
  6
BYBLOCK
 62
     3
100
AcDbLine
 10
12.988878
 20
12.084019
 30
0.0
 11
12.740878
 21
12.084019
 31
0.0
  0
LINE
  5
412
100
AcDbEntity
  8
R-DOOR-DETL
  6
BYBLOCK
 62
     3
100
AcDbLine
 10
12.958878
 20
11.994019
 30
0.0
 11
12.770878
 21
11.994019
 31
0.0
  0
LINE
  5
413
100
AcDbEntity
  8
R-DOOR-DETL
  6
BYBLOCK
 62
     3
100
AcDbLine
 10
12.988878
 20
11.964019
 30
0.0
 11
12.740878
 21
11.964019
 31
0.0
  0
LINE
  5
414
100
AcDbEntity
  8
R-DOOR-DETL
  6
BYBLOCK
 62
     3
100
AcDbLine
 10
12.988878
 20
12.024019
 30
0.0
 11
12.740878
 21
12.024019
 31
0.0
  0
LINE
  5
415
100
AcDbEntity
  8
R-DOOR-DETL
  6
BYBLOCK
 62
     3
100
AcDbLine
 10
13.115313
 20
12.017377
 30
0.0
 11
12.615313
 21
12.017377
 31
0.0
  0
LINE
  5
416
100
AcDbEntity
  8
R-DOOR-DETL
  6
BYBLOCK
 62
     3
100
AcDbLine
 10
12.900017
 20
12.297649
 30
0.0
 11
13.150017
 21
12.297649
 31
0.0
  0
LINE
  5
417
100
AcDbEntity
  8
R-DOOR-DETL
  6
BYBLOCK
 62
     3
100
AcDbLine
 10
13.150017
 20
12.297649
 30
0.0
 11
12.917724
 21
12.297649
 31
0.0
  0
ARC
  5
418
100
AcDbEntity
  8
R-DOOR-DETL
  6
BYBLOCK
 62
     3
100
AcDbCircle
 10
13.007724
 20
12.027649
 30
0.0
 40
0.125
100
AcDbArc
 50
0.0
 51
90.0
  0
LINE
  5
419
100
AcDbEntity
  8
R-DOOR-DETL
  6
BYBLOCK
 62
     3
100
AcDbLine
 10
13.031724
 20
11.740649
 30
0.0
 11
13.183724
 21
11.740649
 31
0.0
  0
LINE
  5
41A
100
AcDbEntity
  8
R-DOOR-DETL
  6
BYBLOCK
 62
     3
100
AcDbLine
 10
12.702569
 20
11.740649
 30
0.0
 11
12.550569
 21
11.740649
 31
0.0
  0
ARC
  5
41B
100
AcDbEntity
  8
R-DOOR-DETL
  6
BYBLOCK
 62
     3
100
AcDbCircle
 10
12.702569
 20
11.755649
 30
0.0
 40
0.015
100
AcDbArc
 50
270.0
 51
0.0
  0
LINE
  5
41C
100
AcDbEntity
  8
R-DOOR-DETL
  6
BYBLOCK
 62
     3
100
AcDbLine
 10
12.958878
 20
11.754019
 30
0.0
 11
12.770878
 21
11.754019
 31
0.0
  0
LINE
  5
41D
100
AcDbEntity
  8
R-DOOR-DETL
  6
BYBLOCK
 62
     3
100
AcDbLine
 10
12.988878
 20
11.784019
 30
0.0
 11
12.740878
 21
11.784019
 31
0.0
  0
LINE
  5
41E
100
AcDbEntity
  8
R-DOOR-DETL
  6
BYBLOCK
 62
     3
100
AcDbLine
 10
12.988878
 20
11.724019
 30
0.0
 11
12.740878
 21
11.724019
 31
0.0
  0
ARC
  5
41F
100
AcDbEntity
  8
R-DOOR-DETL
  6
BYBLOCK
 62
     3
100
AcDbCircle
 10
13.031724
 20
11.755649
 30
0.0
 40
0.015
100
AcDbArc
 50
180.0
 51
270.0
  0
LINE
  5
420
100
AcDbEntity
  8
R-DOOR-DETL
  6
BYBLOCK
 62
     3
100
AcDbLine
 10
12.868219
 20
11.650052
 30
0.0
 11
12.478219
 21
11.650052
 31
0.0
  0
LINE
  5
421
100
AcDbEntity
  8
R-DOOR-DETL
  6
BYBLOCK
 62
     3
100
AcDbLine
 10
12.988878
 20
11.664019
 30
0.0
 11
12.740878
 21
11.664019
 31
0.0
  0
LINE
  5
422
100
AcDbEntity
  8
R-DOOR-DETL
  6
BYBLOCK
 62
     3
100
AcDbLine
 10
12.958878
 20
11.694019
 30
0.0
 11
12.770878
 21
11.694019
 31
0.0
  0
LINE
  5
423
100
AcDbEntity
  8
R-DOOR-DETL
  6
BYBLOCK
 62
     3
100
AcDbLine
 10
13.258219
 20
11.650052
 30
0.0
 11
12.868219
 21
11.650052
 31
0.0
  0
ARC
  5
424
100
AcDbEntity
  8
R-DOOR-DETL
  6
BYBLOCK
 62
     3
100
AcDbCircle
 10
12.478219
 20
11.710052
 30
0.0
 40
0.06
100
AcDbArc
 50
180.0
 51
270.0
  0
ARC
  5
425
100
AcDbEntity
  8
R-DOOR-DETL
  6
BYBLOCK
 62
     3
100
AcDbCircle
 10
13.258219
 20
11.710052
 30
0.0
 40
0.06
100
AcDbArc
 50
270.0
 51
0.0
  0
LINE
  5
426
100
AcDbEntity
  8
R-DOOR-DETL
  6
BYBLOCK
 62
     3
100
AcDbLine
 10
13.318219
 20
12.143988
 30
0.0
 11
13.318219
 21
11.710052
 31
0.0
  0
LINE
  5
427
100
AcDbEntity
  8
R-DOOR-DETL
  6
BYBLOCK
 62
     3
100
AcDbLine
 10
12.418219
 20
11.710052
 30
0.0
 11
12.418219
 21
12.143988
 31
0.0
  0
ARC
  5
428
100
AcDbEntity
  8
R-DOOR-DETL
  6
BYBLOCK
 62
     3
100
AcDbCircle
 10
13.183724
 20
11.834649
 30
0.0
 40
0.094
100
AcDbArc
 50
270.0
 51
0.0
  0
LINE
  5
429
100
AcDbEntity
  8
R-DOOR-DETL
  6
BYBLOCK
 62
     3
100
AcDbLine
 10
13.016724
 20
11.870649
 30
0.0
 11
13.016724
 21
11.755649
 31
0.0
  0
ARC
  5
42A
100
AcDbEntity
  8
R-DOOR-DETL
  6
BYBLOCK
 62
     3
100
AcDbCircle
 10
12.550569
 20
11.834649
 30
0.0
 40
0.094
100
AcDbArc
 50
180.0
 51
270.0
  0
LINE
  5
42B
100
AcDbEntity
  8
R-DOOR-DETL
  6
BYBLOCK
 62
     3
100
AcDbLine
 10
12.717569
 20
11.870649
 30
0.0
 11
12.717569
 21
11.755649
 31
0.0
  0
ARC
  5
42C
100
AcDbEntity
  8
R-DOOR-DETL
  6
BYBLOCK
 62
     3
100
AcDbCircle
 10
13.358137
 20
12.679343
 30
0.0
 40
0.03
100
AcDbArc
 50
182.612502
 51
270.0
  0
ARC
  5
42D
100
AcDbEntity
  8
R-DOOR-DETL
  6
BYBLOCK
 62
     3
100
AcDbCircle
 10
12.376155
 20
12.679343
 30
0.0
 40
0.03
100
AcDbArc
 50
270.0
 51
357.387498
  0
LINE
  5
42E
100
AcDbEntity
  8
R-DOOR-DETL
  6
BYBLOCK
 62
     3
100
AcDbLine
 10
13.474385
 20
12.649343
 30
0.0
 11
13.358137
 21
12.649343
 31
0.0
  0
ARC
  5
42F
100
AcDbEntity
  8
R-DOOR-DETL
  6
BYBLOCK
 62
     3
100
AcDbCircle
 10
13.474385
 20
12.619343
 30
0.0
 40
0.03
100
AcDbArc
 50
59.0
 51
90.0
  0
LINE
  5
430
100
AcDbEntity
  8
R-DOOR-DETL
  6
BYBLOCK
 62
     3
100
AcDbLine
 10
13.549837
 20
12.609006
 30
0.0
 11
13.489836
 21
12.645058
 31
0.0
  0
ARC
  5
431
100
AcDbEntity
  8
R-DOOR-DETL
  6
BYBLOCK
 62
     3
100
AcDbCircle
 10
13.534386
 20
12.583291
 30
0.0
 40
0.03
100
AcDbArc
 50
329.0
 51
59.0
  0
LINE
  5
432
100
AcDbEntity
  8
R-DOOR-DETL
  6
BYBLOCK
 62
     3
100
AcDbLine
 10
12.259908
 20
12.649343
 30
0.0
 11
12.376155
 21
12.649343
 31
0.0
  0
ARC
  5
433
100
AcDbEntity
  8
R-DOOR-DETL
  6
BYBLOCK
 62
     3
100
AcDbCircle
 10
12.259908
 20
12.619343
 30
0.0
 40
0.03
100
AcDbArc
 50
90.0
 51
121.0
  0
ARC
  5
434
100
AcDbEntity
  8
R-DOOR-DETL
  6
BYBLOCK
 62
     3
100
AcDbCircle
 10
12.199906
 20
12.583291
 30
0.0
 40
0.03
100
AcDbArc
 50
121.0
 51
211.0
  0
LINE
  5
435
100
AcDbEntity
  8
R-DOOR-DETL
  6
BYBLOCK
 62
     3
100
AcDbLine
 10
12.184455
 20
12.609006
 30
0.0
 11
12.244457
 21
12.645058
 31
0.0
  0
ARC
  5
436
100
AcDbEntity
  8
R-DOOR-DETL
  6
BYBLOCK
 62
     3
100
AcDbCircle
 10
12.337226
 20
12.792309
 30
0.0
 40
0.25
100
AcDbArc
 50
180.0
 51
210.0
  0
LINE
  5
437
100
AcDbEntity
  8
R-DOOR-DETL
  6
BYBLOCK
 62
     3
100
AcDbLine
 10
13.109859
 20
12.409359
 30
0.0
 11
13.159859
 21
12.409359
 31
0.0
  0
LINE
  5
43A
100
AcDbEntity
  8
R-DOOR-DETL
  6
BYBLOCK
 62
     3
100
AcDbLine
 10
12.584276
 20
12.347649
 30
0.0
 11
12.834276
 21
12.347649
 31
0.0
  0
LINE
  5
43B
100
AcDbEntity
  8
R-DOOR-DETL
  6
BYBLOCK
 62
     3
100
AcDbLine
 10
12.624433
 20
12.409359
 30
0.0
 11
12.574433
 21
12.409359
 31
0.0
  0
LINE
  5
43C
100
AcDbEntity
  8
R-DOOR-DETL
  6
BYBLOCK
 62
     3
100
AcDbLine
 10
13.150017
 20
12.347649
 30
0.0
 11
12.900017
 21
12.347649
 31
0.0
  0
LINE
  5
43D
100
AcDbEntity
  8
R-DOOR-DETL
  6
BYBLOCK
 62
     3
100
AcDbLine
 10
13.056933
 20
12.347649
 30
0.0
 11
12.681933
 21
12.347649
 31
0.0
  0
LINE
  5
43E
100
AcDbEntity
  8
R-DOOR-DETL
  6
BYBLOCK
 62
     3
100
AcDbLine
 10
13.114433
 20
12.347649
 30
0.0
 11
12.624433
 21
12.347649
 31
0.0
  0
LINE
  5
43F
100
AcDbEntity
  8
R-DOOR-DETL
  6
BYBLOCK
 62
     3
100
AcDbLine
 10
13.643212
 20
13.380341
 30
0.0
 11
13.171292
 21
13.380341
 31
0.0
  0
LINE
  5
440
100
AcDbEntity
  8
R-DOOR-DETL
  6
BYBLOCK
 62
     3
100
AcDbLine
 10
13.161292
 20
13.430341
 30
0.0
 11
13.653212
 21
13.430341
 31
0.0
  0
LINE
  5
441
100
AcDbEntity
  8
R-DOOR-DETL
  6
BYBLOCK
 62
     3
100
AcDbLine
 10
13.653212
 20
13.380341
 30
0.0
 11
13.161292
 21
13.380341
 31
0.0
  0
ARC
  5
442
100
AcDbEntity
  8
R-DOOR-DETL
  6
BYBLOCK
 62
     3
100
AcDbCircle
 10
13.619212
 20
13.210673
 30
0.0
 40
0.03
100
AcDbArc
 50
0.0
 51
80.0
  0
LINE
  5
443
100
AcDbEntity
  8
R-DOOR-DETL
  6
BYBLOCK
 62
     3
100
AcDbLine
 10
13.161292
 20
13.370341
 30
0.0
 11
13.161292
 21
13.301128
 31
0.0
  0
LINE
  5
444
100
AcDbEntity
  8
R-DOOR-DETL
  6
BYBLOCK
 62
     3
100
AcDbLine
 10
12.575146
 20
13.301128
 30
0.0
 11
12.575146
 21
13.370341
 31
0.0
  0
LINE
  5
445
100
AcDbEntity
  8
R-DOOR-DETL
  6
BYBLOCK
 62
     3
100
AcDbLine
 10
13.337383
 20
13.29083
 30
0.0
 11
13.624421
 21
13.240217
 31
0.0
  0
LINE
  5
446
100
AcDbEntity
  8
R-DOOR-DETL
  6
BYBLOCK
 62
     3
100
AcDbLine
 10
13.171134
 20
13.291286
 30
0.0
 11
13.332174
 21
13.291286
 31
0.0
  0
ARC
  5
447
100
AcDbEntity
  8
R-DOOR-DETL
  6
BYBLOCK
 62
     3
100
AcDbCircle
 10
13.171134
 20
13.301128
 30
0.0
 40
0.009843
100
AcDbArc
 50
180.0
 51
270.0
  0
ARC
  5
448
100
AcDbEntity
  8
R-DOOR-DETL
  6
BYBLOCK
 62
     3
100
AcDbCircle
 10
13.332174
 20
13.261286
 30
0.0
 40
0.03
100
AcDbArc
 50
80.0
 51
90.0
  0
ARC
  5
449
100
AcDbEntity
  8
R-DOOR-DETL
  6
BYBLOCK
 62
     3
100
AcDbCircle
 10
12.404264
 20
13.261286
 30
0.0
 40
0.03
100
AcDbArc
 50
90.0
 51
100.0
  0
LINE
  5
44A
100
AcDbEntity
  8
R-DOOR-DETL
  6
BYBLOCK
 62
     3
100
AcDbLine
 10
12.404264
 20
13.291286
 30
0.0
 11
12.565304
 21
13.291286
 31
0.0
  0
ARC
  5
44B
100
AcDbEntity
  8
R-DOOR-DETL
  6
BYBLOCK
 62
     3
100
AcDbCircle
 10
12.565304
 20
13.301128
 30
0.0
 40
0.009843
100
AcDbArc
 50
270.0
 51
0.0
  0
ARC
  5
44C
100
AcDbEntity
  8
R-DOOR-DETL
  6
BYBLOCK
 62
     3
100
AcDbCircle
 10
13.171292
 20
13.370341
 30
0.0
 40
0.01
100
AcDbArc
 50
90.0
 51
180.0
  0
LINE
  5
44D
100
AcDbEntity
  8
R-DOOR-DETL
  6
BYBLOCK
 62
     3
100
AcDbLine
 10
13.161292
 20
13.380341
 30
0.0
 11
13.161292
 21
13.430341
 31
0.0
  0
ARC
  5
44E
100
AcDbEntity
  8
R-DOOR-DETL
  6
BYBLOCK
 62
     3
100
AcDbCircle
 10
12.565146
 20
13.370341
 30
0.0
 40
0.01
100
AcDbArc
 50
0.0
 51
90.0
  0
LINE
  5
44F
100
AcDbEntity
  8
R-DOOR-DETL
  6
BYBLOCK
 62
     3
100
AcDbLine
 10
12.112017
 20
13.240217
 30
0.0
 11
12.399055
 21
13.29083
 31
0.0
  0
LINE
  5
450
100
AcDbEntity
  8
R-DOOR-DETL
  6
BYBLOCK
 62
     3
100
AcDbLine
 10
12.565146
 20
13.380341
 30
0.0
 11
12.093226
 21
13.380341
 31
0.0
  0
LINE
  5
451
100
AcDbEntity
  8
R-DOOR-DETL
  6
BYBLOCK
 62
     3
100
AcDbLine
 10
13.265819
 20
13.206882
 30
0.0
 11
13.159859
 21
13.206882
 31
0.0
  0
LINE
  5
452
100
AcDbEntity
  8
R-DOOR-DETL
  6
BYBLOCK
 62
     3
100
AcDbLine
 10
12.468473
 20
13.206882
 30
0.0
 11
12.574433
 21
13.206882
 31
0.0
  0
ARC
  5
453
100
AcDbEntity
  8
R-DOOR-DETL
  6
BYBLOCK
 62
     3
100
AcDbCircle
 10
13.150017
 20
13.159359
 30
0.0
 40
0.009843
100
AcDbArc
 50
0.0
 51
70.528779
  0
LINE
  5
454
100
AcDbEntity
  8
R-DOOR-DETL
  6
BYBLOCK
 62
     3
100
AcDbLine
 10
13.159859
 20
13.159359
 30
0.0
 11
13.109859
 21
13.159359
 31
0.0
  0
ARC
  5
455
100
AcDbEntity
  8
R-DOOR-DETL
  6
BYBLOCK
 62
     3
100
AcDbCircle
 10
12.584276
 20
13.159359
 30
0.0
 40
0.009843
100
AcDbArc
 50
109.471221
 51
180.0
  0
LINE
  5
456
100
AcDbEntity
  8
R-DOOR-DETL
  6
BYBLOCK
 62
     3
100
AcDbLine
 10
12.574433
 20
13.159359
 30
0.0
 11
12.624433
 21
13.159359
 31
0.0
  0
ARC
  5
457
100
AcDbEntity
  8
R-DOOR-DETL
  6
BYBLOCK
 62
     3
100
AcDbCircle
 10
12.574433
 20
13.187197
 30
0.0
 40
0.019685
100
AcDbArc
 50
289.471221
 51
90.0
  0
ARC
  5
458
100
AcDbEntity
  8
R-DOOR-DETL
  6
BYBLOCK
 62
     3
100
AcDbCircle
 10
12.468473
 20
13.166882
 30
0.0
 40
0.04
100
AcDbArc
 50
90.0
 51
177.387498
  0
ARC
  5
459
100
AcDbEntity
  8
R-DOOR-DETL
  6
BYBLOCK
 62
     3
100
AcDbCircle
 10
13.159859
 20
13.187197
 30
0.0
 40
0.019685
100
AcDbArc
 50
90.0
 51
250.528779
  0
ARC
  5
45A
100
AcDbEntity
  8
R-DOOR-DETL
  6
BYBLOCK
 62
     3
100
AcDbCircle
 10
13.265819
 20
13.166882
 30
0.0
 40
0.04
100
AcDbArc
 50
2.612502
 51
90.0
  0
ARC
  5
45B
100
AcDbEntity
  8
R-DOOR-DETL
  6
BYBLOCK
 62
     3
100
AcDbCircle
 10
12.093226
 20
13.224341
 30
0.0
 40
0.156
100
AcDbArc
 50
90.0
 51
180.0
  0
ARC
  5
45C
100
AcDbEntity
  8
R-DOOR-DETL
  6
BYBLOCK
 62
     3
100
AcDbCircle
 10
12.117226
 20
13.210673
 30
0.0
 40
0.03
100
AcDbArc
 50
100.0
 51
180.0
  0
INSERT
  5
45D
100
AcDbEntity
  8
DIMN
 62
     7
100
AcDbBlockReference
  2
_DOTSMALL
 10
13.850869
 20
13.103827
 30
0.0
 41
0.18
 42
0.18
 43
0.18
 50
150.718927
1001
ACAD
1000
DSTYLE
1002
{
1070
   173
1070
     1
1070
     6
1000
_DOTSMALL
1002
}
  0
ARC
  5
45E
100
AcDbEntity
  8
R-DOOR-DETL
  6
BYBLOCK
 62
     3
100
AcDbCircle
 10
13.643212
 20
13.224341
 30
0.0
 40
0.156
100
AcDbArc
 50
0.0
 51
90.0
  0
ARC
  5
45F
100
AcDbEntity
  8
R-DOOR-DETL
  6
BYBLOCK
 62
     3
100
AcDbCircle
 10
13.653212
 20
13.224341
 30
0.0
 40
0.156
100
AcDbArc
 50
0.0
 51
90.0
  0
ARC
  5
460
100
AcDbEntity
  8
R-DOOR-DETL
  6
BYBLOCK
 62
     3
100
AcDbCircle
 10
13.653212
 20
13.224341
 30
0.0
 40
0.206
100
AcDbArc
 50
0.0
 51
90.0
  0
TEXT
  5
462
100
AcDbEntity
  8
0
100
AcDbText
 10
9.291097
 20
23.094869
 30
0.0
 40
0.36
  1
SHOE
  7
ROMANS
100
AcDbText
  0
LINE
  5
463
100
AcDbEntity
  8
0
  6
BYBLOCK
 62
     0
100
AcDbLine
 10
12.146991
 20
22.784179
 30
0.0
 11
5.494663
 21
22.784179
 31
0.0
  0
LINE
  5
464
100
AcDbEntity
  8
0
  6
BYBLOCK
 62
     0
100
AcDbLine
 10
12.256366
 20
22.784179
 30
0.0
 11
5.476806
 21
22.784179
 31
0.0
  0
LINE
  5
465
100
AcDbEntity
  8
0
  6
BYBLOCK
 62
     0
100
AcDbLine
 10
12.365741
 20
22.784179
 30
0.0
 11
6.101167
 21
22.784179
 31
0.0
  0
LINE
  5
466
100
AcDbEntity
  8
BORDER
 62
     7
100
AcDbLine
 39
15.0
 10
25.693238
 20
34.200072
 30
0.0
 11
0.0
 21
34.200072
 31
0.0
  0
LINE
  5
467
100
AcDbEntity
  8
0
  6
BYBLOCK
 62
     0
100
AcDbLine
 10
5.809663
 20
22.469179
 30
0.0
 11
5.809663
 21
18.668414
 31
0.0
  0
SOLID
  5
46B
100
AcDbEntity
  8
0
  6
BYBLOCK
 62
     0
100
AcDbTrace
 10
5.757163
 20
22.469179
 30
0.0
 11
5.862163
 21
22.469179
 31
0.0
 12
5.809663
 22
22.784179
 32
0.0
 13
5.809663
 23
22.784179
 33
0.0
  0
POINT
  5
46C
100
AcDbEntity
  8
DEFPOINTS
  6
BYBLOCK
 62
     0
100
AcDbPoint
 10
5.791806
 20
22.784179
 30
0.0
  0
LINE
  5
470
100
AcDbEntity
  8
R-DOOR-PATT
  6
CONTINUOUS
 62
     5
100
AcDbLine
 10
15.329096
 20
28.034179
 30
0.0
 11
13.329096
 21
26.034179
 31
0.0
  0
LINE
  5
471
100
AcDbEntity
  8
R-DOOR-PATT
  6
CONTINUOUS
 62
     5
100
AcDbLine
 10
14.445212
 20
28.034179
 30
0.0
 11
12.445212
 21
26.034179
 31
0.0
  0
LINE
  5
472
100
AcDbEntity
  8
R-DOOR-PATT
  6
CONTINUOUS
 62
     5
100
AcDbLine
 10
14.887154
 20
28.034179
 30
0.0
 11
12.887154
 21
26.034179
 31
0.0
  0
LINE
  5
473
100
AcDbEntity
  8
R-DOOR-PATT
  6
CONTINUOUS
 62
     5
100
AcDbLine
 10
15.771038
 20
28.034179
 30
0.0
 11
13.771038
 21
26.034179
 31
0.0
  0
LINE
  5
474
100
AcDbEntity
  8
R-DOOR-PATT
  6
CONTINUOUS
 62
     5
100
AcDbLine
 10
15.865741
 20
27.686941
 30
0.0
 11
14.212979
 21
26.034179
 31
0.0
  0
LINE
  5
475
100
AcDbEntity
  8
R-DOOR-PATT
  6
CONTINUOUS
 62
     5
100
AcDbLine
 10
11.793562
 20
28.034179
 30
0.0
 11
9.865741
 21
26.106358
 31
0.0
  0
LINE
  5
476
100
AcDbEntity
  8
R-DOOR-PATT
  6
CONTINUOUS
 62
     5
100
AcDbLine
 10
10.909678
 20
28.034179
 30
0.0
 11
9.865741
 21
26.990242
 31
0.0
  0
LINE
  5
477
100
AcDbEntity
  8
R-DOOR-PATT
  6
CONTINUOUS
 62
     5
100
AcDbLine
 10
11.35162
 20
28.034179
 30
0.0
 11
9.865741
 21
26.5483
 31
0.0
  0
LINE
  5
478
100
AcDbEntity
  8
R-DOOR-PATT
  6
CONTINUOUS
 62
     5
100
AcDbLine
 10
12.235504
 20
28.034179
 30
0.0
 11
10.235504
 21
26.034179
 31
0.0
  0
LINE
  5
479
100
AcDbEntity
  8
R-DOOR-PATT
  6
CONTINUOUS
 62
     5
100
AcDbLine
 10
12.677445
 20
28.034179
 30
0.0
 11
10.677445
 21
26.034179
 31
0.0
  0
LINE
  5
47A
100
AcDbEntity
  8
R-DOOR-PATT
  6
CONTINUOUS
 62
     5
100
AcDbLine
 10
13.119387
 20
28.034179
 30
0.0
 11
11.119387
 21
26.034179
 31
0.0
  0
LINE
  5
47B
100
AcDbEntity
  8
R-DOOR-PATT
  6
CONTINUOUS
 62
     5
100
AcDbLine
 10
13.561329
 20
28.034179
 30
0.0
 11
11.561329
 21
26.034179
 31
0.0
  0
LINE
  5
47C
100
AcDbEntity
  8
R-DOOR-PATT
  6
CONTINUOUS
 62
     5
100
AcDbLine
 10
14.003271
 20
28.034179
 30
0.0
 11
12.003271
 21
26.034179
 31
0.0
  0
LINE
  5
47D
100
AcDbEntity
  8
0
  6
BYBLOCK
 62
     0
100
AcDbLine
 10
19.190537
 20
25.719179
 30
0.0
 11
19.190537
 21
17.882264
 31
0.0
  0
LINE
  5
47E
100
AcDbEntity
  8
R-DOOR-DETL
100
AcDbLine
 10
13.055439
 20
18.776511
 30
0.0
 11
13.055439
 21
22.784284
 31
0.0
  0
LINE
  5
47F
100
AcDbEntity
  8
R-DOOR-DETL
  6
BYBLOCK
 62
     3
100
AcDbLine
 10
13.112939
 20
18.758395
 30
0.0
 11
13.112939
 21
22.784284
 31
0.0
  0
LINE
  5
480
100
AcDbEntity
  8
R-DOOR-DETL
100
AcDbLine
 10
12.992939
 20
18.751818
 30
0.0
 11
12.992939
 21
22.784284
 31
0.0
  0
LINE
  5
481
100
AcDbEntity
  8
R-DOOR-DETL
100
AcDbLine
 10
12.930439
 20
18.713087
 30
0.0
 11
12.930439
 21
22.784284
 31
0.0
  0
LINE
  5
482
100
AcDbEntity
  8
R-DOOR-DETL
100
AcDbLine
 10
12.62094
 20
18.75325
 30
0.0
 11
12.62094
 21
22.784284
 31
0.0
  0
LINE
  5
483
100
AcDbEntity
  8
R-DOOR-DETL
100
AcDbLine
 10
12.805439
 20
18.770158
 30
0.0
 11
12.805439
 21
22.784284
 31
0.0
  0
LINE
  5
484
100
AcDbEntity
  8
R-DOOR-DETL
100
AcDbLine
 10
12.742939
 20
18.723283
 30
0.0
 11
12.742939
 21
22.784284
 31
0.0
  0
LINE
  5
485
100
AcDbEntity
  8
R-DOOR-DETL
100
AcDbLine
 10
12.680439
 20
18.712204
 30
0.0
 11
12.680439
 21
22.784284
 31
0.0
  0
LINE
  5
486
100
AcDbEntity
  8
R-DOOR-DETL
100
AcDbLine
 10
12.704892
 20
18.694748
 30
0.0
 11
12.829892
 21
18.788498
 31
0.0
  0
LINE
  5
487
100
AcDbEntity
  8
R-DOOR-DETL
100
AcDbLine
 10
12.622939
 20
18.75325
 30
0.0
 11
12.704892
 21
18.694748
 31
0.0
  0
LINE
  5
488
100
AcDbEntity
  8
R-DOOR-DETL
100
AcDbLine
 10
12.829892
 20
18.788498
 30
0.0
 11
12.954892
 21
18.694748
 31
0.0
  0
LINE
  5
489
100
AcDbEntity
  8
R-DOOR-DETL
100
AcDbLine
 10
12.954892
 20
18.694748
 30
0.0
 11
13.017392
 21
18.788498
 31
0.0
  0
MTEXT
  5
48A
100
AcDbEntity
  8
0
  6
BYBLOCK
 62
     0
100
AcDbMText
 10
19.190537
 20
17.567264
 30
0.0
 40
0.315
 41
0.0
 71
     5
 72
     1
  1
\A1;CLEAR OPENING
  0
LINE
  5
48B
100
AcDbEntity
  8
R-DOOR-DETL
100
AcDbLine
 10
13.109859
 20
16.427949
 30
0.0
 11
13.03248
 21
16.483187
 31
0.0
  0
LINE
  5
48C
100
AcDbEntity
  8
R-DOOR-DETL
100
AcDbLine
 10
12.78248
 20
16.483187
 30
0.0
 11
12.71998
 21
16.389437
 31
0.0
  0
LINE
  5
48D
100
AcDbEntity
  8
R-DOOR-DETL
100
AcDbLine
 10
12.71998
 20
16.389437
 30
0.0
 11
12.624433
 21
16.41954
 31
0.0
  0
LINE
  5
48E
100
AcDbEntity
  8
R-DOOR-DETL
100
AcDbLine
 10
12.90748
 20
16.389437
 30
0.0
 11
12.78248
 21
16.483187
 31
0.0
  0
LINE
  5
48F
100
AcDbEntity
  8
R-DOOR-DETL
100
AcDbLine
 10
13.03248
 20
16.483187
 30
0.0
 11
12.90748
 21
16.389437
 31
0.0
  0
LINE
  5
490
100
AcDbEntity
  8
R-DOOR-DETL
100
AcDbLine
 10
13.017392
 20
18.788498
 30
0.0
 11
13.112939
 21
18.758395
 31
0.0
  0
LINE
  5
491
100
AcDbEntity
  8
R-DOOR-DETL
  6
BYBLOCK
 62
     3
100
AcDbLine
 10
13.261551
 20
24.424636
 30
0.0
 11
13.185609
 21
24.502187
 31
0.0
  0
LINE
  5
492
100
AcDbEntity
  8
R-DOOR-DETL
  6
BYBLOCK
 62
     3
100
AcDbLine
 10
13.395873
 20
24.556171
 30
0.0
 11
13.366683
 21
24.451628
 31
0.0
  0
LINE
  5
493
100
AcDbEntity
  8
R-DOOR-DETL
  6
BYBLOCK
 62
     3
100
AcDbLine
 10
12.757199
 20
24.529179
 30
0.0
 11
12.81147
 21
24.435179
 31
0.0
  0
LINE
  5
494
100
AcDbEntity
  8
R-DOOR-DETL
  6
BYBLOCK
 62
     3
100
AcDbLine
 10
12.974283
 20
24.529179
 30
0.0
 11
12.920012
 21
24.435179
 31
0.0
  0
LINE
  5
495
100
AcDbEntity
  8
R-DOOR-DETL
  6
BYBLOCK
 62
     3
100
AcDbLine
 10
12.341869
 20
24.484395
 30
0.0
 11
12.430089
 21
24.421161
 31
0.0
  0
ARC
  5
496
100
AcDbEntity
  8
R-DOOR-DETL
100
AcDbCircle
 10
13.626734
 20
24.465382
 30
0.0
 40
0.015
100
AcDbArc
 50
0.0
 51
90.0
  0
LINE
  5
497
100
AcDbEntity
  8
R-DOOR-DETL
100
AcDbLine
 10
13.646734
 20
24.475382
 30
0.0
 11
13.646734
 21
24.234179
 31
0.0
  0
ARC
  5
498
100
AcDbEntity
  8
R-DOOR-DETL
100
AcDbCircle
 10
12.104749
 20
24.465382
 30
0.0
 40
0.015
100
AcDbArc
 50
90.0
 51
180.0
  0
LINE
  5
499
100
AcDbEntity
  8
R-DOOR-DETL
100
AcDbLine
 10
12.084749
 20
24.234179
 30
0.0
 11
12.084749
 21
24.475382
 31
0.0
  0
CIRCLE
  5
49A
100
AcDbEntity
  8
R-DOOR-DETL
  6
BYBLOCK
 62
     3
100
AcDbCircle
 10
13.290741
 20
24.529179
 30
0.0
 40
0.1875
  0
CIRCLE
  5
49B
100
AcDbEntity
  8
R-DOOR-DETL
  6
BYBLOCK
 62
     3
100
AcDbCircle
 10
13.290741
 20
24.529179
 30
0.0
 40
0.1625
  0
ARC
  5
49C
100
AcDbEntity
  8
R-DOOR-DETL
  6
BYBLOCK
 62
     3
100
AcDbCircle
 10
13.290741
 20
24.529179
 30
0.0
 40
0.1005
100
AcDbArc
 50
302.506128
 51
237.493872
  0
CIRCLE
  5
49D
100
AcDbEntity
  8
R-DOOR-DETL
  6
BYBLOCK
 62
     3
100
AcDbCircle
 10
12.440741
 20
24.529179
 30
0.0
 40
0.1875
  0
CIRCLE
  5
49E
100
AcDbEntity
  8
R-DOOR-DETL
  6
BYBLOCK
 62
     3
100
AcDbCircle
 10
12.440741
 20
24.529179
 30
0.0
 40
0.1625
  0
ARC
  5
49F
100
AcDbEntity
  8
R-DOOR-DETL
  6
BYBLOCK
 62
     3
100
AcDbCircle
 10
12.440741
 20
24.529179
 30
0.0
 40
0.1005
100
AcDbArc
 50
302.506128
 51
237.493872
  0
CIRCLE
  5
4A0
100
AcDbEntity
  8
R-DOOR-DETL
  6
BYBLOCK
 62
     3
100
AcDbCircle
 10
12.865741
 20
24.529179
 30
0.0
 40
0.1875
  0
CIRCLE
  5
4A1
100
AcDbEntity
  8
R-DOOR-DETL
  6
BYBLOCK
 62
     3
100
AcDbCircle
 10
12.865741
 20
24.529179
 30
0.0
 40
0.1625
  0
LINE
  5
4A2
100
AcDbEntity
  8
R-DOOR-DETL
100
AcDbLine
 10
13.548241
 20
24.754179
 30
0.0
 11
13.548241
 21
24.204179
 31
0.0
  0
LINE
  5
4A3
100
AcDbEntity
  8
R-DOOR-DETL
  6
BYBLOCK
 62
     3
100
AcDbLine
 10
13.806734
 20
25.784179
 30
0.0
 11
13.806734
 21
21.910187
 31
0.0
  0
LINE
  5
4A4
100
AcDbEntity
  8
R-DOOR-DETL
  6
BYBLOCK
 62
     3
100
AcDbLine
 10
13.856734
 20
21.910187
 30
0.0
 11
13.856734
 21
25.784179
 31
0.0
  0
LINE
  5
4A5
100
AcDbEntity
  8
R-DOOR-DETL
  6
BYBLOCK
 62
     3
100
AcDbLine
 10
13.796734
 20
21.910187
 30
0.0
 11
13.796734
 21
25.769179
 31
0.0
  0
LINE
  5
4A6
100
AcDbEntity
  8
R-DOOR-DETL
100
AcDbLine
 10
12.183241
 20
24.754179
 30
0.0
 11
12.183241
 21
24.204179
 31
0.0
  0
LINE
  5
4A7
100
AcDbEntity
  8
R-DOOR-DETL
100
AcDbLine
 10
11.934749
 20
25.769179
 30
0.0
 11
11.934749
 21
21.910187
 31
0.0
  0
LINE
  5
4A8
100
AcDbEntity
  8
R-DOOR-DETL
  6
BYBLOCK
 62
     3
100
AcDbLine
 10
12.528962
 20
24.465946
 30
0.0
 11
12.539613
 21
24.573964
 31
0.0
  0
TEXT
  5
4A9
100
AcDbEntity
  8
0
100
AcDbText
 10
15.186151
 20
23.094869
 30
0.0
 40
0.36
  1
CLADDING
  7
ROMANS
100
AcDbText
  0
TEXT
  5
4AA
100
AcDbEntity
  8
0
100
AcDbText
 10
15.04558
 20
21.934141
 30
0.0
 40
0.36
  1
GLASS CLAMP
  7
ROMANS
100
AcDbText
  0
ARC
  5
4AB
100
AcDbEntity
  8
R-DOOR-DETL
  6
BYBLOCK
 62
     3
100
AcDbCircle
 10
13.310803
 20
23.042368
 30
0.0
 40
0.03
100
AcDbArc
 50
180.0
 51
211.0
  0
ARC
  5
4AC
100
AcDbEntity
  8
R-DOOR-DETL
  6
BYBLOCK
 62
     3
100
AcDbCircle
 10
12.723076
 20
23.104284
 30
0.0
 40
0.125
100
AcDbArc
 50
180.0
 51
270.0
  0
ARC
  5
4AD
100
AcDbEntity
  8
R-DOOR-DETL
  6
BYBLOCK
 62
     3
100
AcDbCircle
 10
12.423076
 20
23.042368
 30
0.0
 40
0.03
100
AcDbArc
 50
329.0
 51
0.0
  0
ARC
  5
4AE
100
AcDbEntity
  8
R-DOOR-DETL
  6
BYBLOCK
 62
     3
100
AcDbCircle
 10
13.010803
 20
23.104284
 30
0.0
 40
0.125
100
AcDbArc
 50
270.0
 51
0.0
  0
LINE
  5
4AF
100
AcDbEntity
  8
R-DOOR-DETL
  6
BYBLOCK
 62
     3
100
AcDbLine
 10
13.315741
 20
23.424476
 30
0.0
 11
13.315741
 21
22.99054
 31
0.0
  0
LINE
  5
4B0
100
AcDbEntity
  8
R-DOOR-DETL
  6
BYBLOCK
 62
     3
100
AcDbLine
 10
12.415741
 20
22.99054
 30
0.0
 11
12.415741
 21
23.424476
 31
0.0
  0
LINE
  5
4B1
100
AcDbEntity
  8
R-DOOR-DETL
  6
BYBLOCK
 62
     3
100
AcDbLine
 10
13.650734
 20
21.754187
 30
0.0
 11
13.158814
 21
21.754187
 31
0.0
  0
LINE
  5
4B2
100
AcDbEntity
  8
R-DOOR-DETL
  6
BYBLOCK
 62
     3
100
AcDbLine
 10
13.168814
 20
21.754187
 30
0.0
 11
13.640734
 21
21.754187
 31
0.0
  0
ARC
  5
4B3
100
AcDbEntity
  8
R-DOOR-DETL
  6
BYBLOCK
 62
     3
100
AcDbCircle
 10
13.616734
 20
21.923855
 30
0.0
 40
0.03
100
AcDbArc
 50
280.0
 51
360.0
  0
ARC
  5
4B4
100
AcDbEntity
  8
R-DOOR-DETL
100
AcDbCircle
 10
13.396734
 20
22.342219
 30
0.0
 40
0.25
100
AcDbArc
 50
360.0
 51
30.0
  0
LWPOLYLINE
  5
4B5
100
AcDbEntity
  8
DIMN
 62
     7
100
AcDbPolyline
 90
        3
 70
     0
 43
0.0
 10
13.318858
 20
22.847108
 10
14.807009
 20
22.114141
 10
14.987009
 20
22.114141
1001
ACAD
1000
DSTYLE
1002
{
1070
   173
1070
     1
1070
     6
1000
_DOTSMALL
1002
}
  0
LINE
  5
4B6
100
AcDbEntity
  8
R-DOOR-DETL
  6
BYBLOCK
 62
     3
100
AcDbLine
 10
13.158814
 20
21.704187
 30
0.0
 11
13.650734
 21
21.704187
 31
0.0
  0
LINE
  5
4B7
100
AcDbEntity
  8
R-DOOR-DETL
100
AcDbLine
 10
12.084749
 20
21.923855
 30
0.0
 11
12.084749
 21
22.342219
 31
0.0
  0
LINE
  5
4B8
100
AcDbEntity
  8
R-DOOR-DETL
  6
BYBLOCK
 62
     3
100
AcDbLine
 10
12.62094
 20
21.972574
 30
0.0
 11
12.62094
 21
22.722574
 31
0.0
  0
LINE
  5
4B9
100
AcDbEntity
  8
R-DOOR-DETL
  6
BYBLOCK
 62
     3
100
AcDbLine
 10
12.57094
 20
22.722574
 30
0.0
 11
12.57094
 21
21.972574
 31
0.0
  0
LINE
  5
4BA
100
AcDbEntity
  8
R-DOOR-DETL
  6
BYBLOCK
 62
     3
100
AcDbLine
 10
13.112939
 20
21.972574
 30
0.0
 11
13.112939
 21
22.722574
 31
0.0
  0
LINE
  5
4BB
100
AcDbEntity
  8
R-DOOR-DETL
  6
BYBLOCK
 62
     3
100
AcDbLine
 10
13.162939
 20
22.722574
 30
0.0
 11
13.162939
 21
21.972574
 31
0.0
  0
LINE
  5
4BC
100
AcDbEntity
  8
R-DOOR-DETL
  6
BYBLOCK
 62
     3
100
AcDbLine
 10
12.57094
 20
21.972574
 30
0.0
 11
12.57094
 21
22.824442
 31
0.0
  0
LINE
  5
4BD
100
AcDbEntity
  8
R-DOOR-DETL
  6
BYBLOCK
 62
     3
100
AcDbLine
 10
13.162939
 20
21.972574
 30
0.0
 11
13.162939
 21
22.824442
 31
0.0
  0
LINE
  5
4BE
100
AcDbEntity
  8
R-DOOR-DETL
  6
BYBLOCK
 62
     3
100
AcDbLine
 10
12.402631
 20
22.453957
 30
0.0
 11
12.425022
 21
21.963227
 31
0.0
  0
LINE
  5
4BF
100
AcDbEntity
  8
R-DOOR-DETL
  6
BYBLOCK
 62
     3
100
AcDbLine
 10
13.331248
 20
22.453957
 30
0.0
 11
13.308857
 21
21.963227
 31
0.0
  0
LINE
  5
4C0
100
AcDbEntity
  8
R-DOOR-DETL
  6
BYBLOCK
 62
     3
100
AcDbLine
 10
13.158814
 20
21.8334
 30
0.0
 11
13.158814
 21
21.764187
 31
0.0
  0
LINE
  5
4C1
100
AcDbEntity
  8
R-DOOR-DETL
  6
BYBLOCK
 62
     3
100
AcDbLine
 10
12.572669
 20
21.764187
 30
0.0
 11
12.572669
 21
21.8334
 31
0.0
  0
ARC
  5
4C2
100
AcDbEntity
  8
R-DOOR-DETL
  6
BYBLOCK
 62
     3
100
AcDbCircle
 10
13.168814
 20
21.764187
 30
0.0
 40
0.01
100
AcDbArc
 50
180.0
 51
270.0
  0
ARC
  5
4C3
100
AcDbEntity
  8
R-DOOR-DETL
  6
BYBLOCK
 62
     3
100
AcDbCircle
 10
12.562669
 20
21.764187
 30
0.0
 40
0.01
100
AcDbArc
 50
270.0
 51
360.0
  0
LINE
  5
4C4
100
AcDbEntity
  8
R-DOOR-DETL
  6
BYBLOCK
 62
     3
100
AcDbLine
 10
13.621943
 20
21.894311
 30
0.0
 11
13.334905
 21
21.843698
 31
0.0
  0
LINE
  5
4C5
100
AcDbEntity
  8
R-DOOR-DETL
  6
BYBLOCK
 62
     3
100
AcDbLine
 10
13.268898
 20
21.925051
 30
0.0
 11
13.162939
 21
21.925051
 31
0.0
  0
LINE
  5
4C6
100
AcDbEntity
  8
R-DOOR-DETL
  6
BYBLOCK
 62
     3
100
AcDbLine
 10
13.329696
 20
21.843242
 30
0.0
 11
13.168656
 21
21.843242
 31
0.0
  0
LINE
  5
4C7
100
AcDbEntity
  8
R-DOOR-DETL
  6
BYBLOCK
 62
     3
100
AcDbLine
 10
13.162939
 20
21.972574
 30
0.0
 11
13.112939
 21
21.972574
 31
0.0
  0
ARC
  5
4C8
100
AcDbEntity
  8
R-DOOR-DETL
  6
BYBLOCK
 62
     3
100
AcDbCircle
 10
13.162939
 20
21.944736
 30
0.0
 40
0.019685
100
AcDbArc
 50
109.471221
 51
270.0
  0
ARC
  5
4C9
100
AcDbEntity
  8
R-DOOR-DETL
  6
BYBLOCK
 62
     3
100
AcDbCircle
 10
13.153096
 20
21.972574
 30
0.0
 40
0.009843
100
AcDbArc
 50
289.471221
 51
0.0
  0
ARC
  5
4CA
100
AcDbEntity
  8
R-DOOR-DETL
  6
BYBLOCK
 62
     3
100
AcDbCircle
 10
13.168656
 20
21.8334
 30
0.0
 40
0.009843
100
AcDbArc
 50
90.0
 51
180.0
  0
ARC
  5
4CB
100
AcDbEntity
  8
R-DOOR-DETL
  6
BYBLOCK
 62
     3
100
AcDbCircle
 10
13.268898
 20
21.965051
 30
0.0
 40
0.04
100
AcDbArc
 50
270.0
 51
357.387498
  0
ARC
  5
4CC
100
AcDbEntity
  8
R-DOOR-DETL
  6
BYBLOCK
 62
     3
100
AcDbCircle
 10
13.329696
 20
21.873242
 30
0.0
 40
0.03
100
AcDbArc
 50
270.0
 51
280.0
  0
LINE
  5
4CD
100
AcDbEntity
  8
R-DOOR-DETL
  6
BYBLOCK
 62
     3
100
AcDbLine
 10
12.57094
 20
21.972574
 30
0.0
 11
12.62094
 21
21.972574
 31
0.0
  0
ARC
  5
4CE
100
AcDbEntity
  8
R-DOOR-DETL
  6
BYBLOCK
 62
     3
100
AcDbCircle
 10
12.57094
 20
21.944736
 30
0.0
 40
0.019685
100
AcDbArc
 50
270.0
 51
70.528779
  0
LINE
  5
4CF
100
AcDbEntity
  8
R-DOOR-DETL
  6
BYBLOCK
 62
     3
100
AcDbLine
 10
12.464981
 20
21.925051
 30
0.0
 11
12.57094
 21
21.925051
 31
0.0
  0
ARC
  5
4D0
100
AcDbEntity
  8
R-DOOR-DETL
  6
BYBLOCK
 62
     3
100
AcDbCircle
 10
12.580783
 20
21.972574
 30
0.0
 40
0.009843
100
AcDbArc
 50
180.0
 51
250.528779
  0
ARC
  5
4D1
100
AcDbEntity
  8
R-DOOR-DETL
  6
BYBLOCK
 62
     3
100
AcDbCircle
 10
12.464981
 20
21.965051
 30
0.0
 40
0.04
100
AcDbArc
 50
182.612502
 51
270.0
  0
ARC
  5
4D2
100
AcDbEntity
  8
R-DOOR-DETL
  6
BYBLOCK
 62
     3
100
AcDbCircle
 10
12.562826
 20
21.8334
 30
0.0
 40
0.009843
100
AcDbArc
 50
0.0
 51
90.0
  0
LINE
  5
4D3
100
AcDbEntity
  8
R-DOOR-DETL
  6
BYBLOCK
 62
     3
100
AcDbLine
 10
12.562826
 20
21.843242
 30
0.0
 11
12.401786
 21
21.843242
 31
0.0
  0
ARC
  5
4D4
100
AcDbEntity
  8
R-DOOR-DETL
  6
BYBLOCK
 62
     3
100
AcDbCircle
 10
12.401786
 20
21.873242
 30
0.0
 40
0.03
100
AcDbArc
 50
260.0
 51
270.0
  0
ARC
  5
4D5
100
AcDbEntity
  8
R-DOOR-DETL
100
AcDbCircle
 10
12.114749
 20
21.923855
 30
0.0
 40
0.03
100
AcDbArc
 50
180.0
 51
260.0
  0
LINE
  5
4D6
100
AcDbEntity
  8
R-DOOR-DETL
100
AcDbLine
 10
12.090749
 20
21.754187
 30
0.0
 11
12.562669
 21
21.754187
 31
0.0
  0
LINE
  5
4D7
100
AcDbEntity
  8
R-DOOR-DETL
100
AcDbLine
 10
12.396577
 20
21.843698
 30
0.0
 11
12.109539
 21
21.894311
 31
0.0
  0
ARC
  5
4D8
100
AcDbEntity
  8
R-DOOR-DETL
100
AcDbCircle
 10
12.090749
 20
21.910187
 30
0.0
 40
0.156
100
AcDbArc
 50
180.0
 51
270.0
  0
LINE
  5
4D9
100
AcDbEntity
  8
R-DOOR-DETL
  6
BYBLOCK
 62
     3
100
AcDbLine
 10
13.158814
 20
21.754187
 30
0.0
 11
13.158814
 21
21.704187
 31
0.0
  0
LINE
  5
4DA
100
AcDbEntity
  8
R-DOOR-DETL
  6
BYBLOCK
 62
     3
100
AcDbLine
 10
13.31976
 20
22.97554
 30
0.0
 11
13.61324
 21
22.467219
 31
0.0
  0
LINE
  5
4DB
100
AcDbEntity
  8
R-DOOR-DETL
  6
BYBLOCK
 62
     3
100
AcDbLine
 10
13.552917
 20
22.522927
 30
0.0
 11
13.492915
 21
22.486875
 31
0.0
  0
LINE
  5
4DC
100
AcDbEntity
  8
R-DOOR-DETL
  6
BYBLOCK
 62
     3
100
AcDbLine
 10
12.180962
 20
22.522927
 30
0.0
 11
12.240964
 21
22.486875
 31
0.0
  0
ARC
  5
4DD
100
AcDbEntity
  8
R-DOOR-DETL
  6
BYBLOCK
 62
     3
100
AcDbCircle
 10
13.361217
 20
22.45259
 30
0.0
 40
0.03
100
AcDbArc
 50
90.0
 51
177.387498
  0
LINE
  5
4DE
100
AcDbEntity
  8
R-DOOR-DETL
  6
BYBLOCK
 62
     3
100
AcDbLine
 10
13.477464
 20
22.48259
 30
0.0
 11
13.361217
 21
22.48259
 31
0.0
  0
ARC
  5
4DF
100
AcDbEntity
  8
R-DOOR-DETL
  6
BYBLOCK
 62
     3
100
AcDbCircle
 10
13.477464
 20
22.51259
 30
0.0
 40
0.03
100
AcDbArc
 50
270.0
 51
301.0
  0
LINE
  5
4E0
100
AcDbEntity
  8
R-DOOR-DETL
  6
BYBLOCK
 62
     3
100
AcDbLine
 10
12.256415
 20
22.48259
 30
0.0
 11
12.372662
 21
22.48259
 31
0.0
  0
ARC
  5
4E1
100
AcDbEntity
  8
R-DOOR-DETL
  6
BYBLOCK
 62
     3
100
AcDbCircle
 10
12.256415
 20
22.51259
 30
0.0
 40
0.03
100
AcDbArc
 50
239.0
 51
270.0
  0
ARC
  5
4E2
100
AcDbEntity
  8
R-DOOR-DETL
  6
BYBLOCK
 62
     3
100
AcDbCircle
 10
12.372662
 20
22.45259
 30
0.0
 40
0.03
100
AcDbArc
 50
2.612502
 51
90.0
  0
INSERT
  5
4E3
100
AcDbEntity
  8
DIMN
 62
     7
100
AcDbBlockReference
  2
_DOTSMALL
 10
13.318858
 20
22.847108
 30
0.0
 41
0.18
 42
0.18
 43
0.18
 50
153.778112
1001
ACAD
1000
DSTYLE
1002
{
1070
   173
1070
     1
1070
     6
1000
_DOTSMALL
1002
}
  0
ARC
  5
4E4
100
AcDbEntity
  8
R-DOOR-DETL
  6
BYBLOCK
 62
     3
100
AcDbCircle
 10
13.345741
 20
22.99054
 30
0.0
 40
0.03
100
AcDbArc
 50
180.0
 51
210.0
  0
LINE
  5
4E5
100
AcDbEntity
  8
R-DOOR-DETL
  6
BYBLOCK
 62
     3
100
AcDbLine
 10
12.828076
 20
22.849284
 30
0.0
 11
12.828076
 21
22.964284
 31
0.0
  0
LINE
  5
4E6
100
AcDbEntity
  8
R-DOOR-DETL
  6
BYBLOCK
 62
     3
100
AcDbLine
 10
12.905803
 20
22.849284
 30
0.0
 11
12.905803
 21
22.964284
 31
0.0
  0
ARC
  5
4E7
100
AcDbEntity
  8
R-DOOR-DETL
  6
BYBLOCK
 62
     3
100
AcDbCircle
 10
12.813076
 20
22.964284
 30
0.0
 40
0.015
100
AcDbArc
 50
0.0
 51
90.0
  0
LINE
  5
4E8
100
AcDbEntity
  8
R-DOOR-DETL
  6
BYBLOCK
 62
     3
100
AcDbLine
 10
12.813076
 20
22.979284
 30
0.0
 11
12.723076
 21
22.979284
 31
0.0
  0
ARC
  5
4E9
100
AcDbEntity
  8
R-DOOR-DETL
  6
BYBLOCK
 62
     3
100
AcDbCircle
 10
12.920803
 20
22.964284
 30
0.0
 40
0.015
100
AcDbArc
 50
90.0
 51
180.0
  0
LINE
  5
4EA
100
AcDbEntity
  8
R-DOOR-DETL
  6
BYBLOCK
 62
     3
100
AcDbLine
 10
12.920803
 20
22.979284
 30
0.0
 11
13.010803
 21
22.979284
 31
0.0
  0
ARC
  5
4EB
100
AcDbEntity
  8
R-DOOR-DETL
  6
BYBLOCK
 62
     3
100
AcDbCircle
 10
12.385741
 20
22.99054
 30
0.0
 40
0.03
100
AcDbArc
 50
330.0
 51
360.0
  0
LINE
  5
4EC
100
AcDbEntity
  8
R-DOOR-DETL
  6
BYBLOCK
 62
     3
100
AcDbLine
 10
13.153096
 20
22.834284
 30
0.0
 11
13.153096
 21
22.784284
 31
0.0
  0
LINE
  5
4ED
100
AcDbEntity
  8
R-DOOR-DETL
  6
BYBLOCK
 62
     3
100
AcDbLine
 10
13.112939
 20
22.722574
 30
0.0
 11
13.162939
 21
22.722574
 31
0.0
  0
ARC
  5
4EE
100
AcDbEntity
  8
0
100
AcDbCircle
 10
13.537466
 20
22.548642
 30
0.0
 40
0.03
100
AcDbArc
 50
301.0
 51
31.0
  0
POINT
  5
4EF
100
AcDbEntity
  8
R-DOOR-DETL
  6
BYBLOCK
 62
     3
100
AcDbPoint
 10
12.256366
 20
22.784179
 30
0.0
  0
POINT
  5
4F0
100
AcDbEntity
  8
R-DOOR-DETL
  6
BYBLOCK
 62
     3
100
AcDbPoint
 10
12.365741
 20
22.784179
 30
0.0
  0
LINE
  5
4F1
100
AcDbEntity
  8
R-DOOR-DETL
  6
BYBLOCK
 62
     3
100
AcDbLine
 10
12.576019
 20
22.784284
 30
0.0
 11
12.826019
 21
22.784284
 31
0.0
  0
LINE
  5
4F2
100
AcDbEntity
  8
R-DOOR-DETL
  6
BYBLOCK
 62
     3
100
AcDbLine
 10
12.826019
 20
22.784284
 30
0.0
 11
12.826019
 21
22.834284
 31
0.0
  0
LINE
  5
4F3
100
AcDbEntity
  8
R-DOOR-DETL
  6
BYBLOCK
 62
     3
100
AcDbLine
 10
12.576019
 20
22.834284
 30
0.0
 11
12.576019
 21
22.784284
 31
0.0
  0
LINE
  5
4F4
100
AcDbEntity
  8
R-DOOR-DETL
  6
BYBLOCK
 62
     3
100
AcDbLine
 10
12.826019
 20
22.834284
 30
0.0
 11
12.576019
 21
22.834284
 31
0.0
  0
LINE
  5
4F5
100
AcDbEntity
  8
R-DOOR-DETL
  6
BYBLOCK
 62
     3
100
AcDbLine
 10
12.903096
 20
22.784284
 30
0.0
 11
12.903096
 21
22.834284
 31
0.0
  0
LINE
  5
4F6
100
AcDbEntity
  8
R-DOOR-DETL
  6
BYBLOCK
 62
     3
100
AcDbLine
 10
12.62094
 20
22.722574
 30
0.0
 11
12.57094
 21
22.722574
 31
0.0
  0
LINE
  5
4F7
100
AcDbEntity
  8
R-DOOR-DETL
  6
BYBLOCK
 62
     3
100
AcDbLine
 10
12.580783
 20
22.834284
 30
0.0
 11
12.813076
 21
22.834284
 31
0.0
  0
LINE
  5
4F8
100
AcDbEntity
  8
R-DOOR-DETL
  6
BYBLOCK
 62
     3
100
AcDbLine
 10
13.153096
 20
22.784284
 30
0.0
 11
12.903096
 21
22.784284
 31
0.0
  0
LINE
  5
4F9
100
AcDbEntity
  8
R-DOOR-DETL
  6
BYBLOCK
 62
     3
100
AcDbLine
 10
12.903096
 20
22.834284
 30
0.0
 11
13.153096
 21
22.834284
 31
0.0
  0
LINE
  5
4FA
100
AcDbEntity
  8
R-DOOR-DETL
  6
BYBLOCK
 62
     3
100
AcDbLine
 10
13.153096
 20
22.834284
 30
0.0
 11
12.920803
 21
22.834284
 31
0.0
  0
LINE
  5
4FB
100
AcDbEntity
  8
R-DOOR-DETL
100
AcDbLine
 10
12.622939
 20
22.784284
 30
0.0
 11
13.112939
 21
22.784284
 31
0.0
  0
LINE
  5
4FC
100
AcDbEntity
  8
R-DOOR-DETL
100
AcDbLine
 10
12.680439
 20
22.784284
 30
0.0
 11
13.055439
 21
22.784284
 31
0.0
  0
LINE
  5
4FD
100
AcDbEntity
  8
R-DOOR-DETL
  6
BYBLOCK
 62
     3
100
AcDbLine
 10
13.285088
 20
23.026917
 30
0.0
 11
13.563181
 21
22.564093
 31
0.0
  0
ARC
  5
4FE
100
AcDbEntity
  8
R-DOOR-DETL
  6
BYBLOCK
 62
     3
100
AcDbCircle
 10
12.580783
 20
22.824442
 30
0.0
 40
0.009842
100
AcDbArc
 50
90.0
 51
180.0
  0
ARC
  5
4FF
100
AcDbEntity
  8
R-DOOR-DETL
  6
BYBLOCK
 62
     3
100
AcDbCircle
 10
12.813076
 20
22.849284
 30
0.0
 40
0.015
100
AcDbArc
 50
270.0
 51
0.0
  0
ARC
  5
500
100
AcDbEntity
  8
R-DOOR-DETL
  6
BYBLOCK
 62
     3
100
AcDbCircle
 10
13.153096
 20
22.824442
 30
0.0
 40
0.009842
100
AcDbArc
 50
0.0
 51
90.0
  0
ARC
  5
501
100
AcDbEntity
  8
R-DOOR-DETL
  6
BYBLOCK
 62
     3
100
AcDbCircle
 10
12.920803
 20
22.849284
 30
0.0
 40
0.015
100
AcDbArc
 50
180.0
 51
270.0
  0
ARC
  5
502
100
AcDbEntity
  8
R-DOOR-DETL
  6
BYBLOCK
 62
     3
100
AcDbCircle
 10
12.196414
 20
22.548642
 30
0.0
 40
0.03
100
AcDbArc
 50
149.0
 51
239.0
  0
LINE
  5
503
100
AcDbEntity
  8
R-DOOR-DETL
  6
BYBLOCK
 62
     3
100
AcDbLine
 10
12.448791
 20
23.026917
 30
0.0
 11
12.170699
 21
22.564093
 31
0.0
  0
LINE
  5
504
100
AcDbEntity
  8
R-DOOR-DETL
  6
BYBLOCK
 62
     3
100
AcDbLine
 10
12.118242
 20
22.467219
 30
0.0
 11
12.411722
 21
22.97554
 31
0.0
  0
ARC
  5
505
100
AcDbEntity
  8
R-DOOR-DETL
100
AcDbCircle
 10
12.334749
 20
22.342219
 30
0.0
 40
0.25
100
AcDbArc
 50
150.0
 51
180.0
  0
LINE
  5
506
100
AcDbEntity
  8
R-DOOR-DETL
  6
BYBLOCK
 62
     3
100
AcDbLine
 10
13.646734
 20
22.342219
 30
0.0
 11
13.646734
 21
21.923855
 31
0.0
  0
ARC
  5
507
100
AcDbEntity
  8
R-DOOR-DETL
  6
BYBLOCK
 62
     3
100
AcDbCircle
 10
13.650734
 20
21.910187
 30
0.0
 40
0.156
100
AcDbArc
 50
270.0
 51
0.0
  0
ARC
  5
508
100
AcDbEntity
  8
R-DOOR-DETL
  6
BYBLOCK
 62
     3
100
AcDbCircle
 10
13.640734
 20
21.910187
 30
0.0
 40
0.156
100
AcDbArc
 50
270.0
 51
360.0
  0
ARC
  5
509
100
AcDbEntity
  8
R-DOOR-DETL
  6
BYBLOCK
 62
     3
100
AcDbCircle
 10
13.650734
 20
21.910187
 30
0.0
 40
0.206
100
AcDbArc
 50
270.0
 51
0.0
  0
ARC
  5
50A
100
AcDbEntity
  8
R-DOOR-DETL
100
AcDbCircle
 10
13.610734
 20
24.235179
 30
0.0
 40
0.031
100
AcDbArc
 50
270.0
 51
0.0
  0
ARC
  5
50B
100
AcDbEntity
  8
R-DOOR-DETL
100
AcDbCircle
 10
13.616734
 20
24.234179
 30
0.0
 40
0.03
100
AcDbArc
 50
270.0
 51
0.0
  0
ARC
  5
50C
100
AcDbEntity
  8
R-DOOR-DETL
100
AcDbCircle
 10
13.418242
 20
23.763137
 30
0.0
 40
0.049213
100
AcDbArc
 50
180.0
 51
297.721062
  0
ARC
  5
50D
100
AcDbEntity
  8
R-DOOR-DETL
100
AcDbCircle
 10
12.31324
 20
23.763137
 30
0.0
 40
0.049213
100
AcDbArc
 50
242.278938
 51
0.0
  0
LINE
  5
50E
100
AcDbEntity
  8
R-DOOR-ANNO
  6
CONTINUOUS
100
AcDbLine
 10
12.001302
 20
23.877219
 30
0.0
 11
10.930248
 21
23.281329
 31
0.0
1001
ACAD
1000
DSTYLE
1002
{
1070
   173
1070
     1
1070
     6
1000
_DOTSMALL
1002
}
  0
LINE
  5
50F
100
AcDbEntity
  8
R-DOOR-ANNO
  6
CONTINUOUS
100
AcDbLine
 10
10.930248
 20
23.281329
 30
0.0
 11
10.750249
 21
23.28193
 31
0.0
1001
ACAD
1000
DSTYLE
1002
{
1070
   173
1070
     1
1070
     6
1000
_DOTSMALL
1002
}
  0
LINE
  5
510
100
AcDbEntity
  8
R-DOOR-DETL
  6
BYBLOCK
 62
     3
100
AcDbLine
 10
12.776724
 20
23.200509
 30
0.0
 11
12.964724
 21
23.200509
 31
0.0
  0
LINE
  5
511
100
AcDbEntity
  8
R-DOOR-DETL
  6
BYBLOCK
 62
     3
100
AcDbLine
 10
12.746724
 20
23.170509
 30
0.0
 11
12.994724
 21
23.170509
 31
0.0
  0
ARC
  5
512
100
AcDbEntity
  8
R-DOOR-DETL
  6
BYBLOCK
 62
     3
100
AcDbCircle
 10
13.479734
 20
23.674879
 30
0.0
 40
0.059055
100
AcDbArc
 50
241.689936
 51
130.814986
  0
ARC
  5
513
100
AcDbEntity
  8
R-DOOR-DETL
  6
BYBLOCK
 62
     3
100
AcDbCircle
 10
13.41918
 20
23.585974
 30
0.0
 40
0.049213
100
AcDbArc
 50
48.596013
 51
99.750077
  0
ARC
  5
514
100
AcDbEntity
  8
R-DOOR-DETL
100
AcDbCircle
 10
12.251749
 20
23.674879
 30
0.0
 40
0.059055
100
AcDbArc
 50
49.185014
 51
298.310064
  0
LINE
  5
515
100
AcDbEntity
  8
R-DOOR-DETL
100
AcDbLine
 10
12.865741
 20
23.634476
 30
0.0
 11
12.320637
 21
23.634476
 31
0.0
  0
ARC
  5
516
100
AcDbEntity
  8
R-DOOR-DETL
100
AcDbCircle
 10
12.312302
 20
23.585974
 30
0.0
 40
0.049212
100
AcDbArc
 50
80.249923
 51
131.403987
  0
LINE
  5
517
100
AcDbEntity
  8
R-DOOR-DETL
  6
BYBLOCK
 62
     3
100
AcDbLine
 10
13.410846
 20
23.634476
 30
0.0
 11
12.865741
 21
23.634476
 31
0.0
  0
ARC
  5
518
100
AcDbEntity
  8
R-DOOR-DETL
  6
BYBLOCK
 62
     3
100
AcDbCircle
 10
13.186803
 20
23.297284
 30
0.0
 40
0.094
100
AcDbArc
 50
0.0
 51
90.0
  0
ARC
  5
519
100
AcDbEntity
  8
R-DOOR-DETL
  6
BYBLOCK
 62
     3
100
AcDbCircle
 10
13.120803
 20
23.231284
 30
0.0
 40
0.015
100
AcDbArc
 50
0.0
 51
90.0
  0
LINE
  5
51A
100
AcDbEntity
  8
R-DOOR-DETL
  6
BYBLOCK
 62
     3
100
AcDbLine
 10
13.034803
 20
23.391284
 30
0.0
 11
13.186803
 21
23.391284
 31
0.0
  0
LINE
  5
51B
100
AcDbEntity
  8
R-DOOR-DETL
  6
BYBLOCK
 62
     3
100
AcDbLine
 10
13.120803
 20
23.246284
 30
0.0
 11
13.034803
 21
23.246284
 31
0.0
  0
ARC
  5
51C
100
AcDbEntity
  8
R-DOOR-DETL
  6
BYBLOCK
 62
     3
100
AcDbCircle
 10
13.034803
 20
23.376284
 30
0.0
 40
0.015
100
AcDbArc
 50
90.0
 51
180.0
  0
ARC
  5
51D
100
AcDbEntity
  8
R-DOOR-DETL
  6
BYBLOCK
 62
     3
100
AcDbCircle
 10
13.034803
 20
23.261284
 30
0.0
 40
0.015
100
AcDbArc
 50
180.0
 51
270.0
  0
LINE
  5
51E
100
AcDbEntity
  8
R-DOOR-DETL
  6
BYBLOCK
 62
     3
100
AcDbLine
 10
13.019803
 20
23.261284
 30
0.0
 11
13.019803
 21
23.376284
 31
0.0
  0
ARC
  5
51F
100
AcDbEntity
  8
R-DOOR-DETL
  6
BYBLOCK
 62
     3
100
AcDbCircle
 10
13.255741
 20
23.424476
 30
0.0
 40
0.06
100
AcDbArc
 50
360.0
 51
90.0
  0
ARC
  5
520
100
AcDbEntity
  8
R-DOOR-DETL
  6
BYBLOCK
 62
     3
100
AcDbCircle
 10
12.613076
 20
23.231284
 30
0.0
 40
0.015
100
AcDbArc
 50
90.0
 51
180.0
  0
ARC
  5
521
100
AcDbEntity
  8
R-DOOR-DETL
  6
BYBLOCK
 62
     3
100
AcDbCircle
 10
12.547076
 20
23.297284
 30
0.0
 40
0.094
100
AcDbArc
 50
90.0
 51
180.0
  0
LINE
  5
522
100
AcDbEntity
  8
R-DOOR-DETL
  6
BYBLOCK
 62
     3
100
AcDbLine
 10
12.613076
 20
23.246284
 30
0.0
 11
12.699076
 21
23.246284
 31
0.0
  0
LINE
  5
523
100
AcDbEntity
  8
R-DOOR-DETL
  6
BYBLOCK
 62
     3
100
AcDbLine
 10
12.699076
 20
23.391284
 30
0.0
 11
12.547076
 21
23.391284
 31
0.0
  0
ARC
  5
524
100
AcDbEntity
  8
R-DOOR-DETL
  6
BYBLOCK
 62
     3
100
AcDbCircle
 10
12.699076
 20
23.261284
 30
0.0
 40
0.015
100
AcDbArc
 50
270.0
 51
0.0
  0
ARC
  5
525
100
AcDbEntity
  8
R-DOOR-DETL
  6
BYBLOCK
 62
     3
100
AcDbCircle
 10
12.699076
 20
23.376284
 30
0.0
 40
0.015
100
AcDbArc
 50
0.0
 51
90.0
  0
LINE
  5
526
100
AcDbEntity
  8
R-DOOR-DETL
  6
BYBLOCK
 62
     3
100
AcDbLine
 10
12.714076
 20
23.261284
 30
0.0
 11
12.714076
 21
23.376284
 31
0.0
  0
ARC
  5
527
100
AcDbEntity
  8
R-DOOR-DETL
  6
BYBLOCK
 62
     3
100
AcDbCircle
 10
12.475741
 20
23.424476
 30
0.0
 40
0.06
100
AcDbArc
 50
90.0
 51
180.0
  0
LINE
  5
528
100
AcDbEntity
  8
R-DOOR-DETL
  6
BYBLOCK
 62
     3
100
AcDbLine
 10
12.475741
 20
23.484476
 30
0.0
 11
12.865741
 21
23.484476
 31
0.0
  0
LINE
  5
529
100
AcDbEntity
  8
R-DOOR-DETL
  6
BYBLOCK
 62
     3
100
AcDbLine
 10
12.776724
 20
23.260509
 30
0.0
 11
12.964724
 21
23.260509
 31
0.0
  0
LINE
  5
52A
100
AcDbEntity
  8
R-DOOR-DETL
  6
BYBLOCK
 62
     3
100
AcDbLine
 10
12.776724
 20
23.320509
 30
0.0
 11
12.964724
 21
23.320509
 31
0.0
  0
LINE
  5
52B
100
AcDbEntity
  8
R-DOOR-DETL
  6
BYBLOCK
 62
     3
100
AcDbLine
 10
12.746724
 20
23.290509
 30
0.0
 11
12.994724
 21
23.290509
 31
0.0
  0
LINE
  5
52C
100
AcDbEntity
  8
R-DOOR-DETL
  6
BYBLOCK
 62
     3
100
AcDbLine
 10
12.746724
 20
23.350509
 30
0.0
 11
12.994724
 21
23.350509
 31
0.0
  0
LINE
  5
52D
100
AcDbEntity
  8
R-DOOR-DETL
  6
BYBLOCK
 62
     3
100
AcDbLine
 10
12.746724
 20
23.230509
 30
0.0
 11
12.994724
 21
23.230509
 31
0.0
  0
LINE
  5
52E
100
AcDbEntity
  8
R-DOOR-DETL
  6
BYBLOCK
 62
     3
100
AcDbLine
 10
12.776724
 20
23.380509
 30
0.0
 11
12.964724
 21
23.380509
 31
0.0
  0
LINE
  5
52F
100
AcDbEntity
  8
R-DOOR-DETL
  6
BYBLOCK
 62
     3
100
AcDbLine
 10
12.776724
 20
23.440509
 30
0.0
 11
12.964724
 21
23.440509
 31
0.0
  0
LINE
  5
530
100
AcDbEntity
  8
R-DOOR-DETL
  6
BYBLOCK
 62
     3
100
AcDbLine
 10
12.746724
 20
23.410509
 30
0.0
 11
12.994724
 21
23.410509
 31
0.0
  0
LINE
  5
531
100
AcDbEntity
  8
R-DOOR-DETL
  6
BYBLOCK
 62
     3
100
AcDbLine
 10
12.746724
 20
23.470509
 30
0.0
 11
12.994724
 21
23.470509
 31
0.0
  0
LINE
  5
532
100
AcDbEntity
  8
R-DOOR-DETL
  6
BYBLOCK
 62
     3
100
AcDbLine
 10
12.865741
 20
23.484476
 30
0.0
 11
13.255741
 21
23.484476
 31
0.0
  0
LINE
  5
533
100
AcDbEntity
  8
R-DOOR-DETL
  6
BYBLOCK
 62
     3
100
AcDbLine
 10
12.620724
 20
23.235644
 30
0.0
 11
13.120724
 21
23.235644
 31
0.0
  0
LINE
  5
534
100
AcDbEntity
  8
R-DOOR-DETL
  6
BYBLOCK
 62
     3
100
AcDbLine
 10
12.776724
 20
23.080509
 30
0.0
 11
12.964724
 21
23.080509
 31
0.0
  0
LINE
  5
535
100
AcDbEntity
  8
R-DOOR-DETL
  6
BYBLOCK
 62
     3
100
AcDbLine
 10
12.776724
 20
23.140509
 30
0.0
 11
12.964724
 21
23.140509
 31
0.0
  0
LINE
  5
536
100
AcDbEntity
  8
R-DOOR-DETL
  6
BYBLOCK
 62
     3
100
AcDbLine
 10
12.746724
 20
23.110509
 30
0.0
 11
12.994724
 21
23.110509
 31
0.0
  0
LINE
  5
537
100
AcDbEntity
  8
R-DOOR-DETL
  6
BYBLOCK
 62
     3
100
AcDbLine
 10
12.620724
 20
23.110644
 30
0.0
 11
13.120724
 21
23.110644
 31
0.0
  0
LINE
  5
538
100
AcDbEntity
  8
R-DOOR-DETL
  6
BYBLOCK
 62
     3
100
AcDbLine
 10
13.120724
 20
23.110644
 30
0.0
 11
13.120724
 21
23.235644
 31
0.0
  0
LINE
  5
539
100
AcDbEntity
  8
R-DOOR-DETL
  6
BYBLOCK
 62
     3
100
AcDbLine
 10
13.135803
 20
23.104284
 30
0.0
 11
13.135803
 21
23.231284
 31
0.0
  0
LINE
  5
53A
100
AcDbEntity
  8
R-DOOR-DETL
  6
BYBLOCK
 62
     3
100
AcDbLine
 10
13.280803
 20
23.297284
 30
0.0
 11
13.280803
 21
23.042368
 31
0.0
  0
LINE
  5
53B
100
AcDbEntity
  8
R-DOOR-DETL
  6
BYBLOCK
 62
     3
100
AcDbLine
 10
12.620724
 20
23.110644
 30
0.0
 11
12.620724
 21
23.235644
 31
0.0
  0
LINE
  5
53C
100
AcDbEntity
  8
R-DOOR-DETL
  6
BYBLOCK
 62
     3
100
AcDbLine
 10
12.598076
 20
23.104284
 30
0.0
 11
12.598076
 21
23.231284
 31
0.0
  0
LINE
  5
53D
100
AcDbEntity
  8
R-DOOR-DETL
  6
BYBLOCK
 62
     3
100
AcDbLine
 10
12.453076
 20
23.297284
 30
0.0
 11
12.453076
 21
23.042368
 31
0.0
  0
LINE
  5
53E
100
AcDbEntity
  8
R-DOOR-DETL
100
AcDbLine
 10
13.467122
 20
24.204179
 30
0.0
 11
13.610734
 21
24.204179
 31
0.0
  0
LINE
  5
53F
100
AcDbEntity
  8
R-DOOR-DETL
100
AcDbLine
 10
13.616734
 20
24.204179
 30
0.0
 11
12.865741
 21
24.204179
 31
0.0
  0
ARC
  5
540
100
AcDbEntity
  8
R-DOOR-DETL
100
AcDbCircle
 10
12.865741
 20
23.957624
 30
0.0
 40
0.15678
100
AcDbArc
 50
190.315077
 51
214.562525
  0
ARC
  5
541
100
AcDbEntity
  8
R-DOOR-DETL
100
AcDbCircle
 10
12.865741
 20
23.957624
 30
0.0
 40
0.059055
100
AcDbArc
 50
319.488274
 51
220.511726
  0
ARC
  5
542
100
AcDbEntity
  8
R-DOOR-DETL
100
AcDbCircle
 10
12.865741
 20
23.957624
 30
0.0
 40
0.15678
100
AcDbArc
 50
325.437475
 51
349.684923
  0
ARC
  5
543
100
AcDbEntity
  8
R-DOOR-DETL
  6
BYBLOCK
 62
     3
100
AcDbCircle
 10
13.220074
 20
24.418281
 30
0.0
 40
0.031
100
AcDbArc
 50
330.0
 51
57.493872
  0
LINE
  5
544
100
AcDbEntity
  8
R-DOOR-DETL
  6
BYBLOCK
 62
     3
100
AcDbLine
 10
13.366683
 20
24.451628
 30
0.0
 11
13.261551
 21
24.424636
 31
0.0
  0
ARC
  5
545
100
AcDbEntity
  8
R-DOOR-DETL
  6
BYBLOCK
 62
     3
100
AcDbCircle
 10
13.361408
 20
24.418281
 30
0.0
 40
0.031
100
AcDbArc
 50
122.506128
 51
210.0
  0
LINE
  5
546
100
AcDbEntity
  8
R-DOOR-DETL
  6
BYBLOCK
 62
     3
100
AcDbLine
 10
12.920012
 20
24.435179
 30
0.0
 11
12.81147
 21
24.435179
 31
0.0
  0
LINE
  5
547
100
AcDbEntity
  8
R-DOOR-DETL
  6
BYBLOCK
 62
     3
100
AcDbLine
 10
12.430089
 20
24.421161
 30
0.0
 11
12.528962
 21
24.465946
 31
0.0
  0
ARC
  5
548
100
AcDbEntity
  8
R-DOOR-DETL
  6
BYBLOCK
 62
     3
100
AcDbCircle
 10
12.511408
 20
24.418281
 30
0.0
 40
0.031
100
AcDbArc
 50
122.506128
 51
210.0
  0
ARC
  5
549
100
AcDbEntity
  8
R-DOOR-DETL
  6
BYBLOCK
 62
     3
100
AcDbCircle
 10
12.370074
 20
24.418281
 30
0.0
 40
0.031
100
AcDbArc
 50
330.0
 51
57.493872
  0
LINE
  5
54A
100
AcDbEntity
  8
R-DOOR-DETL
100
AcDbLine
 10
13.049502
 20
23.954179
 30
0.0
 11
13.33803
 21
23.954179
 31
0.0
  0
ARC
  5
54B
100
AcDbEntity
  8
R-DOOR-DETL
  6
BYBLOCK
 62
     3
100
AcDbCircle
 10
13.114361
 20
24.235179
 30
0.0
 40
0.031
100
AcDbArc
 50
270.0
 51
330.0
  0
ARC
  5
54C
100
AcDbEntity
  8
R-DOOR-DETL
100
AcDbCircle
 10
13.049502
 20
23.924179
 30
0.0
 40
0.03
100
AcDbArc
 50
90.0
 51
169.684923
  0
ARC
  5
54D
100
AcDbEntity
  8
R-DOOR-DETL
  6
BYBLOCK
 62
     3
100
AcDbCircle
 10
13.467122
 20
24.235179
 30
0.0
 40
0.031
100
AcDbArc
 50
210.0
 51
270.0
  0
ARC
  5
54E
100
AcDbEntity
  8
R-DOOR-DETL
100
AcDbCircle
 10
13.33803
 20
23.923179
 30
0.0
 40
0.031
100
AcDbArc
 50
360.0
 51
90.0
  0
ARC
  5
54F
100
AcDbEntity
  8
R-DOOR-DETL
  6
BYBLOCK
 62
     3
100
AcDbCircle
 10
12.264361
 20
24.235179
 30
0.0
 40
0.031
100
AcDbArc
 50
270.0
 51
330.0
  0
ARC
  5
550
100
AcDbEntity
  8
R-DOOR-DETL
  6
BYBLOCK
 62
     3
100
AcDbCircle
 10
12.617122
 20
24.235179
 30
0.0
 40
0.031
100
AcDbArc
 50
210.0
 51
270.0
  0
LINE
  5
551
100
AcDbEntity
  8
R-DOOR-DETL
100
AcDbLine
 10
12.393453
 20
23.954179
 30
0.0
 11
12.68198
 21
23.954179
 31
0.0
  0
ARC
  5
552
100
AcDbEntity
  8
R-DOOR-DETL
100
AcDbCircle
 10
12.393453
 20
23.923179
 30
0.0
 40
0.031
100
AcDbArc
 50
90.0
 51
180.0
  0
ARC
  5
553
100
AcDbEntity
  8
R-DOOR-DETL
100
AcDbCircle
 10
12.68198
 20
23.924179
 30
0.0
 40
0.03
100
AcDbArc
 50
10.315077
 51
90.0
  0
LINE
  5
554
100
AcDbEntity
  8
R-DOOR-DETL
  6
BYBLOCK
 62
     3
100
AcDbLine
 10
12.617122
 20
24.204179
 30
0.0
 11
13.114361
 21
24.204179
 31
0.0
  0
LINE
  5
555
100
AcDbEntity
  8
R-DOOR-DETL
  6
BYBLOCK
 62
     3
100
AcDbLine
 10
13.141207
 20
24.219679
 30
0.0
 11
13.246921
 21
24.402781
 31
0.0
  0
LINE
  5
556
100
AcDbEntity
  8
R-DOOR-DETL
  6
BYBLOCK
 62
     3
100
AcDbLine
 10
13.334561
 20
24.402781
 30
0.0
 11
13.440275
 21
24.219679
 31
0.0
  0
LINE
  5
557
100
AcDbEntity
  8
R-DOOR-DETL
  6
BYBLOCK
 62
     3
100
AcDbLine
 10
12.484561
 20
24.402781
 30
0.0
 11
12.590275
 21
24.219679
 31
0.0
  0
LINE
  5
558
100
AcDbEntity
  8
R-DOOR-DETL
  6
BYBLOCK
 62
     3
100
AcDbLine
 10
12.291207
 20
24.219679
 30
0.0
 11
12.396921
 21
24.402781
 31
0.0
  0
LINE
  5
559
100
AcDbEntity
  8
R-DOOR-DETL
100
AcDbLine
 10
13.548241
 20
24.204179
 30
0.0
 11
12.183241
 21
24.204179
 31
0.0
  0
LINE
  5
55A
100
AcDbEntity
  8
R-DOOR-DETL
100
AcDbLine
 10
13.548241
 20
24.329179
 30
0.0
 11
12.183241
 21
24.329179
 31
0.0
  0
ARC
  5
55B
100
AcDbEntity
  8
R-DOOR-DETL
100
AcDbCircle
 10
12.120749
 20
24.235179
 30
0.0
 40
0.031
100
AcDbArc
 50
180.0
 51
270.0
  0
ARC
  5
55C
100
AcDbEntity
  8
R-DOOR-DETL
100
AcDbCircle
 10
12.114749
 20
24.234179
 30
0.0
 40
0.03
100
AcDbArc
 50
180.0
 51
270.0
  0
LINE
  5
55D
100
AcDbEntity
  8
R-DOOR-DETL
100
AcDbLine
 10
12.089749
 20
24.465382
 30
0.0
 11
12.089749
 21
24.235179
 31
0.0
  0
LINE
  5
55E
100
AcDbEntity
  8
R-DOOR-DETL
100
AcDbLine
 10
12.865741
 20
24.204179
 30
0.0
 11
12.114749
 21
24.204179
 31
0.0
  0
LINE
  5
55F
100
AcDbEntity
  8
R-DOOR-DETL
100
AcDbLine
 10
12.120749
 20
24.204179
 30
0.0
 11
12.264361
 21
24.204179
 31
0.0
  0
LINE
  5
560
100
AcDbEntity
  8
R-DOOR-DETL
100
AcDbLine
 10
13.36903
 20
23.923179
 30
0.0
 11
13.36903
 21
23.763137
 31
0.0
  0
LINE
  5
561
100
AcDbEntity
  8
R-DOOR-DETL
100
AcDbLine
 10
12.362453
 20
23.763137
 30
0.0
 11
12.362453
 21
23.923179
 31
0.0
  0
POLYLINE
  5
562
100
AcDbEntity
  8
0
  6
BYBLOCK
 62
     0
100
AcDb2dPolyline
 66
     1
 10
0.0
 20
0.0
 30
0.0
 70
     1
 40
0.09
 41
0.09
  0
VERTEX
  5
563
100
AcDbEntity
  8
0
  6
BYBLOCK
 62
     0
100
AcDbVertex
100
AcDb2dVertex
 10
12.011114
 20
23.871716
 30
0.0
 42
1.0
  0
VERTEX
  5
564
100
AcDbEntity
  8
0
  6
BYBLOCK
 62
     0
100
AcDbVertex
100
AcDb2dVertex
 10
11.991489
 20
23.882721
 30
0.0
 42
1.0
  0
SEQEND
  5
565
100
AcDbEntity
  8
0
  6
BYBLOCK
 62
     0
  0
ARC
  5
566
100
AcDbEntity
  8
R-DOOR-DETL
100
AcDbCircle
 10
12.954324
 20
23.896601
 30
0.0
 40
0.049213
100
AcDbArc
 50
152.582198
 51
325.437475
  0
ARC
  5
567
100
AcDbEntity
  8
R-DOOR-DETL
100
AcDbCircle
 10
12.777159
 20
23.896601
 30
0.0
 40
0.049213
100
AcDbArc
 50
214.562525
 51
27.417802
  0
LINE
  5
568
100
AcDbEntity
  8
R-DOOR-ANNO
  6
CONTINUOUS
100
AcDbLine
 10
13.878522
 20
23.874332
 30
0.0
 11
14.94758
 21
23.274869
 31
0.0
1001
ACAD
1000
DSTYLE
1002
{
1070
   173
1070
     1
1070
     6
1000
_DOTSMALL
1002
}
  0
LINE
  5
569
100
AcDbEntity
  8
R-DOOR-ANNO
  6
CONTINUOUS
100
AcDbLine
 10
14.94758
 20
23.274869
 30
0.0
 11
15.12758
 21
23.274869
 31
0.0
1001
ACAD
1000
DSTYLE
1002
{
1070
   173
1070
     1
1070
     6
1000
_DOTSMALL
1002
}
  0
LINE
  5
56A
100
AcDbEntity
  8
R-DOOR-DETL
100
AcDbLine
 10
13.641734
 20
24.235179
 30
0.0
 11
13.641734
 21
24.465382
 31
0.0
  0
POLYLINE
  5
56B
100
AcDbEntity
  8
0
  6
BYBLOCK
 62
     0
100
AcDb2dPolyline
 66
     1
 10
0.0
 20
0.0
 30
0.0
 70
     1
 40
0.09
 41
0.09
  0
VERTEX
  5
56C
100
AcDbEntity
  8
0
  6
BYBLOCK
 62
     0
100
AcDbVertex
100
AcDb2dVertex
 10
13.870111
 20
23.879076
 30
0.0
 42
1.0
  0
VERTEX
  5
56D
100
AcDbEntity
  8
0
  6
BYBLOCK
 62
     0
100
AcDbVertex
100
AcDb2dVertex
 10
13.850486
 20
23.890081
 30
0.0
 42
1.0
  0
SEQEND
  5
56E
100
AcDbEntity
  8
0
  6
BYBLOCK
 62
     0
  0
LINE
  5
56F
100
AcDbEntity
  8
0
  6
BYBLOCK
 62
     0
100
AcDbLine
 10
13.394304
 20
26.034179
 30
0.0
 11
19.505537
 21
26.034179
 31
0.0
  0
ARC
  5
570
100
AcDbEntity
  8
R-DOOR-DETL
100
AcDbCircle
 10
13.631734
 20
24.705382
 30
0.0
 40
0.015
100
AcDbArc
 50
270.0
 51
0.0
  0
ARC
  5
571
100
AcDbEntity
  8
R-DOOR-DETL
100
AcDbCircle
 10
13.631734
 20
24.475382
 30
0.0
 40
0.015
100
AcDbArc
 50
0.0
 51
90.0
  0
LINE
  5
572
100
AcDbEntity
  8
R-DOOR-DETL
100
AcDbLine
 10
12.084749
 20
24.705382
 30
0.0
 11
12.084749
 21
25.359179
 31
0.0
  0
LINE
  5
573
100
AcDbEntity
  8
R-DOOR-DETL
  6
BYBLOCK
 62
     3
100
AcDbLine
 10
13.319931
 20
24.633722
 30
0.0
 11
13.214799
 21
24.60673
 31
0.0
  0
LINE
  5
574
100
AcDbEntity
  8
R-DOOR-DETL
  6
BYBLOCK
 62
     3
100
AcDbLine
 10
12.451393
 20
24.637197
 30
0.0
 11
12.539613
 21
24.573964
 31
0.0
  0
LINE
  5
575
100
AcDbEntity
  8
R-DOOR-DETL
  6
BYBLOCK
 62
     3
100
AcDbLine
 10
12.352521
 20
24.592413
 30
0.0
 11
12.451393
 21
24.637197
 31
0.0
  0
LINE
  5
576
100
AcDbEntity
  8
R-DOOR-DETL
  6
BYBLOCK
 62
     3
100
AcDbLine
 10
12.920012
 20
24.623179
 30
0.0
 11
12.81147
 21
24.623179
 31
0.0
  0
LINE
  5
577
100
AcDbEntity
  8
R-DOOR-DETL
100
AcDbLine
 10
13.631734
 20
24.690382
 30
0.0
 11
13.565741
 21
24.690382
 31
0.0
  0
ARC
  5
578
100
AcDbEntity
  8
R-DOOR-DETL
100
AcDbCircle
 10
13.530741
 20
24.765179
 30
0.0
 40
0.015
100
AcDbArc
 50
360.0
 51
90.0
  0
ARC
  5
579
100
AcDbEntity
  8
R-DOOR-DETL
100
AcDbCircle
 10
13.565741
 20
24.675382
 30
0.0
 40
0.015
100
AcDbArc
 50
90.0
 51
180.0
  0
LINE
  5
57A
100
AcDbEntity
  8
R-DOOR-DETL
100
AcDbLine
 10
13.530741
 20
24.780179
 30
0.0
 11
12.200741
 21
24.780179
 31
0.0
  0
ARC
  5
57B
100
AcDbEntity
  8
R-DOOR-DETL
100
AcDbCircle
 10
12.165741
 20
24.675382
 30
0.0
 40
0.015
100
AcDbArc
 50
0.0
 51
90.0
  0
LINE
  5
57C
100
AcDbEntity
  8
R-DOOR-DETL
100
AcDbLine
 10
13.548241
 20
24.754179
 30
0.0
 11
12.183241
 21
24.754179
 31
0.0
  0
ARC
  5
57D
100
AcDbEntity
  8
R-DOOR-DETL
100
AcDbCircle
 10
12.200741
 20
24.765179
 30
0.0
 40
0.015
100
AcDbArc
 50
90.0
 51
180.0
  0
ARC
  5
57E
100
AcDbEntity
  8
R-DOOR-DETL
100
AcDbCircle
 10
12.099749
 20
24.705382
 30
0.0
 40
0.015
100
AcDbArc
 50
180.0
 51
270.0
  0
LINE
  5
57F
100
AcDbEntity
  8
R-DOOR-DETL
100
AcDbLine
 10
12.165741
 20
24.690382
 30
0.0
 11
12.099749
 21
24.690382
 31
0.0
  0
LINE
  5
580
100
AcDbEntity
  8
R-DOOR-DETL
100
AcDbLine
 10
13.626734
 20
24.480382
 30
0.0
 11
13.560741
 21
24.480382
 31
0.0
  0
LINE
  5
581
100
AcDbEntity
  8
R-DOOR-DETL
100
AcDbLine
 10
13.565741
 20
24.490382
 30
0.0
 11
13.631734
 21
24.490382
 31
0.0
  0
ARC
  5
582
100
AcDbEntity
  8
R-DOOR-DETL
100
AcDbCircle
 10
13.560741
 20
24.495382
 30
0.0
 40
0.015
100
AcDbArc
 50
180.0
 51
270.0
  0
ARC
  5
583
100
AcDbEntity
  8
R-DOOR-DETL
100
AcDbCircle
 10
13.565741
 20
24.505382
 30
0.0
 40
0.015
100
AcDbArc
 50
180.0
 51
270.0
  0
ARC
  5
584
100
AcDbEntity
  8
R-DOOR-DETL
100
AcDbCircle
 10
12.165741
 20
24.505382
 30
0.0
 40
0.015
100
AcDbArc
 50
270.0
 51
0.0
  0
ARC
  5
585
100
AcDbEntity
  8
R-DOOR-DETL
100
AcDbCircle
 10
12.170741
 20
24.495382
 30
0.0
 40
0.015
100
AcDbArc
 50
270.0
 51
360.0
  0
ARC
  5
586
100
AcDbEntity
  8
R-DOOR-DETL
100
AcDbCircle
 10
12.099749
 20
24.475382
 30
0.0
 40
0.015
100
AcDbArc
 50
90.0
 51
180.0
  0
LINE
  5
587
100
AcDbEntity
  8
R-DOOR-DETL
100
AcDbLine
 10
12.170741
 20
24.480382
 30
0.0
 11
12.104749
 21
24.480382
 31
0.0
  0
LINE
  5
588
100
AcDbEntity
  8
R-DOOR-DETL
100
AcDbLine
 10
12.099749
 20
24.490382
 30
0.0
 11
12.165741
 21
24.490382
 31
0.0
  0
LINE
  5
589
100
AcDbEntity
  8
R-DOOR-DETL
  6
BYBLOCK
 62
     3
100
AcDbLine
 10
13.395873
 20
24.556171
 30
0.0
 11
13.319931
 21
24.633722
 31
0.0
  0
LINE
  5
58A
100
AcDbEntity
  8
R-DOOR-DETL
100
AcDbLine
 10
13.550741
 20
24.675382
 30
0.0
 11
13.550741
 21
24.505382
 31
0.0
  0
LINE
  5
58B
100
AcDbEntity
  8
R-DOOR-DETL
100
AcDbLine
 10
13.545741
 20
24.495382
 30
0.0
 11
13.545741
 21
24.765179
 31
0.0
  0
LINE
  5
58C
100
AcDbEntity
  8
R-DOOR-DETL
100
AcDbLine
 10
12.180741
 20
24.505382
 30
0.0
 11
12.180741
 21
24.675382
 31
0.0
  0
LINE
  5
58D
100
AcDbEntity
  8
R-DOOR-DETL
100
AcDbLine
 10
12.185741
 20
24.765179
 30
0.0
 11
12.185741
 21
24.495382
 31
0.0
  0
LINE
  5
58E
100
AcDbEntity
  8
R-DOOR-DETL
  6
BYBLOCK
 62
     3
100
AcDbLine
 10
13.214799
 20
24.60673
 30
0.0
 11
13.185609
 21
24.502187
 31
0.0
  0
LINE
  5
58F
100
AcDbEntity
  8
R-DOOR-DETL
  6
BYBLOCK
 62
     3
100
AcDbLine
 10
12.81147
 20
24.623179
 30
0.0
 11
12.757199
 21
24.529179
 31
0.0
  0
LINE
  5
590
100
AcDbEntity
  8
R-DOOR-DETL
  6
BYBLOCK
 62
     3
100
AcDbLine
 10
12.920012
 20
24.623179
 30
0.0
 11
12.974283
 21
24.529179
 31
0.0
  0
LINE
  5
591
100
AcDbEntity
  8
R-DOOR-DETL
  6
BYBLOCK
 62
     3
100
AcDbLine
 10
12.341869
 20
24.484395
 30
0.0
 11
12.352521
 21
24.592413
 31
0.0
  0
LINE
  5
592
100
AcDbEntity
  8
R-DOOR-DETL
100
AcDbLine
 10
12.019749
 20
25.784179
 30
0.0
 11
11.949749
 21
25.784179
 31
0.0
  0
ARC
  5
593
100
AcDbEntity
  8
R-DOOR-DETL
100
AcDbCircle
 10
11.949749
 20
25.769179
 30
0.0
 40
0.015
100
AcDbArc
 50
90.0
 51
180.0
  0
ARC
  5
594
100
AcDbEntity
  8
R-DOOR-DETL
100
AcDbCircle
 10
12.019749
 20
25.769179
 30
0.0
 40
0.015
100
AcDbArc
 50
0.0
 51
90.0
  0
LINE
  5
595
100
AcDbEntity
  8
R-DOOR-DETL
100
AcDbLine
 10
12.069749
 20
25.374179
 30
0.0
 11
12.049749
 21
25.374179
 31
0.0
  0
ARC
  5
596
100
AcDbEntity
  8
R-DOOR-DETL
100
AcDbCircle
 10
12.069749
 20
25.359179
 30
0.0
 40
0.015
100
AcDbArc
 50
0.0
 51
90.0
  0
ARC
  5
597
100
AcDbEntity
  8
R-DOOR-DETL
100
AcDbCircle
 10
12.049749
 20
25.389179
 30
0.0
 40
0.015
100
AcDbArc
 50
180.0
 51
270.0
  0
LINE
  5
598
100
AcDbEntity
  8
R-DOOR-DETL
100
AcDbLine
 10
12.034749
 20
25.389179
 30
0.0
 11
12.034749
 21
25.769179
 31
0.0
  0
LINE
  5
59B
100
AcDbEntity
  8
R-DOOR-DETL
100
AcDbLine
 10
13.646734
 20
25.359179
 30
0.0
 11
13.646734
 21
24.705382
 31
0.0
  0
POINT
  5
59E
100
AcDbEntity
  8
R-DOOR-DETL
  6
BYBLOCK
 62
     3
100
AcDbPoint
 10
13.746734
 20
25.784179
 30
0.0
  0
ARC
  5
59F
100
AcDbEntity
  8
R-DOOR-DETL
  6
BYBLOCK
 62
     3
100
AcDbCircle
 10
13.711734
 20
25.769179
 30
0.0
 40
0.015
100
AcDbArc
 50
90.0
 51
180.0
  0
LINE
  5
5A0
100
AcDbEntity
  8
R-DOOR-DETL
  6
BYBLOCK
 62
     3
100
AcDbLine
 10
13.781734
 20
25.784179
 30
0.0
 11
13.711734
 21
25.784179
 31
0.0
  0
ARC
  5
5A1
100
AcDbEntity
  8
R-DOOR-DETL
  6
BYBLOCK
 62
     3
100
AcDbCircle
 10
13.781734
 20
25.769179
 30
0.0
 40
0.015
100
AcDbArc
 50
0.0
 51
90.0
  0
ARC
  5
5A2
100
AcDbEntity
  8
R-DOOR-DETL
100
AcDbCircle
 10
13.661734
 20
25.359179
 30
0.0
 40
0.015
100
AcDbArc
 50
90.0
 51
180.0
  0
LINE
  5
5A3
100
AcDbEntity
  8
R-DOOR-DETL
100
AcDbLine
 10
13.681734
 20
25.374179
 30
0.0
 11
13.661734
 21
25.374179
 31
0.0
  0
ARC
  5
5A4
100
AcDbEntity
  8
R-DOOR-DETL
100
AcDbCircle
 10
13.681734
 20
25.389179
 30
0.0
 40
0.015
100
AcDbArc
 50
270.0
 51
0.0
  0
LINE
  5
5A5
100
AcDbEntity
  8
R-DOOR-DETL
100
AcDbLine
 10
13.696734
 20
25.769179
 30
0.0
 11
13.696734
 21
25.389179
 31
0.0
  0
LINE
  5
5A6
100
AcDbEntity
  8
R-DOOR-DETL
  6
BYBLOCK
 62
     3
100
AcDbLine
 10
13.856734
 20
25.784179
 30
0.0
 11
13.806734
 21
25.784179
 31
0.0
  0
LINE
  5
5A9
100
AcDbEntity
  8
0
100
AcDbLine
 10
15.865741
 20
26.034179
 30
0.0
 11
9.865741
 21
26.034179
 31
0.0
  0
POINT
  5
5AA
100
AcDbEntity
  8
DEFPOINTS
  6
BYBLOCK
 62
     0
100
AcDbPoint
 10
9.865741
 20
26.034179
 30
0.0
  0
LINE
  5
5AC
100
AcDbEntity
  8
R-DOOR-PATT
  6
CONTINUOUS
 62
     5
100
AcDbLine
 10
15.865741
 20
27.244999
 30
0.0
 11
14.654921
 21
26.034179
 31
0.0
  0
LINE
  5
5AD
100
AcDbEntity
  8
R-DOOR-PATT
  6
CONTINUOUS
 62
     5
100
AcDbLine
 10
15.865741
 20
26.803058
 30
0.0
 11
15.096863
 21
26.034179
 31
0.0
  0
LINE
  5
5AE
100
AcDbEntity
  8
R-DOOR-PATT
  6
CONTINUOUS
 62
     5
100
AcDbLine
 10
15.865741
 20
26.361116
 30
0.0
 11
15.538804
 21
26.034179
 31
0.0
  0
POINT
  5
5B0
100
AcDbEntity
  8
DEFPOINTS
  6
BYBLOCK
 62
     0
100
AcDbPoint
 10
15.865741
 20
26.034179
 30
0.0
  0
LINE
  5
5B1
100
AcDbEntity
  8
0
  6
BYBLOCK
 62
     0
100
AcDbLine
 10
15.975116
 20
26.034179
 30
0.0
 11
17.295048
 21
26.034179
 31
0.0
  0
SOLID
  5
5B2
100
AcDbEntity
  8
0
  6
BYBLOCK
 62
     0
100
AcDbTrace
 10
19.138037
 20
25.719179
 30
0.0
 11
19.243037
 21
25.719179
 31
0.0
 12
19.190537
 22
26.034179
 32
0.0
 13
19.190537
 23
26.034179
 33
0.0
  0
TEXT
  5
5B3
100
AcDbEntity
  8
DIMN
100
AcDbText
 10
2.383849
 20
30.134887
 30
0.0
 40
0.375
  1
INCREASES BY 1/2"[13mm] I.E. GLASS
100
AcDbText
  0
TEXT
  5
5B4
100
AcDbEntity
  8
DIMN
100
AcDbText
 10
2.428154
 20
29.515103
 30
0.0
 40
0.375
  1
IS CLEAR OPENING LESS 7"[178mm]
100
AcDbText
  0
LINE
  5
5B5
100
AcDbEntity
  8
R-DOOR-PATT
  6
CONTINUOUS
 62
     5
100
AcDbLine
 10
10.025795
 20
28.034179
 30
0.0
 11
9.865741
 21
27.874125
 31
0.0
  0
LINE
  5
5B6
100
AcDbEntity
  8
R-DOOR-PATT
  6
CONTINUOUS
 62
     5
100
AcDbLine
 10
10.467737
 20
28.034179
 30
0.0
 11
9.865741
 21
27.432184
 31
0.0
  0
TEXT
  5
5B7
100
AcDbEntity
  8
DIMN
100
AcDbText
 10
1.614107
 20
32.643894
 30
0.0
 40
0.375
  1
1. DIMENSIONS ARE THE SAME FOR
100
AcDbText
  0
TEXT
  5
5B8
100
AcDbEntity
  8
DIMN
100
AcDbText
 10
2.383849
 20
32.018894
 30
0.0
 40
0.375
  1
CLAD AND NON-CLAD RAILS
100
AcDbText
  0
TEXT
  5
5B9
100
AcDbEntity
  8
DIMN
100
AcDbText
 10
2.383849
 20
30.761367
 30
0.0
 40
0.375
  1
THE DIMENSION FROM FLOOR TO GLASS
100
AcDbText
  0
TEXT
  5
5BA
100
AcDbEntity
  8
DIMN
100
AcDbText
 10
1.512825
 20
31.397004
 30
0.0
 40
0.375
  1
2. IF 1/2"[13mm] THRESHOLD IS USED, 
100
AcDbText
  0
TEXT
  5
5BB
100
AcDbEntity
  8
DIMN
100
AcDbText
 10
1.614107
 20
33.268894
 30
0.0
 40
0.375
  1
NOTES:
100
AcDbText
  0
INSERT
  5
5E0
100
AcDbEntity
  8
0
100
AcDbBlockReference
  2
A$C46F93324
 10
0.197799
 20
0.217213
 30
0.0
  0
ARC
  5
798
100
AcDbEntity
  8
GREEN
  6
CONTINUOUS
100
AcDbCircle
 39
1.8
 10
21.3923
 20
29.776994
 30
0.0
 40
0.016501
100
AcDbArc
 50
252.745313
 51
1.373158
  0
LINE
  5
799
100
AcDbEntity
  8
GREEN
  6
CONTINUOUS
100
AcDbLine
 39
1.8
 10
21.408796
 20
30.379489
 30
0.0
 11
21.408796
 21
29.777389
 31
0.0
  0
ARC
  5
79A
100
AcDbEntity
  8
GREEN
  6
CONTINUOUS
100
AcDbCircle
 39
1.8
 10
21.359819
 20
30.395901
 30
0.0
 40
0.051654
100
AcDbArc
 50
341.47451
 51
98.091202
  0
LINE
  5
79B
100
AcDbEntity
  8
GREEN
  6
CONTINUOUS
100
AcDbLine
 39
1.8
 10
21.278357
 20
30.469124
 30
0.0
 11
21.352548
 21
30.447041
 31
0.0
  0
ARC
  5
79C
100
AcDbEntity
  8
GREEN
  6
CONTINUOUS
100
AcDbCircle
 39
1.8
 10
21.278357
 20
30.479249
 30
0.0
 40
0.010125
100
AcDbArc
 50
90.0
 51
270.0
  0
LINE
  5
79D
100
AcDbEntity
  8
GREEN
  6
CONTINUOUS
100
AcDbLine
 39
1.8
 10
21.292982
 20
30.489374
 30
0.0
 11
21.278357
 21
30.489374
 31
0.0
  0
LINE
  5
79E
100
AcDbEntity
  8
GREEN
  6
CONTINUOUS
100
AcDbLine
 39
1.8
 10
21.334269
 20
30.50859
 30
0.0
 11
21.292982
 21
30.489374
 31
0.0
  0
LINE
  5
79F
100
AcDbEntity
  8
GREEN
  6
CONTINUOUS
100
AcDbLine
 39
1.8
 10
21.322325
 20
30.51416
 30
0.0
 11
21.334269
 21
30.50859
 31
0.0
  0
ARC
  5
7A0
100
AcDbEntity
  8
GREEN
  6
CONTINUOUS
100
AcDbCircle
 39
1.8
 10
21.326129
 20
30.522316
 30
0.0
 40
0.009
100
AcDbArc
 50
90.0
 51
245.0
  0
LINE
  5
7A1
100
AcDbEntity
  8
GREEN
  6
CONTINUOUS
100
AcDbLine
 39
1.8
 10
21.439674
 20
30.465761
 30
0.0
 11
21.326129
 21
30.531316
 31
0.0
  0
ARC
  5
7A2
100
AcDbEntity
  8
GREEN
  6
CONTINUOUS
100
AcDbCircle
 39
1.8
 10
21.42568
 20
30.451767
 30
0.0
 40
0.01979
100
AcDbArc
 50
15.0
 51
45.0
  0
LINE
  5
7A3
100
AcDbEntity
  8
GREEN
  6
CONTINUOUS
100
AcDbLine
 39
1.8
 10
21.444796
 20
29.676139
 30
0.0
 11
21.444796
 21
30.456889
 31
0.0
  0
LINE
  5
7A4
100
AcDbEntity
  8
GREEN
  6
CONTINUOUS
100
AcDbLine
 39
1.8
 10
19.691094
 20
30.688639
 30
0.0
 11
21.444796
 21
29.676139
 31
0.0
  0
LINE
  5
7A5
100
AcDbEntity
  8
GREEN
  6
CONTINUOUS
100
AcDbLine
 39
1.8
 10
21.387405
 20
29.761236
 30
0.0
 11
19.793485
 21
30.681486
 31
0.0
  0
LINE
  5
7A6
100
AcDbEntity
  8
GREEN
  6
CONTINUOUS
100
AcDbLine
 39
1.8
 10
19.691094
 20
31.469389
 30
0.0
 11
19.691094
 21
30.688639
 31
0.0
  0
ARC
  5
7A7
100
AcDbEntity
  8
GREEN
  6
CONTINUOUS
100
AcDbCircle
 39
1.8
 10
19.697844
 20
31.469389
 30
0.0
 40
0.00675
100
AcDbArc
 50
90.0
 51
180.0
  0
LINE
  5
7A8
100
AcDbEntity
  8
GREEN
  6
CONTINUOUS
100
AcDbLine
 39
1.8
 10
19.810359
 20
31.409554
 30
0.0
 11
19.697844
 21
31.476139
 31
0.0
  0
ARC
  5
7A9
100
AcDbEntity
  8
GREEN
  6
CONTINUOUS
100
AcDbCircle
 39
1.8
 10
19.805859
 20
31.40176
 30
0.0
 40
0.009
100
AcDbArc
 50
265.0
 51
60.0
  0
LINE
  5
7AA
100
AcDbEntity
  8
GREEN
  6
CONTINUOUS
100
AcDbLine
 39
1.8
 10
19.791946
 20
31.393943
 30
0.0
 11
19.805074
 21
31.392794
 31
0.0
  0
LINE
  5
7AB
100
AcDbEntity
  8
GREEN
  6
CONTINUOUS
100
AcDbLine
 39
1.8
 10
19.783278
 20
31.375792
 30
0.0
 11
19.791946
 21
31.393943
 31
0.0
  0
LINE
  5
7AC
100
AcDbEntity
  8
GREEN
  6
CONTINUOUS
100
AcDbLine
 39
1.8
 10
19.795944
 20
31.351709
 30
0.0
 11
19.783278
 21
31.375792
 31
0.0
  0
ARC
  5
7AD
100
AcDbEntity
  8
GREEN
  6
CONTINUOUS
100
AcDbCircle
 39
1.8
 10
19.790881
 20
31.34294
 30
0.0
 40
0.010125
100
AcDbArc
 50
240.0
 51
60.0
  0
LINE
  5
7AE
100
AcDbEntity
  8
GREEN
  6
CONTINUOUS
100
AcDbLine
 39
1.8
 10
19.740344
 20
31.376303
 30
0.0
 11
19.785819
 21
31.334172
 31
0.0
  0
ARC
  5
7AF
100
AcDbEntity
  8
GREEN
  6
CONTINUOUS
100
AcDbCircle
 39
1.8
 10
19.733715
 20
31.374843
 30
0.0
 40
0.006787
100
AcDbArc
 50
12.423788
 51
197.604591
  0
LINE
  5
7B0
100
AcDbEntity
  8
GREEN
  6
CONTINUOUS
100
AcDbLine
 39
1.8
 10
19.727094
 20
30.789889
 30
0.0
 11
19.727246
 21
31.37279
 31
0.0
  0
ARC
  5
7B1
100
AcDbEntity
  8
GREEN
  6
CONTINUOUS
100
AcDbCircle
 39
1.8
 10
19.866844
 20
30.800945
 30
0.0
 40
0.140186
100
AcDbArc
 50
184.523413
 51
238.446514
  0
LINE
  5
7B2
100
AcDbEntity
  8
2
  6
CONTINUOUS
 62
     4
100
AcDbLine
 10
20.805052
 20
30.87646
 30
0.0
 11
21.194764
 21
30.65146
 31
0.0
  0
LINE
  5
7B3
100
AcDbEntity
  8
2
  6
CONTINUOUS
 62
     4
100
AcDbLine
 10
20.805052
 20
30.86746
 30
0.0
 11
21.194764
 21
30.64246
 31
0.0
  0
LINE
  5
7B4
100
AcDbEntity
  8
2
  6
CONTINUOUS
 62
     4
100
AcDbLine
 10
21.387601
 20
31.212794
 30
0.0
 11
20.805052
 21
30.87646
 31
0.0
  0
MTEXT
  5
7B5
100
AcDbEntity
  8
2
  6
CONTINUOUS
 62
     9
100
AcDbMText
 10
19.651664
 20
28.763291
 30
0.0
 40
0.6939
 41
4.9041
 71
     1
 72
     5
  1
\fArial|b1|i0|c0|p34;\C7;C L A D
  7
ROMANS
  0
LWPOLYLINE
  5
7B6
102
{ACAD_REACTORS
330
7F2
102
}
100
AcDbEntity
  8
1
  6
CONTINUOUS
 62
     5
100
AcDbPolyline
 90
        2
 70
     0
 43
0.0225
 10
21.588903
 20
33.140275
 42
70374.114908
 10
21.589022
 20
33.14026
 42
70374.114908
  0
HATCH
  5
7B7
100
AcDbEntity
  8
1
  6
CONTINUOUS
 62
     5
100
AcDbHatch
 10
0.0
 20
0.0
 30
0.0
210
0.0
220
0.0
230
1.0
  2
SOLID
 70
     1
 71
     0
 91
        7
 92
        7
 72
     1
 73
     1
 93
        4
 10
21.60585327561916
 20
33.13776209842357
 42
0.003817909443379
 10
21.57382353409359
 20
33.1417697185317
 42
0.0
 10
19.71910412683467
 20
32.07094696947954
 42
0.0
 10
19.73858969841982
 20
32.05969696947954
 42
0.0
 97
        0
 92
        7
 72
     0
 73
     1
 93
        4
 10
19.73858969841982
 20
32.05969696947954
 10
19.71910412683467
 20
32.07094696947954
 10
19.71910412683467
 20
31.48841369202214
 10
19.73858969841982
 20
31.49966369202214
 97
        0
 92
        7
 72
     0
 73
     1
 93
        4
 10
20.0567345667489
 20
32.00312661210059
 10
20.0567345667489
 20
31.98062661210059
 10
21.84161292394863
 20
30.96137661210059
 10
21.84161292394863
 20
30.97262661210058
 97
        0
 92
        7
 72
     1
 73
     1
 93
        4
 10
23.30306121950283
 20
31.79389417894553
 42
0.002332807343841
 10
23.29596353198985
 20
31.81229632714928
 42
0.0
 10
21.84161292394863
 20
30.97262661210058
 42
0.0
 10
21.84161292394863
 20
30.95012661210059
 42
0.0
 97
        0
 92
        7
 72
     1
 73
     1
 93
        4
 10
23.41669873298172
 20
31.36296690169345
 42
0.0024685623280776
 10
23.41343218773616
 20
31.38358096091661
 42
0.0
 10
22.16154458239883
 20
30.66080331497994
 42
0.0
 10
22.18103015398399
 20
30.64955331497994
 42
0.0
 97
        0
 92
        7
 72
     1
 73
     1
 93
        8
 10
22.18103015398399
 20
30.64955331497994
 42
0.0
 10
22.16154458239883
 20
30.66080331497994
 42
0.0
 10
22.16154458239883
 20
29.82918600088213
 42
-0.5773502691896262
 10
22.14129458239884
 20
29.81749465793103
 42
0.0
 10
21.99007155244952
 20
29.90480331497995
 42
0.0
 10
21.99007155244952
 20
29.88230331497994
 42
0.0
 10
22.13715515398398
 20
29.79738455804064
 42
0.577350269189633
 10
22.18103015398399
 20
29.82271580110133
 42
0.0
 97
        0
 92
        7
 72
     0
 73
     1
 93
        3
 10
20.05673456674891
 20
31.98062661210057
 10
21.84161292394863
 20
30.95012661210059
 10
21.84161292394863
 20
30.96137661210059
 97
        0
 75
     0
 76
     1
 47
0.006507
 98
        7
 10
19.761165
 20
32.086338
 10
19.728486
 20
32.033805
 10
20.069487
 20
31.988372
 10
21.976246
 20
31.043062
 10
22.348417
 20
30.76194
 10
22.172588
 20
30.595024
 10
21.785765
 20
30.990351
  0
HATCH
  5
7B8
100
AcDbEntity
  8
1
  6
CONTINUOUS
 62
     5
100
AcDbHatch
 10
0.0
 20
0.0
 30
0.0
210
0.0
220
0.0
230
1.0
  2
SOLID
 70
     1
 71
     0
 91
        7
 92
        7
 72
     1
 73
     1
 93
        4
 10
21.60585327561916
 20
33.13776209842357
 42
0.003817909443379
 10
21.57382353409359
 20
33.1417697185317
 42
0.0
 10
19.71910412683467
 20
32.07094696947954
 42
0.0
 10
19.73858969841982
 20
32.05969696947954
 42
0.0
 97
        0
 92
        7
 72
     0
 73
     1
 93
        4
 10
19.73858969841982
 20
32.05969696947954
 10
19.71910412683467
 20
32.07094696947954
 10
19.71910412683467
 20
31.48841369202214
 10
19.73858969841982
 20
31.49966369202213
 97
        0
 92
        7
 72
     0
 73
     1
 93
        4
 10
20.0567345667489
 20
32.00312661210059
 10
20.0567345667489
 20
31.98062661210059
 10
21.84161292394863
 20
30.96137661210059
 10
21.84161292394863
 20
30.97262661210058
 97
        0
 92
        7
 72
     1
 73
     1
 93
        4
 10
23.30306121950283
 20
31.79389417894553
 42
0.002332807343841
 10
23.29596353198985
 20
31.81229632714928
 42
0.0
 10
21.84161292394863
 20
30.97262661210058
 42
0.0
 10
21.84161292394863
 20
30.95012661210059
 42
0.0
 97
        0
 92
        7
 72
     1
 73
     1
 93
        4
 10
23.41669873298172
 20
31.36296690169345
 42
0.0024685623280776
 10
23.41343218773616
 20
31.38358096091661
 42
0.0
 10
22.16154458239883
 20
30.66080331497994
 42
0.0
 10
22.18103015398399
 20
30.64955331497994
 42
0.0
 97
        0
 92
        7
 72
     1
 73
     1
 93
        8
 10
22.18103015398399
 20
30.64955331497994
 42
0.0
 10
22.16154458239883
 20
30.66080331497994
 42
0.0
 10
22.16154458239883
 20
29.82918600088213
 42
-0.5773502691896262
 10
22.14129458239884
 20
29.81749465793103
 42
0.0
 10
21.99007155244952
 20
29.90480331497995
 42
0.0
 10
21.99007155244952
 20
29.88230331497994
 42
0.0
 10
22.13715515398398
 20
29.79738455804064
 42
0.577350269189633
 10
22.18103015398399
 20
29.82271580110133
 42
0.0
 97
        0
 92
        7
 72
     0
 73
     1
 93
        3
 10
20.05673456674891
 20
31.98062661210057
 10
21.84161292394863
 20
30.95012661210059
 10
21.84161292394863
 20
30.96137661210059
 97
        0
 75
     0
 76
     1
 47
0.006507
 98
        7
 10
19.761165
 20
32.086338
 10
19.728486
 20
32.033805
 10
20.069487
 20
31.988372
 10
21.976246
 20
31.043062
 10
22.348417
 20
30.76194
 10
22.172588
 20
30.595024
 10
21.785765
 20
30.990351
  0
HATCH
  5
7B9
100
AcDbEntity
  8
2
  6
CONTINUOUS
 62
     9
100
AcDbHatch
 10
0.0
 20
0.0
 30
0.0
210
0.0
220
0.0
230
1.0
  2
SOLID
 70
     1
 71
     0
 91
        2
 92
       23
 72
     1
 73
     1
 93
       20
 10
21.2801630089534
 20
30.51615749729585
 42
0.0
 10
21.27464586610006
 20
30.50660152556124
 42
0.6681786379192962
 10
21.28730036615003
 20
30.49010986001549
 42
0.0
 10
21.31499690818608
 20
30.49753112608717
 42
0.6681786379192695
 10
21.31716753678016
 20
30.51401868715784
 42
0.0
 10
21.31015355059503
 20
30.51806821396993
 42
-0.6681786379192408
 10
21.31123886489207
 20
30.52631199450526
 42
0.0
 10
21.3231602085157
 20
30.5295063089019
 42
0.6681786379193185
 10
21.32370286566423
 20
30.53362819916957
 42
0.0
 10
20.97740415644767
 20
30.73356385215576
 42
0.0
 10
19.81582913210846
 20
31.40419950514195
 42
0.668178637919208
 10
19.81253079899931
 20
31.40166860513196
 42
0.0
 10
19.81572511339596
 20
31.38974726150832
 42
-0.6681786379193225
 10
19.80912844717765
 20
31.38468546148833
 42
0.0
 10
19.80211446099252
 20
31.38873498830041
 42
0.6681786379193126
 10
19.78892112855592
 20
31.37861138826043
 42
0.0
 10
19.79634239462761
 20
31.35091484622438
 42
0.6681786379193007
 10
19.81695184596595
 20
31.34820156048178
 42
0.0
 10
19.82246898881929
 20
31.35775753221639
 42
0.0
 10
20.00221259161683
 20
31.25398251475611
 42
0.0
 97
        0
 92
        7
 72
     1
 73
     1
 93
       37
 10
19.69784449854297
 20
31.47613943990505
 42
0.4142135623731299
 10
19.69109449854297
 20
31.46938943990506
 42
0.0
 10
19.69109449854297
 20
30.68863943990505
 42
0.0
 10
21.44479594120646
 20
29.67613943990506
 42
0.0
 10
21.44479594120647
 20
30.45688943990505
 42
0.1316524975873667
 10
21.43967391265201
 20
30.46576105359917
 42
0.0
 10
21.32612880480822
 20
30.53131635217794
 42
0.0376464264871547
 10
21.32477928215952
 20
30.5312145985569
 42
-0.2823673447488831
 10
21.3231602085157
 20
30.5295063089019
 42
0.0
 10
21.31965311308944
 20
30.52856658551466
 42
0.5149511874561723
 10
21.32232524045256
 20
30.51415958209461
 42
0.0
 10
21.33426930083476
 20
30.50858997526892
 42
0.0
 10
21.32077035827546
 20
30.50230728048144
 42
-0.2180320882791709
 10
21.31499690818608
 20
30.49753112608717
 42
0.0
 10
21.30441785219022
 20
30.49469647657641
 42
0.0
 10
21.29298201409965
 20
30.48937399446
 42
0.0
 10
21.27835701409965
 20
30.48937399446
 42
1.0
 10
21.27835701409965
 20
30.46912399446001
 42
0.0
 10
21.35254845361089
 20
30.4470408613345
 42
-0.5578319223640622
 10
21.40879594120646
 20
30.37948943990507
 42
0.0
 10
21.40879594120646
 20
29.77738943990505
 42
-0.5129809895031772
 10
21.38740509770734
 20
29.76123558307535
 42
0.0
 10
19.79348534204208
 20
30.68148558307536
 42
-0.2397239142270584
 10
19.72709449854297
 20
30.78988943990506
 42
0.0
 10
19.72724571081578
 20
31.37279006162076
 42
-1.046264757040728
 10
19.74034357190056
 20
31.37630309973045
 42
0.0
 10
19.78581893722737
 20
31.3341718441161
 42
0.6309633877406034
 10
19.80088173465053
 20
31.34452454716594
 42
-0.1798205534880095
 10
19.79634239462761
 20
31.35091484622438
 42
0.0
 10
19.79632252955651
 20
31.35098898367902
 42
0.0
 10
19.78327831569702
 20
31.37579192064216
 42
0.0
 10
19.79194558663091
 20
31.39394257938341
 42
0.0
 10
19.80507424975908
 20
31.39279397019244
 42
0.293926452988122
 10
19.81369323143669
 20
31.39733034821528
 42
0.0
 10
19.81253079899931
 20
31.40166860513196
 42
-0.4565659268922137
 10
19.81443613598114
 20
31.40448493054285
 42
0.1814616707363846
 10
19.81052543528651
 20
31.40945524900472
 42
0.0
 97
        0
 75
     0
 76
     1
 47
0.011788
 98
        2
 10
20.031861
 20
31.253913
 10
19.761143
 20
31.413047
  0
LINE
  5
7BA
100
AcDbEntity
  8
1
  6
CONTINUOUS
100
AcDbLine
 39
0.09
 10
20.056735
 20
32.003127
 30
0.0
 11
21.841613
 21
30.972627
 31
0.0
  0
LINE
  5
7BB
100
AcDbEntity
  8
1
  6
CONTINUOUS
100
AcDbLine
 39
0.09
 10
20.056735
 20
31.980627
 30
0.0
 11
21.841613
 21
30.950127
 31
0.0
  0
LINE
  5
7BC
100
AcDbEntity
  8
1
  6
CONTINUOUS
100
AcDbLine
 10
20.056735
 20
31.980627
 30
0.0
 11
21.841613
 21
30.961377
 31
0.0
  0
LINE
  5
7BD
100
AcDbEntity
  8
1
  6
CONTINUOUS
 62
     5
100
AcDbLine
 39
0.09
 10
20.056735
 20
32.003127
 30
0.0
 11
21.841613
 21
30.972627
 31
0.0
  0
LINE
  5
7BE
100
AcDbEntity
  8
1
  6
CONTINUOUS
 62
     5
100
AcDbLine
 39
0.09
 10
20.056735
 20
31.980627
 30
0.0
 11
21.841613
 21
30.950127
 31
0.0
  0
LINE
  5
7BF
100
AcDbEntity
  8
1
  6
CONTINUOUS
 62
     5
100
AcDbLine
 10
19.719104
 20
32.070947
 30
0.0
 11
21.573824
 21
33.14177
 31
0.0
  0
LINE
  5
7C0
100
AcDbEntity
  8
1
  6
CONTINUOUS
100
AcDbLine
 10
19.73859
 20
32.059697
 30
0.0
 11
21.605853
 21
33.137762
 31
0.0
  0
LINE
  5
7C1
100
AcDbEntity
  8
1
  6
CONTINUOUS
 62
     5
100
AcDbLine
 10
19.719104
 20
32.070947
 30
0.0
 11
21.573824
 21
33.14177
 31
0.0
  0
LINE
  5
7C2
100
AcDbEntity
  8
1
  6
CONTINUOUS
 62
     5
100
AcDbLine
 10
19.73859
 20
32.059697
 30
0.0
 11
21.605853
 21
33.137762
 31
0.0
  0
LINE
  5
7C3
100
AcDbEntity
  8
1
  6
CONTINUOUS
 62
     5
100
AcDbLine
 10
20.058985
 20
31.999229
 30
0.0
 11
21.913639
 21
33.070015
 31
0.0
  0
HATCH
  5
7C4
100
AcDbEntity
  8
2
  6
CONTINUOUS
 62
     9
100
AcDbHatch
 10
0.0
 20
0.0
 30
0.0
210
0.0
220
0.0
230
1.0
  2
ANSI31
 70
     0
 71
     0
 91
        1
 92
        7
 72
     1
 73
     1
 93
        8
 10
21.91605997137883
 20
33.07297132827889
 42
0.0
 10
21.91296379307065
 20
33.0711837488992
 42
0.0
 10
21.91318879307066
 20
33.0707940374675
 42
0.0
 10
21.91341379307065
 20
33.0704043260358
 42
0.0
 10
21.91363879307066
 20
33.07001461460409
 42
0.0
 10
20.06123456674891
 20
32.00052853588923
 42
0.0
 10
21.84161292394863
 20
30.97262661210058
 42
0.0
 10
23.29643426839181
 20
31.81256810693767
 42
0.2330962772361932
 97
        0
 75
     0
 76
     1
 52
0.0
 41
0.05
 77
     0
 78
     1
 53
45.0
 43
-2.869635
 44
-2.287775
 45
-0.0044194173824159
 46
0.0044194173824159
 79
     0
 47
0.017346
 98
        1
 10
21.723074
 20
32.133707
  0
HATCH
  5
7C5
100
AcDbEntity
  8
2
  6
CONTINUOUS
 62
     9
100
AcDbHatch
 10
0.0
 20
0.0
 30
0.0
210
0.0
220
0.0
230
1.0
  2
ANSI31
 70
     0
 71
     0
 91
        1
 92
        7
 72
     1
 73
     1
 93
        7
 10
20.0567345667489
 20
31.98062661210059
 42
0.0
 10
20.0567345667489
 20
32.00312661210059
 42
0.0
 10
21.91185952947253
 20
33.07418350870947
 42
0.0369683020279065
 10
21.60632401202135
 20
33.13803387821209
 42
0.0
 10
19.73858969841982
 20
32.05969696947954
 42
0.0
 10
19.73858969841982
 20
31.49966369202213
 42
0.0
 10
20.31418823965065
 20
31.83198566474691
 42
0.0
 97
        0
 75
     0
 76
     1
 52
0.0
 41
0.05
 77
     0
 78
     1
 53
45.0
 43
-2.869635
 44
-2.287775
 45
-0.0044194173824159
 46
0.0044194173824159
 79
     0
 47
0.022773
 98
        1
 10
20.009169
 20
31.932666
  0
LINE
  5
7C6
100
AcDbEntity
  8
1
  6
CONTINUOUS
100
AcDbLine
 10
20.056735
 20
31.980627
 30
0.0
 11
21.841613
 21
30.961377
 31
0.0
  0
LWPOLYLINE
  5
7C7
100
AcDbEntity
  8
1
100
AcDbPolyline
 90
        2
 70
     0
 43
0.01
 10
20.056735
 20
32.003127
 10
21.911389
 20
33.073912
  0
LINE
  5
7C8
100
AcDbEntity
  8
0
 62
     3
100
AcDbLine
 10
19.815829
 20
31.4042
 30
0.0
 11
20.977404
 21
30.733564
 31
0.0
  0
LINE
  5
7C9
100
AcDbEntity
  8
2
  6
CONTINUOUS
 62
     4
100
AcDbLine
 10
20.997889
 20
31.437794
 30
0.0
 11
20.415341
 21
31.10146
 31
0.0
  0
LINE
  5
7CA
100
AcDbEntity
  8
2
  6
CONTINUOUS
 62
     4
100
AcDbLine
 10
21.005684
 20
31.433294
 30
0.0
 11
20.415341
 21
31.09246
 31
0.0
  0
LINE
  5
7CB
100
AcDbEntity
  8
0
 62
     3
100
AcDbLine
 10
21.280163
 20
30.516157
 30
0.0
 11
20.002213
 21
31.253983
 31
0.0
  0
LINE
  5
7CC
100
AcDbEntity
  8
1
  6
CONTINUOUS
 62
     5
100
AcDbLine
 39
0.09
 10
20.056735
 20
32.003127
 30
0.0
 11
20.056735
 21
31.980627
 31
0.0
  0
LINE
  5
7CD
100
AcDbEntity
  8
1
  6
CONTINUOUS
 62
     5
100
AcDbLine
 39
0.09
 10
20.056735
 20
32.003127
 30
0.0
 11
20.056735
 21
31.980627
 31
0.0
  0
LINE
  5
7CE
100
AcDbEntity
  8
GREEN
100
AcDbLine
 10
19.813938
 20
31.405725
 30
0.0
 11
20.433686
 21
31.763537
 31
0.0
  0
LINE
  5
7CF
100
AcDbEntity
  8
GREEN
100
AcDbLine
 10
19.697844
 20
31.476139
 30
0.0
 11
20.314659
 21
31.832257
 31
0.0
  0
LINE
  5
7D0
100
AcDbEntity
  8
0
 62
     3
100
AcDbLine
 10
20.002213
 20
31.253983
 30
0.0
 11
19.822469
 21
31.357758
 31
0.0
  0
LINE
  5
7D1
100
AcDbEntity
  8
1
  6
CONTINUOUS
 62
     5
100
AcDbLine
 10
19.719104
 20
31.488414
 30
0.0
 11
19.719104
 21
32.070947
 31
0.0
  0
LINE
  5
7D2
100
AcDbEntity
  8
1
  6
CONTINUOUS
 62
     5
100
AcDbLine
 10
19.719104
 20
31.488414
 30
0.0
 11
19.719104
 21
32.070947
 31
0.0
  0
LINE
  5
7D3
100
AcDbEntity
  8
1
  6
CONTINUOUS
 62
     5
100
AcDbLine
 10
19.73859
 20
31.499664
 30
0.0
 11
19.73859
 21
32.059697
 31
0.0
  0
LINE
  5
7D4
100
AcDbEntity
  8
1
  6
CONTINUOUS
 62
     5
100
AcDbLine
 10
19.73859
 20
31.499664
 30
0.0
 11
19.73859
 21
32.059697
 31
0.0
  0
LINE
  5
7D5
100
AcDbEntity
  8
0
 62
     3
100
AcDbLine
 10
19.815725
 20
31.389747
 30
0.0
 11
19.812531
 21
31.401669
 31
0.0
  0
LINE
  5
7D6
100
AcDbEntity
  8
0
 62
     3
100
AcDbLine
 10
19.822469
 20
31.357758
 30
0.0
 11
19.816952
 21
31.348202
 31
0.0
  0
ARC
  5
7D7
100
AcDbEntity
  8
0
 62
     3
100
AcDbCircle
 10
19.811378
 20
31.388583
 30
0.0
 40
0.0045
100
AcDbArc
 50
240.0
 51
15.0
  0
ARC
  5
7D8
100
AcDbEntity
  8
0
 62
     3
100
AcDbCircle
 10
19.814704
 20
31.402251
 30
0.0
 40
0.00225
100
AcDbArc
 50
60.0
 51
195.0
  0
LINE
  5
7D9
100
AcDbEntity
  8
0
 62
     3
100
AcDbLine
 10
19.796342
 20
31.350915
 30
0.0
 11
19.788921
 21
31.378611
 31
0.0
  0
ARC
  5
7DA
100
AcDbEntity
  8
0
 62
     3
100
AcDbCircle
 10
19.797614
 20
31.380941
 30
0.0
 40
0.009
100
AcDbArc
 50
60.0
 51
195.0
  0
ARC
  5
7DB
100
AcDbEntity
  8
0
 62
     3
100
AcDbCircle
 10
19.807209
 20
31.353827
 30
0.0
 40
0.01125
100
AcDbArc
 50
195.0
 51
330.0
  0
LINE
  5
7DC
100
AcDbEntity
  8
0
 62
     3
100
AcDbLine
 10
19.802114
 20
31.388735
 30
0.0
 11
19.809128
 21
31.384685
 31
0.0
  0
LINE
  5
7DD
100
AcDbEntity
  8
1
  6
CONTINUOUS
 62
     5
100
AcDbLine
 10
19.719104
 20
32.070947
 30
0.0
 11
19.73859
 21
32.059697
 31
0.0
  0
LINE
  5
7DE
100
AcDbEntity
  8
1
  6
CONTINUOUS
 62
     5
100
AcDbLine
 10
19.719104
 20
32.070947
 30
0.0
 11
19.73859
 21
32.059697
 31
0.0
  0
LINE
  5
7DF
100
AcDbEntity
  8
2
  6
CONTINUOUS
 62
     4
100
AcDbLine
 10
20.025629
 20
31.32646
 30
0.0
 11
20.415341
 21
31.10146
 31
0.0
  0
LINE
  5
7E0
100
AcDbEntity
  8
2
  6
CONTINUOUS
 62
     4
100
AcDbLine
 10
20.025629
 20
31.31746
 30
0.0
 11
20.415341
 21
31.09246
 31
0.0
  0
LINE
  5
7E1
100
AcDbEntity
  8
2
  6
CONTINUOUS
 62
     4
100
AcDbLine
 10
20.608178
 20
31.662794
 30
0.0
 11
20.025629
 21
31.32646
 31
0.0
  0
LINE
  5
7E2
100
AcDbEntity
  8
2
  6
CONTINUOUS
 62
     4
100
AcDbLine
 10
20.025629
 20
31.32646
 30
0.0
 11
20.025629
 21
31.31746
 31
0.0
  0
LINE
  5
7E3
100
AcDbEntity
  8
2
  6
CONTINUOUS
 62
     4
100
AcDbLine
 10
20.415341
 20
31.10146
 30
0.0
 11
20.415341
 21
31.09246
 31
0.0
  0
LINE
  5
7E4
100
AcDbEntity
  8
2
  6
CONTINUOUS
 62
     4
100
AcDbLine
 10
20.805052
 20
30.87646
 30
0.0
 11
20.805052
 21
30.86746
 31
0.0
  0
LINE
  5
7E5
100
AcDbEntity
  8
1
  6
CONTINUOUS
 62
     5
100
AcDbLine
 10
20.056735
 20
32.003127
 30
0.0
 11
20.056735
 21
31.980627
 31
0.0
  0
LINE
  5
7E6
100
AcDbEntity
  8
1
  6
CONTINUOUS
 62
     5
100
AcDbLine
 10
20.056735
 20
32.003127
 30
0.0
 11
20.056735
 21
31.980627
 31
0.0
  0
LINE
  5
7E7
100
AcDbEntity
  8
1
  6
CONTINUOUS
100
AcDbLine
 39
0.09
 10
21.841613
 20
30.972627
 30
0.0
 11
21.841613
 21
30.950127
 31
0.0
  0
LINE
  5
7E8
100
AcDbEntity
  8
GREEN
100
AcDbLine
 10
21.321763
 20
30.530187
 30
0.0
 11
23.338583
 21
31.694598
 31
0.0
  0
LINE
  5
7E9
100
AcDbEntity
  8
1
  6
CONTINUOUS
 62
     5
100
AcDbLine
 10
22.161545
 20
30.660803
 30
0.0
 11
23.413432
 21
31.383581
 31
0.0
  0
LINE
  5
7EA
102
{ACAD_REACTORS
330
7F2
102
}
100
AcDbEntity
  8
1
  6
CONTINUOUS
 62
     5
100
AcDbLine
 10
22.18103
 20
30.649553
 30
0.0
 11
23.416699
 21
31.362967
 31
0.0
  0
LINE
  5
7EB
100
AcDbEntity
  8
2
  6
CONTINUOUS
 62
     4
100
AcDbLine
 10
21.480488
 20
30.300913
 30
0.0
 11
23.408717
 21
31.414176
 31
0.0
  0
LINE
  5
7EC
100
AcDbEntity
  8
2
  6
CONTINUOUS
 62
     4
100
AcDbLine
 10
21.496077
 20
30.291913
 30
0.0
 11
23.41157
 21
31.397823
 31
0.0
  0
LINE
  5
7ED
100
AcDbEntity
  8
GREEN
100
AcDbLine
 10
21.444796
 20
30.456889
 30
0.0
 11
23.374527
 21
31.57102
 31
0.0
  0
LINE
  5
7EE
100
AcDbEntity
  8
1
  6
CONTINUOUS
100
AcDbLine
 10
21.841613
 20
30.950127
 30
0.0
 11
23.303061
 21
31.793894
 31
0.0
  0
LINE
  5
7EF
100
AcDbEntity
  8
1
  6
CONTINUOUS
100
AcDbLine
 10
21.841613
 20
30.972627
 30
0.0
 11
23.295964
 21
31.812296
 31
0.0
  0
LINE
  5
7F0
100
AcDbEntity
  8
1
  6
CONTINUOUS
 62
     5
100
AcDbLine
 10
22.166405
 20
29.797385
 30
0.0
 11
23.367963
 21
30.491104
 31
0.0
  0
LWPOLYLINE
  5
7F1
102
{ACAD_REACTORS
330
7F2
102
}
100
AcDbEntity
  8
1
  6
CONTINUOUS
 62
     5
100
AcDbPolyline
 90
        2
 70
     0
 43
0.009
 10
22.165916
 20
29.802273
 10
23.367473
 20
30.495993
  0
HATCH
  5
7F2
100
AcDbEntity
  8
2
  6
CONTINUOUS
 62
     9
100
AcDbHatch
 10
0.0
 20
0.0
 30
0.0
210
0.0
220
0.0
230
1.0
  2
ANSI31
 70
     0
 71
     1
 91
        2
 92
        7
 72
     1
 73
     1
 93
        5
 10
22.18103015398399
 20
30.64955331497994
 42
0.0
 10
22.18103015398399
 20
29.82271580110133
 42
-0.1222318301882716
 10
22.17763622134976
 20
29.80904004589818
 42
0.0
 10
23.37007733084662
 20
30.49749624145897
 42
0.1036486555305342
 10
23.41716946923774
 20
31.36323868139759
 42
0.0
 97
        5
330
7EA
330
7F6
330
7FE
330
7F1
330
7B6
 92
        7
 72
     1
 73
     1
 93
        4
 10
22.14129458239884
 20
29.81749465793103
 42
0.5773502691893225
 10
22.16154458239883
 20
29.82918600088212
 42
0.0
 10
22.16154458239883
 20
29.99863333703817
 42
0.0
 10
21.99454888468409
 20
29.90221832600906
 42
0.0
 97
        4
330
804
330
802
330
808
330
7F4
 75
     0
 76
     1
 52
0.0
 41
0.05
 77
     0
 78
     1
 53
45.0
 43
-2.869635
 44
-2.287775
 45
-0.0044194173824159
 46
0.0044194173824159
 79
     0
 47
0.022773
 98
        2
 10
22.788245
 20
30.62097
 10
22.101167
 20
29.893388
  0
LINE
  5
7F3
100
AcDbEntity
  8
1
  6
CONTINUOUS
 62
     5
100
AcDbLine
 10
22.161545
 20
29.829186
 30
0.0
 11
22.161545
 21
30.660803
 31
0.0
  0
LINE
  5
7F4
102
{ACAD_REACTORS
330
7F2
102
}
100
AcDbEntity
  8
1
  6
CONTINUOUS
 62
     5
100
AcDbLine
 10
22.161545
 20
29.829186
 30
0.0
 11
22.161545
 21
30.660803
 31
0.0
  0
LINE
  5
7F5
100
AcDbEntity
  8
1
  6
CONTINUOUS
 62
     5
100
AcDbLine
 10
22.18103
 20
29.822716
 30
0.0
 11
22.18103
 21
30.649553
 31
0.0
  0
LINE
  5
7F6
102
{ACAD_REACTORS
330
7F2
102
}
100
AcDbEntity
  8
1
  6
CONTINUOUS
 62
     5
100
AcDbLine
 10
22.18103
 20
29.822716
 30
0.0
 11
22.18103
 21
30.649553
 31
0.0
  0
LINE
  5
7F7
100
AcDbEntity
  8
GREEN
100
AcDbLine
 10
21.444796
 20
29.676139
 30
0.0
 11
22.162015
 21
30.090226
 31
0.0
  0
LINE
  5
7F8
100
AcDbEntity
  8
2
  6
CONTINUOUS
 62
     4
100
AcDbLine
 10
21.496077
 20
29.841913
 30
0.0
 11
22.162015
 21
30.226392
 31
0.0
  0
LINE
  5
7F9
100
AcDbEntity
  8
2
  6
CONTINUOUS
 62
     4
100
AcDbLine
 10
21.480488
 20
30.300913
 30
0.0
 11
21.496077
 21
30.291913
 31
0.0
  0
LINE
  5
7FA
100
AcDbEntity
  8
2
  6
CONTINUOUS
 62
     4
100
AcDbLine
 10
21.480488
 20
29.850913
 30
0.0
 11
21.496077
 21
29.841913
 31
0.0
  0
LINE
  5
7FB
100
AcDbEntity
  8
2
  6
CONTINUOUS
 62
     4
100
AcDbLine
 10
21.480488
 20
30.300913
 30
0.0
 11
21.480488
 21
29.850913
 31
0.0
  0
LINE
  5
7FC
100
AcDbEntity
  8
2
  6
CONTINUOUS
 62
     4
100
AcDbLine
 10
21.496077
 20
30.291913
 30
0.0
 11
21.496077
 21
29.841913
 31
0.0
  0
ARC
  5
7FD
100
AcDbEntity
  8
1
  6
CONTINUOUS
 62
     5
100
AcDbCircle
 10
22.15178
 20
29.822716
 30
0.0
 40
0.02925
100
AcDbArc
 50
240.0
 51
0.0
  0
ARC
  5
7FE
102
{ACAD_REACTORS
330
7F2
102
}
100
AcDbEntity
  8
1
  6
CONTINUOUS
 62
     5
100
AcDbCircle
 10
22.15178
 20
29.822716
 30
0.0
 40
0.02925
100
AcDbArc
 50
240.0
 51
0.0
  0
LINE
  5
7FF
100
AcDbEntity
  8
1
  6
CONTINUOUS
 62
     5
100
AcDbLine
 10
22.137155
 20
29.797385
 30
0.0
 11
21.990072
 21
29.882303
 31
0.0
  0
LINE
  5
800
100
AcDbEntity
  8
1
  6
CONTINUOUS
 62
     5
100
AcDbLine
 10
22.137155
 20
29.797385
 30
0.0
 11
21.990072
 21
29.882303
 31
0.0
  0
LINE
  5
801
100
AcDbEntity
  8
1
  6
CONTINUOUS
 62
     5
100
AcDbLine
 10
22.141295
 20
29.817495
 30
0.0
 11
21.990072
 21
29.904803
 31
0.0
  0
LINE
  5
802
102
{ACAD_REACTORS
330
7F2
102
}
100
AcDbEntity
  8
1
  6
CONTINUOUS
 62
     5
100
AcDbLine
 10
22.141295
 20
29.817495
 30
0.0
 11
21.990072
 21
29.904803
 31
0.0
  0
LINE
  5
803
100
AcDbEntity
  8
1
  6
CONTINUOUS
 62
     5
100
AcDbLine
 10
21.990072
 20
29.904803
 30
0.0
 11
22.161545
 21
30.003803
 31
0.0
  0
LWPOLYLINE
  5
804
102
{ACAD_REACTORS
330
7F2
102
}
100
AcDbEntity
  8
1
  6
CONTINUOUS
 62
     5
100
AcDbPolyline
 90
        2
 70
     0
 43
0.009
 10
21.992345
 20
29.900946
 10
22.163818
 20
29.999946
  0
LINE
  5
805
100
AcDbEntity
  8
1
  6
CONTINUOUS
 62
     5
100
AcDbLine
 10
21.990072
 20
29.904803
 30
0.0
 11
21.990072
 21
29.882303
 31
0.0
  0
LINE
  5
806
100
AcDbEntity
  8
1
  6
CONTINUOUS
 62
     5
100
AcDbLine
 10
21.990072
 20
29.904803
 30
0.0
 11
21.990072
 21
29.882303
 31
0.0
  0
ARC
  5
807
100
AcDbEntity
  8
1
  6
CONTINUOUS
 62
     5
100
AcDbCircle
 10
22.148045
 20
29.829186
 30
0.0
 40
0.0135
100
AcDbArc
 50
240.0
 51
0.0
  0
ARC
  5
808
102
{ACAD_REACTORS
330
7F2
102
}
100
AcDbEntity
  8
1
  6
CONTINUOUS
 62
     5
100
AcDbCircle
 10
22.148045
 20
29.829186
 30
0.0
 40
0.0135
100
AcDbArc
 50
240.0
 51
0.0
  0
LINE
  5
809
100
AcDbEntity
  8
2
  6
CONTINUOUS
 62
     4
100
AcDbLine
 10
21.777312
 20
30.987794
 30
0.0
 11
21.194764
 21
30.65146
 31
0.0
  0
LINE
  5
80A
100
AcDbEntity
  8
2
  6
CONTINUOUS
 62
     4
100
AcDbLine
 10
21.785106
 20
30.983294
 30
0.0
 11
21.194764
 21
30.64246
 31
0.0
  0
LINE
  5
80B
100
AcDbEntity
  8
0
 62
     3
100
AcDbLine
 10
20.977404
 20
30.733564
 30
0.0
 11
21.323703
 21
30.533628
 31
0.0
  0
LINE
  5
80C
100
AcDbEntity
  8
0
 62
     3
100
AcDbLine
 10
21.32316
 20
30.529506
 30
0.0
 11
21.311239
 21
30.526312
 31
0.0
  0
ARC
  5
80D
100
AcDbEntity
  8
0
 62
     3
100
AcDbCircle
 10
21.312668
 20
30.506224
 30
0.0
 40
0.009
100
AcDbArc
 50
285.0
 51
60.0
  0
ARC
  5
80E
100
AcDbEntity
  8
0
 62
     3
100
AcDbCircle
 10
21.322578
 20
30.53168
 30
0.0
 40
0.00225
100
AcDbArc
 50
285.0
 51
60.0
  0
LINE
  5
80F
100
AcDbEntity
  8
0
 62
     3
100
AcDbLine
 10
21.274646
 20
30.506602
 30
0.0
 11
21.280163
 21
30.516157
 31
0.0
  0
ARC
  5
810
100
AcDbEntity
  8
0
 62
     3
100
AcDbCircle
 10
21.284389
 20
30.500977
 30
0.0
 40
0.01125
100
AcDbArc
 50
150.0
 51
285.0
  0
LINE
  5
811
100
AcDbEntity
  8
0
 62
     3
100
AcDbLine
 10
21.314997
 20
30.497531
 30
0.0
 11
21.2873
 21
30.49011
 31
0.0
  0
LINE
  5
812
100
AcDbEntity
  8
0
 62
     3
100
AcDbLine
 10
21.310154
 20
30.518068
 30
0.0
 11
21.317168
 21
30.514019
 31
0.0
  0
ARC
  5
813
100
AcDbEntity
  8
0
 62
     3
100
AcDbCircle
 10
21.312404
 20
30.521965
 30
0.0
 40
0.0045
100
AcDbArc
 50
105.0
 51
240.0
  0
LINE
  5
814
100
AcDbEntity
  8
2
  6
CONTINUOUS
 62
     4
100
AcDbLine
 10
21.194764
 20
30.65146
 30
0.0
 11
21.194764
 21
30.64246
 31
0.0
  0
LINE
  5
815
100
AcDbEntity
  8
1
  6
CONTINUOUS
 62
     5
100
AcDbLine
 10
22.161545
 20
30.660803
 30
0.0
 11
22.18103
 21
30.649553
 31
0.0
  0
LINE
  5
816
100
AcDbEntity
  8
1
  6
CONTINUOUS
 62
     5
100
AcDbLine
 10
22.161545
 20
30.660803
 30
0.0
 11
22.18103
 21
30.649553
 31
0.0
  0
DIMENSION
  5
842
100
AcDbEntity
  8
0
100
AcDbDimension
  2
*D14
 10
5.820051
 20
22.784179
 30
0.0
 11
5.820051
 21
24.507176
 31
0.0
 70
   160
  3
STANDARD
100
AcDbAlignedDimension
 13
9.865741
 23
26.034179
 33
0.0
 14
6.101167
 24
22.784179
 34
0.0
 50
90.0
100
AcDbRotatedDimension
1001
ACAD
1000
DSTYLE
1002
{
1070
   288
1070
     1
1070
   270
1070
     4
1070
    40
1040
2.0
1070
     4
1000
mm
1070
   274
1070
     0
1070
   171
1070
     0
1070
   170
1070
     1
1002
}
  0
DIMENSION
  5
860
100
AcDbEntity
  8
0
100
AcDbDimension
  2
*D16
 10
18.108242
 20
25.784179
 30
0.0
 11
16.368242
 21
25.016192
 31
0.0
 70
   160
  3
STANDARD
100
AcDbAlignedDimension
 13
15.538804
 23
26.034179
 33
0.0
 14
13.856734
 24
25.784179
 34
0.0
 50
90.0
100
AcDbRotatedDimension
1001
ACAD
1000
DSTYLE
1002
{
1070
   288
1070
     1
1070
   270
1070
     4
1070
    40
1040
2.0
1070
     4
1000
mm
1070
   274
1070
     0
1070
   171
1070
     0
1070
   170
1070
     1
1002
}
  0
INSERT
  5
86E
100
AcDbEntity
  8
0
100
AcDbBlockReference
  2
A$C433421F4
 10
3.819742
 20
16.219024
 30
0.0
 41
1.1
 42
1.1
 43
1.1
  0
DIMENSION
  5
8BE
100
AcDbEntity
  8
0
100
AcDbDimension
  2
*D20
 10
16.068974
 20
9.100349
 30
0.0
 11
17.808974
 21
10.070349
 31
0.0
 70
   160
  3
STANDARD
100
AcDbAlignedDimension
 13
13.859212
 23
9.350349
 33
0.0
 14
15.096863
 24
9.100349
 34
0.0
 50
90.0
100
AcDbRotatedDimension
1001
ACAD
1000
DSTYLE
1002
{
1070
   288
1070
     1
1070
   270
1070
     4
1070
    40
1040
2.0
1070
     4
1000
mm
1070
   274
1070
     0
1070
   171
1070
     0
1070
   170
1070
     1
1002
}
  0
DIMENSION
  5
8CC
100
AcDbEntity
  8
0
100
AcDbDimension
  2
*D21
 10
5.833234
 20
12.367465
 30
0.0
 11
5.833234
 21
10.780559
 31
0.0
 70
   160
  3
STANDARD
100
AcDbAlignedDimension
 13
9.868219
 23
9.100349
 33
0.0
 14
6.101167
 24
12.367465
 34
0.0
 50
90.0
100
AcDbRotatedDimension
1001
ACAD
1000
DSTYLE
1002
{
1070
   288
1070
     1
1070
   270
1070
     4
1070
    40
1040
2.0
1070
     4
1000
mm
1070
   274
1070
     0
1070
   171
1070
     0
1070
   170
1070
     1
1002
}
  0
ENDSEC
  0
SECTION
  2
OBJECTS
  0
DICTIONARY
  5
C
100
AcDbDictionary
  3
ACAD_GROUP
350
D
  3
ACAD_MLINESTYLE
350
1B
  0
DICTIONARY
  5
D
102
{ACAD_REACTORS
330
C
102
}
100
AcDbDictionary
  0
DICTIONARY
  5
1B
102
{ACAD_REACTORS
330
C
102
}
100
AcDbDictionary
  3
STANDARD
350
1C
  0
MLINESTYLE
  5
1C
102
{ACAD_REACTORS
330
1B
102
}
100
AcDbMlineStyle
  2
STANDARD
 70
     0
  3

 62
   256
 51
90.0
 52
90.0
 71
     2
 49
0.5
 62
   256
  6
BYLAYER
 49
-0.5
 62
   256
  6
BYLAYER
  0
ENDSEC
  0
EOF
