  0
SECTION
  2
HEADER
  9
$ACADVER
  1
AC1014
  9
$ACADMAINTVER
 70
     9
  9
$DWGCODEPAGE
  3
ANSI_1252
  9
$INSBASE
 10
0.0
 20
0.0
 30
0.0
  9
$EXTMIN
 10
0.0
 20
0.0
 30
0.0
  9
$EXTMAX
 10
16.168139
 20
21.484911
 30
1.0
  9
$LIMMIN
 10
0.0
 20
0.0
  9
$LIMMAX
 10
16.113206
 20
21.429978
  9
$ORTHOMODE
 70
     1
  9
$REGENMODE
 70
     1
  9
$FILLMODE
 70
     1
  9
$QTEXTMODE
 70
     0
  9
$MIRRTEXT
 70
     1
  9
$DRAGMODE
 70
     2
  9
$LTSCALE
 40
1.0
  9
$OSMODE
 70
     1
  9
$ATTMODE
 70
     1
  9
$TEXTSIZE
 40
0.2
  9
$TRACEWID
 40
0.05
  9
$TEXTSTYLE
  7
ROMANS
  9
$CLAYER
  8
R-DOOR-ANNO
  9
$CELTYPE
  6
BYLAYER
  9
$CECOLOR
 62
   256
  9
$CELTSCALE
 40
1.0
  9
$DELOBJ
 70
     1
  9
$DISPSILH
 70
     0
  9
$DIMSCALE
 40
2.0
  9
$DIMASZ
 40
0.18
  9
$DIMEXO
 40
0.0625
  9
$DIMDLI
 40
0.38
  9
$DIMRND
 40
0.0
  9
$DIMDLE
 40
0.0
  9
$DIMEXE
 40
0.18
  9
$DIMTP
 40
0.0
  9
$DIMTM
 40
0.0
  9
$DIMTXT
 40
0.18
  9
$DIMCEN
 40
0.0
  9
$DIMTSZ
 40
0.0
  9
$DIMTOL
 70
     0
  9
$DIMLIM
 70
     0
  9
$DIMTIH
 70
     1
  9
$DIMTOH
 70
     1
  9
$DIMSE1
 70
     0
  9
$DIMSE2
 70
     0
  9
$DIMTAD
 70
     0
  9
$DIMZIN
 70
     0
  9
$DIMBLK
  1

  9
$DIMASO
 70
     1
  9
$DIMSHO
 70
     1
  9
$DIMPOST
  1

  9
$DIMAPOST
  1
mm
  9
$DIMALT
 70
     1
  9
$DIMALTD
 70
     0
  9
$DIMALTF
 40
25.4
  9
$DIMLFAC
 40
1.0
  9
$DIMTOFL
 70
     0
  9
$DIMTVP
 40
0.0
  9
$DIMTIX
 70
     0
  9
$DIMSOXD
 70
     0
  9
$DIMSAH
 70
     0
  9
$DIMBLK1
  1

  9
$DIMBLK2
  1

  9
$DIMSTYLE
  2
ROMANS
  9
$DIMCLRD
 70
     0
  9
$DIMCLRE
 70
     0
  9
$DIMCLRT
 70
     0
  9
$DIMTFAC
 40
1.0
  9
$DIMGAP
 40
0.09
  9
$DIMJUST
 70
     0
  9
$DIMSD1
 70
     0
  9
$DIMSD2
 70
     0
  9
$DIMTOLJ
 70
     1
  9
$DIMTZIN
 70
     0
  9
$DIMALTZ
 70
     0
  9
$DIMALTTZ
 70
     0
  9
$DIMFIT
 70
     3
  9
$DIMUPT
 70
     1
  9
$DIMUNIT
 70
     4
  9
$DIMDEC
 70
     4
  9
$DIMTDEC
 70
     4
  9
$DIMALTU
 70
     2
  9
$DIMALTTD
 70
     0
  9
$DIMTXSTY
  7
ROMANS
  9
$DIMAUNIT
 70
     0
  9
$LUNITS
 70
     2
  9
$LUPREC
 70
     4
  9
$SKETCHINC
 40
0.1
  9
$FILLETRAD
 40
0.5
  9
$AUNITS
 70
     0
  9
$AUPREC
 70
     0
  9
$MENU
  1
.
  9
$ELEVATION
 40
0.0
  9
$PELEVATION
 40
0.0
  9
$THICKNESS
 40
0.0
  9
$LIMCHECK
 70
     0
  9
$BLIPMODE
 70
     0
  9
$CHAMFERA
 40
0.5
  9
$CHAMFERB
 40
0.5
  9
$CHAMFERC
 40
1.0
  9
$CHAMFERD
 40
0.0
  9
$SKPOLY
 70
     0
  9
$TDCREATE
 40
2451967.577145069
  9
$TDUPDATE
 40
2452108.573780891
  9
$TDINDWG
 40
0.6757627894
  9
$TDUSRTIMER
 40
0.6757627894
  9
$USRTIMER
 70
     1
  9
$ANGBASE
 50
0.0
  9
$ANGDIR
 70
     0
  9
$PDMODE
 70
     0
  9
$PDSIZE
 40
0.0
  9
$PLINEWID
 40
0.0
  9
$COORDS
 70
     1
  9
$SPLFRAME
 70
     0
  9
$SPLINETYPE
 70
     6
  9
$SPLINESEGS
 70
     8
  9
$ATTDIA
 70
     0
  9
$ATTREQ
 70
     1
  9
$HANDLING
 70
     1
  9
$HANDSEED
  5
550
  9
$SURFTAB1
 70
     6
  9
$SURFTAB2
 70
     6
  9
$SURFTYPE
 70
     6
  9
$SURFU
 70
     6
  9
$SURFV
 70
     6
  9
$UCSNAME
  2

  9
$UCSORG
 10
0.0
 20
0.0
 30
0.0
  9
$UCSXDIR
 10
1.0
 20
0.0
 30
0.0
  9
$UCSYDIR
 10
0.0
 20
1.0
 30
0.0
  9
$PUCSNAME
  2

  9
$PUCSORG
 10
0.0
 20
0.0
 30
0.0
  9
$PUCSXDIR
 10
1.0
 20
0.0
 30
0.0
  9
$PUCSYDIR
 10
0.0
 20
1.0
 30
0.0
  9
$USERI1
 70
     0
  9
$USERI2
 70
     0
  9
$USERI3
 70
     0
  9
$USERI4
 70
     0
  9
$USERI5
 70
     0
  9
$USERR1
 40
0.0
  9
$USERR2
 40
0.0
  9
$USERR3
 40
0.0
  9
$USERR4
 40
0.0
  9
$USERR5
 40
0.0
  9
$WORLDVIEW
 70
     1
  9
$SHADEDGE
 70
     3
  9
$SHADEDIF
 70
    70
  9
$TILEMODE
 70
     1
  9
$MAXACTVP
 70
    48
  9
$PINSBASE
 10
0.0
 20
0.0
 30
0.0
  9
$PLIMCHECK
 70
     0
  9
$PEXTMIN
 10
1.000000E+20
 20
1.000000E+20
 30
1.000000E+20
  9
$PEXTMAX
 10
-1.000000E+20
 20
-1.000000E+20
 30
-1.000000E+20
  9
$PLIMMIN
 10
0.0
 20
0.0
  9
$PLIMMAX
 10
12.0
 20
9.0
  9
$UNITMODE
 70
     0
  9
$VISRETAIN
 70
     1
  9
$PLINEGEN
 70
     0
  9
$PSLTSCALE
 70
     1
  9
$TREEDEPTH
 70
  3020
  9
$PICKSTYLE
 70
     1
  9
$CMLSTYLE
  2
STANDARD
  9
$CMLJUST
 70
     0
  9
$CMLSCALE
 40
1.0
  9
$PROXYGRAPHICS
 70
     1
  9
$MEASUREMENT
 70
     0
  0
ENDSEC
  0
SECTION
  2
CLASSES
  0
CLASS
  1
HATCH
  2
AcDbHatch
  3
"ACAD_SEDONA"
 90
        0
280
     0
281
     1
  0
CLASS
  1
LWPOLYLINE
  2
AcDbPolyline
  3
"AutoCAD"
 90
        0
280
     0
281
     1
  0
CLASS
  1
DICTIONARYVAR
  2
AcDbDictionaryVar
  3
"AutoCAD"
 90
        0
280
     0
281
     0
  0
ENDSEC
  0
SECTION
  2
TABLES
  0
TABLE
  2
VPORT
  5
8
100
AcDbSymbolTable
 70
     1
  0
VPORT
  5
548
100
AcDbSymbolTableRecord
100
AcDbViewportTableRecord
  2
*ACTIVE
 70
     0
 10
0.0
 20
0.0
 11
1.0
 21
1.0
 12
8.265114
 22
10.742456
 13
0.0
 23
0.0
 14
0.5
 24
0.5
 15
0.5
 25
0.5
 16
0.0
 26
0.0
 36
1.0
 17
0.0
 27
0.0
 37
0.0
 40
21.718582
 41
1.74735
 42
50.0
 43
0.0
 44
0.0
 50
0.0
 51
0.0
 71
     0
 72
 10000
 73
     1
 74
     1
 75
     0
 76
     0
 77
     0
 78
     0
  0
ENDTAB
  0
TABLE
  2
LTYPE
  5
5
100
AcDbSymbolTable
 70
     2
  0
LTYPE
  5
12
100
AcDbSymbolTableRecord
100
AcDbLinetypeTableRecord
  2
BYBLOCK
 70
     0
  3

 72
    65
 73
     0
 40
0.0
  0
LTYPE
  5
13
100
AcDbSymbolTableRecord
100
AcDbLinetypeTableRecord
  2
BYLAYER
 70
     0
  3

 72
    65
 73
     0
 40
0.0
  0
LTYPE
  5
14
100
AcDbSymbolTableRecord
100
AcDbLinetypeTableRecord
  2
CONTINUOUS
 70
     0
  3
Solid line
 72
    65
 73
     0
 40
0.0
  0
LTYPE
  5
335
100
AcDbSymbolTableRecord
100
AcDbLinetypeTableRecord
  2
HIDDEN
 70
     0
  3
Hidden __ __ __ __ __ __ __ __ __ __ __ __ __ _
 72
    65
 73
     2
 40
0.375
 49
0.25
 74
     0
 49
-0.125
 74
     0
  0
ENDTAB
  0
TABLE
  2
LAYER
  5
2
100
AcDbSymbolTable
 70
    12
  0
LAYER
  5
E
100
AcDbSymbolTableRecord
100
AcDbLayerTableRecord
  2
0
 70
     0
 62
     7
  6
CONTINUOUS
  0
LAYER
  5
83
100
AcDbSymbolTableRecord
100
AcDbLayerTableRecord
  2
DEFPOINTS
 70
     0
 62
     7
  6
CONTINUOUS
  0
LAYER
  5
84
100
AcDbSymbolTableRecord
100
AcDbLayerTableRecord
  2
DIMN
 70
     0
 62
     4
  6
CONTINUOUS
  0
LAYER
  5
85
100
AcDbSymbolTableRecord
100
AcDbLayerTableRecord
  2
BORDER
 70
     0
 62
     4
  6
CONTINUOUS
  0
LAYER
  5
86
100
AcDbSymbolTableRecord
100
AcDbLayerTableRecord
  2
BOARDER
 70
     0
 62
     7
  6
CONTINUOUS
  0
LAYER
  5
87
100
AcDbSymbolTableRecord
100
AcDbLayerTableRecord
  2
R-DOOR-ANNO
 70
     0
 62
     7
  6
CONTINUOUS
  0
LAYER
  5
88
100
AcDbSymbolTableRecord
100
AcDbLayerTableRecord
  2
R-DOOR-PATT
 70
     0
 62
     5
  6
CONTINUOUS
  0
LAYER
  5
89
100
AcDbSymbolTableRecord
100
AcDbLayerTableRecord
  2
R-DOOR-DETL
 70
     0
 62
     3
  6
CONTINUOUS
  0
LAYER
  5
8A
100
AcDbSymbolTableRecord
100
AcDbLayerTableRecord
  2
4-2
 70
     0
 62
     7
  6
CONTINUOUS
  0
LAYER
  5
336
100
AcDbSymbolTableRecord
100
AcDbLayerTableRecord
  2
1
 70
     0
 62
     1
  6
CONTINUOUS
  0
LAYER
  5
337
100
AcDbSymbolTableRecord
100
AcDbLayerTableRecord
  2
2
 70
     0
 62
     2
  6
HIDDEN
  0
LAYER
  5
338
100
AcDbSymbolTableRecord
100
AcDbLayerTableRecord
  2
GREEN
 70
     0
 62
     3
  6
CONTINUOUS
  0
ENDTAB
  0
TABLE
  2
STYLE
  5
3
100
AcDbSymbolTable
 70
     2
  0
STYLE
  5
F
100
AcDbSymbolTableRecord
100
AcDbTextStyleTableRecord
  2
STANDARD
 70
     0
 40
0.0
 41
1.0
 50
0.0
 71
     0
 42
0.2
  3
txt
  4

  0
STYLE
  5
21
100
AcDbSymbolTableRecord
100
AcDbTextStyleTableRecord
  2
ROMANS
 70
     0
 40
0.0
 41
1.0
 50
0.0
 71
     0
 42
0.2
  3
romans.shx
  4

  0
ENDTAB
  0
TABLE
  2
VIEW
  5
6
100
AcDbSymbolTable
 70
     0
  0
ENDTAB
  0
TABLE
  2
UCS
  5
7
100
AcDbSymbolTable
 70
     0
  0
ENDTAB
  0
TABLE
  2
APPID
  5
9
100
AcDbSymbolTable
 70
     1
  0
APPID
  5
10
100
AcDbSymbolTableRecord
100
AcDbRegAppTableRecord
  2
ACAD
 70
     0
  0
ENDTAB
  0
TABLE
  2
DIMSTYLE
  5
A
100
AcDbSymbolTable
 70
     2
  0
DIMSTYLE
105
1D
100
AcDbSymbolTableRecord
100
AcDbDimStyleTableRecord
  2
STANDARD
 70
     0
  3

  4

  5

  6

  7

 40
1.0
 41
0.18
 42
0.0625
 43
0.38
 44
0.18
 45
0.0
 46
0.0
 47
0.0
 48
0.0
140
0.18
141
0.09
142
0.0
143
25.4
144
1.0
145
0.0
146
1.0
147
0.09
 71
     0
 72
     0
 73
     1
 74
     1
 75
     0
 76
     0
 77
     0
 78
     0
170
     0
171
     2
172
     0
173
     0
174
     0
175
     0
176
     0
177
     0
178
     0
270
     2
271
     4
272
     4
273
     2
274
     2
340
F
275
     0
280
     0
281
     0
282
     0
283
     1
284
     0
285
     0
286
     0
287
     3
288
     0
  0
DIMSTYLE
105
20
102
{ACAD_REACTORS
330
51A
330
529
330
537
102
}
100
AcDbSymbolTableRecord
100
AcDbDimStyleTableRecord
  2
ROMANS
 70
     0
  3

  4

  5

  6

  7

 40
2.0
 41
0.18
 42
0.0625
 43
0.38
 44
0.18
 45
0.0
 46
0.0
 47
0.0
 48
0.0
140
0.18
141
0.0
142
0.0
143
25.4
144
1.0
145
0.0
146
1.0
147
0.09
 71
     0
 72
     0
 73
     1
 74
     1
 75
     0
 76
     0
 77
     0
 78
     0
170
     0
171
     2
172
     0
173
     0
174
     0
175
     0
176
     0
177
     0
178
     0
270
     7
271
     4
272
     4
273
     2
274
     2
340
21
275
     0
280
     0
281
     0
282
     0
283
     1
284
     0
285
     0
286
     0
287
     3
288
     0
  0
ENDTAB
  0
TABLE
  2
BLOCK_RECORD
  5
1
100
AcDbSymbolTable
 70
    17
  0
BLOCK_RECORD
  5
18
100
AcDbSymbolTableRecord
100
AcDbBlockTableRecord
  2
*MODEL_SPACE
  0
BLOCK_RECORD
  5
15
100
AcDbSymbolTableRecord
100
AcDbBlockTableRecord
  2
*PAPER_SPACE
  0
BLOCK_RECORD
  5
2F
100
AcDbSymbolTableRecord
100
AcDbBlockTableRecord
  2
A$C2189253D
  0
BLOCK_RECORD
  5
33
100
AcDbSymbolTableRecord
100
AcDbBlockTableRecord
  2
A$C21405640
  0
BLOCK_RECORD
  5
3B
100
AcDbSymbolTableRecord
100
AcDbBlockTableRecord
  2
A$C35F20450
  0
BLOCK_RECORD
  5
3F
100
AcDbSymbolTableRecord
100
AcDbBlockTableRecord
  2
_DOTSMALL
  0
BLOCK_RECORD
  5
46
100
AcDbSymbolTableRecord
100
AcDbBlockTableRecord
  2
CRLINFO
  0
BLOCK_RECORD
  5
4A
100
AcDbSymbolTableRecord
100
AcDbBlockTableRecord
  2
BSCREW
  0
BLOCK_RECORD
  5
5B
100
AcDbSymbolTableRecord
100
AcDbBlockTableRecord
  2
*D6
  0
BLOCK_RECORD
  5
68
100
AcDbSymbolTableRecord
100
AcDbBlockTableRecord
  2
*D7
  0
BLOCK_RECORD
  5
75
100
AcDbSymbolTableRecord
100
AcDbBlockTableRecord
  2
*D8
  0
BLOCK_RECORD
  5
8B
100
AcDbSymbolTableRecord
100
AcDbBlockTableRecord
  2
A$C5F5B056E
  0
BLOCK_RECORD
  5
27B
100
AcDbSymbolTableRecord
100
AcDbBlockTableRecord
  2
A$C6BE867F4
  0
BLOCK_RECORD
  5
283
100
AcDbSymbolTableRecord
100
AcDbBlockTableRecord
  2
A$C0E897680
  0
BLOCK_RECORD
  5
2B2
100
AcDbSymbolTableRecord
100
AcDbBlockTableRecord
  2
A$C2CC70F12
  0
BLOCK_RECORD
  5
339
100
AcDbSymbolTableRecord
100
AcDbBlockTableRecord
  2
A$C60D668AB
  0
BLOCK_RECORD
  5
50D
100
AcDbSymbolTableRecord
100
AcDbBlockTableRecord
  2
*D14
  0
BLOCK_RECORD
  5
51B
100
AcDbSymbolTableRecord
100
AcDbBlockTableRecord
  2
*D15
  0
BLOCK_RECORD
  5
52A
100
AcDbSymbolTableRecord
100
AcDbBlockTableRecord
  2
*D16
  0
ENDTAB
  0
ENDSEC
  0
SECTION
  2
BLOCKS
  0
BLOCK
  5
19
100
AcDbEntity
  8
0
100
AcDbBlockBegin
  2
*MODEL_SPACE
 70
     0
 10
0.0
 20
0.0
 30
0.0
  3
*MODEL_SPACE
  1

  0
ENDBLK
  5
1A
100
AcDbEntity
  8
0
100
AcDbBlockEnd
  0
BLOCK
  5
16
100
AcDbEntity
 67
     1
  8
0
100
AcDbBlockBegin
  2
*PAPER_SPACE
 70
     0
 10
0.0
 20
0.0
 30
0.0
  3
*PAPER_SPACE
  1

  0
ENDBLK
  5
17
100
AcDbEntity
 67
     1
  8
0
100
AcDbBlockEnd
  0
BLOCK
  5
31
100
AcDbEntity
  8
0
100
AcDbBlockBegin
  2
A$C2189253D
 70
     0
 10
0.0
 20
0.0
 30
0.0
  3
A$C2189253D
  1

  0
HATCH
  5
30
100
AcDbEntity
  8
BOARDER
  6
CONTINUOUS
 62
     4
100
AcDbHatch
 10
0.0
 20
0.0
 30
0.0
210
0.0
220
0.0
230
1.0
  2
ANSI31
 70
     0
 71
     0
 91
        3
 92
        7
 72
     1
 73
     1
 93
        8
 10
0.1273646403742585
 20
0.2547293417921961
 42
1.0
 10
0.1273646403742585
 20
0.0000000027943585
 42
0.0
 10
0.2547293098731842
 20
0.000000002794359
 42
0.0
 10
0.2547293098731842
 20
0.1198050709874456
 42
0.0
 10
0.1273646403742585
 20
0.1198050709874452
 42
-1.0
 10
0.1273646403742585
 20
0.1349242735991094
 42
0.0
 10
0.2547293098731842
 20
0.1349242735991099
 42
0.0
 10
0.2547293098731842
 20
0.2547293417921961
 42
0.0
 97
        0
 92
        7
 72
     1
 73
     1
 93
       12
 10
0.2729453093314724
 20
0.2547293417921956
 42
0.0
 10
0.2729453093314742
 20
0.0000000027943585
 42
0.0
 10
0.3927503775245586
 20
0.0000000027943585
 42
0.0
 10
0.3927503775245586
 20
0.1273646722932775
 42
-1.0
 10
0.4078695801362234
 20
0.1273646722932775
 42
0.0
 10
0.4078695801362234
 20
0.0000000027943581
 42
0.0
 10
0.5276746483293114
 20
0.0000000027943576
 42
0.0
 10
0.5276746483293114
 20
0.1106172266293384
 42
0.4142135623730797
 10
0.5109272026653731
 20
0.1273646722932775
 42
0.4142135623730875
 10
0.5276746483293114
 20
0.1441121179572162
 42
0.0
 10
0.5276746483293114
 20
0.2379818961282574
 42
0.4142135623731106
 10
0.5109272026653713
 20
0.2547293417921961
 42
0.0
 97
        0
 92
        7
 72
     0
 73
     1
 93
        6
 10
0.5458906477876049
 20
0.2547293417921961
 10
0.5458906477876031
 20
0.0000000027943576
 10
0.8006199867854384
 20
0.0000000027943581
 10
0.8006199867854402
 20
0.127364672293278
 10
0.6732553172865199
 20
0.1273646722932771
 10
0.6732553172865181
 20
0.2547293417921961
 97
        0
 75
     0
 76
     1
 52
0.0
 41
0.040373
 77
     0
 78
     1
 53
45.0
 43
-7.406223
 44
-1.968858
 45
-0.0035684948455219
 46
0.0035684948455219
 79
     0
 47
0.0009
 98
        3
 10
0.137804
 20
0.196439
 10
0.137804
 20
0.196439
 10
0.137804
 20
0.196439
  0
ENDBLK
  5
32
100
AcDbEntity
  8
0
100
AcDbBlockEnd
  0
BLOCK
  5
39
100
AcDbEntity
  8
0
100
AcDbBlockBegin
  2
A$C21405640
 70
     0
 10
0.0
 20
0.0
 30
0.0
  3
A$C21405640
  1

  0
MTEXT
  5
34
100
AcDbEntity
  8
0
100
AcDbMText
 10
0.504549
 20
2.99683
 30
0.0
 40
0.614073
 41
19.242589
 71
     1
 72
     5
  1
\fArial|b0|i1|c0|p34;Phone Orders (800) 421-6144\PFax Orders     (800) 262-3299\PWWW.CRLAURENCE.COM
  0
MTEXT
  5
35
100
AcDbEntity
  8
0
100
AcDbMText
 10
7.702431
 20
6.455969
 30
0.0
 40
0.876824
 41
21.937261
 71
     1
 72
     5
  1
\fArial|b1|i0|c0|p34;DOOR RAIL SYSTEM
  0
LWPOLYLINE
  5
36
100
AcDbEntity
  8
0
100
AcDbPolyline
 90
        2
 70
     0
 43
0.098252
 10
0.440527
 20
5.243578
 10
19.707511
 20
5.243578
  0
MTEXT
  5
37
100
AcDbEntity
  8
0
100
AcDbMText
 10
0.488738
 20
4.418164
 30
0.0
 40
0.776802
 41
19.420041
 71
     1
 72
     5
  1
\fArial|b1|i1|c0|p34;C.R. Laurence Architectural Products
  0
INSERT
  5
38
100
AcDbEntity
  8
0
 62
     7
100
AcDbBlockReference
  2
A$C2189253D
 10
0.460151
 20
5.536767
 30
0.0
 41
8.113806
 42
8.113806
 43
8.113806
  0
ENDBLK
  5
3A
100
AcDbEntity
  8
0
100
AcDbBlockEnd
  0
BLOCK
  5
3D
100
AcDbEntity
  8
0
 62
     3
100
AcDbBlockBegin
  2
A$C35F20450
 70
     0
 10
0.0
 20
0.0
 30
0.0
  3
A$C35F20450
  1

  0
INSERT
  5
3C
100
AcDbEntity
  8
DIMN
100
AcDbBlockReference
  2
A$C21405640
 10
0.0
 20
0.0
 30
0.0
 41
0.5
 42
0.5
 43
0.5
  0
ENDBLK
  5
3E
100
AcDbEntity
  8
0
 62
     3
100
AcDbBlockEnd
  0
BLOCK
  5
44
100
AcDbEntity
  8
0
100
AcDbBlockBegin
  2
_DOTSMALL
 70
     0
 10
0.0
 20
0.0
 30
0.0
  3
_DOTSMALL
  1

  0
POLYLINE
  5
40
100
AcDbEntity
  8
0
  6
BYBLOCK
 62
     0
100
AcDb2dPolyline
 66
     1
 10
0.0
 20
0.0
 30
0.0
 70
     1
 40
0.5
 41
0.5
  0
VERTEX
  5
41
100
AcDbEntity
  8
0
  6
BYBLOCK
 62
     0
100
AcDbVertex
100
AcDb2dVertex
 10
-0.0625
 20
0.0
 30
0.0
 42
1.0
  0
VERTEX
  5
42
100
AcDbEntity
  8
0
  6
BYBLOCK
 62
     0
100
AcDbVertex
100
AcDb2dVertex
 10
0.0625
 20
0.0
 30
0.0
 42
1.0
  0
SEQEND
  5
43
100
AcDbEntity
  8
0
  6
BYBLOCK
 62
     0
  0
ENDBLK
  5
45
100
AcDbEntity
  8
0
100
AcDbBlockEnd
  0
BLOCK
  5
48
100
AcDbEntity
  8
0
100
AcDbBlockBegin
  2
CRLINFO
 70
     0
 10
0.0
 20
0.0
 30
0.0
  3
CRLINFO
  1

  0
INSERT
  5
47
100
AcDbEntity
  8
R-DOOR-ANNO
  6
CONTINUOUS
100
AcDbBlockReference
  2
A$C35F20450
 10
0.260404
 20
0.351814
 30
0.0
  0
ENDBLK
  5
49
100
AcDbEntity
  8
0
100
AcDbBlockEnd
  0
BLOCK
  5
59
100
AcDbEntity
  8
0
100
AcDbBlockBegin
  2
BSCREW
 70
     0
 10
0.0
 20
0.0
 30
0.0
  3
BSCREW
  1

  0
LINE
  5
4B
100
AcDbEntity
  8
R-DOOR-DETL
  6
CONTINUOUS
 62
     3
100
AcDbLine
 10
0.124
 20
0.013967
 30
0.0
 11
-0.124
 21
0.013967
 31
0.0
  0
LINE
  5
4C
100
AcDbEntity
  8
R-DOOR-DETL
  6
CONTINUOUS
 62
     3
100
AcDbLine
 10
0.124
 20
0.373967
 30
0.0
 11
-0.124
 21
0.373967
 31
0.0
  0
LINE
  5
4D
100
AcDbEntity
  8
R-DOOR-DETL
  6
CONTINUOUS
 62
     3
100
AcDbLine
 10
0.094
 20
0.403967
 30
0.0
 11
-0.094
 21
0.403967
 31
0.0
  0
LINE
  5
4E
100
AcDbEntity
  8
R-DOOR-DETL
  6
CONTINUOUS
 62
     3
100
AcDbLine
 10
0.094
 20
0.343967
 30
0.0
 11
-0.094
 21
0.343967
 31
0.0
  0
LINE
  5
4F
100
AcDbEntity
  8
R-DOOR-DETL
  6
CONTINUOUS
 62
     3
100
AcDbLine
 10
0.124
 20
0.253967
 30
0.0
 11
-0.124
 21
0.253967
 31
0.0
  0
LINE
  5
50
100
AcDbEntity
  8
R-DOOR-DETL
  6
CONTINUOUS
 62
     3
100
AcDbLine
 10
0.124
 20
0.313967
 30
0.0
 11
-0.124
 21
0.313967
 31
0.0
  0
LINE
  5
51
100
AcDbEntity
  8
R-DOOR-DETL
  6
CONTINUOUS
 62
     3
100
AcDbLine
 10
0.094
 20
0.283967
 30
0.0
 11
-0.094
 21
0.283967
 31
0.0
  0
LINE
  5
52
100
AcDbEntity
  8
R-DOOR-DETL
  6
CONTINUOUS
 62
     3
100
AcDbLine
 10
0.124
 20
0.133967
 30
0.0
 11
-0.124
 21
0.133967
 31
0.0
  0
LINE
  5
53
100
AcDbEntity
  8
R-DOOR-DETL
  6
CONTINUOUS
 62
     3
100
AcDbLine
 10
0.124
 20
0.073967
 30
0.0
 11
-0.124
 21
0.073967
 31
0.0
  0
LINE
  5
54
100
AcDbEntity
  8
R-DOOR-DETL
  6
CONTINUOUS
 62
     3
100
AcDbLine
 10
0.124
 20
0.193967
 30
0.0
 11
-0.124
 21
0.193967
 31
0.0
  0
LINE
  5
55
100
AcDbEntity
  8
R-DOOR-DETL
  6
CONTINUOUS
 62
     3
100
AcDbLine
 10
0.094
 20
0.163967
 30
0.0
 11
-0.094
 21
0.163967
 31
0.0
  0
LINE
  5
56
100
AcDbEntity
  8
R-DOOR-DETL
  6
CONTINUOUS
 62
     3
100
AcDbLine
 10
0.094
 20
0.043967
 30
0.0
 11
-0.094
 21
0.043967
 31
0.0
  0
LINE
  5
57
100
AcDbEntity
  8
R-DOOR-DETL
  6
CONTINUOUS
 62
     3
100
AcDbLine
 10
0.094
 20
0.103967
 30
0.0
 11
-0.094
 21
0.103967
 31
0.0
  0
LINE
  5
58
100
AcDbEntity
  8
R-DOOR-DETL
  6
CONTINUOUS
 62
     3
100
AcDbLine
 10
0.094
 20
0.223967
 30
0.0
 11
-0.094
 21
0.223967
 31
0.0
  0
ENDBLK
  5
5A
100
AcDbEntity
  8
0
100
AcDbBlockEnd
  0
BLOCK
  5
66
100
AcDbEntity
  8
0
100
AcDbBlockBegin
  2
*D6
 70
     1
 10
0.0
 20
0.0
 30
0.0
  3
*D6
  1

  0
LINE
  5
5C
100
AcDbEntity
  8
0
  6
BYBLOCK
 62
     0
100
AcDbLine
 10
57.616054
 20
227.539293
 30
0.0
 11
57.616054
 21
228.983538
 31
0.0
  0
LINE
  5
5D
100
AcDbEntity
  8
0
  6
BYBLOCK
 62
     0
100
AcDbLine
 10
59.598039
 20
227.539293
 30
0.0
 11
59.598039
 21
228.983538
 31
0.0
  0
LINE
  5
5E
100
AcDbEntity
  8
0
  6
BYBLOCK
 62
     0
100
AcDbLine
 10
57.976054
 20
228.623538
 30
0.0
 11
59.238039
 21
228.623538
 31
0.0
  0
LINE
  5
5F
100
AcDbEntity
  8
0
  6
BYBLOCK
 62
     0
100
AcDbLine
 10
59.598039
 20
228.623538
 30
0.0
 11
59.958039
 21
228.623538
 31
0.0
  0
SOLID
  5
60
100
AcDbEntity
  8
0
  6
BYBLOCK
 62
     0
100
AcDbTrace
 10
57.976054
 20
228.683538
 30
0.0
 11
57.976054
 21
228.563538
 31
0.0
 12
57.616054
 22
228.623538
 32
0.0
 13
57.616054
 23
228.623538
 33
0.0
  0
SOLID
  5
61
100
AcDbEntity
  8
0
  6
BYBLOCK
 62
     0
100
AcDbTrace
 10
59.238039
 20
228.683538
 30
0.0
 11
59.238039
 21
228.563538
 31
0.0
 12
59.598039
 22
228.623538
 32
0.0
 13
59.598039
 23
228.623538
 33
0.0
  0
MTEXT
  5
62
100
AcDbEntity
  8
0
  6
BYBLOCK
 62
     0
100
AcDbMText
 10
61.16661
 20
228.623538
 30
0.0
 40
0.36
 41
0.0
 71
     5
 72
     1
  1
\A1;2\P(51mm)
  7
ROMANS
  0
POINT
  5
63
100
AcDbEntity
  8
DEFPOINTS
  6
BYBLOCK
 62
     0
100
AcDbPoint
 10
57.616054
 20
227.414293
 30
0.0
  0
POINT
  5
64
100
AcDbEntity
  8
DEFPOINTS
  6
BYBLOCK
 62
     0
100
AcDbPoint
 10
59.598039
 20
227.414293
 30
0.0
  0
POINT
  5
65
100
AcDbEntity
  8
DEFPOINTS
  6
BYBLOCK
 62
     0
100
AcDbPoint
 10
59.598039
 20
228.623538
 30
0.0
  0
ENDBLK
  5
67
100
AcDbEntity
  8
0
100
AcDbBlockEnd
  0
BLOCK
  5
73
100
AcDbEntity
  8
0
100
AcDbBlockBegin
  2
*D7
 70
     1
 10
0.0
 20
0.0
 30
0.0
  3
*D7
  1

  0
LINE
  5
69
100
AcDbEntity
  8
0
  6
BYBLOCK
 62
     0
100
AcDbLine
 10
55.475834
 20
222.790301
 30
0.0
 11
51.842472
 21
222.790301
 31
0.0
  0
LINE
  5
6A
100
AcDbEntity
  8
0
  6
BYBLOCK
 62
     0
100
AcDbLine
 10
58.18826
 20
226.540301
 30
0.0
 11
51.842472
 21
226.540301
 31
0.0
  0
LINE
  5
6B
100
AcDbEntity
  8
0
  6
BYBLOCK
 62
     0
100
AcDbLine
 10
52.202472
 20
223.150301
 30
0.0
 11
52.202472
 21
223.87673
 31
0.0
  0
LINE
  5
6C
100
AcDbEntity
  8
0
  6
BYBLOCK
 62
     0
100
AcDbLine
 10
52.202472
 20
226.180301
 30
0.0
 11
52.202472
 21
225.453873
 31
0.0
  0
SOLID
  5
6D
100
AcDbEntity
  8
0
  6
BYBLOCK
 62
     0
100
AcDbTrace
 10
52.142472
 20
223.150301
 30
0.0
 11
52.262472
 21
223.150301
 31
0.0
 12
52.202472
 22
222.790301
 32
0.0
 13
52.202472
 23
222.790301
 33
0.0
  0
SOLID
  5
6E
100
AcDbEntity
  8
0
  6
BYBLOCK
 62
     0
100
AcDbTrace
 10
52.142472
 20
226.180301
 30
0.0
 11
52.262472
 21
226.180301
 31
0.0
 12
52.202472
 22
226.540301
 32
0.0
 13
52.202472
 23
226.540301
 33
0.0
  0
MTEXT
  5
6F
100
AcDbEntity
  8
0
  6
BYBLOCK
 62
     0
100
AcDbMText
 10
52.202472
 20
224.665301
 30
0.0
 40
0.36
 41
0.0
 71
     5
 72
     1
  1
\A1;3 3/4\P(95mm)
  7
ROMANS
  0
POINT
  5
70
100
AcDbEntity
  8
DEFPOINTS
  6
BYBLOCK
 62
     0
100
AcDbPoint
 10
55.600834
 20
222.790301
 30
0.0
  0
POINT
  5
71
100
AcDbEntity
  8
DEFPOINTS
  6
BYBLOCK
 62
     0
100
AcDbPoint
 10
58.31326
 20
226.540301
 30
0.0
  0
POINT
  5
72
100
AcDbEntity
  8
DEFPOINTS
  6
BYBLOCK
 62
     0
100
AcDbPoint
 10
52.202472
 20
226.540301
 30
0.0
  0
ENDBLK
  5
74
100
AcDbEntity
  8
0
100
AcDbBlockEnd
  0
BLOCK
  5
81
100
AcDbEntity
  8
0
100
AcDbBlockBegin
  2
*D8
 70
     1
 10
0.0
 20
0.0
 30
0.0
  3
*D8
  1

  0
LINE
  5
76
100
AcDbEntity
  8
0
  6
BYBLOCK
 62
     0
100
AcDbLine
 10
59.613039
 20
223.540301
 30
0.0
 11
64.827046
 21
223.540301
 31
0.0
  0
LINE
  5
77
100
AcDbEntity
  8
0
  6
BYBLOCK
 62
     0
100
AcDbLine
 10
60.825546
 20
223.290301
 30
0.0
 11
64.827046
 21
223.290301
 31
0.0
  0
LINE
  5
78
100
AcDbEntity
  8
0
  6
BYBLOCK
 62
     0
100
AcDbLine
 10
64.467046
 20
223.900301
 30
0.0
 11
64.467046
 21
224.260301
 31
0.0
  0
LINE
  5
79
100
AcDbEntity
  8
0
  6
BYBLOCK
 62
     0
100
AcDbLine
 10
64.467046
 20
222.930301
 30
0.0
 11
64.467046
 21
221.582461
 31
0.0
  0
LINE
  5
7A
100
AcDbEntity
  8
0
  6
BYBLOCK
 62
     0
100
AcDbLine
 10
64.467046
 20
221.582461
 30
0.0
 11
64.107046
 21
221.582461
 31
0.0
  0
SOLID
  5
7B
100
AcDbEntity
  8
0
  6
BYBLOCK
 62
     0
100
AcDbTrace
 10
64.407046
 20
223.900301
 30
0.0
 11
64.527046
 21
223.900301
 31
0.0
 12
64.467046
 22
223.540301
 32
0.0
 13
64.467046
 23
223.540301
 33
0.0
  0
SOLID
  5
7C
100
AcDbEntity
  8
0
  6
BYBLOCK
 62
     0
100
AcDbTrace
 10
64.407046
 20
222.930301
 30
0.0
 11
64.527046
 21
222.930301
 31
0.0
 12
64.467046
 22
223.290301
 32
0.0
 13
64.467046
 23
223.290301
 33
0.0
  0
MTEXT
  5
7D
100
AcDbEntity
  8
0
  6
BYBLOCK
 62
     0
100
AcDbMText
 10
63.069903
 20
221.582461
 30
0.0
 40
0.36
 41
0.0
 71
     5
 72
     1
  1
\A1;1/4\P(6mm)
  7
ROMANS
  0
POINT
  5
7E
100
AcDbEntity
  8
DEFPOINTS
  6
BYBLOCK
 62
     0
100
AcDbPoint
 10
59.488039
 20
223.540301
 30
0.0
  0
POINT
  5
7F
100
AcDbEntity
  8
DEFPOINTS
  6
BYBLOCK
 62
     0
100
AcDbPoint
 10
60.700546
 20
223.290301
 30
0.0
  0
POINT
  5
80
100
AcDbEntity
  8
DEFPOINTS
  6
BYBLOCK
 62
     0
100
AcDbPoint
 10
64.467046
 20
223.290301
 30
0.0
  0
ENDBLK
  5
82
100
AcDbEntity
  8
0
100
AcDbBlockEnd
  0
BLOCK
  5
EC
100
AcDbEntity
  8
0
100
AcDbBlockBegin
  2
A$C5F5B056E
 70
     0
 10
0.0
 20
0.0
 30
0.0
  3
A$C5F5B056E
  1

  0
LWPOLYLINE
  5
8C
100
AcDbEntity
  8
BORDER
100
AcDbPolyline
 90
        4
 70
     1
 43
0.109866
 10
16.113206
 20
21.429978
 10
0.054933
 20
21.429978
 10
0.054933
 20
0.054933
 10
16.113206
 20
0.054933
  0
MTEXT
  5
8D
102
{ACAD_REACTORS
330
8E
102
}
100
AcDbEntity
  8
R-DOOR-ANNO
  6
CONTINUOUS
100
AcDbMText
 10
11.344345
 20
14.532565
 30
0.0
 40
0.36
 41
0.0
 71
     4
 72
     1
  1
CLADDING
  7
ROMANS
  0
LEADER
  5
8E
100
AcDbEntity
  8
R-DOOR-ANNO
  6
CONTINUOUS
100
AcDbLeader
  3
STANDARD
 73
     0
 74
     0
 75
     1
 40
0.36
 41
2.451429
 76
     3
 10
9.203285
 20
15.220065
 30
0.0
 10
10.734345
 20
14.532565
 30
0.0
 10
11.234345
 20
14.532565
 30
0.0
 77
   256
340
8D
213
-0.0199999999999996
223
0.0
233
0.0
1001
ACAD
1000
DSTYLE
1002
{
1070
    40
1040
1.0
1070
    41
1040
0.5
1002
}
  0
LWPOLYLINE
  5
8F
100
AcDbEntity
  8
R-DOOR-DETL
100
AcDbPolyline
 90
       29
 70
     1
 43
0.0
 10
8.533633
 20
13.692031
 10
8.533633
 20
13.577031
 42
0.414214
 10
8.548633
 20
13.562031
 10
8.700633
 20
13.562031
 42
0.414214
 10
8.794633
 20
13.656031
 10
8.794633
 20
13.910948
 42
-0.136094
 10
8.798918
 20
13.926399
 10
9.077011
 20
14.389222
 42
0.414214
 10
9.066747
 20
14.430388
 10
9.006745
 20
14.466441
 42
0.136094
 10
8.991294
 20
14.470726
 10
8.875047
 20
14.470726
 42
-0.400921
 10
8.845078
 20
14.499359
 10
8.822687
 20
14.990088
 42
0.400921
 10
8.782729
 20
15.028265
 10
8.676769
 20
15.028265
 42
0.843039
 10
8.670207
 20
14.990021
 42
-0.317837
 10
8.676769
 20
14.980741
 10
8.676769
 20
14.128874
 42
-0.414214
 10
8.666927
 20
14.119031
 10
8.434633
 20
14.119031
 42
0.414214
 10
8.419633
 20
14.104031
 10
8.419633
 20
13.989031
 42
0.414214
 10
8.434633
 20
13.974031
 10
8.524633
 20
13.974031
 42
-0.414214
 10
8.649633
 20
13.849031
 10
8.649633
 20
13.722031
 42
-0.414214
 10
8.634633
 20
13.707031
 10
8.548633
 20
13.707031
 42
0.414214
  0
LWPOLYLINE
  5
90
100
AcDbEntity
  8
R-DOOR-DETL
100
AcDbPolyline
 90
        4
 70
     1
 43
0.0
 10
8.091343
 20
14.230741
 10
8.091343
 20
14.980741
 10
8.141343
 20
14.980741
 10
8.141343
 20
14.230741
  0
LWPOLYLINE
  5
91
100
AcDbEntity
  8
R-DOOR-DETL
100
AcDbPolyline
 90
        4
 70
     1
 43
0.0
 10
8.676769
 20
14.230741
 10
8.676769
 20
14.980741
 10
8.626769
 20
14.980741
 10
8.626769
 20
14.230741
  0
LINE
  5
92
100
AcDbEntity
  8
R-DOOR-DETL
100
AcDbLine
 10
8.141343
 20
17.240922
 30
0.0
 11
8.141343
 21
14.169031
 31
0.0
  0
LINE
  5
93
100
AcDbEntity
  8
R-DOOR-DETL
100
AcDbLine
 10
8.626769
 20
17.249332
 30
0.0
 11
8.626769
 21
14.169031
 31
0.0
  0
LINE
  5
94
100
AcDbEntity
  8
R-DOOR-DETL
100
AcDbLine
 10
8.193285
 20
17.222807
 30
0.0
 11
8.193285
 21
14.169031
 31
0.0
  0
LINE
  5
95
100
AcDbEntity
  8
R-DOOR-DETL
100
AcDbLine
 10
8.255785
 20
17.247499
 30
0.0
 11
8.255785
 21
14.169031
 31
0.0
  0
LINE
  5
96
100
AcDbEntity
  8
R-DOOR-DETL
100
AcDbLine
 10
8.318285
 20
17.28623
 30
0.0
 11
8.318285
 21
14.169031
 31
0.0
  0
LINE
  5
97
100
AcDbEntity
  8
R-DOOR-DETL
100
AcDbLine
 10
8.443285
 20
17.229159
 30
0.0
 11
8.443285
 21
14.169031
 31
0.0
  0
LINE
  5
98
100
AcDbEntity
  8
R-DOOR-DETL
100
AcDbLine
 10
8.505785
 20
17.276034
 30
0.0
 11
8.505785
 21
14.169031
 31
0.0
  0
LINE
  5
99
100
AcDbEntity
  8
R-DOOR-DETL
100
AcDbLine
 10
8.568285
 20
17.287114
 30
0.0
 11
8.568285
 21
14.169031
 31
0.0
  0
LINE
  5
9A
100
AcDbEntity
  8
R-DOOR-DETL
100
AcDbLine
 10
8.384671
 20
17.599293
 30
0.0
 11
8.384671
 21
14.169031
 31
0.0
  0
LWPOLYLINE
  5
9B
100
AcDbEntity
  8
R-DOOR-DETL
  6
CONTINUOUS
 62
     3
100
AcDbPolyline
 90
        8
 70
     1
 43
0.0
 10
9.170121
 20
15.251723
 42
-0.414214
 10
9.376121
 20
15.045723
 10
9.376121
 20
11.171731
 10
9.326121
 20
11.171731
 10
9.326121
 20
15.045723
 42
0.414214
 10
9.170121
 20
15.201723
 10
8.678201
 20
15.201723
 10
8.678201
 20
15.251723
  0
LWPOLYLINE
  5
9C
100
AcDbEntity
  8
R-DOOR-DETL
100
AcDbPolyline
 90
       70
 70
     1
 43
0.0
 10
9.085129
 20
12.265528
 10
9.151121
 20
12.265528
 42
-0.414214
 10
9.166121
 20
12.250528
 10
9.166121
 20
11.596731
 42
0.414214
 10
9.181121
 20
11.581731
 10
9.201121
 20
11.581731
 42
-0.414214
 10
9.216121
 20
11.566731
 10
9.216121
 20
11.186731
 42
0.414214
 10
9.231121
 20
11.171731
 10
9.301121
 20
11.171731
 42
0.414214
 10
9.316121
 20
11.186731
 10
9.316121
 20
15.045723
 42
0.414214
 10
9.160121
 20
15.201723
 10
8.688201
 20
15.201723
 42
0.414214
 10
8.678201
 20
15.191723
 10
8.678201
 20
15.122511
 42
0.414214
 10
8.688044
 20
15.112668
 10
8.849083
 20
15.112668
 42
-0.043661
 10
8.854293
 20
15.112213
 10
9.141331
 20
15.0616
 42
-0.36397
 10
9.166121
 20
15.032056
 10
9.166121
 20
14.613692
 42
-0.131652
 10
9.132627
 20
14.488692
 10
8.839148
 20
13.98037
 42
0.131652
 10
8.835129
 20
13.96537
 10
8.835129
 20
13.531435
 42
-0.414214
 10
8.775129
 20
13.471435
 10
8.385129
 20
13.471435
 10
7.995129
 20
13.471435
 42
-0.414214
 10
7.935129
 20
13.531435
 10
7.935129
 20
13.96537
 42
0.131652
 10
7.931109
 20
13.98037
 10
7.63763
 20
14.488692
 42
-0.131652
 10
7.604136
 20
14.613692
 10
7.604136
 20
15.032056
 42
-0.36397
 10
7.628927
 20
15.0616
 10
7.915964
 20
15.112213
 42
-0.043661
 10
7.921174
 20
15.112668
 10
8.082214
 20
15.112668
 42
0.414214
 10
8.092056
 20
15.122511
 10
8.092056
 20
15.191723
 42
0.414214
 10
8.082056
 20
15.201723
 10
7.610136
 20
15.201723
 42
0.414214
 10
7.454136
 20
15.045723
 10
7.454136
 20
11.186731
 42
0.414214
 10
7.469136
 20
11.171731
 10
7.539136
 20
11.171731
 42
0.414214
 10
7.554136
 20
11.186731
 10
7.554136
 20
11.566731
 42
-0.414214
 10
7.569136
 20
11.581731
 10
7.589136
 20
11.581731
 42
0.414214
 10
7.604136
 20
11.596731
 10
7.604136
 20
12.250528
 42
-0.414214
 10
7.619136
 20
12.265528
 10
7.685129
 20
12.265528
 42
0.414214
 10
7.700129
 20
12.280528
 10
7.700129
 20
12.450528
 42
0.414214
 10
7.685129
 20
12.465528
 10
7.619136
 20
12.465528
 42
-0.414214
 10
7.604136
 20
12.480528
 10
7.604136
 20
12.721731
 42
-0.414214
 10
7.634136
 20
12.751731
 10
8.385129
 20
12.751731
 10
9.136121
 20
12.751731
 42
-0.414214
 10
9.166121
 20
12.721731
 10
9.166121
 20
12.480528
 42
-0.414214
 10
9.151121
 20
12.465528
 10
9.085129
 20
12.465528
 42
0.414214
 10
9.070129
 20
12.450528
 10
9.070129
 20
12.280528
 42
0.414214
  0
LWPOLYLINE
  5
9D
100
AcDbEntity
  8
R-DOOR-DETL
100
AcDbPolyline
 90
       29
 70
     1
 43
0.0
 10
8.234478
 20
13.692031
 10
8.234478
 20
13.577031
 42
-0.414214
 10
8.219478
 20
13.562031
 10
8.067478
 20
13.562031
 42
-0.414214
 10
7.973478
 20
13.656031
 10
7.973478
 20
13.910948
 42
0.136094
 10
7.969193
 20
13.926399
 10
7.691101
 20
14.389222
 42
-0.414214
 10
7.701365
 20
14.430388
 10
7.761366
 20
14.466441
 42
-0.136094
 10
7.776818
 20
14.470726
 10
7.893065
 20
14.470726
 42
0.400921
 10
7.923033
 20
14.499359
 10
7.945425
 20
14.990088
 42
-0.400921
 10
7.985383
 20
15.028265
 10
8.091343
 20
15.028265
 42
-0.843039
 10
8.097904
 20
14.990021
 42
0.317837
 10
8.091343
 20
14.980741
 10
8.091343
 20
14.128874
 42
0.414214
 10
8.101185
 20
14.119031
 10
8.333478
 20
14.119031
 42
-0.414214
 10
8.348478
 20
14.104031
 10
8.348478
 20
13.989031
 42
-0.414214
 10
8.333478
 20
13.974031
 10
8.243478
 20
13.974031
 42
0.414214
 10
8.118478
 20
13.849031
 10
8.118478
 20
13.722031
 42
0.414214
 10
8.133478
 20
13.707031
 10
8.219478
 20
13.707031
 42
-0.414214
  0
LWPOLYLINE
  5
9E
100
AcDbEntity
  8
R-DOOR-DETL
  6
CONTINUOUS
 62
     3
100
AcDbPolyline
 90
        8
 70
     1
 43
0.0
 10
7.600136
 20
15.251723
 42
0.414214
 10
7.394136
 20
15.045723
 10
7.394136
 20
11.171731
 10
7.444136
 20
11.171731
 10
7.444136
 20
15.045723
 42
-0.414214
 10
7.600136
 20
15.201723
 10
8.092056
 20
15.201723
 10
8.092056
 20
15.251723
  0
TEXT
  5
9F
100
AcDbEntity
  8
R-DOOR-ANNO
  6
CONTINUOUS
 62
     7
100
AcDbText
 10
0.335656
 20
8.421543
 30
0.0
 40
0.4
  1
THRESHOLD
  7
ROMANS
100
AcDbText
  0
DIMENSION
  5
A0
100
AcDbEntity
  8
R-DOOR-ANNO
  6
CONTINUOUS
 62
     7
100
AcDbDimension
  2
*D7
 10
1.980555
 20
14.171731
 30
0.0
 11
1.980555
 21
12.296731
 31
0.0
 12
-50.221918
 22
-212.36857
 32
0.0
  1
3 3/4\P(95mm)
  3
ROMANS
100
AcDbAlignedDimension
 13
5.378917
 23
10.421731
 33
0.0
 14
8.091343
 24
14.171731
 34
0.0
 50
90.0
100
AcDbRotatedDimension
  0
TEXT
  5
A1
100
AcDbEntity
  8
R-DOOR-ANNO
  6
CONTINUOUS
100
AcDbText
 10
1.427701
 20
6.418492
 30
0.0
 40
0.625
  1
4" SQUARE DOOR RAIL CLAD
  7
ROMANS
 72
     1
 11
8.377106
 21
6.418492
 31
0.0
100
AcDbText
  0
INSERT
  5
A2
100
AcDbEntity
  8
R-DOOR-ANNO
  6
CONTINUOUS
100
AcDbBlockReference
  2
CRLINFO
 10
0.054933
 20
0.054933
 30
0.0
 41
0.625
 42
0.625
 43
0.625
  0
TEXT
  5
A3
100
AcDbEntity
  8
R-DOOR-ANNO
  6
CONTINUOUS
100
AcDbText
 10
12.980952
 20
0.367433
 30
0.0
 40
0.390625
  1
STYLE 14
  7
ROMANS
100
AcDbText
  0
DIMENSION
  5
A4
100
AcDbEntity
  8
R-DOOR-ANNO
  6
CONTINUOUS
 62
     7
100
AcDbDimension
  2
*D8
 10
14.245129
 20
10.921731
 30
0.0
 11
12.847986
 21
9.213891
 31
0.0
 12
-50.221918
 22
-212.36857
 32
0.0
 70
   128
  1
<>\P(6mm)
  3
ROMANS
100
AcDbAlignedDimension
 13
9.266121
 23
11.171731
 33
0.0
 14
10.478629
 24
10.921731
 34
0.0
 50
90.0
100
AcDbRotatedDimension
  0
MTEXT
  5
A5
102
{ACAD_REACTORS
330
B1
102
}
100
AcDbEntity
  8
R-DOOR-ANNO
  6
CONTINUOUS
100
AcDbMText
 10
11.335568
 20
12.692642
 30
0.0
 40
0.36
 41
0.0
 71
     4
 72
     1
  1
SHOE
  7
ROMANS
  0
MTEXT
  5
A6
102
{ACAD_REACTORS
330
B0
102
}
100
AcDbEntity
  8
R-DOOR-ANNO
  6
CONTINUOUS
100
AcDbMText
 10
11.343611
 20
13.555691
 30
0.0
 40
0.36
 41
0.0
 71
     4
 72
     1
  1
GLASS CLAMP
  7
ROMANS
  0
TEXT
  5
A7
100
AcDbEntity
  8
R-DOOR-ANNO
  6
CONTINUOUS
100
AcDbText
 10
4.359248
 20
5.57106
 30
0.0
 40
0.625
  1
WITH THRESHOLD
  7
ROMANS
 72
     1
 11
8.377106
 21
5.57106
 31
0.0
100
AcDbText
  0
LINE
  5
A8
100
AcDbEntity
  8
0
100
AcDbLine
 10
5.385129
 20
10.421731
 30
0.0
 11
11.385129
 21
10.421731
 31
0.0
  0
LINE
  5
A9
100
AcDbEntity
  8
0
100
AcDbLine
 10
6.291629
 20
10.421731
 30
0.0
 11
10.478629
 21
10.421731
 31
0.0
  0
LINE
  5
AA
100
AcDbEntity
  8
0
100
AcDbLine
 10
6.251154
 20
10.921731
 30
0.0
 11
7.894037
 21
10.921731
 31
0.0
  0
HATCH
  5
AB
100
AcDbEntity
  8
R-DOOR-PATT
  6
CONTINUOUS
 62
     5
100
AcDbHatch
 10
0.0
 20
0.0
 30
0.0
210
0.0
220
0.0
230
1.0
  2
ANSI31
 70
     0
 71
     0
 91
        2
 92
        7
 72
     0
 73
     1
 93
        8
 10
7.430536846807669
 20
10.42173146309264
 10
7.430536846807669
 20
10.45973146309265
 10
7.561879687738766
 20
10.45973146309265
 10
7.561879687738766
 20
10.65973146309264
 10
7.894036846807622
 20
10.65973146309264
 10
7.894036846807622
 20
10.92173146309264
 10
6.251154028285938
 20
10.92173146309264
 10
5.385128624501518
 20
10.42173146309264
 97
        0
 92
        7
 72
     0
 73
     1
 93
        9
 10
10.47862862450146
 20
10.42173146309264
 10
11.38512862450151
 20
10.42173146309264
 10
10.51910322071709
 20
10.92173146309264
 10
8.87603684680765
 20
10.92173146309264
 10
8.876036846807593
 20
10.65973146309264
 10
9.203725386152129
 20
10.65973146309264
 10
9.203725386152072
 20
10.45973146309265
 10
9.339720402195368
 20
10.45973146309265
 10
9.339720402195368
 20
10.42173146309264
 97
        0
 75
     0
 76
     1
 52
0.0
 41
1.0
 77
     0
 78
     1
 53
45.0
 43
-159.619915
 44
-5.579557
 45
-0.0883883476483184
 46
0.0883883476483185
 79
     0
 47
0.013117
 98
        2
 10
7.169494
 20
10.568639
 10
9.966157
 20
10.529289
  0
HATCH
  5
AC
100
AcDbEntity
  8
R-DOOR-PATT
  6
CONTINUOUS
 62
     5
100
AcDbHatch
 10
0.0
 20
0.0
 30
0.0
210
0.0
220
0.0
230
1.0
  2
ANSI31
 70
     0
 71
     0
 91
        1
 92
        7
 72
     0
 73
     1
 93
        4
 10
5.385128624501518
 20
10.42173146309264
 10
11.38512862450151
 20
10.42173146309264
 10
11.38512862450151
 20
8.42173146309264
 10
5.385128624501518
 20
8.42173146309264
 97
        0
 75
     0
 76
     1
 52
180.0
 41
2.5
 77
     0
 78
     1
 53
135.0
 43
-141.90412
 44
40.92302
 45
0.2209708691207961
 46
0.2209708691207961
 79
     0
 47
0.011976
 98
        1
 10
8.65793
 20
9.612638
  0
TEXT
  5
AD
100
AcDbEntity
  8
R-DOOR-ANNO
  6
CONTINUOUS
 62
     7
100
AcDbText
 10
-0.640111
 20
9.031725
 30
0.0
 40
0.4
  1
        1/2
  7
ROMANS
100
AcDbText
  0
LEADER
  5
AE
100
AcDbEntity
  8
R-DOOR-ANNO
  6
CONTINUOUS
100
AcDbLeader
  3
STANDARD
 76
     3
 10
6.45996
 20
10.632194
 30
0.0
 10
4.526146
 20
9.236753
 30
0.0
 10
4.136273
 20
9.236753
 30
0.0
 77
   256
1001
ACAD
1000
DSTYLE
1002
{
1070
    40
1040
1.0
1070
    41
1040
0.5
1002
}
  0
LINE
  5
AF
100
AcDbEntity
  8
0
  6
CONTINUOUS
100
AcDbLine
 10
5.385129
 20
10.421731
 30
0.0
 11
6.251154
 21
10.921731
 31
0.0
  0
LEADER
  5
B0
100
AcDbEntity
  8
R-DOOR-ANNO
  6
CONTINUOUS
100
AcDbLeader
  3
STANDARD
 73
     0
 74
     0
 75
     1
 40
0.36
 41
3.634286
 76
     3
 10
8.778984
 20
14.368191
 30
0.0
 10
10.733611
 20
13.555691
 30
0.0
 10
11.233611
 20
13.555691
 30
0.0
 77
   256
340
A6
213
-0.0199999999999996
223
0.0
233
0.0
1001
ACAD
1000
DSTYLE
1002
{
1070
    40
1040
1.0
1070
    41
1040
0.5
1002
}
  0
LEADER
  5
B1
100
AcDbEntity
  8
R-DOOR-ANNO
  6
CONTINUOUS
100
AcDbLeader
  3
STANDARD
 73
     0
 74
     0
 75
     1
 40
0.36
 41
1.337143
 76
     3
 10
9.194508
 20
13.380142
 30
0.0
 10
10.725568
 20
12.692642
 30
0.0
 10
11.225568
 20
12.692642
 30
0.0
 77
   256
340
A5
213
-0.0199999999999996
223
0.0
233
0.0
1001
ACAD
1000
DSTYLE
1002
{
1070
    40
1040
1.0
1070
    41
1040
0.5
1002
}
  0
LINE
  5
B2
100
AcDbEntity
  8
R-DOOR-DETL
100
AcDbLine
 10
9.067629
 20
12.201731
 30
0.0
 11
9.067629
 21
12.751731
 31
0.0
  0
LINE
  5
B3
100
AcDbEntity
  8
R-DOOR-DETL
100
AcDbLine
 10
8.799477
 20
12.318714
 30
0.0
 11
8.711257
 21
12.381947
 31
0.0
  0
LINE
  5
B4
100
AcDbEntity
  8
R-DOOR-DETL
100
AcDbLine
 10
8.898349
 20
12.363498
 30
0.0
 11
8.799477
 21
12.318714
 31
0.0
  0
LINE
  5
B5
100
AcDbEntity
  8
R-DOOR-DETL
100
AcDbLine
 10
8.4394
 20
12.332731
 30
0.0
 11
8.49367
 21
12.426731
 31
0.0
  0
LINE
  5
B6
100
AcDbEntity
  8
R-DOOR-DETL
100
AcDbLine
 10
8.330858
 20
12.332731
 30
0.0
 11
8.276587
 21
12.426731
 31
0.0
  0
CIRCLE
  5
B7
100
AcDbEntity
  8
R-DOOR-DETL
100
AcDbCircle
 10
8.385129
 20
12.426731
 30
0.0
 40
0.1625
  0
CIRCLE
  5
B8
100
AcDbEntity
  8
R-DOOR-DETL
100
AcDbCircle
 10
8.385129
 20
12.426731
 30
0.0
 40
0.1875
  0
CIRCLE
  5
B9
100
AcDbEntity
  8
R-DOOR-DETL
100
AcDbCircle
 10
8.810129
 20
12.426731
 30
0.0
 40
0.1625
  0
CIRCLE
  5
BA
100
AcDbEntity
  8
R-DOOR-DETL
100
AcDbCircle
 10
8.810129
 20
12.426731
 30
0.0
 40
0.1875
  0
LINE
  5
BB
100
AcDbEntity
  8
R-DOOR-DETL
100
AcDbLine
 10
7.854996
 20
12.39974
 30
0.0
 11
7.930938
 21
12.322188
 31
0.0
  0
CIRCLE
  5
BC
100
AcDbEntity
  8
R-DOOR-DETL
100
AcDbCircle
 10
7.960129
 20
12.426731
 30
0.0
 40
0.1625
  0
CIRCLE
  5
BD
100
AcDbEntity
  8
R-DOOR-DETL
100
AcDbCircle
 10
7.960129
 20
12.426731
 30
0.0
 40
0.1875
  0
LINE
  5
BE
100
AcDbEntity
  8
R-DOOR-DETL
100
AcDbLine
 10
7.930938
 20
12.322188
 30
0.0
 11
8.03607
 21
12.34918
 31
0.0
  0
LINE
  5
BF
100
AcDbEntity
  8
R-DOOR-DETL
100
AcDbLine
 10
8.330858
 20
12.332731
 30
0.0
 11
8.4394
 21
12.332731
 31
0.0
  0
LINE
  5
C0
100
AcDbEntity
  8
R-DOOR-DETL
100
AcDbLine
 10
8.632222
 20
13.83876
 30
0.0
 11
8.132222
 21
13.83876
 31
0.0
  0
LINE
  5
C1
100
AcDbEntity
  8
R-DOOR-DETL
100
AcDbLine
 10
8.632222
 20
13.71376
 30
0.0
 11
8.132222
 21
13.71376
 31
0.0
  0
LINE
  5
C2
100
AcDbEntity
  8
R-DOOR-DETL
100
AcDbLine
 10
8.330858
 20
12.520731
 30
0.0
 11
8.4394
 21
12.520731
 31
0.0
  0
LINE
  5
C3
100
AcDbEntity
  8
R-DOOR-DETL
100
AcDbLine
 10
8.276587
 20
12.426731
 30
0.0
 11
8.330858
 21
12.520731
 31
0.0
  0
LINE
  5
C4
100
AcDbEntity
  8
R-DOOR-DETL
100
AcDbLine
 10
8.03607
 20
12.34918
 30
0.0
 11
8.065261
 21
12.453723
 31
0.0
  0
LINE
  5
C5
100
AcDbEntity
  8
R-DOOR-DETL
100
AcDbLine
 10
7.884187
 20
12.504283
 30
0.0
 11
7.989319
 21
12.531275
 31
0.0
  0
LINE
  5
C6
100
AcDbEntity
  8
R-DOOR-DETL
100
AcDbLine
 10
7.854996
 20
12.39974
 30
0.0
 11
7.884187
 21
12.504283
 31
0.0
  0
LINE
  5
C7
100
AcDbEntity
  8
R-DOOR-DETL
100
AcDbLine
 10
7.989319
 20
12.531275
 30
0.0
 11
8.065261
 21
12.453723
 31
0.0
  0
LINE
  5
C8
100
AcDbEntity
  8
R-DOOR-DETL
100
AcDbLine
 10
8.132222
 20
13.83876
 30
0.0
 11
8.132222
 21
13.71376
 31
0.0
  0
LINE
  5
C9
100
AcDbEntity
  8
R-DOOR-DETL
100
AcDbLine
 10
8.909001
 20
12.471516
 30
0.0
 11
8.82078
 21
12.534749
 31
0.0
  0
LINE
  5
CA
100
AcDbEntity
  8
R-DOOR-DETL
100
AcDbLine
 10
8.82078
 20
12.534749
 30
0.0
 11
8.721908
 21
12.489965
 31
0.0
  0
LINE
  5
CB
100
AcDbEntity
  8
R-DOOR-DETL
100
AcDbLine
 10
8.49367
 20
12.426731
 30
0.0
 11
8.4394
 21
12.520731
 31
0.0
  0
LINE
  5
CC
100
AcDbEntity
  8
R-DOOR-DETL
100
AcDbLine
 10
8.721908
 20
12.489965
 30
0.0
 11
8.711257
 21
12.381947
 31
0.0
  0
LINE
  5
CD
100
AcDbEntity
  8
R-DOOR-DETL
100
AcDbLine
 10
8.909001
 20
12.471516
 30
0.0
 11
8.898349
 21
12.363498
 31
0.0
  0
LINE
  5
CE
100
AcDbEntity
  8
R-DOOR-DETL
100
AcDbLine
 10
8.632222
 20
13.83876
 30
0.0
 11
8.632222
 21
13.71376
 31
0.0
  0
LWPOLYLINE
  5
CF
100
AcDbEntity
  8
R-DOOR-DETL
100
AcDbPolyline
 90
        4
 70
     1
 43
0.0
 10
8.351185
 20
14.119031
 10
8.101185
 20
14.119031
 10
8.101185
 20
14.169031
 10
8.351185
 20
14.169031
  0
LWPOLYLINE
  5
D0
100
AcDbEntity
  8
R-DOOR-DETL
100
AcDbPolyline
 90
        4
 70
     1
 43
0.0
 10
8.416927
 20
14.119031
 10
8.666927
 20
14.119031
 10
8.666927
 20
14.169031
 10
8.416927
 20
14.169031
  0
LINE
  5
D1
100
AcDbEntity
  8
0
  6
CONTINUOUS
100
AcDbLine
 10
11.385129
 20
10.421731
 30
0.0
 11
10.519103
 21
10.921731
 31
0.0
  0
LINE
  5
D2
100
AcDbEntity
  8
R-DOOR-DETL
100
AcDbLine
 10
8.876037
 20
11.314214
 30
0.0
 11
8.876037
 21
10.659731
 31
0.0
  0
LINE
  5
D3
100
AcDbEntity
  8
R-DOOR-DETL
100
AcDbLine
 10
8.810037
 20
11.921731
 30
0.0
 11
7.960037
 21
11.921731
 31
0.0
  0
LINE
  5
D4
100
AcDbEntity
  8
R-DOOR-DETL
100
AcDbLine
 10
8.876037
 20
11.314214
 30
0.0
 11
7.894037
 21
11.314214
 31
0.0
  0
LWPOLYLINE
  5
D5
100
AcDbEntity
  8
R-DOOR-DETL
100
AcDbPolyline
 90
        8
 70
     1
 43
0.0
 10
8.763229
 20
11.333731
 42
0.414214
 10
8.888229
 20
11.458731
 10
8.888229
 20
12.050731
 42
0.414214
 10
8.763229
 20
12.175731
 10
8.007029
 20
12.175731
 42
0.414214
 10
7.882029
 20
12.050731
 10
7.882029
 20
11.458731
 42
0.414214
 10
8.007029
 20
11.333731
  0
LINE
  5
D6
100
AcDbEntity
  8
R-DOOR-DETL
100
AcDbLine
 10
7.894037
 20
11.314214
 30
0.0
 11
7.894037
 21
10.659731
 31
0.0
  0
LINE
  5
D7
100
AcDbEntity
  8
R-DOOR-DETL
100
AcDbLine
 10
7.960037
 20
11.921731
 30
0.0
 11
7.960037
 21
11.314214
 31
0.0
  0
LINE
  5
D8
100
AcDbEntity
  8
R-DOOR-DETL
100
AcDbLine
 10
8.015544
 20
11.921731
 30
0.0
 11
8.015544
 21
11.314214
 31
0.0
  0
LINE
  5
D9
100
AcDbEntity
  8
R-DOOR-DETL
100
AcDbLine
 10
8.75453
 20
11.921731
 30
0.0
 11
8.75453
 21
11.314214
 31
0.0
  0
LINE
  5
DA
100
AcDbEntity
  8
R-DOOR-DETL
100
AcDbLine
 10
8.810037
 20
11.921731
 30
0.0
 11
8.810037
 21
11.314214
 31
0.0
  0
LINE
  5
DB
100
AcDbEntity
  8
R-DOOR-DETL
100
AcDbLine
 10
8.091343
 20
14.169031
 30
0.0
 11
8.666927
 21
14.169031
 31
0.0
  0
LINE
  5
DC
100
AcDbEntity
  8
0
100
AcDbLine
 10
8.876037
 20
10.921731
 30
0.0
 11
10.519103
 21
10.921731
 31
0.0
  0
INSERT
  5
DD
100
AcDbEntity
  8
4-2
  6
CONTINUOUS
 62
     4
100
AcDbBlockReference
  2
BSCREW
 10
8.385129
 20
13.471435
 30
0.0
  0
LINE
  5
DE
100
AcDbEntity
  8
R-DOOR-DETL
100
AcDbLine
 10
7.702629
 20
12.201731
 30
0.0
 11
7.702629
 21
12.751731
 31
0.0
  0
LWPOLYLINE
  5
DF
100
AcDbEntity
  8
R-DOOR-DETL
100
AcDbPolyline
 90
       32
 70
     1
 43
0.0
 10
9.065129
 20
12.190731
 10
9.065129
 20
12.460528
 42
-0.414214
 10
9.080129
 20
12.475528
 10
9.146121
 20
12.475528
 42
0.414214
 10
9.161121
 20
12.490528
 10
9.161121
 20
12.720731
 42
0.414214
 10
9.130121
 20
12.751731
 10
8.986509
 20
12.751731
 42
0.267949
 10
8.959662
 20
12.736231
 10
8.853949
 20
12.55313
 42
0.40146
 10
8.864136
 20
12.511487
 42
-3.430162
 10
8.756121
 20
12.511487
 42
0.40146
 10
8.766309
 20
12.55313
 10
8.660595
 20
12.736231
 42
0.267949
 10
8.633748
 20
12.751731
 10
8.136509
 20
12.751731
 42
0.267949
 10
8.109662
 20
12.736231
 10
8.003949
 20
12.55313
 42
0.40146
 10
8.014136
 20
12.511487
 42
-3.430162
 10
7.906121
 20
12.511487
 42
0.40146
 10
7.916309
 20
12.55313
 10
7.810595
 20
12.736231
 42
0.267949
 10
7.783748
 20
12.751731
 10
7.640136
 20
12.751731
 42
0.414214
 10
7.609136
 20
12.720731
 10
7.609136
 20
12.490528
 42
0.414214
 10
7.624136
 20
12.475528
 10
7.690129
 20
12.475528
 42
-0.414214
 10
7.705129
 20
12.460528
 10
7.705129
 20
12.190731
 42
0.414214
 10
7.720129
 20
12.175731
 10
9.050129
 20
12.175731
 42
0.414214
  0
LINE
  5
E0
100
AcDbEntity
  8
R-DOOR-DETL
100
AcDbLine
 10
7.702629
 20
12.201731
 30
0.0
 11
9.067629
 21
12.201731
 31
0.0
  0
LWPOLYLINE
  5
E1
100
AcDbEntity
  8
R-DOOR-DETL
100
AcDbPolyline
 90
       21
 70
     1
 43
0.0
 10
8.514238
 20
13.087228
 42
0.939516
 10
8.430027
 20
13.036649
 42
-2.169752
 10
8.340231
 20
13.036649
 42
0.939516
 10
8.256019
 20
13.087228
 42
0.106196
 10
8.230883
 20
13.02636
 42
-0.362414
 10
8.201368
 20
13.001731
 10
7.91284
 20
13.001731
 42
-0.414214
 10
7.88184
 20
13.032731
 10
7.88184
 20
13.192774
 42
0.564167
 10
7.809736
 20
13.236338
 42
-1.903207
 10
7.799143
 20
13.333024
 42
0.226984
 10
7.840024
 20
13.321435
 10
8.385129
 20
13.321435
 10
8.930233
 20
13.321435
 42
0.226984
 10
8.971115
 20
13.333024
 42
-1.903207
 10
8.960522
 20
13.236338
 42
0.564167
 10
8.888417
 20
13.192774
 10
8.888417
 20
13.032731
 42
-0.414214
 10
8.857417
 20
13.001731
 10
8.56889
 20
13.001731
 42
-0.362414
 10
8.539375
 20
13.02636
 42
0.106196
  0
LINE
  5
E2
100
AcDbEntity
  8
R-DOOR-DETL
100
AcDbLine
 10
7.702629
 20
12.626731
 30
0.0
 11
9.067629
 21
12.626731
 31
0.0
  0
LINE
  5
E3
100
AcDbEntity
  8
R-DOOR-DETL
100
AcDbLine
 10
7.702629
 20
12.751731
 30
0.0
 11
9.067629
 21
12.751731
 31
0.0
  0
LWPOLYLINE
  5
E4
100
AcDbEntity
  8
R-DOOR-DETL
100
AcDbPolyline
 90
        9
 70
     0
 43
0.0
 10
7.435052
 20
10.421731
 10
9.344235
 20
10.421731
 10
9.344235
 20
10.459731
 10
9.20824
 20
10.459731
 10
9.20824
 20
10.659731
 10
7.566395
 20
10.659731
 10
7.566395
 20
10.459731
 10
7.435052
 20
10.459731
 10
7.435052
 20
10.421731
  0
LWPOLYLINE
  5
E5
100
AcDbEntity
  8
R-DOOR-DETL
100
AcDbPolyline
 90
        2
 70
     0
 43
0.0
 10
7.435052
 20
10.459731
 10
9.344235
 20
10.459731
  0
DIMENSION
  5
E6
100
AcDbEntity
  8
R-DOOR-ANNO
  6
CONTINUOUS
 62
     7
100
AcDbDimension
  2
*D6
 10
9.376121
 20
16.254968
 30
0.0
 11
10.944693
 21
16.254968
 31
0.0
 12
-50.221918
 22
-212.36857
 32
0.0
  1
2\P(51mm)
  3
ROMANS
100
AcDbAlignedDimension
 13
7.394136
 23
15.045723
 33
0.0
 14
9.376121
 24
15.045723
 34
0.0
100
AcDbRotatedDimension
  0
LINE
  5
E7
100
AcDbEntity
  8
R-DOOR-DETL
100
AcDbLine
 10
8.231333
 20
17.21082
 30
0.0
 11
8.135785
 21
17.240922
 31
0.0
  0
LINE
  5
E8
100
AcDbEntity
  8
R-DOOR-DETL
100
AcDbLine
 10
8.418833
 20
17.21082
 30
0.0
 11
8.293833
 21
17.30457
 31
0.0
  0
LINE
  5
E9
100
AcDbEntity
  8
R-DOOR-DETL
100
AcDbLine
 10
8.293833
 20
17.30457
 30
0.0
 11
8.231333
 21
17.21082
 31
0.0
  0
LINE
  5
EA
100
AcDbEntity
  8
R-DOOR-DETL
100
AcDbLine
 10
8.543833
 20
17.30457
 30
0.0
 11
8.418833
 21
17.21082
 31
0.0
  0
LINE
  5
EB
100
AcDbEntity
  8
R-DOOR-DETL
100
AcDbLine
 10
8.621212
 20
17.249332
 30
0.0
 11
8.543833
 21
17.30457
 31
0.0
  0
ENDBLK
  5
ED
100
AcDbEntity
  8
0
100
AcDbBlockEnd
  0
BLOCK
  5
281
100
AcDbEntity
  8
0
100
AcDbBlockBegin
  2
A$C6BE867F4
 70
     0
 10
0.0
 20
0.0
 30
0.0
  3
A$C6BE867F4
  1

  0
MTEXT
  5
27C
100
AcDbEntity
  8
0
 62
     4
100
AcDbMText
 10
2.434972
 20
2.319778
 30
0.0
 40
0.274008
 41
6.855394
 71
     1
 72
     5
  1
\fArial|b1|i0|c0|p34;DOOR RAIL SYSTEM
  0
LWPOLYLINE
  5
27D
100
AcDbEntity
  8
0
 62
     4
100
AcDbPolyline
 90
        2
 70
     0
 43
0.030704
 10
0.137665
 20
1.940905
 10
6.158597
 20
1.940905
  0
MTEXT
  5
27E
100
AcDbEntity
  8
0
 62
     4
100
AcDbMText
 10
0.152731
 20
1.682964
 30
0.0
 40
0.242751
 41
6.068763
 71
     1
 72
     5
  1
\fArial|b1|i1|c0|p34;C.R. Laurence Architectural Products
  0
MTEXT
  5
27F
100
AcDbEntity
  8
0
 62
     4
100
AcDbMText
 10
0.157672
 20
1.238797
 30
0.0
 40
0.191898
 41
6.0133
 71
     1
 72
     5
  1
\fArial|b0|i1|c0|p34;Phone Orders (800) 421-6144\PFax Orders     (800) 262-3299\PWWW.CRLAURENCE.COM\PPatent Pending
  0
INSERT
  5
280
100
AcDbEntity
  8
0
 62
     4
100
AcDbBlockReference
  2
A$C2189253D
 10
0.143797
 20
2.032527
 30
0.0
 41
2.535564
 42
2.535564
 43
2.535564
  0
ENDBLK
  5
282
100
AcDbEntity
  8
0
100
AcDbBlockEnd
  0
BLOCK
  5
285
100
AcDbEntity
  8
0
100
AcDbBlockBegin
  2
A$C0E897680
 70
     0
 10
0.0
 20
0.0
 30
0.0
  3
A$C0E897680
  1

  0
INSERT
  5
284
100
AcDbEntity
  8
0
100
AcDbBlockReference
  2
A$C6BE867F4
 10
0.0
 20
0.0
 30
0.0
  0
ENDBLK
  5
286
100
AcDbEntity
  8
0
100
AcDbBlockEnd
  0
BLOCK
  5
333
100
AcDbEntity
  8
0
100
AcDbBlockBegin
  2
A$C2CC70F12
 70
     0
 10
0.0
 20
0.0
 30
0.0
  3
A$C2CC70F12
  1

  0
LINE
  5
2B3
100
AcDbEntity
  8
0
 62
     3
100
AcDbLine
 10
2.060975
 20
2.704473
 30
0.0
 11
0.783024
 21
3.442299
 31
0.0
  0
LINE
  5
2B4
100
AcDbEntity
  8
2
  6
CONTINUOUS
 62
     4
100
AcDbLine
 10
1.786495
 20
3.62161
 30
0.0
 11
1.196153
 21
3.280776
 31
0.0
  0
LINE
  5
2B5
100
AcDbEntity
  8
2
  6
CONTINUOUS
 62
     4
100
AcDbLine
 10
1.778701
 20
3.62611
 30
0.0
 11
1.196153
 21
3.289776
 31
0.0
  0
LINE
  5
2B6
100
AcDbEntity
  8
0
 62
     3
100
AcDbLine
 10
0.596641
 20
3.592515
 30
0.0
 11
1.758216
 21
2.92188
 31
0.0
  0
LWPOLYLINE
  5
2B7
100
AcDbEntity
  8
1
100
AcDbPolyline
 90
        2
 70
     0
 43
0.01
 10
0.837546
 20
4.191443
 10
2.692201
 20
5.262228
  0
LINE
  5
2B8
100
AcDbEntity
  8
1
  6
CONTINUOUS
100
AcDbLine
 10
0.837546
 20
4.168943
 30
0.0
 11
2.622425
 21
3.149693
 31
0.0
  0
HATCH
  5
2B9
100
AcDbEntity
  8
2
  6
CONTINUOUS
 62
     9
100
AcDbHatch
 10
0.0
 20
0.0
 30
0.0
210
0.0
220
0.0
230
1.0
  2
ANSI31
 70
     0
 71
     0
 91
        1
 92
        7
 72
     1
 73
     1
 93
        7
 10
0.8375463034832293
 20
4.168942601918175
 42
0.0
 10
0.8375463034832293
 20
4.191442601918183
 42
0.0
 10
2.692671266206861
 20
5.262499498527063
 42
0.0369683020279065
 10
2.387135748755678
 20
5.32634986802968
 42
0.0
 10
0.5194014351541548
 20
4.248012959297128
 42
0.0
 10
0.5194014351541548
 20
3.687979681839721
 42
0.0
 10
1.094999976384979
 20
4.020301654564505
 42
0.0
 97
        0
 75
     0
 76
     1
 52
0.0
 41
0.05
 77
     0
 78
     1
 53
45.0
 43
-22.088823
 44
-30.099459
 45
-0.0044194173824159
 46
0.0044194173824159
 79
     0
 47
0.022773
 98
        1
 10
0.78998
 20
4.120982
  0
HATCH
  5
2BA
100
AcDbEntity
  8
2
  6
CONTINUOUS
 62
     9
100
AcDbHatch
 10
0.0
 20
0.0
 30
0.0
210
0.0
220
0.0
230
1.0
  2
ANSI31
 70
     0
 71
     0
 91
        1
 92
        7
 72
     1
 73
     1
 93
        8
 10
2.69687170811316
 20
5.261287318096478
 42
0.0
 10
2.693775529804977
 20
5.259499738716797
 42
0.0
 10
2.694000529804984
 20
5.259110027285089
 42
0.0
 10
2.694225529804977
 20
5.258720315853395
 42
0.0
 10
2.694450529804985
 20
5.258330604421686
 42
0.0
 10
0.8420463034832401
 20
4.188844525706826
 42
0.0
 10
2.622424660682963
 20
3.160942601918179
 42
0.0
 10
4.077246005126138
 20
4.000884096755257
 42
0.2330962772361932
 97
        0
 75
     0
 76
     1
 52
0.0
 41
0.05
 77
     0
 78
     1
 53
45.0
 43
-22.088823
 44
-30.099459
 45
-0.0044194173824159
 46
0.0044194173824159
 79
     0
 47
0.017346
 98
        1
 10
2.503886
 20
4.322023
  0
LINE
  5
2BB
100
AcDbEntity
  8
1
  6
CONTINUOUS
 62
     5
100
AcDbLine
 10
0.839796
 20
4.187545
 30
0.0
 11
2.694451
 21
5.258331
 31
0.0
  0
LINE
  5
2BC
100
AcDbEntity
  8
1
  6
CONTINUOUS
 62
     5
100
AcDbLine
 10
0.519401
 20
4.248013
 30
0.0
 11
2.386665
 21
5.326078
 31
0.0
  0
LINE
  5
2BD
100
AcDbEntity
  8
1
  6
CONTINUOUS
 62
     5
100
AcDbLine
 10
0.499916
 20
4.259263
 30
0.0
 11
2.354635
 21
5.330086
 31
0.0
  0
LINE
  5
2BE
100
AcDbEntity
  8
1
  6
CONTINUOUS
100
AcDbLine
 10
0.519401
 20
4.248013
 30
0.0
 11
2.386665
 21
5.326078
 31
0.0
  0
LINE
  5
2BF
100
AcDbEntity
  8
1
  6
CONTINUOUS
 62
     5
100
AcDbLine
 10
0.499916
 20
4.259263
 30
0.0
 11
2.354635
 21
5.330086
 31
0.0
  0
LINE
  5
2C0
100
AcDbEntity
  8
1
  6
CONTINUOUS
 62
     5
100
AcDbLine
 39
0.09
 10
0.837546
 20
4.168943
 30
0.0
 11
2.622425
 21
3.138443
 31
0.0
  0
LINE
  5
2C1
100
AcDbEntity
  8
1
  6
CONTINUOUS
 62
     5
100
AcDbLine
 39
0.09
 10
0.837546
 20
4.191443
 30
0.0
 11
2.622425
 21
3.160943
 31
0.0
  0
LINE
  5
2C2
100
AcDbEntity
  8
1
  6
CONTINUOUS
100
AcDbLine
 10
0.837546
 20
4.168943
 30
0.0
 11
2.622425
 21
3.149693
 31
0.0
  0
LINE
  5
2C3
100
AcDbEntity
  8
1
  6
CONTINUOUS
100
AcDbLine
 39
0.09
 10
0.837546
 20
4.168943
 30
0.0
 11
2.622425
 21
3.138443
 31
0.0
  0
LINE
  5
2C4
100
AcDbEntity
  8
1
  6
CONTINUOUS
100
AcDbLine
 39
0.09
 10
0.837546
 20
4.191443
 30
0.0
 11
2.622425
 21
3.160943
 31
0.0
  0
HATCH
  5
2C5
100
AcDbEntity
  8
2
  6
CONTINUOUS
 62
     9
100
AcDbHatch
 10
0.0
 20
0.0
 30
0.0
210
0.0
220
0.0
230
1.0
  2
SOLID
 70
     1
 71
     0
 91
        2
 92
       23
 72
     1
 73
     1
 93
       20
 10
2.060974745687733
 20
2.704473487113446
 42
0.0
 10
2.055457602834383
 20
2.694917515378833
 42
0.6681786379192962
 10
2.068112102884359
 20
2.678425849833075
 42
0.0
 10
2.095808644920413
 20
2.685847115904763
 42
0.6681786379192695
 10
2.097979273514493
 20
2.702334676975425
 42
0.0
 10
2.090965287329357
 20
2.706384203787521
 42
-0.6681786379192408
 10
2.0920506016264
 20
2.714627984322845
 42
0.0
 10
2.103971945250027
 20
2.717822298719497
 42
0.6681786379193185
 10
2.104514602398555
 20
2.721944188987166
 42
0.0
 10
1.758215893182001
 20
2.92187984197335
 42
0.0
 10
0.5966408688427905
 20
3.592515494959542
 42
0.668178637919208
 10
0.5933425357336369
 20
3.589984594949555
 42
0.0
 10
0.5965368501302848
 20
3.578063251325914
 42
-0.6681786379193225
 10
0.5899401839119811
 20
3.573001451305927
 42
0.0
 10
0.5829261977268452
 20
3.577050978118009
 42
0.6681786379193126
 10
0.5697328652902521
 20
3.56692737807802
 42
0.0
 10
0.5771541313619402
 20
3.539230836041966
 42
0.6681786379193007
 10
0.5977635827002743
 20
3.536517550299379
 42
0.0
 10
0.6032807255536206
 20
3.546073522033978
 42
0.0
 10
0.7830243283511571
 20
3.442298504573699
 42
0.0
 97
        0
 92
        7
 72
     1
 73
     1
 93
       37
 10
0.4786562352773025
 20
3.664455429722636
 42
0.4142135623731299
 10
0.4719062352772952
 20
3.657705429722653
 42
0.0
 10
0.4719062352772952
 20
2.876955429722642
 42
0.0
 10
2.225607677940782
 20
1.864455429722653
 42
0.0
 10
2.225607677940796
 20
2.645205429722651
 42
0.1316524975873667
 10
2.220485649386336
 20
2.654077043416762
 42
0.0
 10
2.106940541542552
 20
2.719632341995534
 42
0.0376464264871547
 10
2.10559101889385
 20
2.719530588374496
 42
-0.2823673447488831
 10
2.103971945250027
 20
2.717822298719497
 42
0.0
 10
2.100464849823769
 20
2.716882575332249
 42
0.5149511874561723
 10
2.103136977186888
 20
2.702475571912202
 42
0.0
 10
2.115081037569087
 20
2.696905965086514
 42
0.0
 10
2.101582095009792
 20
2.690623270299028
 42
-0.2180320882791709
 10
2.095808644920413
 20
2.685847115904763
 42
0.0
 10
2.085229588924551
 20
2.683012466394004
 42
0.0
 10
2.073793750833981
 20
2.677689984277591
 42
0.0
 10
2.059168750833979
 20
2.677689984277591
 42
1.0
 10
2.059168750833979
 20
2.657439984277601
 42
0.0
 10
2.133360190345218
 20
2.635356851152096
 42
-0.5578319223640622
 10
2.189607677940788
 20
2.567805429722653
 42
0.0
 10
2.189607677940788
 20
1.965705429722646
 42
-0.5129809895031772
 10
2.168216834441668
 20
1.949551572892943
 42
0.0
 10
0.5742970787764144
 20
2.869801572892953
 42
-0.2397239142270584
 10
0.5079062352773001
 20
2.978205429722649
 42
0.0
 10
0.5080574475501117
 20
3.561106051438358
 42
-1.046264757040728
 10
0.5211553086348922
 20
3.564619089548045
 42
0.0
 10
0.5666306739617042
 20
3.522487833933695
 42
0.6309633877406034
 10
0.5816934713848632
 20
3.532840536983528
 42
-0.1798205534880095
 10
0.5771541313619402
 20
3.539230836041966
 42
0.0
 10
0.5771342662908446
 20
3.539304973496612
 42
0.0
 10
0.5640900524313466
 20
3.564107910459753
 42
0.0
 10
0.5727573233652415
 20
3.582258569201002
 42
0.0
 10
0.585885986493409
 20
3.581109960010039
 42
0.293926452988122
 10
0.5945049681710231
 20
3.585646338032873
 42
0.0
 10
0.5933425357336369
 20
3.589984594949555
 42
-0.4565659268922137
 10
0.595247872715472
 20
3.592800920360446
 42
0.1814616707363846
 10
0.5913371720208432
 20
3.597771238822318
 42
0.0
 97
        0
 75
     0
 76
     1
 47
0.011788
 98
        2
 10
0.812673
 20
3.442229
 10
0.541954
 20
3.601363
  0
HATCH
  5
2C6
100
AcDbEntity
  8
1
  6
CONTINUOUS
 62
     5
100
AcDbHatch
 10
0.0
 20
0.0
 30
0.0
210
0.0
220
0.0
230
1.0
  2
SOLID
 70
     1
 71
     0
 91
        7
 92
        7
 72
     1
 73
     1
 93
        4
 10
2.386665012353486
 20
5.32607808824116
 42
0.003817909443379
 10
2.354635270827916
 20
5.330085708349287
 42
0.0
 10
0.4999158635690009
 20
4.259262959297132
 42
0.0
 10
0.5194014351541548
 20
4.248012959297128
 42
0.0
 97
        0
 92
        7
 72
     0
 73
     1
 93
        4
 10
0.5194014351541548
 20
4.248012959297128
 10
0.4999158635690009
 20
4.259262959297132
 10
0.4999158635690009
 20
3.676729681839731
 10
0.5194014351541548
 20
3.687979681839721
 97
        0
 92
        7
 72
     0
 73
     1
 93
        4
 10
0.8375463034832293
 20
4.191442601918183
 10
0.8375463034832293
 20
4.168942601918175
 10
2.622424660682963
 20
3.149692601918175
 10
2.622424660682963
 20
3.160942601918179
 97
        0
 92
        7
 72
     1
 73
     1
 93
        4
 10
4.083872956237161
 20
3.982210168763117
 42
0.002332807343841
 10
4.07677526872418
 20
4.000612316966865
 42
0.0
 10
2.622424660682963
 20
3.160942601918179
 42
0.0
 10
2.622424660682963
 20
3.138442601918185
 42
0.0
 97
        0
 92
        7
 72
     1
 73
     1
 93
        4
 10
4.197510469716053
 20
3.55128289151105
 42
0.0024685623280776
 10
4.194243924470487
 20
3.571896950734199
 42
0.0
 10
2.942356319133157
 20
2.849119304797525
 42
0.0
 10
2.961841890718314
 20
2.837869304797536
 42
0.0
 97
        0
 92
        7
 72
     1
 73
     1
 93
        8
 10
2.961841890718314
 20
2.837869304797536
 42
0.0
 10
2.942356319133157
 20
2.84911930479754
 42
0.0
 10
2.942356319133157
 20
2.017501990699713
 42
-0.5773502691896262
 10
2.922106319133167
 20
2.005810647748617
 42
0.0
 10
2.770883289183846
 20
2.093119304797539
 42
0.0
 10
2.770883289183846
 20
2.070619304797531
 42
0.0
 10
2.917966890718307
 20
1.985700547858229
 42
0.577350269189633
 10
2.961841890718314
 20
2.01103179091892
 42
0.0
 97
        0
 92
        7
 72
     0
 73
     1
 93
        3
 10
0.8375463034832435
 20
4.168942601918161
 10
2.622424660682963
 20
3.138442601918185
 10
2.622424660682963
 20
3.149692601918175
 97
        0
 75
     0
 76
     1
 47
0.006507
 98
        7
 10
0.541977
 20
4.274654
 10
0.509298
 20
4.222121
 10
0.850299
 20
4.176688
 10
2.757058
 20
3.231378
 10
3.129229
 20
2.950256
 10
2.9534
 20
2.78334
 10
2.566577
 20
3.178667
  0
HATCH
  5
2C7
100
AcDbEntity
  8
1
  6
CONTINUOUS
 62
     5
100
AcDbHatch
 10
0.0
 20
0.0
 30
0.0
210
0.0
220
0.0
230
1.0
  2
SOLID
 70
     1
 71
     0
 91
        7
 92
        7
 72
     1
 73
     1
 93
        4
 10
2.386665012353486
 20
5.32607808824116
 42
0.003817909443379
 10
2.354635270827916
 20
5.330085708349287
 42
0.0
 10
0.4999158635690009
 20
4.259262959297132
 42
0.0
 10
0.5194014351541548
 20
4.248012959297128
 42
0.0
 97
        0
 92
        7
 72
     0
 73
     1
 93
        4
 10
0.5194014351541548
 20
4.248012959297128
 10
0.4999158635690009
 20
4.259262959297132
 10
0.4999158635690009
 20
3.676729681839731
 10
0.5194014351541548
 20
3.687979681839735
 97
        0
 92
        7
 72
     0
 73
     1
 93
        4
 10
0.8375463034832293
 20
4.191442601918183
 10
0.8375463034832293
 20
4.168942601918175
 10
2.622424660682963
 20
3.149692601918175
 10
2.622424660682963
 20
3.160942601918179
 97
        0
 92
        7
 72
     1
 73
     1
 93
        4
 10
4.083872956237161
 20
3.982210168763117
 42
0.002332807343841
 10
4.07677526872418
 20
4.000612316966865
 42
0.0
 10
2.622424660682963
 20
3.160942601918179
 42
0.0
 10
2.622424660682963
 20
3.138442601918185
 42
0.0
 97
        0
 92
        7
 72
     1
 73
     1
 93
        4
 10
4.197510469716053
 20
3.55128289151105
 42
0.0024685623280776
 10
4.194243924470487
 20
3.571896950734199
 42
0.0
 10
2.942356319133157
 20
2.84911930479754
 42
0.0
 10
2.961841890718314
 20
2.837869304797536
 42
0.0
 97
        0
 92
        7
 72
     1
 73
     1
 93
        8
 10
2.961841890718314
 20
2.837869304797536
 42
0.0
 10
2.942356319133157
 20
2.84911930479754
 42
0.0
 10
2.942356319133157
 20
2.017501990699713
 42
-0.5773502691896262
 10
2.922106319133167
 20
2.005810647748617
 42
0.0
 10
2.770883289183846
 20
2.093119304797539
 42
0.0
 10
2.770883289183846
 20
2.070619304797531
 42
0.0
 10
2.917966890718307
 20
1.985700547858229
 42
0.577350269189633
 10
2.961841890718314
 20
2.01103179091892
 42
0.0
 97
        0
 92
        7
 72
     0
 73
     1
 93
        3
 10
0.8375463034832435
 20
4.168942601918161
 10
2.622424660682963
 20
3.138442601918185
 10
2.622424660682963
 20
3.149692601918175
 97
        0
 75
     0
 76
     1
 47
0.006507
 98
        7
 10
0.541977
 20
4.274654
 10
0.509298
 20
4.222121
 10
0.850299
 20
4.176688
 10
2.757058
 20
3.231378
 10
3.129229
 20
2.950256
 10
2.9534
 20
2.78334
 10
2.566577
 20
3.178667
  0
LWPOLYLINE
  5
2C8
102
{ACAD_REACTORS
330
303
102
}
100
AcDbEntity
  8
1
  6
CONTINUOUS
 62
     5
100
AcDbPolyline
 90
        2
 70
     0
 43
0.0225
 10
2.369714
 20
5.328591
 42
70374.114908
 10
2.369834
 20
5.328576
 42
70374.114908
  0
MTEXT
  5
2C9
100
AcDbEntity
  8
2
  6
CONTINUOUS
 62
     9
100
AcDbMText
 10
0.432476
 20
0.951607
 30
0.0
 40
0.6939
 41
4.9041
 71
     1
 72
     5
  1
\fArial|b1|i0|c0|p34;\C7;C L A D
  7
ROMANS
  0
LINE
  5
2CA
100
AcDbEntity
  8
2
  6
CONTINUOUS
 62
     4
100
AcDbLine
 10
2.168412
 20
3.40111
 30
0.0
 11
1.585864
 21
3.064776
 31
0.0
  0
LINE
  5
2CB
100
AcDbEntity
  8
2
  6
CONTINUOUS
 62
     4
100
AcDbLine
 10
1.585864
 20
3.055776
 30
0.0
 11
1.975575
 21
2.830776
 31
0.0
  0
LINE
  5
2CC
100
AcDbEntity
  8
2
  6
CONTINUOUS
 62
     4
100
AcDbLine
 10
1.585864
 20
3.064776
 30
0.0
 11
1.975575
 21
2.839776
 31
0.0
  0
LINE
  5
2CD
100
AcDbEntity
  8
GREEN
  6
CONTINUOUS
100
AcDbLine
 39
1.8
 10
2.168217
 20
1.949552
 30
0.0
 11
0.574297
 21
2.869802
 31
0.0
  0
LINE
  5
2CE
100
AcDbEntity
  8
GREEN
  6
CONTINUOUS
100
AcDbLine
 39
1.8
 10
0.471906
 20
2.876955
 30
0.0
 11
2.225608
 21
1.864455
 31
0.0
  0
ARC
  5
2CF
100
AcDbEntity
  8
GREEN
  6
CONTINUOUS
100
AcDbCircle
 39
1.8
 10
0.647656
 20
2.989261
 30
0.0
 40
0.140186
100
AcDbArc
 50
184.523413
 51
238.446514
  0
LINE
  5
2D0
100
AcDbEntity
  8
GREEN
  6
CONTINUOUS
100
AcDbLine
 39
1.8
 10
0.507906
 20
2.978205
 30
0.0
 11
0.508057
 21
3.561106
 31
0.0
  0
ARC
  5
2D1
100
AcDbEntity
  8
GREEN
  6
CONTINUOUS
100
AcDbCircle
 39
1.8
 10
0.514527
 20
3.563159
 30
0.0
 40
0.006787
100
AcDbArc
 50
12.423788
 51
197.604591
  0
LINE
  5
2D2
100
AcDbEntity
  8
GREEN
  6
CONTINUOUS
100
AcDbLine
 39
1.8
 10
0.521155
 20
3.564619
 30
0.0
 11
0.566631
 21
3.522488
 31
0.0
  0
ARC
  5
2D3
100
AcDbEntity
  8
GREEN
  6
CONTINUOUS
100
AcDbCircle
 39
1.8
 10
0.571693
 20
3.531256
 30
0.0
 40
0.010125
100
AcDbArc
 50
240.0
 51
60.0
  0
LINE
  5
2D4
100
AcDbEntity
  8
GREEN
  6
CONTINUOUS
100
AcDbLine
 39
1.8
 10
0.576756
 20
3.540025
 30
0.0
 11
0.56409
 21
3.564108
 31
0.0
  0
LINE
  5
2D5
100
AcDbEntity
  8
GREEN
  6
CONTINUOUS
100
AcDbLine
 39
1.8
 10
0.56409
 20
3.564108
 30
0.0
 11
0.572757
 21
3.582259
 31
0.0
  0
LINE
  5
2D6
100
AcDbEntity
  8
GREEN
  6
CONTINUOUS
100
AcDbLine
 39
1.8
 10
0.572757
 20
3.582259
 30
0.0
 11
0.585886
 21
3.58111
 31
0.0
  0
ARC
  5
2D7
100
AcDbEntity
  8
GREEN
  6
CONTINUOUS
100
AcDbCircle
 39
1.8
 10
0.58667
 20
3.590076
 30
0.0
 40
0.009
100
AcDbArc
 50
265.0
 51
60.0
  0
LINE
  5
2D8
100
AcDbEntity
  8
GREEN
  6
CONTINUOUS
100
AcDbLine
 39
1.8
 10
0.59117
 20
3.59787
 30
0.0
 11
0.478656
 21
3.664455
 31
0.0
  0
ARC
  5
2D9
100
AcDbEntity
  8
GREEN
  6
CONTINUOUS
100
AcDbCircle
 39
1.8
 10
0.478656
 20
3.657705
 30
0.0
 40
0.00675
100
AcDbArc
 50
90.0
 51
180.0
  0
LINE
  5
2DA
100
AcDbEntity
  8
GREEN
  6
CONTINUOUS
100
AcDbLine
 39
1.8
 10
0.471906
 20
3.657705
 30
0.0
 11
0.471906
 21
2.876955
 31
0.0
  0
LINE
  5
2DB
100
AcDbEntity
  8
0
 62
     3
100
AcDbLine
 10
0.783024
 20
3.442299
 30
0.0
 11
0.603281
 21
3.546074
 31
0.0
  0
LINE
  5
2DC
100
AcDbEntity
  8
GREEN
100
AcDbLine
 10
0.478656
 20
3.664455
 30
0.0
 11
1.095471
 21
4.020573
 31
0.0
  0
LINE
  5
2DD
100
AcDbEntity
  8
GREEN
100
AcDbLine
 10
0.59475
 20
3.594041
 30
0.0
 11
1.214498
 21
3.951853
 31
0.0
  0
LINE
  5
2DE
100
AcDbEntity
  8
1
  6
CONTINUOUS
 62
     5
100
AcDbLine
 10
0.519401
 20
3.68798
 30
0.0
 11
0.519401
 21
4.248013
 31
0.0
  0
LINE
  5
2DF
100
AcDbEntity
  8
1
  6
CONTINUOUS
 62
     5
100
AcDbLine
 10
0.519401
 20
3.68798
 30
0.0
 11
0.519401
 21
4.248013
 31
0.0
  0
LINE
  5
2E0
100
AcDbEntity
  8
1
  6
CONTINUOUS
 62
     5
100
AcDbLine
 10
0.499916
 20
3.67673
 30
0.0
 11
0.499916
 21
4.259263
 31
0.0
  0
LINE
  5
2E1
100
AcDbEntity
  8
1
  6
CONTINUOUS
 62
     5
100
AcDbLine
 10
0.499916
 20
3.67673
 30
0.0
 11
0.499916
 21
4.259263
 31
0.0
  0
LINE
  5
2E2
100
AcDbEntity
  8
0
 62
     3
100
AcDbLine
 10
0.582926
 20
3.577051
 30
0.0
 11
0.58994
 21
3.573001
 31
0.0
  0
ARC
  5
2E3
100
AcDbEntity
  8
0
 62
     3
100
AcDbCircle
 10
0.588021
 20
3.542143
 30
0.0
 40
0.01125
100
AcDbArc
 50
195.0
 51
330.0
  0
ARC
  5
2E4
100
AcDbEntity
  8
0
 62
     3
100
AcDbCircle
 10
0.578426
 20
3.569257
 30
0.0
 40
0.009
100
AcDbArc
 50
60.0
 51
195.0
  0
LINE
  5
2E5
100
AcDbEntity
  8
0
 62
     3
100
AcDbLine
 10
0.577154
 20
3.539231
 30
0.0
 11
0.569733
 21
3.566927
 31
0.0
  0
ARC
  5
2E6
100
AcDbEntity
  8
0
 62
     3
100
AcDbCircle
 10
0.595516
 20
3.590567
 30
0.0
 40
0.00225
100
AcDbArc
 50
60.0
 51
195.0
  0
ARC
  5
2E7
100
AcDbEntity
  8
0
 62
     3
100
AcDbCircle
 10
0.59219
 20
3.576899
 30
0.0
 40
0.0045
100
AcDbArc
 50
240.0
 51
15.0
  0
LINE
  5
2E8
100
AcDbEntity
  8
0
 62
     3
100
AcDbLine
 10
0.603281
 20
3.546074
 30
0.0
 11
0.597764
 21
3.536518
 31
0.0
  0
LINE
  5
2E9
100
AcDbEntity
  8
0
 62
     3
100
AcDbLine
 10
0.596537
 20
3.578063
 30
0.0
 11
0.593343
 21
3.589985
 31
0.0
  0
LINE
  5
2EA
100
AcDbEntity
  8
1
  6
CONTINUOUS
 62
     5
100
AcDbLine
 10
0.499916
 20
4.259263
 30
0.0
 11
0.519401
 21
4.248013
 31
0.0
  0
LINE
  5
2EB
100
AcDbEntity
  8
1
  6
CONTINUOUS
 62
     5
100
AcDbLine
 10
0.499916
 20
4.259263
 30
0.0
 11
0.519401
 21
4.248013
 31
0.0
  0
LINE
  5
2EC
100
AcDbEntity
  8
2
  6
CONTINUOUS
 62
     4
100
AcDbLine
 10
1.38899
 20
3.85111
 30
0.0
 11
0.806441
 21
3.514776
 31
0.0
  0
LINE
  5
2ED
100
AcDbEntity
  8
2
  6
CONTINUOUS
 62
     4
100
AcDbLine
 10
0.806441
 20
3.505776
 30
0.0
 11
1.196153
 21
3.280776
 31
0.0
  0
LINE
  5
2EE
100
AcDbEntity
  8
2
  6
CONTINUOUS
 62
     4
100
AcDbLine
 10
0.806441
 20
3.514776
 30
0.0
 11
1.196153
 21
3.289776
 31
0.0
  0
LINE
  5
2EF
100
AcDbEntity
  8
2
  6
CONTINUOUS
 62
     4
100
AcDbLine
 10
0.806441
 20
3.514776
 30
0.0
 11
0.806441
 21
3.505776
 31
0.0
  0
LINE
  5
2F0
100
AcDbEntity
  8
2
  6
CONTINUOUS
 62
     4
100
AcDbLine
 10
1.196153
 20
3.289776
 30
0.0
 11
1.196153
 21
3.280776
 31
0.0
  0
LINE
  5
2F1
100
AcDbEntity
  8
2
  6
CONTINUOUS
 62
     4
100
AcDbLine
 10
1.585864
 20
3.064776
 30
0.0
 11
1.585864
 21
3.055776
 31
0.0
  0
LINE
  5
2F2
100
AcDbEntity
  8
1
  6
CONTINUOUS
 62
     5
100
AcDbLine
 10
0.837546
 20
4.191443
 30
0.0
 11
0.837546
 21
4.168943
 31
0.0
  0
LINE
  5
2F3
100
AcDbEntity
  8
1
  6
CONTINUOUS
 62
     5
100
AcDbLine
 10
0.837546
 20
4.191443
 30
0.0
 11
0.837546
 21
4.168943
 31
0.0
  0
LINE
  5
2F4
100
AcDbEntity
  8
1
  6
CONTINUOUS
 62
     5
100
AcDbLine
 39
0.09
 10
0.837546
 20
4.191443
 30
0.0
 11
0.837546
 21
4.168943
 31
0.0
  0
LINE
  5
2F5
100
AcDbEntity
  8
1
  6
CONTINUOUS
 62
     5
100
AcDbLine
 39
0.09
 10
0.837546
 20
4.191443
 30
0.0
 11
0.837546
 21
4.168943
 31
0.0
  0
LINE
  5
2F6
100
AcDbEntity
  8
R-DOOR-ANNO
100
AcDbLine
 10
6.474049
 20
6.388388
 30
0.0
 11
4.222422
 21
3.231049
 31
0.0
  0
LINE
  5
2F7
100
AcDbEntity
  8
GREEN
  6
CONTINUOUS
100
AcDbLine
 39
1.8
 10
2.225608
 20
1.864455
 30
0.0
 11
2.225608
 21
2.645205
 31
0.0
  0
ARC
  5
2F8
100
AcDbEntity
  8
GREEN
  6
CONTINUOUS
100
AcDbCircle
 39
1.8
 10
2.206492
 20
2.640083
 30
0.0
 40
0.01979
100
AcDbArc
 50
15.0
 51
45.0
  0
LINE
  5
2F9
100
AcDbEntity
  8
GREEN
  6
CONTINUOUS
100
AcDbLine
 39
1.8
 10
2.220486
 20
2.654077
 30
0.0
 11
2.106941
 21
2.719632
 31
0.0
  0
ARC
  5
2FA
100
AcDbEntity
  8
GREEN
  6
CONTINUOUS
100
AcDbCircle
 39
1.8
 10
2.106941
 20
2.710632
 30
0.0
 40
0.009
100
AcDbArc
 50
90.0
 51
245.0
  0
LINE
  5
2FB
100
AcDbEntity
  8
GREEN
  6
CONTINUOUS
100
AcDbLine
 39
1.8
 10
2.103137
 20
2.702476
 30
0.0
 11
2.115081
 21
2.696906
 31
0.0
  0
LINE
  5
2FC
100
AcDbEntity
  8
GREEN
  6
CONTINUOUS
100
AcDbLine
 39
1.8
 10
2.115081
 20
2.696906
 30
0.0
 11
2.073794
 21
2.67769
 31
0.0
  0
LINE
  5
2FD
100
AcDbEntity
  8
GREEN
  6
CONTINUOUS
100
AcDbLine
 39
1.8
 10
2.073794
 20
2.67769
 30
0.0
 11
2.059169
 21
2.67769
 31
0.0
  0
ARC
  5
2FE
100
AcDbEntity
  8
GREEN
  6
CONTINUOUS
100
AcDbCircle
 39
1.8
 10
2.059169
 20
2.667565
 30
0.0
 40
0.010125
100
AcDbArc
 50
90.0
 51
270.0
  0
LINE
  5
2FF
100
AcDbEntity
  8
GREEN
  6
CONTINUOUS
100
AcDbLine
 39
1.8
 10
2.059169
 20
2.65744
 30
0.0
 11
2.13336
 21
2.635357
 31
0.0
  0
ARC
  5
300
100
AcDbEntity
  8
GREEN
  6
CONTINUOUS
100
AcDbCircle
 39
1.8
 10
2.14063
 20
2.584217
 30
0.0
 40
0.051654
100
AcDbArc
 50
341.47451
 51
98.091202
  0
LINE
  5
301
100
AcDbEntity
  8
GREEN
  6
CONTINUOUS
100
AcDbLine
 39
1.8
 10
2.189608
 20
2.567805
 30
0.0
 11
2.189608
 21
1.965705
 31
0.0
  0
ARC
  5
302
100
AcDbEntity
  8
GREEN
  6
CONTINUOUS
100
AcDbCircle
 39
1.8
 10
2.173111
 20
1.96531
 30
0.0
 40
0.016501
100
AcDbArc
 50
252.745313
 51
1.373158
  0
HATCH
  5
303
100
AcDbEntity
  8
2
  6
CONTINUOUS
 62
     9
100
AcDbHatch
 10
0.0
 20
0.0
 30
0.0
210
0.0
220
0.0
230
1.0
  2
ANSI31
 70
     0
 71
     1
 91
        2
 92
        7
 72
     1
 73
     1
 93
        5
 10
2.961841890718314
 20
2.837869304797536
 42
0.0
 10
2.961841890718314
 20
2.01103179091892
 42
-0.1222318301882793
 10
2.958447958084086
 20
1.997356035715768
 42
0.0
 10
4.150889067580948
 20
2.685812231276567
 42
0.1036486555305329
 10
4.197981205972073
 20
3.551554671215175
 42
0.0
 97
        5
330
30B
330
30E
330
318
330
304
330
2C8
 92
        7
 72
     1
 73
     1
 93
        4
 10
2.92210631913316
 20
2.005810647748621
 42
0.5773502691893868
 10
2.942356319133157
 20
2.017501990699706
 42
0.0
 10
2.942356319133157
 20
2.186949326855767
 42
0.0
 10
2.775360621418425
 20
2.090534315826655
 42
0.0
 97
        4
330
31A
330
31C
330
322
330
310
 75
     0
 76
     1
 52
0.0
 41
0.05
 77
     0
 78
     1
 53
45.0
 43
-22.088823
 44
-30.099459
 45
-0.0044194173824159
 46
0.0044194173824159
 79
     0
 47
0.022773
 98
        2
 10
3.569056
 20
2.809286
 10
2.881979
 20
2.081704
  0
LWPOLYLINE
  5
304
102
{ACAD_REACTORS
330
303
102
}
100
AcDbEntity
  8
1
  6
CONTINUOUS
 62
     5
100
AcDbPolyline
 90
        2
 70
     0
 43
0.009
 10
2.946728
 20
1.990589
 10
4.148285
 20
2.684309
  0
LINE
  5
305
100
AcDbEntity
  8
1
  6
CONTINUOUS
 62
     5
100
AcDbLine
 10
2.947217
 20
1.985701
 30
0.0
 11
4.148774
 21
2.67942
 31
0.0
  0
LINE
  5
306
100
AcDbEntity
  8
1
  6
CONTINUOUS
100
AcDbLine
 10
2.622425
 20
3.160943
 30
0.0
 11
4.076775
 21
4.000612
 31
0.0
  0
LINE
  5
307
100
AcDbEntity
  8
1
  6
CONTINUOUS
100
AcDbLine
 10
2.622425
 20
3.138443
 30
0.0
 11
4.083873
 21
3.98221
 31
0.0
  0
LINE
  5
308
100
AcDbEntity
  8
GREEN
100
AcDbLine
 10
2.225608
 20
2.645205
 30
0.0
 11
4.155339
 21
3.759336
 31
0.0
  0
LINE
  5
309
100
AcDbEntity
  8
2
  6
CONTINUOUS
 62
     4
100
AcDbLine
 10
2.276889
 20
2.480229
 30
0.0
 11
4.192382
 21
3.586139
 31
0.0
  0
LINE
  5
30A
100
AcDbEntity
  8
2
  6
CONTINUOUS
 62
     4
100
AcDbLine
 10
2.2613
 20
2.489229
 30
0.0
 11
4.189529
 21
3.602492
 31
0.0
  0
LINE
  5
30B
102
{ACAD_REACTORS
330
303
102
}
100
AcDbEntity
  8
1
  6
CONTINUOUS
 62
     5
100
AcDbLine
 10
2.961842
 20
2.837869
 30
0.0
 11
4.19751
 21
3.551283
 31
0.0
  0
LINE
  5
30C
100
AcDbEntity
  8
1
  6
CONTINUOUS
 62
     5
100
AcDbLine
 10
2.942356
 20
2.849119
 30
0.0
 11
4.194244
 21
3.571897
 31
0.0
  0
LINE
  5
30D
100
AcDbEntity
  8
GREEN
100
AcDbLine
 10
2.102575
 20
2.718503
 30
0.0
 11
4.119394
 21
3.882914
 31
0.0
  0
LINE
  5
30E
102
{ACAD_REACTORS
330
303
102
}
100
AcDbEntity
  8
1
  6
CONTINUOUS
 62
     5
100
AcDbLine
 10
2.961842
 20
2.011032
 30
0.0
 11
2.961842
 21
2.837869
 31
0.0
  0
LINE
  5
30F
100
AcDbEntity
  8
1
  6
CONTINUOUS
 62
     5
100
AcDbLine
 10
2.961842
 20
2.011032
 30
0.0
 11
2.961842
 21
2.837869
 31
0.0
  0
LINE
  5
310
102
{ACAD_REACTORS
330
303
102
}
100
AcDbEntity
  8
1
  6
CONTINUOUS
 62
     5
100
AcDbLine
 10
2.942356
 20
2.017502
 30
0.0
 11
2.942356
 21
2.849119
 31
0.0
  0
LINE
  5
311
100
AcDbEntity
  8
1
  6
CONTINUOUS
 62
     5
100
AcDbLine
 10
2.942356
 20
2.017502
 30
0.0
 11
2.942356
 21
2.849119
 31
0.0
  0
LINE
  5
312
100
AcDbEntity
  8
2
  6
CONTINUOUS
 62
     4
100
AcDbLine
 10
2.276889
 20
2.030229
 30
0.0
 11
2.942827
 21
2.414708
 31
0.0
  0
LINE
  5
313
100
AcDbEntity
  8
GREEN
100
AcDbLine
 10
2.225608
 20
1.864455
 30
0.0
 11
2.942827
 21
2.278542
 31
0.0
  0
LINE
  5
314
100
AcDbEntity
  8
2
  6
CONTINUOUS
 62
     4
100
AcDbLine
 10
2.276889
 20
2.480229
 30
0.0
 11
2.276889
 21
2.030229
 31
0.0
  0
LINE
  5
315
100
AcDbEntity
  8
2
  6
CONTINUOUS
 62
     4
100
AcDbLine
 10
2.2613
 20
2.489229
 30
0.0
 11
2.2613
 21
2.039229
 31
0.0
  0
LINE
  5
316
100
AcDbEntity
  8
2
  6
CONTINUOUS
 62
     4
100
AcDbLine
 10
2.2613
 20
2.039229
 30
0.0
 11
2.276889
 21
2.030229
 31
0.0
  0
LINE
  5
317
100
AcDbEntity
  8
2
  6
CONTINUOUS
 62
     4
100
AcDbLine
 10
2.2613
 20
2.489229
 30
0.0
 11
2.276889
 21
2.480229
 31
0.0
  0
ARC
  5
318
102
{ACAD_REACTORS
330
303
102
}
100
AcDbEntity
  8
1
  6
CONTINUOUS
 62
     5
100
AcDbCircle
 10
2.932592
 20
2.011032
 30
0.0
 40
0.02925
100
AcDbArc
 50
240.0
 51
0.0
  0
ARC
  5
319
100
AcDbEntity
  8
1
  6
CONTINUOUS
 62
     5
100
AcDbCircle
 10
2.932592
 20
2.011032
 30
0.0
 40
0.02925
100
AcDbArc
 50
240.0
 51
0.0
  0
LWPOLYLINE
  5
31A
102
{ACAD_REACTORS
330
303
102
}
100
AcDbEntity
  8
1
  6
CONTINUOUS
 62
     5
100
AcDbPolyline
 90
        2
 70
     0
 43
0.009
 10
2.773157
 20
2.089262
 10
2.94463
 20
2.188262
  0
LINE
  5
31B
100
AcDbEntity
  8
1
  6
CONTINUOUS
 62
     5
100
AcDbLine
 10
2.770883
 20
2.093119
 30
0.0
 11
2.942356
 21
2.192119
 31
0.0
  0
LINE
  5
31C
102
{ACAD_REACTORS
330
303
102
}
100
AcDbEntity
  8
1
  6
CONTINUOUS
 62
     5
100
AcDbLine
 10
2.922106
 20
2.005811
 30
0.0
 11
2.770883
 21
2.093119
 31
0.0
  0
LINE
  5
31D
100
AcDbEntity
  8
1
  6
CONTINUOUS
 62
     5
100
AcDbLine
 10
2.922106
 20
2.005811
 30
0.0
 11
2.770883
 21
2.093119
 31
0.0
  0
LINE
  5
31E
100
AcDbEntity
  8
1
  6
CONTINUOUS
 62
     5
100
AcDbLine
 10
2.917967
 20
1.985701
 30
0.0
 11
2.770883
 21
2.070619
 31
0.0
  0
LINE
  5
31F
100
AcDbEntity
  8
1
  6
CONTINUOUS
 62
     5
100
AcDbLine
 10
2.917967
 20
1.985701
 30
0.0
 11
2.770883
 21
2.070619
 31
0.0
  0
LINE
  5
320
100
AcDbEntity
  8
1
  6
CONTINUOUS
 62
     5
100
AcDbLine
 10
2.770883
 20
2.093119
 30
0.0
 11
2.770883
 21
2.070619
 31
0.0
  0
LINE
  5
321
100
AcDbEntity
  8
1
  6
CONTINUOUS
 62
     5
100
AcDbLine
 10
2.770883
 20
2.093119
 30
0.0
 11
2.770883
 21
2.070619
 31
0.0
  0
ARC
  5
322
102
{ACAD_REACTORS
330
303
102
}
100
AcDbEntity
  8
1
  6
CONTINUOUS
 62
     5
100
AcDbCircle
 10
2.928856
 20
2.017502
 30
0.0
 40
0.0135
100
AcDbArc
 50
240.0
 51
0.0
  0
ARC
  5
323
100
AcDbEntity
  8
1
  6
CONTINUOUS
 62
     5
100
AcDbCircle
 10
2.928856
 20
2.017502
 30
0.0
 40
0.0135
100
AcDbArc
 50
240.0
 51
0.0
  0
LINE
  5
324
100
AcDbEntity
  8
2
  6
CONTINUOUS
 62
     4
100
AcDbLine
 10
2.565918
 20
3.17161
 30
0.0
 11
1.975575
 21
2.830776
 31
0.0
  0
LINE
  5
325
100
AcDbEntity
  8
2
  6
CONTINUOUS
 62
     4
100
AcDbLine
 10
2.558124
 20
3.17611
 30
0.0
 11
1.975575
 21
2.839776
 31
0.0
  0
LINE
  5
326
100
AcDbEntity
  8
0
 62
     3
100
AcDbLine
 10
1.758216
 20
2.92188
 30
0.0
 11
2.104515
 21
2.721944
 31
0.0
  0
LINE
  5
327
100
AcDbEntity
  8
2
  6
CONTINUOUS
 62
     4
100
AcDbLine
 10
1.975575
 20
2.839776
 30
0.0
 11
1.975575
 21
2.830776
 31
0.0
  0
ARC
  5
328
100
AcDbEntity
  8
0
 62
     3
100
AcDbCircle
 10
2.093215
 20
2.710281
 30
0.0
 40
0.0045
100
AcDbArc
 50
105.0
 51
240.0
  0
LINE
  5
329
100
AcDbEntity
  8
0
 62
     3
100
AcDbLine
 10
2.090965
 20
2.706384
 30
0.0
 11
2.097979
 21
2.702335
 31
0.0
  0
LINE
  5
32A
100
AcDbEntity
  8
0
 62
     3
100
AcDbLine
 10
2.095809
 20
2.685847
 30
0.0
 11
2.068112
 21
2.678426
 31
0.0
  0
ARC
  5
32B
100
AcDbEntity
  8
0
 62
     3
100
AcDbCircle
 10
2.0652
 20
2.689293
 30
0.0
 40
0.01125
100
AcDbArc
 50
150.0
 51
285.0
  0
LINE
  5
32C
100
AcDbEntity
  8
0
 62
     3
100
AcDbLine
 10
2.055458
 20
2.694918
 30
0.0
 11
2.060975
 21
2.704473
 31
0.0
  0
ARC
  5
32D
100
AcDbEntity
  8
0
 62
     3
100
AcDbCircle
 10
2.10339
 20
2.719996
 30
0.0
 40
0.00225
100
AcDbArc
 50
285.0
 51
60.0
  0
ARC
  5
32E
100
AcDbEntity
  8
0
 62
     3
100
AcDbCircle
 10
2.093479
 20
2.69454
 30
0.0
 40
0.009
100
AcDbArc
 50
285.0
 51
60.0
  0
LINE
  5
32F
100
AcDbEntity
  8
0
 62
     3
100
AcDbLine
 10
2.103972
 20
2.717822
 30
0.0
 11
2.092051
 21
2.714628
 31
0.0
  0
LINE
  5
330
100
AcDbEntity
  8
1
  6
CONTINUOUS
100
AcDbLine
 39
0.09
 10
2.622425
 20
3.160943
 30
0.0
 11
2.622425
 21
3.138443
 31
0.0
  0
LINE
  5
331
100
AcDbEntity
  8
1
  6
CONTINUOUS
 62
     5
100
AcDbLine
 10
2.942356
 20
2.849119
 30
0.0
 11
2.961842
 21
2.837869
 31
0.0
  0
LINE
  5
332
100
AcDbEntity
  8
1
  6
CONTINUOUS
 62
     5
100
AcDbLine
 10
2.942356
 20
2.849119
 30
0.0
 11
2.961842
 21
2.837869
 31
0.0
  0
ENDBLK
  5
334
100
AcDbEntity
  8
0
100
AcDbBlockEnd
  0
BLOCK
  5
3BD
100
AcDbEntity
  8
0
100
AcDbBlockBegin
  2
A$C60D668AB
 70
     0
 10
0.0
 20
0.0
 30
0.0
  3
A$C60D668AB
  1

  0
LWPOLYLINE
  5
33A
100
AcDbEntity
  8
1
  6
CONTINUOUS
 62
     5
100
AcDbPolyline
 90
        2
 70
     0
 43
0.0125
 10
1.325543
 20
5.767831
 42
70374.114908
 10
1.32561
 20
5.767822
 42
70374.114908
  0
HATCH
  5
33B
100
AcDbEntity
  8
2
  6
CONTINUOUS
 62
     9
100
AcDbHatch
 10
0.0
 20
0.0
 30
0.0
210
0.0
220
0.0
230
1.0
  2
SOLID
 70
     1
 71
     0
 91
        1
 92
        7
 72
     1
 73
     1
 93
        8
 10
1.507297406528573
 20
5.730439624784963
 42
0.0
 10
1.505577307468472
 20
5.729446525129585
 42
0.0
 10
1.505702307468476
 20
5.72923001877864
 42
0.0
 10
1.505827307468473
 20
5.729013512427691
 42
0.0
 10
1.505952307468477
 20
5.728797006076746
 42
0.0
 10
0.4768388484008402
 20
5.134638073457381
 42
0.0
 10
1.46593793573402
 20
4.563581449130353
 42
0.0
 10
2.274172015980228
 20
5.030215612928731
 42
0.2330962772361932
 97
        0
 75
     0
 76
     1
 47
0.017346
 98
        1
 10
1.400083
 20
5.208626
  0
HATCH
  5
33C
100
AcDbEntity
  8
1
  6
CONTINUOUS
 62
     5
100
AcDbHatch
 10
0.0
 20
0.0
 30
0.0
210
0.0
220
0.0
230
1.0
  2
SOLID
 70
     1
 71
     0
 91
        7
 92
        7
 72
     1
 73
     1
 93
        4
 10
1.334960353328755
 20
5.766434497087562
 42
0.003817909443379
 10
1.31716605248121
 20
5.768660952703189
 42
0.0
 10
0.2867663817818187
 20
5.173759425451994
 42
0.0
 10
0.2975916993291268
 20
5.167509425451996
 42
0.0
 97
        0
 92
        7
 72
     0
 73
     1
 93
        4
 10
0.2975916993291268
 20
5.167509425451996
 10
0.2867663817818187
 20
5.173759425451994
 10
0.2867663817818187
 20
4.850129826864549
 10
0.2975916993291268
 20
4.85637982686455
 97
        0
 92
        7
 72
     0
 73
     1
 93
        4
 10
0.4743388484008353
 20
5.136081449130355
 10
0.4743388484008353
 20
5.123581449130355
 10
1.46593793573402
 20
4.557331449130355
 10
1.46593793573402
 20
4.563581449130353
 97
        0
 92
        7
 72
     1
 73
     1
 93
        4
 10
2.277853655486358
 20
5.019841208488657
 42
0.002332807343841
 10
2.273910495756917
 20
5.030064624157404
 42
0.0
 10
1.46593793573402
 20
4.563581449130353
 42
0.0
 10
1.46593793573402
 20
4.551081449130354
 42
0.0
 97
        0
 92
        7
 72
     1
 73
     1
 93
        4
 10
2.340985607419076
 20
4.780437165570837
 42
0.0024685623280776
 10
2.339170860060422
 20
4.791889420694808
 42
0.0
 10
1.643677745984129
 20
4.39034628406333
 42
0.0
 10
1.654503063531437
 20
4.384096284063328
 42
0.0
 97
        0
 92
        7
 72
     1
 73
     1
 93
        8
 10
1.654503063531437
 20
4.384096284063328
 42
0.0
 10
1.643677745984129
 20
4.39034628406333
 42
0.0
 10
1.643677745984129
 20
3.928336665120095
 42
-0.5773502691896262
 10
1.632427745984132
 20
3.921841474591712
 42
0.0
 10
1.548414951567844
 20
3.970346284063328
 42
0.0
 10
1.548414951567844
 20
3.957846284063329
 42
0.0
 10
1.630128063531435
 20
3.910669196874824
 42
0.577350269189633
 10
1.654503063531437
 20
3.92474210968632
 42
0.0
 97
        0
 92
        7
 72
     0
 73
     1
 93
        3
 10
0.4743388484008424
 20
5.123581449130345
 10
1.46593793573402
 20
4.551081449130354
 10
1.46593793573402
 20
4.557331449130355
 97
        0
 75
     0
 76
     1
 47
0.006507
 98
        7
 10
0.310134
 20
5.18231
 10
0.291978
 20
5.153125
 10
0.481424
 20
5.127884
 10
1.540734
 20
4.602712
 10
1.747496
 20
4.446533
 10
1.649813
 20
4.353802
 10
1.434911
 20
4.573428
  0
HATCH
  5
33D
100
AcDbEntity
  8
1
  6
CONTINUOUS
 62
     5
100
AcDbHatch
 10
0.0
 20
0.0
 30
0.0
210
0.0
220
0.0
230
1.0
  2
SOLID
 70
     1
 71
     0
 91
        7
 92
        7
 72
     1
 73
     1
 93
        4
 10
1.334960353328755
 20
5.766434497087562
 42
0.003817909443379
 10
1.31716605248121
 20
5.768660952703189
 42
0.0
 10
0.2867663817818187
 20
5.173759425451994
 42
0.0
 10
0.2975916993291268
 20
5.167509425451996
 42
0.0
 97
        0
 92
        7
 72
     0
 73
     1
 93
        4
 10
0.2975916993291268
 20
5.167509425451996
 10
0.2867663817818187
 20
5.173759425451994
 10
0.2867663817818187
 20
4.850129826864549
 10
0.2975916993291268
 20
4.856379826864547
 97
        0
 92
        7
 72
     0
 73
     1
 93
        4
 10
0.4743388484008353
 20
5.136081449130355
 10
0.4743388484008353
 20
5.123581449130355
 10
1.46593793573402
 20
4.557331449130355
 10
1.46593793573402
 20
4.563581449130353
 97
        0
 92
        7
 72
     1
 73
     1
 93
        4
 10
2.277853655486355
 20
5.019841208488657
 42
0.002332807343841
 10
2.273910495756917
 20
5.030064624157404
 42
0.0
 10
1.46593793573402
 20
4.563581449130353
 42
0.0
 10
1.46593793573402
 20
4.551081449130354
 42
0.0
 97
        0
 92
        7
 72
     1
 73
     1
 93
        4
 10
2.340985607419076
 20
4.780437165570837
 42
0.0024685623280776
 10
2.339170860060422
 20
4.791889420694808
 42
0.0
 10
1.643677745984129
 20
4.390346284063326
 42
0.0
 10
1.654503063531437
 20
4.384096284063328
 42
0.0
 97
        0
 92
        7
 72
     1
 73
     1
 93
        8
 10
1.654503063531437
 20
4.384096284063328
 42
0.0
 10
1.643677745984129
 20
4.39034628406333
 42
0.0
 10
1.643677745984129
 20
3.928336665120095
 42
-0.5773502691896262
 10
1.632427745984132
 20
3.921841474591712
 42
0.0
 10
1.548414951567844
 20
3.970346284063328
 42
0.0
 10
1.548414951567844
 20
3.957846284063329
 42
0.0
 10
1.630128063531435
 20
3.910669196874824
 42
0.577350269189633
 10
1.654503063531437
 20
3.92474210968632
 42
0.0
 97
        0
 92
        7
 72
     0
 73
     1
 93
        3
 10
0.4743388484008424
 20
5.123581449130345
 10
1.46593793573402
 20
4.551081449130354
 10
1.46593793573402
 20
4.557331449130355
 97
        0
 75
     0
 76
     1
 47
0.006507
 98
        7
 10
0.310134
 20
5.18231
 10
0.291978
 20
5.153125
 10
0.481424
 20
5.127884
 10
1.540734
 20
4.602712
 10
1.747496
 20
4.446533
 10
1.649813
 20
4.353802
 10
1.434911
 20
4.573428
  0
LINE
  5
33E
100
AcDbEntity
  8
GREEN
100
AcDbLine
 10
1.177132
 20
4.317781
 30
0.0
 11
2.297588
 21
4.964677
 31
0.0
  0
HATCH
  5
33F
100
AcDbEntity
  8
2
  6
CONTINUOUS
 62
     9
100
AcDbHatch
 10
0.0
 20
0.0
 30
0.0
210
0.0
220
0.0
230
1.0
  2
SOLID
 70
     1
 71
     0
 91
        2
 92
        7
 72
     1
 73
     1
 93
        5
 10
2.341247127642597
 20
4.780588154342286
 42
0.0
 10
1.654503063531437
 20
4.384096284063328
 42
0.0
 10
1.654503063531437
 20
3.924742109686324
 42
-0.1222318301882052
 10
1.652617545401314
 20
3.917144467906798
 42
0.0
 10
2.315084828567643
 20
4.299620132172201
 42
0.1036486555257608
 97
        0
 92
        7
 72
     1
 73
     1
 93
        4
 10
1.643677745984129
 20
4.022474074095686
 42
0.0
 10
1.550902358364824
 20
3.968910179079507
 42
0.0
 10
1.632427745984132
 20
3.921841474591712
 42
0.5773502691896213
 10
1.643677745984129
 20
3.928336665120095
 42
0.0
 97
        0
 75
     0
 76
     1
 47
0.022773
 98
        2
 10
1.991844
 20
4.368217
 10
1.610135
 20
3.964005
  0
LINE
  5
340
100
AcDbEntity
  8
GREEN
100
AcDbLine
 10
1.245484
 20
4.277061
 30
0.0
 11
2.317557
 21
4.896022
 31
0.0
  0
LINE
  5
341
100
AcDbEntity
  8
1
  6
CONTINUOUS
100
AcDbLine
 10
1.465938
 20
4.563581
 30
0.0
 11
2.27391
 21
5.030065
 31
0.0
  0
LINE
  5
342
100
AcDbEntity
  8
1
  6
CONTINUOUS
100
AcDbLine
 10
1.465938
 20
4.551081
 30
0.0
 11
2.277854
 21
5.019841
 31
0.0
  0
LINE
  5
343
100
AcDbEntity
  8
1
  6
CONTINUOUS
 62
     5
100
AcDbLine
 10
1.643678
 20
4.390346
 30
0.0
 11
2.339171
 21
4.791889
 31
0.0
  0
LINE
  5
344
100
AcDbEntity
  8
1
  6
CONTINUOUS
 62
     5
100
AcDbLine
 10
1.654503
 20
4.384096
 30
0.0
 11
2.340986
 21
4.780437
 31
0.0
  0
LINE
  5
345
100
AcDbEntity
  8
2
  6
CONTINUOUS
 62
     4
100
AcDbLine
 10
1.265313
 20
4.190407
 30
0.0
 11
2.336552
 21
4.808887
 31
0.0
  0
LINE
  5
346
100
AcDbEntity
  8
2
  6
CONTINUOUS
 62
     4
100
AcDbLine
 10
1.273973
 20
4.185407
 30
0.0
 11
2.338136
 21
4.799802
 31
0.0
  0
LINE
  5
347
100
AcDbEntity
  8
1
  6
CONTINUOUS
 62
     5
100
AcDbLine
 10
1.646378
 20
3.910669
 30
0.0
 11
2.31391
 21
4.296069
 31
0.0
  0
LWPOLYLINE
  5
348
100
AcDbEntity
  8
1
  6
CONTINUOUS
 62
     5
100
AcDbPolyline
 90
        2
 70
     0
 43
0.005
 10
1.646106
 20
3.913385
 10
2.313638
 20
4.298785
  0
MTEXT
  5
349
100
AcDbEntity
  8
2
  6
CONTINUOUS
 62
     9
100
AcDbMText
 10
0.2493
 20
3.220449
 30
0.0
 40
0.3855
 41
2.7245
 71
     1
 72
     5
  1
\fArial|b1|i0|c0|p34;\C7;C L A D
  7
ROMANS
  0
ARC
  5
34A
100
AcDbEntity
  8
GREEN
  6
CONTINUOUS
100
AcDbCircle
 39
1.0
 10
1.216319
 20
3.899341
 30
0.0
 40
0.009167
100
AcDbArc
 50
252.745313
 51
1.373158
  0
LINE
  5
34B
100
AcDbEntity
  8
GREEN
  6
CONTINUOUS
100
AcDbLine
 39
1.0
 10
1.225484
 20
4.234061
 30
0.0
 11
1.225484
 21
3.899561
 31
0.0
  0
ARC
  5
34C
100
AcDbEntity
  8
GREEN
  6
CONTINUOUS
100
AcDbCircle
 39
1.0
 10
1.198274
 20
4.243178
 30
0.0
 40
0.028697
100
AcDbArc
 50
341.47451
 51
98.091202
  0
LINE
  5
34D
100
AcDbEntity
  8
GREEN
  6
CONTINUOUS
100
AcDbLine
 39
1.0
 10
1.153018
 20
4.283858
 30
0.0
 11
1.194235
 21
4.271589
 31
0.0
  0
ARC
  5
34E
100
AcDbEntity
  8
GREEN
  6
CONTINUOUS
100
AcDbCircle
 39
1.0
 10
1.153018
 20
4.289483
 30
0.0
 40
0.005625
100
AcDbArc
 50
90.0
 51
270.0
  0
LINE
  5
34F
100
AcDbEntity
  8
GREEN
  6
CONTINUOUS
100
AcDbLine
 39
1.0
 10
1.161143
 20
4.295108
 30
0.0
 11
1.153018
 21
4.295108
 31
0.0
  0
LINE
  5
350
100
AcDbEntity
  8
GREEN
  6
CONTINUOUS
100
AcDbLine
 39
1.0
 10
1.18408
 20
4.305783
 30
0.0
 11
1.161143
 21
4.295108
 31
0.0
  0
LINE
  5
351
100
AcDbEntity
  8
GREEN
  6
CONTINUOUS
100
AcDbLine
 39
1.0
 10
1.177445
 20
4.308878
 30
0.0
 11
1.18408
 21
4.305783
 31
0.0
  0
ARC
  5
352
100
AcDbEntity
  8
GREEN
  6
CONTINUOUS
100
AcDbCircle
 39
1.0
 10
1.179558
 20
4.313409
 30
0.0
 40
0.005
100
AcDbArc
 50
90.0
 51
245.0
  0
LINE
  5
353
100
AcDbEntity
  8
GREEN
  6
CONTINUOUS
100
AcDbLine
 39
1.0
 10
1.242638
 20
4.281989
 30
0.0
 11
1.179558
 21
4.318409
 31
0.0
  0
ARC
  5
354
100
AcDbEntity
  8
GREEN
  6
CONTINUOUS
100
AcDbCircle
 39
1.0
 10
1.234864
 20
4.274215
 30
0.0
 40
0.010994
100
AcDbArc
 50
15.0
 51
45.0
  0
LINE
  5
355
100
AcDbEntity
  8
GREEN
  6
CONTINUOUS
100
AcDbLine
 39
1.0
 10
1.245484
 20
3.843311
 30
0.0
 11
1.245484
 21
4.277061
 31
0.0
  0
LINE
  5
356
100
AcDbEntity
  8
GREEN
  6
CONTINUOUS
100
AcDbLine
 39
1.0
 10
0.271205
 20
4.405811
 30
0.0
 11
1.245484
 21
3.843311
 31
0.0
  0
LINE
  5
357
100
AcDbEntity
  8
GREEN
  6
CONTINUOUS
100
AcDbLine
 39
1.0
 10
0.271205
 20
4.839561
 30
0.0
 11
0.271205
 21
4.405811
 31
0.0
  0
ARC
  5
358
100
AcDbEntity
  8
GREEN
  6
CONTINUOUS
100
AcDbCircle
 39
1.0
 10
0.274955
 20
4.839561
 30
0.0
 40
0.00375
100
AcDbArc
 50
90.0
 51
180.0
  0
LINE
  5
359
100
AcDbEntity
  8
GREEN
  6
CONTINUOUS
100
AcDbLine
 39
1.0
 10
0.337463
 20
4.806319
 30
0.0
 11
0.274955
 21
4.843311
 31
0.0
  0
ARC
  5
35A
100
AcDbEntity
  8
GREEN
  6
CONTINUOUS
100
AcDbCircle
 39
1.0
 10
0.334963
 20
4.801989
 30
0.0
 40
0.005
100
AcDbArc
 50
265.0
 51
60.0
  0
LINE
  5
35B
100
AcDbEntity
  8
GREEN
  6
CONTINUOUS
100
AcDbLine
 39
1.0
 10
0.327234
 20
4.797646
 30
0.0
 11
0.334528
 21
4.797008
 31
0.0
  0
LINE
  5
35C
100
AcDbEntity
  8
GREEN
  6
CONTINUOUS
100
AcDbLine
 39
1.0
 10
0.322419
 20
4.787562
 30
0.0
 11
0.327234
 21
4.797646
 31
0.0
  0
LINE
  5
35D
100
AcDbEntity
  8
GREEN
  6
CONTINUOUS
100
AcDbLine
 39
1.0
 10
0.329455
 20
4.774183
 30
0.0
 11
0.322419
 21
4.787562
 31
0.0
  0
ARC
  5
35E
100
AcDbEntity
  8
GREEN
  6
CONTINUOUS
100
AcDbCircle
 39
1.0
 10
0.326643
 20
4.769311
 30
0.0
 40
0.005625
100
AcDbArc
 50
240.0
 51
60.0
  0
LINE
  5
35F
100
AcDbEntity
  8
GREEN
  6
CONTINUOUS
100
AcDbLine
 39
1.0
 10
0.298566
 20
4.787846
 30
0.0
 11
0.32383
 21
4.76444
 31
0.0
  0
ARC
  5
360
100
AcDbEntity
  8
GREEN
  6
CONTINUOUS
100
AcDbCircle
 39
1.0
 10
0.294884
 20
4.787035
 30
0.0
 40
0.003771
100
AcDbArc
 50
12.423788
 51
197.604591
  0
LINE
  5
361
100
AcDbEntity
  8
GREEN
  6
CONTINUOUS
100
AcDbLine
 39
1.0
 10
0.291205
 20
4.462061
 30
0.0
 11
0.291289
 21
4.785894
 31
0.0
  0
ARC
  5
362
100
AcDbEntity
  8
GREEN
  6
CONTINUOUS
100
AcDbCircle
 39
1.0
 10
0.368844
 20
4.468203
 30
0.0
 40
0.077881
100
AcDbArc
 50
184.523413
 51
238.446514
  0
LINE
  5
363
100
AcDbEntity
  8
GREEN
  6
CONTINUOUS
100
AcDbLine
 39
1.0
 10
1.2136
 20
3.890586
 30
0.0
 11
0.328089
 21
4.401836
 31
0.0
  0
LINE
  5
364
100
AcDbEntity
  8
0
 62
     3
100
AcDbLine
 10
0.985822
 20
4.430769
 30
0.0
 11
1.17821
 21
4.319693
 31
0.0
  0
LINE
  5
365
100
AcDbEntity
  8
2
  6
CONTINUOUS
 62
     4
100
AcDbLine
 10
0.890071
 20
4.510155
 30
0.0
 11
1.106577
 21
4.385155
 31
0.0
  0
LINE
  5
366
100
AcDbEntity
  8
2
  6
CONTINUOUS
 62
     4
100
AcDbLine
 10
0.890071
 20
4.505155
 30
0.0
 11
1.106577
 21
4.380155
 31
0.0
  0
LINE
  5
367
100
AcDbEntity
  8
2
  6
CONTINUOUS
 62
     4
100
AcDbLine
 10
1.430215
 20
4.572008
 30
0.0
 11
1.106577
 21
4.385155
 31
0.0
  0
LINE
  5
368
100
AcDbEntity
  8
2
  6
CONTINUOUS
 62
     4
100
AcDbLine
 10
1.434545
 20
4.569508
 30
0.0
 11
1.106577
 21
4.380155
 31
0.0
  0
HATCH
  5
369
100
AcDbEntity
  8
2
  6
CONTINUOUS
 62
     9
100
AcDbHatch
 10
0.0
 20
0.0
 30
0.0
210
0.0
220
0.0
230
1.0
  2
SOLID
 70
     1
 71
     0
 91
        2
 92
       23
 72
     1
 73
     1
 93
       20
 10
1.154021316292224
 20
4.309987496461054
 42
0.0
 10
1.150956236929255
 20
4.304678623275158
 42
0.6681786379192962
 10
1.157986514734796
 20
4.295516586860852
 42
0.0
 10
1.173373482532605
 20
4.299639512456238
 42
0.6681786379192695
 10
1.174579387307092
 20
4.308799268606605
 42
0.0
 10
1.17068272831535
 20
4.311049005724431
 42
-0.6681786379192408
 10
1.171285680702593
 20
4.315628883799615
 42
0.0
 10
1.177908649382393
 20
4.317403502908863
 42
0.6681786379193185
 10
1.178210125576017
 20
4.319693441946455
 42
0.0
 10
0.9858219537890438
 20
4.430768804716564
 42
0.0
 10
0.3405024958228129
 20
4.80334416748667
 42
0.668178637919208
 10
0.3386700885399509
 20
4.801938111925561
 42
0.0
 10
0.3404447076491994
 20
4.795315143245762
 42
-0.6681786379193225
 10
0.3367798930834756
 20
4.792503032123544
 42
0.0
 10
0.3328832340917334
 20
4.79475276924137
 42
0.6681786379193126
 10
0.3255536049602892
 20
4.789128546996934
 42
0.0
 10
0.329676530555675
 20
4.773741579199125
 42
0.6681786379193007
 10
0.3411262257436345
 20
4.772234198231018
 42
0.0
 10
0.3441913051066034
 20
4.777543071416911
 42
0.0
 10
0.4440488622163468
 20
4.71989028393898
 42
0.0
 97
        0
 92
        7
 72
     1
 73
     1
 93
       37
 10
0.27495547717532
 20
4.843310797910611
 42
0.4142135623731299
 10
0.2712054771753198
 20
4.839560797910614
 42
0.0
 10
0.2712054771753198
 20
4.405810797910614
 42
0.0
 10
1.245484056432809
 20
3.843310797910614
 42
0.0
 10
1.245484056432813
 20
4.277060797910614
 42
0.1316524975873667
 10
1.242638485013676
 20
4.28198947218512
 42
0.0
 10
1.179557869544902
 20
4.318409082506661
 42
0.0376464264871547
 10
1.178808134740068
 20
4.318352552717193
 42
-0.2823673447488831
 10
1.177908649382393
 20
4.317403502908863
 42
0.0
 10
1.175960263034474
 20
4.316881434360393
 42
0.5149511874561723
 10
1.177444778236202
 20
4.30887754357148
 42
0.0
 10
1.184080367337424
 20
4.30578331755721
 42
0.0
 10
1.176580954804476
 20
4.30229293156416
 42
-0.2180320882791709
 10
1.173373482532605
 20
4.299639512456238
 42
0.0
 10
1.167496229201569
 20
4.298064707172475
 42
0.0
 10
1.161142985817919
 20
4.295107772663364
 42
0.0
 10
1.153017985817919
 20
4.295107772663364
 42
1.0
 10
1.153017985817919
 20
4.283857772663363
 42
0.0
 10
1.194235452213051
 20
4.271589365371418
 42
-0.5578319223640622
 10
1.225484056432813
 20
4.234060797910618
 42
0.0
 10
1.225484056432813
 20
3.899560797910613
 42
-0.5129809895031772
 10
1.213600254488857
 20
3.890586433005221
 42
0.0
 10
0.3280892791192702
 20
4.401836433005225
 42
-0.2397239142270584
 10
0.2912054771753194
 20
4.462060797910613
 42
0.0
 10
0.2912894839935465
 20
4.785894476641562
 42
-1.046264757040728
 10
0.2985660734850928
 20
4.787846164480278
 42
0.0
 10
0.3238301653333213
 20
4.764439911361193
 42
0.6309633877406034
 10
0.3321983861239612
 20
4.770191413055549
 42
-0.1798205534880095
 10
0.329676530555675
 20
4.773741579199125
 42
0.0
 10
0.3296654944050648
 20
4.773782766673924
 42
0.0
 10
0.3224187089275663
 20
4.787562176097893
 42
0.0
 10
0.3272338594463999
 20
4.797645875398586
 42
0.0
 10
0.3345275611842684
 20
4.797007759181386
 42
0.293926452988122
 10
0.3393158843384985
 20
4.799527969194073
 42
0.0
 10
0.3386700885399509
 20
4.801938111925561
 42
-0.4565659268922137
 10
0.3397286090854177
 20
4.803502737153834
 42
0.1814616707363846
 10
0.3375559975883977
 20
4.806264025188205
 42
0.0
 97
        0
 75
     0
 76
     1
 47
0.011788
 98
        2
 10
0.46052
 20
4.719852
 10
0.310121
 20
4.808259
  0
LINE
  5
36A
100
AcDbEntity
  8
0
 62
     3
100
AcDbLine
 10
1.154021
 20
4.309987
 30
0.0
 11
0.444049
 21
4.71989
 31
0.0
  0
LINE
  5
36B
100
AcDbEntity
  8
GREEN
100
AcDbLine
 10
1.245484
 20
3.843311
 30
0.0
 11
1.643939
 21
4.073359
 31
0.0
  0
LINE
  5
36C
100
AcDbEntity
  8
2
  6
CONTINUOUS
 62
     4
100
AcDbLine
 10
1.273973
 20
3.935407
 30
0.0
 11
1.643939
 21
4.149007
 31
0.0
  0
LINE
  5
36D
100
AcDbEntity
  8
2
  6
CONTINUOUS
 62
     4
100
AcDbLine
 10
1.265313
 20
4.190407
 30
0.0
 11
1.265313
 21
3.940407
 31
0.0
  0
LINE
  5
36E
100
AcDbEntity
  8
2
  6
CONTINUOUS
 62
     4
100
AcDbLine
 10
1.273973
 20
4.185407
 30
0.0
 11
1.273973
 21
3.935407
 31
0.0
  0
LINE
  5
36F
100
AcDbEntity
  8
2
  6
CONTINUOUS
 62
     4
100
AcDbLine
 10
1.265313
 20
3.940407
 30
0.0
 11
1.273973
 21
3.935407
 31
0.0
  0
ARC
  5
370
100
AcDbEntity
  8
0
 62
     3
100
AcDbCircle
 10
1.156369
 20
4.301554
 30
0.0
 40
0.00625
100
AcDbArc
 50
150.0
 51
285.0
  0
LINE
  5
371
100
AcDbEntity
  8
0
 62
     3
100
AcDbLine
 10
1.150956
 20
4.304679
 30
0.0
 11
1.154021
 21
4.309987
 31
0.0
  0
LINE
  5
372
100
AcDbEntity
  8
2
  6
CONTINUOUS
 62
     4
100
AcDbLine
 10
1.106577
 20
4.385155
 30
0.0
 11
1.106577
 21
4.380155
 31
0.0
  0
LINE
  5
373
100
AcDbEntity
  8
2
  6
CONTINUOUS
 62
     4
100
AcDbLine
 10
1.265313
 20
4.190407
 30
0.0
 11
1.273973
 21
4.185407
 31
0.0
  0
LINE
  5
374
100
AcDbEntity
  8
0
 62
     3
100
AcDbLine
 10
1.177909
 20
4.317404
 30
0.0
 11
1.171286
 21
4.315629
 31
0.0
  0
ARC
  5
375
100
AcDbEntity
  8
0
 62
     3
100
AcDbCircle
 10
1.177585
 20
4.318611
 30
0.0
 40
0.00125
100
AcDbArc
 50
285.0
 51
60.0
  0
LINE
  5
376
100
AcDbEntity
  8
0
 62
     3
100
AcDbLine
 10
1.173373
 20
4.29964
 30
0.0
 11
1.157987
 21
4.295517
 31
0.0
  0
ARC
  5
377
100
AcDbEntity
  8
0
 62
     3
100
AcDbCircle
 10
1.172079
 20
4.304469
 30
0.0
 40
0.005
100
AcDbArc
 50
285.0
 51
60.0
  0
LINE
  5
378
100
AcDbEntity
  8
0
 62
     3
100
AcDbLine
 10
1.170683
 20
4.311049
 30
0.0
 11
1.174579
 21
4.308799
 31
0.0
  0
ARC
  5
379
100
AcDbEntity
  8
0
 62
     3
100
AcDbCircle
 10
1.171933
 20
4.313214
 30
0.0
 40
0.0025
100
AcDbArc
 50
105.0
 51
240.0
  0
LINE
  5
37A
100
AcDbEntity
  8
1
  6
CONTINUOUS
 62
     5
100
AcDbLine
 10
1.548415
 20
3.970346
 30
0.0
 11
1.643678
 21
4.025346
 31
0.0
  0
LWPOLYLINE
  5
37B
100
AcDbEntity
  8
1
  6
CONTINUOUS
 62
     5
100
AcDbPolyline
 90
        2
 70
     0
 43
0.005
 10
1.549678
 20
3.968203
 10
1.644941
 20
4.023203
  0
LINE
  5
37C
100
AcDbEntity
  8
1
  6
CONTINUOUS
 62
     5
100
AcDbLine
 10
1.643678
 20
3.928337
 30
0.0
 11
1.643678
 21
4.390346
 31
0.0
  0
LINE
  5
37D
100
AcDbEntity
  8
1
  6
CONTINUOUS
 62
     5
100
AcDbLine
 10
1.654503
 20
3.924742
 30
0.0
 11
1.654503
 21
4.384096
 31
0.0
  0
LINE
  5
37E
100
AcDbEntity
  8
1
  6
CONTINUOUS
 62
     5
100
AcDbLine
 10
1.643678
 20
3.928337
 30
0.0
 11
1.643678
 21
4.390346
 31
0.0
  0
LINE
  5
37F
100
AcDbEntity
  8
1
  6
CONTINUOUS
 62
     5
100
AcDbLine
 10
1.654503
 20
3.924742
 30
0.0
 11
1.654503
 21
4.384096
 31
0.0
  0
ARC
  5
380
100
AcDbEntity
  8
1
  6
CONTINUOUS
 62
     5
100
AcDbCircle
 10
1.636178
 20
3.928337
 30
0.0
 40
0.0075
100
AcDbArc
 50
240.0
 51
0.0
  0
ARC
  5
381
100
AcDbEntity
  8
1
  6
CONTINUOUS
 62
     5
100
AcDbCircle
 10
1.636178
 20
3.928337
 30
0.0
 40
0.0075
100
AcDbArc
 50
240.0
 51
0.0
  0
LINE
  5
382
100
AcDbEntity
  8
1
  6
CONTINUOUS
 62
     5
100
AcDbLine
 10
1.548415
 20
3.970346
 30
0.0
 11
1.548415
 21
3.957846
 31
0.0
  0
LINE
  5
383
100
AcDbEntity
  8
1
  6
CONTINUOUS
 62
     5
100
AcDbLine
 10
1.548415
 20
3.970346
 30
0.0
 11
1.548415
 21
3.957846
 31
0.0
  0
LINE
  5
384
100
AcDbEntity
  8
1
  6
CONTINUOUS
 62
     5
100
AcDbLine
 10
1.630128
 20
3.910669
 30
0.0
 11
1.548415
 21
3.957846
 31
0.0
  0
LINE
  5
385
100
AcDbEntity
  8
1
  6
CONTINUOUS
 62
     5
100
AcDbLine
 10
1.630128
 20
3.910669
 30
0.0
 11
1.548415
 21
3.957846
 31
0.0
  0
LINE
  5
386
100
AcDbEntity
  8
1
  6
CONTINUOUS
 62
     5
100
AcDbLine
 10
1.632428
 20
3.921841
 30
0.0
 11
1.548415
 21
3.970346
 31
0.0
  0
LINE
  5
387
100
AcDbEntity
  8
1
  6
CONTINUOUS
 62
     5
100
AcDbLine
 10
1.632428
 20
3.921841
 30
0.0
 11
1.548415
 21
3.970346
 31
0.0
  0
ARC
  5
388
100
AcDbEntity
  8
1
  6
CONTINUOUS
 62
     5
100
AcDbCircle
 10
1.638253
 20
3.924742
 30
0.0
 40
0.01625
100
AcDbArc
 50
240.0
 51
0.0
  0
ARC
  5
389
100
AcDbEntity
  8
1
  6
CONTINUOUS
 62
     5
100
AcDbCircle
 10
1.638253
 20
3.924742
 30
0.0
 40
0.01625
100
AcDbArc
 50
240.0
 51
0.0
  0
LINE
  5
38A
100
AcDbEntity
  8
1
  6
CONTINUOUS
 62
     5
100
AcDbLine
 10
1.643678
 20
4.390346
 30
0.0
 11
1.654503
 21
4.384096
 31
0.0
  0
LINE
  5
38B
100
AcDbEntity
  8
1
  6
CONTINUOUS
 62
     5
100
AcDbLine
 10
1.643678
 20
4.390346
 30
0.0
 11
1.654503
 21
4.384096
 31
0.0
  0
LWPOLYLINE
  5
38C
100
AcDbEntity
  8
1
  6
CONTINUOUS
 62
     5
100
AcDbPolyline
 90
        2
 70
     0
 43
0.005
 10
1.508297
 20
5.730149
 10
0.475567
 20
5.133902
  0
LINE
  5
38D
100
AcDbEntity
  8
1
 62
     5
100
AcDbLine
 10
0.474339
 20
5.136081
 30
0.0
 11
1.505952
 21
5.728797
 31
0.0
  0
LINE
  5
38E
100
AcDbEntity
  8
1
  6
CONTINUOUS
100
AcDbLine
 39
0.05
 10
0.474339
 20
5.123581
 30
0.0
 11
1.465938
 21
4.551081
 31
0.0
  0
LINE
  5
38F
100
AcDbEntity
  8
1
  6
CONTINUOUS
100
AcDbLine
 10
0.474339
 20
5.123581
 30
0.0
 11
1.465938
 21
4.557331
 31
0.0
  0
LINE
  5
390
100
AcDbEntity
  8
1
  6
CONTINUOUS
 62
     5
100
AcDbLine
 39
0.05
 10
0.474339
 20
5.123581
 30
0.0
 11
1.465938
 21
4.551081
 31
0.0
  0
LINE
  5
391
100
AcDbEntity
  8
1
  6
CONTINUOUS
100
AcDbLine
 10
0.474339
 20
5.123581
 30
0.0
 11
1.465938
 21
4.557331
 31
0.0
  0
LINE
  5
392
100
AcDbEntity
  8
0
 62
     3
100
AcDbLine
 10
0.340502
 20
4.803344
 30
0.0
 11
0.985822
 21
4.430769
 31
0.0
  0
LINE
  5
393
100
AcDbEntity
  8
2
  6
CONTINUOUS
 62
     4
100
AcDbLine
 10
0.997203
 20
4.822008
 30
0.0
 11
0.673565
 21
4.635155
 31
0.0
  0
LINE
  5
394
100
AcDbEntity
  8
2
  6
CONTINUOUS
 62
     4
100
AcDbLine
 10
1.001533
 20
4.819508
 30
0.0
 11
0.673565
 21
4.630155
 31
0.0
  0
LINE
  5
395
100
AcDbEntity
  8
1
  6
CONTINUOUS
100
AcDbLine
 39
0.05
 10
0.474339
 20
5.136081
 30
0.0
 11
1.465938
 21
4.563581
 31
0.0
  0
LINE
  5
396
100
AcDbEntity
  8
1
  6
CONTINUOUS
 62
     5
100
AcDbLine
 39
0.05
 10
0.474339
 20
5.136081
 30
0.0
 11
1.465938
 21
4.563581
 31
0.0
  0
HATCH
  5
397
100
AcDbEntity
  8
2
  6
CONTINUOUS
 62
     9
100
AcDbHatch
 10
0.0
 20
0.0
 30
0.0
210
0.0
220
0.0
230
1.0
  2
SOLID
 70
     1
 71
     0
 91
        1
 92
        7
 72
     1
 73
     1
 93
        7
 10
0.4743388484008353
 20
5.123581449130355
 42
0.0
 10
0.4743388484008353
 20
5.136081449130355
 42
0.0
 10
1.504963827691737
 20
5.731113058357507
 42
0.0369683020279065
 10
1.335221873552194
 20
5.766585485858961
 42
0.0
 10
0.2975916993291268
 20
5.167509425451996
 42
0.0
 10
0.2975916993291268
 20
4.856379826864547
 42
0.0
 10
0.6173686666795835
 20
5.041003145044978
 42
0.0
 97
        0
 75
     0
 76
     1
 47
0.022773
 98
        1
 10
0.447913
 20
5.096937
  0
LINE
  5
398
100
AcDbEntity
  8
1
  6
CONTINUOUS
 62
     5
100
AcDbLine
 10
0.286766
 20
5.173759
 30
0.0
 11
1.317166
 21
5.768661
 31
0.0
  0
LINE
  5
399
100
AcDbEntity
  8
1
  6
CONTINUOUS
100
AcDbLine
 10
0.297592
 20
5.167509
 30
0.0
 11
1.33496
 21
5.766434
 31
0.0
  0
LINE
  5
39A
100
AcDbEntity
  8
1
  6
CONTINUOUS
 62
     5
100
AcDbLine
 10
1.504702
 20
5.730962
 30
0.0
 11
0.474339
 21
5.136081
 31
0.0
  0
LINE
  5
39B
100
AcDbEntity
  8
1
  6
CONTINUOUS
 62
     5
100
AcDbLine
 10
0.286766
 20
5.173759
 30
0.0
 11
1.317166
 21
5.768661
 31
0.0
  0
LINE
  5
39C
100
AcDbEntity
  8
1
  6
CONTINUOUS
 62
     5
100
AcDbLine
 10
0.297592
 20
5.167509
 30
0.0
 11
1.33496
 21
5.766434
 31
0.0
  0
LINE
  5
39D
100
AcDbEntity
  8
1
  6
CONTINUOUS
 62
     5
100
AcDbLine
 10
0.475589
 20
5.133916
 30
0.0
 11
1.505952
 21
5.728797
 31
0.0
  0
LINE
  5
39E
100
AcDbEntity
  8
1
  6
CONTINUOUS
 62
     5
100
AcDbLine
 10
0.286766
 20
5.173759
 30
0.0
 11
0.297592
 21
5.167509
 31
0.0
  0
LINE
  5
39F
100
AcDbEntity
  8
1
  6
CONTINUOUS
 62
     5
100
AcDbLine
 10
0.286766
 20
5.173759
 30
0.0
 11
0.297592
 21
5.167509
 31
0.0
  0
LINE
  5
3A0
100
AcDbEntity
  8
GREEN
100
AcDbLine
 10
0.274955
 20
4.843311
 30
0.0
 11
0.61763
 21
5.041154
 31
0.0
  0
LINE
  5
3A1
100
AcDbEntity
  8
1
  6
CONTINUOUS
 62
     5
100
AcDbLine
 10
0.286766
 20
4.85013
 30
0.0
 11
0.286766
 21
5.173759
 31
0.0
  0
LINE
  5
3A2
100
AcDbEntity
  8
1
  6
CONTINUOUS
 62
     5
100
AcDbLine
 10
0.286766
 20
4.85013
 30
0.0
 11
0.286766
 21
5.173759
 31
0.0
  0
LINE
  5
3A3
100
AcDbEntity
  8
GREEN
100
AcDbLine
 10
0.339452
 20
4.804192
 30
0.0
 11
0.683756
 21
5.002976
 31
0.0
  0
LINE
  5
3A4
100
AcDbEntity
  8
2
  6
CONTINUOUS
 62
     4
100
AcDbLine
 10
0.780696
 20
4.947008
 30
0.0
 11
0.457058
 21
4.760155
 31
0.0
  0
LINE
  5
3A5
100
AcDbEntity
  8
2
  6
CONTINUOUS
 62
     4
100
AcDbLine
 10
0.457058
 20
4.760155
 30
0.0
 11
0.673565
 21
4.635155
 31
0.0
  0
LINE
  5
3A6
100
AcDbEntity
  8
2
  6
CONTINUOUS
 62
     4
100
AcDbLine
 10
0.457058
 20
4.755155
 30
0.0
 11
0.673565
 21
4.630155
 31
0.0
  0
LINE
  5
3A7
100
AcDbEntity
  8
2
  6
CONTINUOUS
 62
     4
100
AcDbLine
 10
0.457058
 20
4.760155
 30
0.0
 11
0.457058
 21
4.755155
 31
0.0
  0
LINE
  5
3A8
100
AcDbEntity
  8
0
 62
     3
100
AcDbLine
 10
0.344191
 20
4.777543
 30
0.0
 11
0.341126
 21
4.772234
 31
0.0
  0
ARC
  5
3A9
100
AcDbEntity
  8
0
 62
     3
100
AcDbCircle
 10
0.339877
 20
4.802262
 30
0.0
 40
0.00125
100
AcDbArc
 50
60.0
 51
195.0
  0
LINE
  5
3AA
100
AcDbEntity
  8
0
 62
     3
100
AcDbLine
 10
0.340445
 20
4.795315
 30
0.0
 11
0.33867
 21
4.801938
 31
0.0
  0
ARC
  5
3AB
100
AcDbEntity
  8
0
 62
     3
100
AcDbCircle
 10
0.33803
 20
4.794668
 30
0.0
 40
0.0025
100
AcDbArc
 50
240.0
 51
15.0
  0
LINE
  5
3AC
100
AcDbEntity
  8
0
 62
     3
100
AcDbLine
 10
0.332883
 20
4.794753
 30
0.0
 11
0.33678
 21
4.792503
 31
0.0
  0
ARC
  5
3AD
100
AcDbEntity
  8
0
 62
     3
100
AcDbCircle
 10
0.330383
 20
4.790423
 30
0.0
 40
0.005
100
AcDbArc
 50
60.0
 51
195.0
  0
LINE
  5
3AE
100
AcDbEntity
  8
0
 62
     3
100
AcDbLine
 10
0.329677
 20
4.773742
 30
0.0
 11
0.325554
 21
4.789129
 31
0.0
  0
ARC
  5
3AF
100
AcDbEntity
  8
0
 62
     3
100
AcDbCircle
 10
0.335714
 20
4.775359
 30
0.0
 40
0.00625
100
AcDbArc
 50
195.0
 51
330.0
  0
LINE
  5
3B0
100
AcDbEntity
  8
0
 62
     3
100
AcDbLine
 10
0.444049
 20
4.71989
 30
0.0
 11
0.344191
 21
4.777543
 31
0.0
  0
LINE
  5
3B1
100
AcDbEntity
  8
2
  6
CONTINUOUS
 62
     4
100
AcDbLine
 10
0.673565
 20
4.635155
 30
0.0
 11
0.673565
 21
4.630155
 31
0.0
  0
LINE
  5
3B2
100
AcDbEntity
  8
1
  6
CONTINUOUS
 62
     5
100
AcDbLine
 39
0.05
 10
0.474339
 20
5.136081
 30
0.0
 11
0.474339
 21
5.123581
 31
0.0
  0
LINE
  5
3B3
100
AcDbEntity
  8
1
  6
CONTINUOUS
 62
     5
100
AcDbLine
 39
0.05
 10
0.474339
 20
5.136081
 30
0.0
 11
0.474339
 21
5.123581
 31
0.0
  0
LINE
  5
3B4
100
AcDbEntity
  8
1
  6
CONTINUOUS
 62
     5
100
AcDbLine
 10
0.474339
 20
5.136081
 30
0.0
 11
0.474339
 21
5.123581
 31
0.0
  0
LINE
  5
3B5
100
AcDbEntity
  8
1
  6
CONTINUOUS
 62
     5
100
AcDbLine
 10
0.474339
 20
5.136081
 30
0.0
 11
0.474339
 21
5.123581
 31
0.0
  0
LINE
  5
3B6
100
AcDbEntity
  8
1
  6
CONTINUOUS
 62
     5
100
AcDbLine
 10
0.297592
 20
4.85638
 30
0.0
 11
0.297592
 21
5.167509
 31
0.0
  0
LINE
  5
3B7
100
AcDbEntity
  8
1
  6
CONTINUOUS
 62
     5
100
AcDbLine
 10
0.297592
 20
4.85638
 30
0.0
 11
0.297592
 21
5.167509
 31
0.0
  0
LINE
  5
3B8
100
AcDbEntity
  8
2
  6
CONTINUOUS
 62
     4
100
AcDbLine
 10
1.213709
 20
4.697008
 30
0.0
 11
0.890071
 21
4.510155
 31
0.0
  0
LINE
  5
3B9
100
AcDbEntity
  8
2
  6
CONTINUOUS
 62
     4
100
AcDbLine
 10
0.890071
 20
4.510155
 30
0.0
 11
0.890071
 21
4.505155
 31
0.0
  0
LINE
  5
3BA
100
AcDbEntity
  8
1
  6
CONTINUOUS
100
AcDbLine
 39
0.05
 10
1.465938
 20
4.563581
 30
0.0
 11
1.465938
 21
4.551081
 31
0.0
  0
LINE
  5
3BB
100
AcDbEntity
  8
1
 62
     5
100
AcDbLine
 10
2.354825
 20
4.60253
 30
0.0
 11
3.437926
 21
6.705831
 31
0.0
  0
INSERT
  5
3BC
100
AcDbEntity
  8
0
100
AcDbBlockReference
  2
A$C2CC70F12
 10
7.61448
 20
0.0
 30
0.0
  0
ENDBLK
  5
3BE
100
AcDbEntity
  8
0
100
AcDbBlockEnd
  0
BLOCK
  5
50E
100
AcDbEntity
  8
0
100
AcDbBlockBegin
  2
*D14
 70
     1
 10
0.0
 20
0.0
 30
0.0
  3
*D14
  1

  0
LINE
  5
50F
100
AcDbEntity
  8
0
  6
BYBLOCK
 62
     0
100
AcDbLine
 10
7.966343
 20
12.646749
 30
0.0
 11
3.255596
 21
12.646749
 31
0.0
  0
LINE
  5
510
100
AcDbEntity
  8
0
  6
BYBLOCK
 62
     0
100
AcDbLine
 10
5.260129
 20
8.89945
 30
0.0
 11
3.255596
 21
8.89945
 31
0.0
  0
LINE
  5
511
100
AcDbEntity
  8
0
  6
BYBLOCK
 62
     0
100
AcDbLine
 10
3.615596
 20
12.286749
 30
0.0
 11
3.615596
 21
11.415021
 31
0.0
  0
LINE
  5
512
100
AcDbEntity
  8
0
  6
BYBLOCK
 62
     0
100
AcDbLine
 10
3.615596
 20
9.25945
 30
0.0
 11
3.615596
 21
10.095021
 31
0.0
  0
SOLID
  5
513
100
AcDbEntity
  8
0
  6
BYBLOCK
 62
     0
100
AcDbTrace
 10
3.555596
 20
12.286749
 30
0.0
 11
3.675596
 21
12.286749
 31
0.0
 12
3.615596
 22
12.646749
 32
0.0
 13
3.615596
 23
12.646749
 33
0.0
  0
SOLID
  5
514
100
AcDbEntity
  8
0
  6
BYBLOCK
 62
     0
100
AcDbTrace
 10
3.555596
 20
9.25945
 30
0.0
 11
3.675596
 21
9.25945
 31
0.0
 12
3.615596
 22
8.89945
 32
0.0
 13
3.615596
 23
8.89945
 33
0.0
  0
MTEXT
  5
515
100
AcDbEntity
  8
0
  6
BYBLOCK
 62
     0
100
AcDbMText
 10
3.615596
 20
10.755021
 30
0.0
 40
0.36
 41
0.0
 71
     5
 72
     1
  1
\A1;3{\H1.000000x;\S3/4;}" [95mm]
  7
ROMANS
  0
POINT
  5
516
100
AcDbEntity
  8
DEFPOINTS
  6
BYBLOCK
 62
     0
100
AcDbPoint
 10
8.091343
 20
12.646749
 30
0.0
  0
POINT
  5
517
100
AcDbEntity
  8
DEFPOINTS
  6
BYBLOCK
 62
     0
100
AcDbPoint
 10
5.385129
 20
8.89945
 30
0.0
  0
POINT
  5
518
100
AcDbEntity
  8
DEFPOINTS
  6
BYBLOCK
 62
     0
100
AcDbPoint
 10
3.615596
 20
8.89945
 30
0.0
  0
ENDBLK
  5
519
100
AcDbEntity
  8
0
100
AcDbBlockEnd
  0
BLOCK
  5
51C
100
AcDbEntity
  8
0
100
AcDbBlockBegin
  2
*D15
 70
     1
 10
0.0
 20
0.0
 30
0.0
  3
*D15
  1

  0
LINE
  5
51D
100
AcDbEntity
  8
0
  6
BYBLOCK
 62
     0
100
AcDbLine
 10
9.501121
 20
9.64945
 30
0.0
 11
15.527461
 21
9.64945
 31
0.0
  0
LINE
  5
51E
100
AcDbEntity
  8
0
  6
BYBLOCK
 62
     0
100
AcDbLine
 10
10.408333
 20
9.39945
 30
0.0
 11
15.527461
 21
9.39945
 31
0.0
  0
LINE
  5
51F
100
AcDbEntity
  8
0
  6
BYBLOCK
 62
     0
100
AcDbLine
 10
15.167461
 20
10.00945
 30
0.0
 11
15.167461
 21
10.36945
 31
0.0
  0
LINE
  5
520
100
AcDbEntity
  8
0
  6
BYBLOCK
 62
     0
100
AcDbLine
 10
15.167461
 20
9.03945
 30
0.0
 11
15.167461
 21
7.892726
 31
0.0
  0
LINE
  5
521
100
AcDbEntity
  8
0
  6
BYBLOCK
 62
     0
100
AcDbLine
 10
15.167461
 20
7.892726
 30
0.0
 11
14.807461
 21
7.892726
 31
0.0
  0
SOLID
  5
522
100
AcDbEntity
  8
0
  6
BYBLOCK
 62
     0
100
AcDbTrace
 10
15.107461
 20
10.00945
 30
0.0
 11
15.227461
 21
10.00945
 31
0.0
 12
15.167461
 22
9.64945
 32
0.0
 13
15.167461
 23
9.64945
 33
0.0
  0
SOLID
  5
523
100
AcDbEntity
  8
0
  6
BYBLOCK
 62
     0
100
AcDbTrace
 10
15.107461
 20
9.03945
 30
0.0
 11
15.227461
 21
9.03945
 31
0.0
 12
15.167461
 22
9.39945
 32
0.0
 13
15.167461
 23
9.39945
 33
0.0
  0
MTEXT
  5
524
100
AcDbEntity
  8
0
  6
BYBLOCK
 62
     0
100
AcDbMText
 10
13.290318
 20
7.892726
 30
0.0
 40
0.36
 41
0.0
 71
     5
 72
     1
  1
\A1;{\H1.000000x;\S1/4;}" [6mm]
  7
ROMANS
  0
POINT
  5
525
100
AcDbEntity
  8
DEFPOINTS
  6
BYBLOCK
 62
     0
100
AcDbPoint
 10
9.376121
 20
9.64945
 30
0.0
  0
POINT
  5
526
100
AcDbEntity
  8
DEFPOINTS
  6
BYBLOCK
 62
     0
100
AcDbPoint
 10
10.283333
 20
9.39945
 30
0.0
  0
POINT
  5
527
100
AcDbEntity
  8
DEFPOINTS
  6
BYBLOCK
 62
     0
100
AcDbPoint
 10
15.167461
 20
9.39945
 30
0.0
  0
ENDBLK
  5
528
100
AcDbEntity
  8
0
100
AcDbBlockEnd
  0
BLOCK
  5
52B
100
AcDbEntity
  8
0
100
AcDbBlockBegin
  2
*D16
 70
     1
 10
0.0
 20
0.0
 30
0.0
  3
*D16
  1

  0
LINE
  5
52C
100
AcDbEntity
  8
0
  6
BYBLOCK
 62
     0
100
AcDbLine
 10
7.391922
 20
13.648442
 30
0.0
 11
7.391922
 21
15.386128
 31
0.0
  0
LINE
  5
52D
100
AcDbEntity
  8
0
  6
BYBLOCK
 62
     0
100
AcDbLine
 10
9.38055
 20
13.648442
 30
0.0
 11
9.38055
 21
15.386128
 31
0.0
  0
LINE
  5
52E
100
AcDbEntity
  8
0
  6
BYBLOCK
 62
     0
100
AcDbLine
 10
7.751922
 20
15.026128
 30
0.0
 11
9.02055
 21
15.026128
 31
0.0
  0
LINE
  5
52F
100
AcDbEntity
  8
0
  6
BYBLOCK
 62
     0
100
AcDbLine
 10
9.38055
 20
15.026128
 30
0.0
 11
9.74055
 21
15.026128
 31
0.0
  0
SOLID
  5
530
100
AcDbEntity
  8
0
  6
BYBLOCK
 62
     0
100
AcDbTrace
 10
7.751922
 20
15.086128
 30
0.0
 11
7.751922
 21
14.966128
 31
0.0
 12
7.391922
 22
15.026128
 32
0.0
 13
7.391922
 23
15.026128
 33
0.0
  0
SOLID
  5
531
100
AcDbEntity
  8
0
  6
BYBLOCK
 62
     0
100
AcDbTrace
 10
9.02055
 20
15.086128
 30
0.0
 11
9.02055
 21
14.966128
 31
0.0
 12
9.38055
 22
15.026128
 32
0.0
 13
9.38055
 23
15.026128
 33
0.0
  0
MTEXT
  5
532
100
AcDbEntity
  8
0
  6
BYBLOCK
 62
     0
100
AcDbMText
 10
11.42055
 20
15.026128
 30
0.0
 40
0.36
 41
0.0
 71
     5
 72
     1
  1
\A1;2" [51mm]
  7
ROMANS
  0
POINT
  5
533
100
AcDbEntity
  8
DEFPOINTS
  6
BYBLOCK
 62
     0
100
AcDbPoint
 10
7.391922
 20
13.523442
 30
0.0
  0
POINT
  5
534
100
AcDbEntity
  8
DEFPOINTS
  6
BYBLOCK
 62
     0
100
AcDbPoint
 10
9.38055
 20
13.523442
 30
0.0
  0
POINT
  5
535
100
AcDbEntity
  8
DEFPOINTS
  6
BYBLOCK
 62
     0
100
AcDbPoint
 10
9.38055
 20
15.026128
 30
0.0
  0
ENDBLK
  5
536
100
AcDbEntity
  8
0
100
AcDbBlockEnd
  0
ENDSEC
  0
SECTION
  2
ENTITIES
  0
LWPOLYLINE
  5
F2
100
AcDbEntity
  8
BORDER
100
AcDbPolyline
 90
        4
 70
     1
 43
0.109866
 10
16.113206
 20
21.429978
 10
0.054933
 20
21.429978
 10
0.054933
 20
0.054933
 10
16.113206
 20
0.054933
  0
MTEXT
  5
F3
102
{ACAD_REACTORS
330
F4
102
}
100
AcDbEntity
  8
R-DOOR-ANNO
  6
CONTINUOUS
100
AcDbMText
 10
11.344345
 20
13.010283
 30
0.0
 40
0.36
 41
0.0
 71
     4
 72
     1
  1
CLADDING
  7
ROMANS
  0
LEADER
  5
F4
100
AcDbEntity
  8
R-DOOR-ANNO
  6
CONTINUOUS
100
AcDbLeader
  3
STANDARD
 73
     0
 74
     0
 75
     1
 40
0.36
 41
2.451429
 76
     3
 10
9.203285
 20
13.697783
 30
0.0
 10
10.734345
 20
13.010283
 30
0.0
 10
11.234345
 20
13.010283
 30
0.0
 77
   256
340
F3
213
-0.0199999999999996
223
0.0
233
0.0
1001
ACAD
1000
DSTYLE
1002
{
1070
   173
1070
     1
1070
     6
1000
_DOTSMALL
1070
    41
1040
0.5
1002
}
  0
LWPOLYLINE
  5
F5
100
AcDbEntity
  8
R-DOOR-DETL
100
AcDbPolyline
 90
       29
 70
     1
 43
0.0
 10
8.533633
 20
12.169749
 10
8.533633
 20
12.054749
 42
0.414214
 10
8.548633
 20
12.039749
 10
8.700633
 20
12.039749
 42
0.414214
 10
8.794633
 20
12.133749
 10
8.794633
 20
12.388666
 42
-0.136094
 10
8.798918
 20
12.404117
 10
9.077011
 20
12.86694
 42
0.414214
 10
9.066747
 20
12.908107
 10
9.006745
 20
12.944159
 42
0.136094
 10
8.991294
 20
12.948444
 10
8.875047
 20
12.948444
 42
-0.400921
 10
8.845078
 20
12.977077
 10
8.822687
 20
13.467806
 42
0.400921
 10
8.782729
 20
13.505983
 10
8.676769
 20
13.505983
 42
0.843039
 10
8.670207
 20
13.467739
 42
-0.317837
 10
8.676769
 20
13.458459
 10
8.676769
 20
12.606592
 42
-0.414214
 10
8.666927
 20
12.596749
 10
8.434633
 20
12.596749
 42
0.414214
 10
8.419633
 20
12.581749
 10
8.419633
 20
12.466749
 42
0.414214
 10
8.434633
 20
12.451749
 10
8.524633
 20
12.451749
 42
-0.414214
 10
8.649633
 20
12.326749
 10
8.649633
 20
12.199749
 42
-0.414214
 10
8.634633
 20
12.184749
 10
8.548633
 20
12.184749
 42
0.414214
  0
LWPOLYLINE
  5
F6
100
AcDbEntity
  8
R-DOOR-DETL
100
AcDbPolyline
 90
        4
 70
     1
 43
0.0
 10
8.091343
 20
12.708459
 10
8.091343
 20
13.458459
 10
8.141343
 20
13.458459
 10
8.141343
 20
12.708459
  0
LWPOLYLINE
  5
F7
100
AcDbEntity
  8
R-DOOR-DETL
100
AcDbPolyline
 90
        4
 70
     1
 43
0.0
 10
8.676769
 20
12.708459
 10
8.676769
 20
13.458459
 10
8.626769
 20
13.458459
 10
8.626769
 20
12.708459
  0
LINE
  5
F8
100
AcDbEntity
  8
R-DOOR-DETL
100
AcDbLine
 10
8.141343
 20
15.718641
 30
0.0
 11
8.141343
 21
12.646749
 31
0.0
  0
LINE
  5
F9
100
AcDbEntity
  8
R-DOOR-DETL
100
AcDbLine
 10
8.626769
 20
15.72705
 30
0.0
 11
8.626769
 21
12.646749
 31
0.0
  0
LINE
  5
FA
100
AcDbEntity
  8
R-DOOR-DETL
100
AcDbLine
 10
8.193285
 20
15.700525
 30
0.0
 11
8.193285
 21
12.646749
 31
0.0
  0
LINE
  5
FB
100
AcDbEntity
  8
R-DOOR-DETL
100
AcDbLine
 10
8.255785
 20
15.725217
 30
0.0
 11
8.255785
 21
12.646749
 31
0.0
  0
LINE
  5
FC
100
AcDbEntity
  8
R-DOOR-DETL
100
AcDbLine
 10
8.318285
 20
15.763948
 30
0.0
 11
8.318285
 21
12.646749
 31
0.0
  0
LINE
  5
FD
100
AcDbEntity
  8
R-DOOR-DETL
100
AcDbLine
 10
8.443285
 20
15.706877
 30
0.0
 11
8.443285
 21
12.646749
 31
0.0
  0
LINE
  5
FE
100
AcDbEntity
  8
R-DOOR-DETL
100
AcDbLine
 10
8.505785
 20
15.753752
 30
0.0
 11
8.505785
 21
12.646749
 31
0.0
  0
LINE
  5
FF
100
AcDbEntity
  8
R-DOOR-DETL
100
AcDbLine
 10
8.568285
 20
15.764832
 30
0.0
 11
8.568285
 21
12.646749
 31
0.0
  0
LWPOLYLINE
  5
101
100
AcDbEntity
  8
R-DOOR-DETL
  6
CONTINUOUS
 62
     3
100
AcDbPolyline
 90
        8
 70
     1
 43
0.0
 10
9.17455
 20
13.729442
 42
-0.414214
 10
9.38055
 20
13.523442
 10
9.38055
 20
9.64945
 10
9.33055
 20
9.64945
 10
9.33055
 20
13.523442
 42
0.414214
 10
9.17455
 20
13.679442
 10
8.68263
 20
13.679442
 10
8.68263
 20
13.729442
  0
LWPOLYLINE
  5
102
100
AcDbEntity
  8
R-DOOR-DETL
100
AcDbPolyline
 90
       70
 70
     1
 43
0.0
 10
9.085129
 20
10.743246
 10
9.151121
 20
10.743246
 42
-0.414214
 10
9.166121
 20
10.728246
 10
9.166121
 20
10.07445
 42
0.414214
 10
9.181121
 20
10.05945
 10
9.201121
 20
10.05945
 42
-0.414214
 10
9.216121
 20
10.04445
 10
9.216121
 20
9.66445
 42
0.414214
 10
9.231121
 20
9.64945
 10
9.301121
 20
9.64945
 42
0.414214
 10
9.316121
 20
9.66445
 10
9.316121
 20
13.523442
 42
0.414214
 10
9.160121
 20
13.679442
 10
8.688201
 20
13.679442
 42
0.414214
 10
8.678201
 20
13.669442
 10
8.678201
 20
13.600229
 42
0.414214
 10
8.688044
 20
13.590387
 10
8.849083
 20
13.590387
 42
-0.043661
 10
8.854293
 20
13.589931
 10
9.141331
 20
13.539318
 42
-0.36397
 10
9.166121
 20
13.509774
 10
9.166121
 20
13.09141
 42
-0.131652
 10
9.132627
 20
12.96641
 10
8.839148
 20
12.458089
 42
0.131652
 10
8.835129
 20
12.443089
 10
8.835129
 20
12.009153
 42
-0.414214
 10
8.775129
 20
11.949153
 10
8.385129
 20
11.949153
 10
7.995129
 20
11.949153
 42
-0.414214
 10
7.935129
 20
12.009153
 10
7.935129
 20
12.443089
 42
0.131652
 10
7.931109
 20
12.458089
 10
7.63763
 20
12.96641
 42
-0.131652
 10
7.604136
 20
13.09141
 10
7.604136
 20
13.509774
 42
-0.36397
 10
7.628927
 20
13.539318
 10
7.915964
 20
13.589931
 42
-0.043661
 10
7.921174
 20
13.590387
 10
8.082214
 20
13.590387
 42
0.414214
 10
8.092056
 20
13.600229
 10
8.092056
 20
13.669442
 42
0.414214
 10
8.082056
 20
13.679442
 10
7.610136
 20
13.679442
 42
0.414214
 10
7.454136
 20
13.523442
 10
7.454136
 20
9.66445
 42
0.414214
 10
7.469136
 20
9.64945
 10
7.539136
 20
9.64945
 42
0.414214
 10
7.554136
 20
9.66445
 10
7.554136
 20
10.04445
 42
-0.414214
 10
7.569136
 20
10.05945
 10
7.589136
 20
10.05945
 42
0.414214
 10
7.604136
 20
10.07445
 10
7.604136
 20
10.728246
 42
-0.414214
 10
7.619136
 20
10.743246
 10
7.685129
 20
10.743246
 42
0.414214
 10
7.700129
 20
10.758246
 10
7.700129
 20
10.928246
 42
0.414214
 10
7.685129
 20
10.943246
 10
7.619136
 20
10.943246
 42
-0.414214
 10
7.604136
 20
10.958246
 10
7.604136
 20
11.19945
 42
-0.414214
 10
7.634136
 20
11.22945
 10
8.385129
 20
11.22945
 10
9.136121
 20
11.22945
 42
-0.414214
 10
9.166121
 20
11.19945
 10
9.166121
 20
10.958246
 42
-0.414214
 10
9.151121
 20
10.943246
 10
9.085129
 20
10.943246
 42
0.414214
 10
9.070129
 20
10.928246
 10
9.070129
 20
10.758246
 42
0.414214
  0
LWPOLYLINE
  5
103
100
AcDbEntity
  8
R-DOOR-DETL
100
AcDbPolyline
 90
       29
 70
     1
 43
0.0
 10
8.234478
 20
12.169749
 10
8.234478
 20
12.054749
 42
-0.414214
 10
8.219478
 20
12.039749
 10
8.067478
 20
12.039749
 42
-0.414214
 10
7.973478
 20
12.133749
 10
7.973478
 20
12.388666
 42
0.136094
 10
7.969193
 20
12.404117
 10
7.691101
 20
12.86694
 42
-0.414214
 10
7.701365
 20
12.908107
 10
7.761366
 20
12.944159
 42
-0.136094
 10
7.776818
 20
12.948444
 10
7.893065
 20
12.948444
 42
0.400921
 10
7.923033
 20
12.977077
 10
7.945425
 20
13.467806
 42
-0.400921
 10
7.985383
 20
13.505983
 10
8.091343
 20
13.505983
 42
-0.843039
 10
8.097904
 20
13.467739
 42
0.317837
 10
8.091343
 20
13.458459
 10
8.091343
 20
12.606592
 42
0.414214
 10
8.101185
 20
12.596749
 10
8.333478
 20
12.596749
 42
-0.414214
 10
8.348478
 20
12.581749
 10
8.348478
 20
12.466749
 42
-0.414214
 10
8.333478
 20
12.451749
 10
8.243478
 20
12.451749
 42
0.414214
 10
8.118478
 20
12.326749
 10
8.118478
 20
12.199749
 42
0.414214
 10
8.133478
 20
12.184749
 10
8.219478
 20
12.184749
 42
-0.414214
  0
LWPOLYLINE
  5
104
100
AcDbEntity
  8
R-DOOR-DETL
  6
CONTINUOUS
 62
     3
100
AcDbPolyline
 90
        8
 70
     1
 43
0.0
 10
7.597922
 20
13.729442
 42
0.414214
 10
7.391922
 20
13.523442
 10
7.391922
 20
9.64945
 10
7.441922
 20
9.64945
 10
7.441922
 20
13.523442
 42
-0.414214
 10
7.597922
 20
13.679442
 10
8.089842
 20
13.679442
 10
8.089842
 20
13.729442
  0
TEXT
  5
105
100
AcDbEntity
  8
R-DOOR-ANNO
  6
CONTINUOUS
 62
     7
100
AcDbText
 10
1.431811
 20
5.94336
 30
0.0
 40
0.4
  1
THRESHOLD
  7
ROMANS
100
AcDbText
  0
TEXT
  5
107
100
AcDbEntity
  8
R-DOOR-ANNO
  6
CONTINUOUS
100
AcDbText
 10
4.040677
 20
3.854102
 30
0.0
 40
0.39
  1
4" SQUARE DOOR RAIL CLAD
  7
ROMANS
 72
     1
 11
8.377106
 21
3.854102
 31
0.0
100
AcDbText
  0
TEXT
  5
109
100
AcDbEntity
  8
R-DOOR-ANNO
  6
CONTINUOUS
100
AcDbText
 10
12.980952
 20
0.367433
 30
0.0
 40
0.390625
  1
4SDRCTH
  7
ROMANS
100
AcDbText
  0
MTEXT
  5
10B
102
{ACAD_REACTORS
330
117
102
}
100
AcDbEntity
  8
R-DOOR-ANNO
  6
CONTINUOUS
100
AcDbMText
 10
11.335568
 20
11.17036
 30
0.0
 40
0.36
 41
0.0
 71
     4
 72
     1
  1
SHOE
  7
ROMANS
  0
MTEXT
  5
10C
102
{ACAD_REACTORS
330
116
102
}
100
AcDbEntity
  8
R-DOOR-ANNO
  6
CONTINUOUS
100
AcDbMText
 10
11.343611
 20
12.033409
 30
0.0
 40
0.36
 41
0.0
 71
     4
 72
     1
  1
GLASS CLAMP
  7
ROMANS
  0
TEXT
  5
10D
100
AcDbEntity
  8
R-DOOR-ANNO
  6
CONTINUOUS
100
AcDbText
 10
5.869963
 20
3.265942
 30
0.0
 40
0.39
  1
WITH THRESHOLD
  7
ROMANS
 72
     1
 11
8.377106
 21
3.265942
 31
0.0
100
AcDbText
  0
LINE
  5
10E
102
{ACAD_REACTORS
330
4F6
102
}
100
AcDbEntity
  8
0
100
AcDbLine
 10
5.385129
 20
8.89945
 30
0.0
 11
11.385129
 21
8.89945
 31
0.0
  0
LINE
  5
10F
100
AcDbEntity
  8
0
100
AcDbLine
 10
6.291629
 20
8.89945
 30
0.0
 11
10.478629
 21
8.89945
 31
0.0
  0
LINE
  5
110
102
{ACAD_REACTORS
330
4F6
102
}
100
AcDbEntity
  8
0
100
AcDbLine
 10
6.251154
 20
9.39945
 30
0.0
 11
7.894037
 21
9.39945
 31
0.0
  0
HATCH
  5
112
100
AcDbEntity
  8
R-DOOR-PATT
  6
CONTINUOUS
 62
     5
100
AcDbHatch
 10
0.0
 20
0.0
 30
0.0
210
0.0
220
0.0
230
1.0
  2
ANSI31
 70
     0
 71
     0
 91
        1
 92
        7
 72
     0
 73
     1
 93
        4
 10
5.385128624501518
 20
8.899449522721617
 10
11.38512862450151
 20
8.899449522721617
 10
11.38512862450151
 20
6.899449522721617
 10
5.385128624501518
 20
6.899449522721617
 97
        0
 75
     0
 76
     1
 52
180.0
 41
2.5
 77
     0
 78
     1
 53
135.0
 43
-141.90412
 44
39.400738
 45
0.2209708691207961
 46
0.2209708691207961
 79
     0
 47
0.011976
 98
        1
 10
8.65793
 20
8.090356
  0
TEXT
  5
113
100
AcDbEntity
  8
R-DOOR-ANNO
  6
CONTINUOUS
 62
     7
100
AcDbText
 10
-0.640111
 20
7.509444
 30
0.0
 40
0.4
  1
        1/2"
  7
ROMANS
100
AcDbText
  0
LEADER
  5
114
100
AcDbEntity
  8
R-DOOR-ANNO
  6
CONTINUOUS
100
AcDbLeader
  3
STANDARD
 76
     3
 10
6.45996
 20
9.109912
 30
0.0
 10
4.526146
 20
7.714471
 30
0.0
 10
4.136273
 20
7.714471
 30
0.0
 77
   256
1001
ACAD
1000
DSTYLE
1002
{
1070
   173
1070
     1
1070
     6
1000
_DOTSMALL
1070
    41
1040
0.5
1002
}
  0
LINE
  5
115
102
{ACAD_REACTORS
330
4F6
102
}
100
AcDbEntity
  8
0
  6
CONTINUOUS
100
AcDbLine
 10
5.385129
 20
8.89945
 30
0.0
 11
6.251154
 21
9.39945
 31
0.0
  0
LEADER
  5
116
100
AcDbEntity
  8
R-DOOR-ANNO
  6
CONTINUOUS
100
AcDbLeader
  3
STANDARD
 73
     0
 74
     0
 75
     1
 40
0.36
 41
3.634286
 76
     3
 10
8.778984
 20
12.845909
 30
0.0
 10
10.733611
 20
12.033409
 30
0.0
 10
11.233611
 20
12.033409
 30
0.0
 77
   256
340
10C
213
-0.0199999999999996
223
0.0
233
0.0
1001
ACAD
1000
DSTYLE
1002
{
1070
   173
1070
     1
1070
     6
1000
_DOTSMALL
1070
    41
1040
0.5
1002
}
  0
LEADER
  5
117
100
AcDbEntity
  8
R-DOOR-ANNO
  6
CONTINUOUS
100
AcDbLeader
  3
STANDARD
 73
     0
 74
     0
 75
     1
 40
0.36
 41
1.337143
 76
     3
 10
9.194508
 20
11.85786
 30
0.0
 10
10.725568
 20
11.17036
 30
0.0
 10
11.225568
 20
11.17036
 30
0.0
 77
   256
340
10B
213
-0.0199999999999996
223
0.0
233
0.0
1001
ACAD
1000
DSTYLE
1002
{
1070
   173
1070
     1
1070
     6
1000
_DOTSMALL
1070
    41
1040
0.5
1002
}
  0
LINE
  5
118
100
AcDbEntity
  8
R-DOOR-DETL
100
AcDbLine
 10
9.067629
 20
10.67945
 30
0.0
 11
9.067629
 21
11.22945
 31
0.0
  0
LINE
  5
119
100
AcDbEntity
  8
R-DOOR-DETL
100
AcDbLine
 10
8.799477
 20
10.796432
 30
0.0
 11
8.711257
 21
10.859665
 31
0.0
  0
LINE
  5
11A
100
AcDbEntity
  8
R-DOOR-DETL
100
AcDbLine
 10
8.898349
 20
10.841216
 30
0.0
 11
8.799477
 21
10.796432
 31
0.0
  0
LINE
  5
11B
100
AcDbEntity
  8
R-DOOR-DETL
100
AcDbLine
 10
8.4394
 20
10.81045
 30
0.0
 11
8.49367
 21
10.90445
 31
0.0
  0
LINE
  5
11C
100
AcDbEntity
  8
R-DOOR-DETL
100
AcDbLine
 10
8.330858
 20
10.81045
 30
0.0
 11
8.276587
 21
10.90445
 31
0.0
  0
CIRCLE
  5
11D
100
AcDbEntity
  8
R-DOOR-DETL
100
AcDbCircle
 10
8.385129
 20
10.90445
 30
0.0
 40
0.1625
  0
CIRCLE
  5
11E
100
AcDbEntity
  8
R-DOOR-DETL
100
AcDbCircle
 10
8.385129
 20
10.90445
 30
0.0
 40
0.1875
  0
CIRCLE
  5
11F
100
AcDbEntity
  8
R-DOOR-DETL
100
AcDbCircle
 10
8.810129
 20
10.90445
 30
0.0
 40
0.1625
  0
CIRCLE
  5
120
100
AcDbEntity
  8
R-DOOR-DETL
100
AcDbCircle
 10
8.810129
 20
10.90445
 30
0.0
 40
0.1875
  0
LINE
  5
121
100
AcDbEntity
  8
R-DOOR-DETL
100
AcDbLine
 10
7.854996
 20
10.877458
 30
0.0
 11
7.930938
 21
10.799906
 31
0.0
  0
CIRCLE
  5
122
100
AcDbEntity
  8
R-DOOR-DETL
100
AcDbCircle
 10
7.960129
 20
10.90445
 30
0.0
 40
0.1625
  0
CIRCLE
  5
123
100
AcDbEntity
  8
R-DOOR-DETL
100
AcDbCircle
 10
7.960129
 20
10.90445
 30
0.0
 40
0.1875
  0
LINE
  5
124
100
AcDbEntity
  8
R-DOOR-DETL
100
AcDbLine
 10
7.930938
 20
10.799906
 30
0.0
 11
8.03607
 21
10.826898
 31
0.0
  0
LINE
  5
125
100
AcDbEntity
  8
R-DOOR-DETL
100
AcDbLine
 10
8.330858
 20
10.81045
 30
0.0
 11
8.4394
 21
10.81045
 31
0.0
  0
LINE
  5
126
100
AcDbEntity
  8
R-DOOR-DETL
100
AcDbLine
 10
8.632222
 20
12.316478
 30
0.0
 11
8.132222
 21
12.316478
 31
0.0
  0
LINE
  5
127
100
AcDbEntity
  8
R-DOOR-DETL
100
AcDbLine
 10
8.632222
 20
12.191478
 30
0.0
 11
8.132222
 21
12.191478
 31
0.0
  0
LINE
  5
128
100
AcDbEntity
  8
R-DOOR-DETL
100
AcDbLine
 10
8.330858
 20
10.99845
 30
0.0
 11
8.4394
 21
10.99845
 31
0.0
  0
LINE
  5
129
100
AcDbEntity
  8
R-DOOR-DETL
100
AcDbLine
 10
8.276587
 20
10.90445
 30
0.0
 11
8.330858
 21
10.99845
 31
0.0
  0
LINE
  5
12A
100
AcDbEntity
  8
R-DOOR-DETL
100
AcDbLine
 10
8.03607
 20
10.826898
 30
0.0
 11
8.065261
 21
10.931441
 31
0.0
  0
LINE
  5
12B
100
AcDbEntity
  8
R-DOOR-DETL
100
AcDbLine
 10
7.884187
 20
10.982001
 30
0.0
 11
7.989319
 21
11.008993
 31
0.0
  0
LINE
  5
12C
100
AcDbEntity
  8
R-DOOR-DETL
100
AcDbLine
 10
7.854996
 20
10.877458
 30
0.0
 11
7.884187
 21
10.982001
 31
0.0
  0
LINE
  5
12D
100
AcDbEntity
  8
R-DOOR-DETL
100
AcDbLine
 10
7.989319
 20
11.008993
 30
0.0
 11
8.065261
 21
10.931441
 31
0.0
  0
LINE
  5
12E
100
AcDbEntity
  8
R-DOOR-DETL
100
AcDbLine
 10
8.132222
 20
12.316478
 30
0.0
 11
8.132222
 21
12.191478
 31
0.0
  0
LINE
  5
12F
100
AcDbEntity
  8
R-DOOR-DETL
100
AcDbLine
 10
8.909001
 20
10.949234
 30
0.0
 11
8.82078
 21
11.012467
 31
0.0
  0
LINE
  5
130
100
AcDbEntity
  8
R-DOOR-DETL
100
AcDbLine
 10
8.82078
 20
11.012467
 30
0.0
 11
8.721908
 21
10.967683
 31
0.0
  0
LINE
  5
131
100
AcDbEntity
  8
R-DOOR-DETL
100
AcDbLine
 10
8.49367
 20
10.90445
 30
0.0
 11
8.4394
 21
10.99845
 31
0.0
  0
LINE
  5
132
100
AcDbEntity
  8
R-DOOR-DETL
100
AcDbLine
 10
8.721908
 20
10.967683
 30
0.0
 11
8.711257
 21
10.859665
 31
0.0
  0
LINE
  5
133
100
AcDbEntity
  8
R-DOOR-DETL
100
AcDbLine
 10
8.909001
 20
10.949234
 30
0.0
 11
8.898349
 21
10.841216
 31
0.0
  0
LINE
  5
134
100
AcDbEntity
  8
R-DOOR-DETL
100
AcDbLine
 10
8.632222
 20
12.316478
 30
0.0
 11
8.632222
 21
12.191478
 31
0.0
  0
LWPOLYLINE
  5
135
100
AcDbEntity
  8
R-DOOR-DETL
100
AcDbPolyline
 90
        4
 70
     1
 43
0.0
 10
8.351185
 20
12.596749
 10
8.101185
 20
12.596749
 10
8.101185
 20
12.646749
 10
8.351185
 20
12.646749
  0
LWPOLYLINE
  5
136
100
AcDbEntity
  8
R-DOOR-DETL
100
AcDbPolyline
 90
        4
 70
     1
 43
0.0
 10
8.416927
 20
12.596749
 10
8.666927
 20
12.596749
 10
8.666927
 20
12.646749
 10
8.416927
 20
12.646749
  0
LINE
  5
137
102
{ACAD_REACTORS
330
4F6
102
}
100
AcDbEntity
  8
0
  6
CONTINUOUS
100
AcDbLine
 10
11.385129
 20
8.89945
 30
0.0
 11
10.519103
 21
9.39945
 31
0.0
  0
LINE
  5
141
100
AcDbEntity
  8
R-DOOR-DETL
100
AcDbLine
 10
8.091343
 20
12.646749
 30
0.0
 11
8.666927
 21
12.646749
 31
0.0
  0
LINE
  5
142
102
{ACAD_REACTORS
330
4F6
102
}
100
AcDbEntity
  8
0
100
AcDbLine
 10
8.876037
 20
9.39945
 30
0.0
 11
10.519103
 21
9.39945
 31
0.0
  0
INSERT
  5
143
100
AcDbEntity
  8
4-2
  6
CONTINUOUS
 62
     4
100
AcDbBlockReference
  2
BSCREW
 10
8.385129
 20
11.949153
 30
0.0
  0
LINE
  5
144
100
AcDbEntity
  8
R-DOOR-DETL
100
AcDbLine
 10
7.702629
 20
10.67945
 30
0.0
 11
7.702629
 21
11.22945
 31
0.0
  0
LWPOLYLINE
  5
145
100
AcDbEntity
  8
R-DOOR-DETL
100
AcDbPolyline
 90
       32
 70
     1
 43
0.0
 10
9.065129
 20
10.66845
 10
9.065129
 20
10.938246
 42
-0.414214
 10
9.080129
 20
10.953246
 10
9.146121
 20
10.953246
 42
0.414214
 10
9.161121
 20
10.968246
 10
9.161121
 20
11.19845
 42
0.414214
 10
9.130121
 20
11.22945
 10
8.986509
 20
11.22945
 42
0.267949
 10
8.959662
 20
11.21395
 10
8.853949
 20
11.030848
 42
0.40146
 10
8.864136
 20
10.989205
 42
-3.430162
 10
8.756121
 20
10.989205
 42
0.40146
 10
8.766309
 20
11.030848
 10
8.660595
 20
11.21395
 42
0.267949
 10
8.633748
 20
11.22945
 10
8.136509
 20
11.22945
 42
0.267949
 10
8.109662
 20
11.21395
 10
8.003949
 20
11.030848
 42
0.40146
 10
8.014136
 20
10.989205
 42
-3.430162
 10
7.906121
 20
10.989205
 42
0.40146
 10
7.916309
 20
11.030848
 10
7.810595
 20
11.21395
 42
0.267949
 10
7.783748
 20
11.22945
 10
7.640136
 20
11.22945
 42
0.414214
 10
7.609136
 20
11.19845
 10
7.609136
 20
10.968246
 42
0.414214
 10
7.624136
 20
10.953246
 10
7.690129
 20
10.953246
 42
-0.414214
 10
7.705129
 20
10.938246
 10
7.705129
 20
10.66845
 42
0.414214
 10
7.720129
 20
10.65345
 10
9.050129
 20
10.65345
 42
0.414214
  0
LINE
  5
146
100
AcDbEntity
  8
R-DOOR-DETL
100
AcDbLine
 10
7.702629
 20
10.67945
 30
0.0
 11
9.067629
 21
10.67945
 31
0.0
  0
LWPOLYLINE
  5
147
100
AcDbEntity
  8
R-DOOR-DETL
100
AcDbPolyline
 90
       21
 70
     1
 43
0.0
 10
8.514238
 20
11.564947
 42
0.939516
 10
8.430027
 20
11.514367
 42
-2.169752
 10
8.340231
 20
11.514367
 42
0.939516
 10
8.256019
 20
11.564947
 42
0.106196
 10
8.230883
 20
11.504078
 42
-0.362414
 10
8.201368
 20
11.47945
 10
7.91284
 20
11.47945
 42
-0.414214
 10
7.88184
 20
11.51045
 10
7.88184
 20
11.670492
 42
0.564167
 10
7.809736
 20
11.714056
 42
-1.903207
 10
7.799143
 20
11.810742
 42
0.226984
 10
7.840024
 20
11.799153
 10
8.385129
 20
11.799153
 10
8.930233
 20
11.799153
 42
0.226984
 10
8.971115
 20
11.810742
 42
-1.903207
 10
8.960522
 20
11.714056
 42
0.564167
 10
8.888417
 20
11.670492
 10
8.888417
 20
11.51045
 42
-0.414214
 10
8.857417
 20
11.47945
 10
8.56889
 20
11.47945
 42
-0.362414
 10
8.539375
 20
11.504078
 42
0.106196
  0
LINE
  5
148
100
AcDbEntity
  8
R-DOOR-DETL
100
AcDbLine
 10
7.702629
 20
11.10445
 30
0.0
 11
9.067629
 21
11.10445
 31
0.0
  0
LINE
  5
149
100
AcDbEntity
  8
R-DOOR-DETL
100
AcDbLine
 10
7.702629
 20
11.22945
 30
0.0
 11
9.067629
 21
11.22945
 31
0.0
  0
LINE
  5
14D
100
AcDbEntity
  8
R-DOOR-DETL
100
AcDbLine
 10
8.231333
 20
15.688538
 30
0.0
 11
8.135785
 21
15.718641
 31
0.0
  0
LINE
  5
14E
100
AcDbEntity
  8
R-DOOR-DETL
100
AcDbLine
 10
8.418833
 20
15.688538
 30
0.0
 11
8.293833
 21
15.782288
 31
0.0
  0
LINE
  5
14F
100
AcDbEntity
  8
R-DOOR-DETL
100
AcDbLine
 10
8.293833
 20
15.782288
 30
0.0
 11
8.231333
 21
15.688538
 31
0.0
  0
LINE
  5
150
100
AcDbEntity
  8
R-DOOR-DETL
100
AcDbLine
 10
8.543833
 20
15.782288
 30
0.0
 11
8.418833
 21
15.688538
 31
0.0
  0
LINE
  5
151
100
AcDbEntity
  8
R-DOOR-DETL
100
AcDbLine
 10
8.621212
 20
15.72705
 30
0.0
 11
8.543833
 21
15.782288
 31
0.0
  0
INSERT
  5
287
100
AcDbEntity
  8
R-DOOR-ANNO
100
AcDbBlockReference
  2
A$C0E897680
 10
0.190454
 20
0.407278
 30
0.0
  0
LINE
  5
288
102
{ACAD_REACTORS
330
4F6
102
}
100
AcDbEntity
  8
R-DOOR-ANNO
100
AcDbLine
 10
8.876037
 20
9.39945
 30
0.0
 11
7.894037
 21
9.39945
 31
0.0
  0
TEXT
  5
2A1
100
AcDbEntity
  8
R-DOOR-ANNO
  6
CONTINUOUS
 62
     7
100
AcDbText
 10
1.891011
 20
6.702901
 30
0.0
 40
0.4
  1
(13mm)
  7
ROMANS
100
AcDbText
  0
LWPOLYLINE
  5
3C0
100
AcDbEntity
  8
1
  6
CONTINUOUS
 62
     5
100
AcDbPolyline
 90
        2
 70
     0
 43
0.0125
 10
14.000824
 20
20.491978
 42
70374.114908
 10
14.00089
 20
20.49197
 42
70374.114908
  0
HATCH
  5
3C1
100
AcDbEntity
  8
2
  6
CONTINUOUS
 62
     9
100
AcDbHatch
 10
0.0
 20
0.0
 30
0.0
210
0.0
220
0.0
230
1.0
  2
SOLID
 70
     1
 71
     0
 91
        1
 92
        7
 72
     1
 73
     1
 93
        8
 10
14.1825778137781
 20
20.45458675062242
 42
0.0
 10
14.180857714718
 20
20.45359365096704
 42
0.0
 10
14.180982714718
 20
20.4533771446161
 42
0.0
 10
14.181107714718
 20
20.45316063826515
 42
0.0
 10
14.18123271471801
 20
20.4529441319142
 42
0.0
 10
13.15211925565037
 20
19.85878519929484
 42
0.0
 10
14.14121834298355
 20
19.28772857496781
 42
0.0
 10
14.94945242322976
 20
19.75436273876619
 42
0.2330962772361932
 97
        0
 75
     0
 76
     1
 47
0.017346
 98
        1
 10
14.075363
 20
19.932773
  0
HATCH
  5
3C2
100
AcDbEntity
  8
1
  6
CONTINUOUS
 62
     5
100
AcDbHatch
 10
0.0
 20
0.0
 30
0.0
210
0.0
220
0.0
230
1.0
  2
SOLID
 70
     1
 71
     0
 91
        7
 92
        7
 72
     1
 73
     1
 93
        4
 10
14.01024076057828
 20
20.49058162292502
 42
0.003817909443379
 10
13.99244645973074
 20
20.49280807854065
 42
0.0
 10
12.96204678903134
 20
19.89790655128945
 42
0.0
 10
12.97287210657865
 20
19.89165655128945
 42
0.0
 97
        0
 92
        7
 72
     0
 73
     1
 93
        4
 10
12.97287210657865
 20
19.89165655128945
 10
12.96204678903134
 20
19.89790655128945
 10
12.96204678903134
 20
19.57427695270201
 10
12.97287210657865
 20
19.58052695270201
 97
        0
 92
        7
 72
     0
 73
     1
 93
        4
 10
13.14961925565036
 20
19.86022857496781
 10
13.14961925565036
 20
19.84772857496781
 10
14.14121834298355
 20
19.28147857496781
 10
14.14121834298355
 20
19.28772857496781
 97
        0
 92
        7
 72
     1
 73
     1
 93
        4
 10
14.95313406273589
 20
19.74398833432611
 42
0.002332807343841
 10
14.94919090300644
 20
19.75421174999486
 42
0.0
 10
14.14121834298355
 20
19.28772857496781
 42
0.0
 10
14.14121834298355
 20
19.27522857496781
 42
0.0
 97
        0
 92
        7
 72
     1
 73
     1
 93
        4
 10
15.0162660146686
 20
19.50458429140829
 42
0.0024685623280776
 10
15.01445126730995
 20
19.51603654653227
 42
0.0
 10
14.31895815323366
 20
19.11449340990079
 42
0.0
 10
14.32978347078097
 20
19.10824340990079
 42
0.0
 97
        0
 92
        7
 72
     1
 73
     1
 93
        8
 10
14.32978347078097
 20
19.10824340990079
 42
0.0
 10
14.31895815323366
 20
19.11449340990079
 42
0.0
 10
14.31895815323366
 20
18.65248379095755
 42
-0.5773502691896262
 10
14.30770815323366
 20
18.64598860042917
 42
0.0
 10
14.22369535881737
 20
18.69449340990079
 42
0.0
 10
14.22369535881737
 20
18.68199340990079
 42
0.0
 10
14.30540847078096
 20
18.63481632271228
 42
0.577350269189633
 10
14.32978347078097
 20
18.64888923552378
 42
0.0
 97
        0
 92
        7
 72
     0
 73
     1
 93
        3
 10
13.14961925565037
 20
19.8477285749678
 10
14.14121834298355
 20
19.27522857496781
 10
14.14121834298355
 20
19.28147857496781
 97
        0
 75
     0
 76
     1
 47
0.006507
 98
        7
 10
12.985414
 20
19.906457
 10
12.967259
 20
19.877272
 10
13.156704
 20
19.852031
 10
14.216015
 20
19.326859
 10
14.422776
 20
19.17068
 10
14.325094
 20
19.077949
 10
14.110192
 20
19.297576
  0
HATCH
  5
3C3
100
AcDbEntity
  8
1
  6
CONTINUOUS
 62
     5
100
AcDbHatch
 10
0.0
 20
0.0
 30
0.0
210
0.0
220
0.0
230
1.0
  2
SOLID
 70
     1
 71
     0
 91
        7
 92
        7
 72
     1
 73
     1
 93
        4
 10
14.01024076057828
 20
20.49058162292502
 42
0.003817909443379
 10
13.99244645973074
 20
20.49280807854065
 42
0.0
 10
12.96204678903134
 20
19.89790655128945
 42
0.0
 10
12.97287210657865
 20
19.89165655128945
 42
0.0
 97
        0
 92
        7
 72
     0
 73
     1
 93
        4
 10
12.97287210657865
 20
19.89165655128945
 10
12.96204678903134
 20
19.89790655128945
 10
12.96204678903134
 20
19.57427695270201
 10
12.97287210657865
 20
19.580526952702
 97
        0
 92
        7
 72
     0
 73
     1
 93
        4
 10
13.14961925565036
 20
19.86022857496781
 10
13.14961925565036
 20
19.84772857496781
 10
14.14121834298355
 20
19.28147857496781
 10
14.14121834298355
 20
19.28772857496781
 97
        0
 92
        7
 72
     1
 73
     1
 93
        4
 10
14.95313406273588
 20
19.74398833432611
 42
0.002332807343841
 10
14.94919090300644
 20
19.75421174999486
 42
0.0
 10
14.14121834298355
 20
19.28772857496781
 42
0.0
 10
14.14121834298355
 20
19.27522857496781
 42
0.0
 97
        0
 92
        7
 72
     1
 73
     1
 93
        4
 10
15.0162660146686
 20
19.50458429140829
 42
0.0024685623280776
 10
15.01445126730995
 20
19.51603654653227
 42
0.0
 10
14.31895815323366
 20
19.11449340990079
 42
0.0
 10
14.32978347078097
 20
19.10824340990079
 42
0.0
 97
        0
 92
        7
 72
     1
 73
     1
 93
        8
 10
14.32978347078097
 20
19.10824340990079
 42
0.0
 10
14.31895815323366
 20
19.11449340990079
 42
0.0
 10
14.31895815323366
 20
18.65248379095755
 42
-0.5773502691896262
 10
14.30770815323366
 20
18.64598860042917
 42
0.0
 10
14.22369535881737
 20
18.69449340990079
 42
0.0
 10
14.22369535881737
 20
18.68199340990079
 42
0.0
 10
14.30540847078096
 20
18.63481632271228
 42
0.577350269189633
 10
14.32978347078097
 20
18.64888923552378
 42
0.0
 97
        0
 92
        7
 72
     0
 73
     1
 93
        3
 10
13.14961925565037
 20
19.8477285749678
 10
14.14121834298355
 20
19.27522857496781
 10
14.14121834298355
 20
19.28147857496781
 97
        0
 75
     0
 76
     1
 47
0.006507
 98
        7
 10
12.985414
 20
19.906457
 10
12.967259
 20
19.877272
 10
13.156704
 20
19.852031
 10
14.216015
 20
19.326859
 10
14.422776
 20
19.17068
 10
14.325094
 20
19.077949
 10
14.110192
 20
19.297576
  0
LINE
  5
3C4
100
AcDbEntity
  8
GREEN
100
AcDbLine
 10
13.852413
 20
19.041929
 30
0.0
 11
14.972868
 21
19.688824
 31
0.0
  0
HATCH
  5
3C5
100
AcDbEntity
  8
2
  6
CONTINUOUS
 62
     9
100
AcDbHatch
 10
0.0
 20
0.0
 30
0.0
210
0.0
220
0.0
230
1.0
  2
SOLID
 70
     1
 71
     0
 91
        2
 92
        7
 72
     1
 73
     1
 93
        5
 10
15.01652753489213
 20
19.50473528017974
 42
0.0
 10
14.32978347078097
 20
19.10824340990079
 42
0.0
 10
14.32978347078097
 20
18.64888923552378
 42
-0.1222318301882052
 10
14.32789795265084
 20
18.64129159374425
 42
0.0
 10
14.99036523581717
 20
19.02376725800966
 42
0.1036486555257608
 97
        0
 92
        7
 72
     1
 73
     1
 93
        4
 10
14.31895815323366
 20
18.74662119993314
 42
0.0
 10
14.22618276561435
 20
18.69305730491697
 42
0.0
 10
14.30770815323366
 20
18.64598860042917
 42
0.5773502691896213
 10
14.31895815323366
 20
18.65248379095755
 42
0.0
 97
        0
 75
     0
 76
     1
 47
0.022773
 98
        2
 10
14.667125
 20
19.092364
 10
14.285415
 20
18.688152
  0
LINE
  5
3C6
100
AcDbEntity
  8
GREEN
100
AcDbLine
 10
13.920764
 20
19.001208
 30
0.0
 11
14.992838
 21
19.62017
 31
0.0
  0
LINE
  5
3C7
100
AcDbEntity
  8
1
  6
CONTINUOUS
100
AcDbLine
 10
14.141218
 20
19.287729
 30
0.0
 11
14.949191
 21
19.754212
 31
0.0
  0
LINE
  5
3C8
100
AcDbEntity
  8
1
  6
CONTINUOUS
100
AcDbLine
 10
14.141218
 20
19.275229
 30
0.0
 11
14.953134
 21
19.743988
 31
0.0
  0
LINE
  5
3C9
100
AcDbEntity
  8
1
  6
CONTINUOUS
 62
     5
100
AcDbLine
 10
14.318958
 20
19.114493
 30
0.0
 11
15.014451
 21
19.516037
 31
0.0
  0
LINE
  5
3CA
100
AcDbEntity
  8
1
  6
CONTINUOUS
 62
     5
100
AcDbLine
 10
14.329783
 20
19.108243
 30
0.0
 11
15.016266
 21
19.504584
 31
0.0
  0
LINE
  5
3CB
100
AcDbEntity
  8
2
  6
CONTINUOUS
 62
     4
100
AcDbLine
 10
13.940594
 20
18.914554
 30
0.0
 11
15.011832
 21
19.533034
 31
0.0
  0
LINE
  5
3CC
100
AcDbEntity
  8
2
  6
CONTINUOUS
 62
     4
100
AcDbLine
 10
13.949254
 20
18.909554
 30
0.0
 11
15.013417
 21
19.523949
 31
0.0
  0
LINE
  5
3CD
100
AcDbEntity
  8
1
  6
CONTINUOUS
 62
     5
100
AcDbLine
 10
14.321658
 20
18.634816
 30
0.0
 11
14.98919
 21
19.020216
 31
0.0
  0
LWPOLYLINE
  5
3CE
100
AcDbEntity
  8
1
  6
CONTINUOUS
 62
     5
100
AcDbPolyline
 90
        2
 70
     0
 43
0.005
 10
14.321387
 20
18.637532
 10
14.988919
 20
19.022932
  0
MTEXT
  5
3CF
100
AcDbEntity
  8
2
  6
CONTINUOUS
 62
     9
100
AcDbMText
 10
12.92458
 20
17.944596
 30
0.0
 40
0.3855
 41
2.7245
 71
     1
 72
     5
  1
\fArial|b1|i0|c0|p34;\C7;C L A D
  7
ROMANS
  0
ARC
  5
3D0
100
AcDbEntity
  8
GREEN
  6
CONTINUOUS
100
AcDbCircle
 39
1.0
 10
13.8916
 20
18.623488
 30
0.0
 40
0.009167
100
AcDbArc
 50
252.745313
 51
1.373158
  0
LINE
  5
3D1
100
AcDbEntity
  8
GREEN
  6
CONTINUOUS
100
AcDbLine
 39
1.0
 10
13.900764
 20
18.958208
 30
0.0
 11
13.900764
 21
18.623708
 31
0.0
  0
ARC
  5
3D2
100
AcDbEntity
  8
GREEN
  6
CONTINUOUS
100
AcDbCircle
 39
1.0
 10
13.873555
 20
18.967326
 30
0.0
 40
0.028697
100
AcDbArc
 50
341.47451
 51
98.091202
  0
LINE
  5
3D3
100
AcDbEntity
  8
GREEN
  6
CONTINUOUS
100
AcDbLine
 39
1.0
 10
13.828298
 20
19.008005
 30
0.0
 11
13.869516
 21
18.995736
 31
0.0
  0
ARC
  5
3D4
100
AcDbEntity
  8
GREEN
  6
CONTINUOUS
100
AcDbCircle
 39
1.0
 10
13.828298
 20
19.01363
 30
0.0
 40
0.005625
100
AcDbArc
 50
90.0
 51
270.0
  0
LINE
  5
3D5
100
AcDbEntity
  8
GREEN
  6
CONTINUOUS
100
AcDbLine
 39
1.0
 10
13.836423
 20
19.019255
 30
0.0
 11
13.828298
 21
19.019255
 31
0.0
  0
LINE
  5
3D6
100
AcDbEntity
  8
GREEN
  6
CONTINUOUS
100
AcDbLine
 39
1.0
 10
13.859361
 20
19.02993
 30
0.0
 11
13.836423
 21
19.019255
 31
0.0
  0
LINE
  5
3D7
100
AcDbEntity
  8
GREEN
  6
CONTINUOUS
100
AcDbLine
 39
1.0
 10
13.852725
 20
19.033025
 30
0.0
 11
13.859361
 21
19.02993
 31
0.0
  0
ARC
  5
3D8
100
AcDbEntity
  8
GREEN
  6
CONTINUOUS
100
AcDbCircle
 39
1.0
 10
13.854838
 20
19.037556
 30
0.0
 40
0.005
100
AcDbArc
 50
90.0
 51
245.0
  0
LINE
  5
3D9
100
AcDbEntity
  8
GREEN
  6
CONTINUOUS
100
AcDbLine
 39
1.0
 10
13.917919
 20
19.006137
 30
0.0
 11
13.854838
 21
19.042556
 31
0.0
  0
ARC
  5
3DA
100
AcDbEntity
  8
GREEN
  6
CONTINUOUS
100
AcDbCircle
 39
1.0
 10
13.910145
 20
18.998362
 30
0.0
 40
0.010994
100
AcDbArc
 50
15.0
 51
45.0
  0
LINE
  5
3DB
100
AcDbEntity
  8
GREEN
  6
CONTINUOUS
100
AcDbLine
 39
1.0
 10
13.920764
 20
18.567458
 30
0.0
 11
13.920764
 21
19.001208
 31
0.0
  0
LINE
  5
3DC
100
AcDbEntity
  8
GREEN
  6
CONTINUOUS
100
AcDbLine
 39
1.0
 10
12.946486
 20
19.129958
 30
0.0
 11
13.920764
 21
18.567458
 31
0.0
  0
LINE
  5
3DD
100
AcDbEntity
  8
GREEN
  6
CONTINUOUS
100
AcDbLine
 39
1.0
 10
12.946486
 20
19.563708
 30
0.0
 11
12.946486
 21
19.129958
 31
0.0
  0
ARC
  5
3DE
100
AcDbEntity
  8
GREEN
  6
CONTINUOUS
100
AcDbCircle
 39
1.0
 10
12.950236
 20
19.563708
 30
0.0
 40
0.00375
100
AcDbArc
 50
90.0
 51
180.0
  0
LINE
  5
3DF
100
AcDbEntity
  8
GREEN
  6
CONTINUOUS
100
AcDbLine
 39
1.0
 10
13.012744
 20
19.530466
 30
0.0
 11
12.950236
 21
19.567458
 31
0.0
  0
ARC
  5
3E0
100
AcDbEntity
  8
GREEN
  6
CONTINUOUS
100
AcDbCircle
 39
1.0
 10
13.010244
 20
19.526136
 30
0.0
 40
0.005
100
AcDbArc
 50
265.0
 51
60.0
  0
LINE
  5
3E1
100
AcDbEntity
  8
GREEN
  6
CONTINUOUS
100
AcDbLine
 39
1.0
 10
13.002514
 20
19.521793
 30
0.0
 11
13.009808
 21
19.521155
 31
0.0
  0
LINE
  5
3E2
100
AcDbEntity
  8
GREEN
  6
CONTINUOUS
100
AcDbLine
 39
1.0
 10
12.997699
 20
19.511709
 30
0.0
 11
13.002514
 21
19.521793
 31
0.0
  0
LINE
  5
3E3
100
AcDbEntity
  8
GREEN
  6
CONTINUOUS
100
AcDbLine
 39
1.0
 10
13.004736
 20
19.49833
 30
0.0
 11
12.997699
 21
19.511709
 31
0.0
  0
ARC
  5
3E4
100
AcDbEntity
  8
GREEN
  6
CONTINUOUS
100
AcDbCircle
 39
1.0
 10
13.001923
 20
19.493458
 30
0.0
 40
0.005625
100
AcDbArc
 50
240.0
 51
60.0
  0
LINE
  5
3E5
100
AcDbEntity
  8
GREEN
  6
CONTINUOUS
100
AcDbLine
 39
1.0
 10
12.973846
 20
19.511993
 30
0.0
 11
12.999111
 21
19.488587
 31
0.0
  0
ARC
  5
3E6
100
AcDbEntity
  8
GREEN
  6
CONTINUOUS
100
AcDbCircle
 39
1.0
 10
12.970164
 20
19.511182
 30
0.0
 40
0.003771
100
AcDbArc
 50
12.423788
 51
197.604591
  0
LINE
  5
3E7
100
AcDbEntity
  8
GREEN
  6
CONTINUOUS
100
AcDbLine
 39
1.0
 10
12.966486
 20
19.186208
 30
0.0
 11
12.96657
 21
19.510042
 31
0.0
  0
ARC
  5
3E8
100
AcDbEntity
  8
GREEN
  6
CONTINUOUS
100
AcDbCircle
 39
1.0
 10
13.044124
 20
19.19235
 30
0.0
 40
0.077881
100
AcDbArc
 50
184.523413
 51
238.446514
  0
LINE
  5
3E9
100
AcDbEntity
  8
GREEN
  6
CONTINUOUS
100
AcDbLine
 39
1.0
 10
13.888881
 20
18.614734
 30
0.0
 11
13.00337
 21
19.125984
 31
0.0
  0
LINE
  5
3EA
100
AcDbEntity
  8
0
 62
     3
100
AcDbLine
 10
13.661102
 20
19.154916
 30
0.0
 11
13.853491
 21
19.043841
 31
0.0
  0
LINE
  5
3EB
100
AcDbEntity
  8
2
  6
CONTINUOUS
 62
     4
100
AcDbLine
 10
13.565351
 20
19.234303
 30
0.0
 11
13.781858
 21
19.109303
 31
0.0
  0
LINE
  5
3EC
100
AcDbEntity
  8
2
  6
CONTINUOUS
 62
     4
100
AcDbLine
 10
13.565351
 20
19.229303
 30
0.0
 11
13.781858
 21
19.104303
 31
0.0
  0
LINE
  5
3ED
100
AcDbEntity
  8
2
  6
CONTINUOUS
 62
     4
100
AcDbLine
 10
14.105496
 20
19.296155
 30
0.0
 11
13.781858
 21
19.109303
 31
0.0
  0
LINE
  5
3EE
100
AcDbEntity
  8
2
  6
CONTINUOUS
 62
     4
100
AcDbLine
 10
14.109826
 20
19.293655
 30
0.0
 11
13.781858
 21
19.104303
 31
0.0
  0
HATCH
  5
3EF
100
AcDbEntity
  8
2
  6
CONTINUOUS
 62
     9
100
AcDbHatch
 10
0.0
 20
0.0
 30
0.0
210
0.0
220
0.0
230
1.0
  2
SOLID
 70
     1
 71
     0
 91
        2
 92
       23
 72
     1
 73
     1
 93
       20
 10
13.82930172354175
 20
19.03413462229851
 42
0.0
 10
13.82623664417878
 20
19.02882574911262
 42
0.6681786379192962
 10
13.83326692198432
 20
19.01966371269831
 42
0.0
 10
13.84865388978213
 20
19.02378663829369
 42
0.6681786379192695
 10
13.84985979455662
 20
19.03294639444406
 42
0.0
 10
13.84596313556488
 20
19.03519613156189
 42
-0.6681786379192408
 10
13.84656608795212
 20
19.03977600963707
 42
0.0
 10
13.85318905663192
 20
19.04155062874632
 42
0.6681786379193185
 10
13.85349053282554
 20
19.04384056778391
 42
0.0
 10
13.66110236103857
 20
19.15491593055402
 42
0.0
 10
13.01578290307234
 20
19.52749129332413
 42
0.668178637919208
 10
13.01395049578948
 20
19.52608523776302
 42
0.0
 10
13.01572511489873
 20
19.51946226908322
 42
-0.6681786379193225
 10
13.012060300333
 20
19.516650157961
 42
0.0
 10
13.00816364134126
 20
19.51889989507883
 42
0.6681786379193126
 10
13.00083401220982
 20
19.51327567283439
 42
0.0
 10
13.0049569378052
 20
19.49788870503658
 42
0.6681786379193007
 10
13.01640663299316
 20
19.49638132406848
 42
0.0
 10
13.01947171235613
 20
19.50169019725437
 42
0.0
 10
13.11932926946587
 20
19.44403740977644
 42
0.0
 97
        0
 92
        7
 72
     1
 73
     1
 93
       37
 10
12.95023588442485
 20
19.56745792374807
 42
0.4142135623731299
 10
12.94648588442485
 20
19.56370792374807
 42
0.0
 10
12.94648588442485
 20
19.12995792374807
 42
0.0
 10
13.92076446368234
 20
18.56745792374807
 42
0.0
 10
13.92076446368234
 20
19.00120792374807
 42
0.1316524975873667
 10
13.9179188922632
 20
19.00613659802258
 42
0.0
 10
13.85483827679443
 20
19.04255620834412
 42
0.0376464264871547
 10
13.85408854198959
 20
19.04249967855465
 42
-0.2823673447488831
 10
13.85318905663192
 20
19.04155062874632
 42
0.0
 10
13.851240670284
 20
19.04102856019785
 42
0.5149511874561723
 10
13.85272518548573
 20
19.03302466940894
 42
0.0
 10
13.85936077458695
 20
19.02993044339467
 42
0.0
 10
13.851861362054
 20
19.02644005740162
 42
-0.2180320882791709
 10
13.84865388978213
 20
19.02378663829369
 42
0.0
 10
13.8427766364511
 20
19.02221183300993
 42
0.0
 10
13.83642339306745
 20
19.01925489850082
 42
0.0
 10
13.82829839306745
 20
19.01925489850082
 42
1.0
 10
13.82829839306745
 20
19.00800489850082
 42
0.0
 10
13.86951585946258
 20
18.99573649120888
 42
-0.5578319223640622
 10
13.90076446368234
 20
18.95820792374808
 42
0.0
 10
13.90076446368234
 20
18.62370792374807
 42
-0.5129809895031772
 10
13.88888066173838
 20
18.61473355884268
 42
0.0
 10
13.0033696863688
 20
19.12598355884268
 42
-0.2397239142270584
 10
12.96648588442485
 20
19.18620792374807
 42
0.0
 10
12.96656989124307
 20
19.51004160247902
 42
-1.046264757040728
 10
12.97384648073462
 20
19.51199329031774
 42
0.0
 10
12.99911057258285
 20
19.48858703719865
 42
0.6309633877406034
 10
13.00747879337349
 20
19.49433853889301
 42
-0.1798205534880095
 10
13.0049569378052
 20
19.49788870503658
 42
0.0
 10
13.00494590165459
 20
19.49792989251138
 42
0.0
 10
12.99769911617709
 20
19.51170930193535
 42
0.0
 10
13.00251426669593
 20
19.52179300123605
 42
0.0
 10
13.00980796843379
 20
19.52115488501885
 42
0.293926452988122
 10
13.01459629158802
 20
19.52367509503153
 42
0.0
 10
13.01395049578948
 20
19.52608523776302
 42
-0.4565659268922137
 10
13.01500901633494
 20
19.52764986299129
 42
0.1814616707363846
 10
13.01283640483792
 20
19.53041115102566
 42
0.0
 97
        0
 75
     0
 76
     1
 47
0.011788
 98
        2
 10
13.135801
 20
19.443999
 10
12.985402
 20
19.532406
  0
LINE
  5
3F0
100
AcDbEntity
  8
0
 62
     3
100
AcDbLine
 10
13.829302
 20
19.034135
 30
0.0
 11
13.119329
 21
19.444037
 31
0.0
  0
LINE
  5
3F1
100
AcDbEntity
  8
GREEN
100
AcDbLine
 10
13.920764
 20
18.567458
 30
0.0
 11
14.31922
 21
18.797506
 31
0.0
  0
LINE
  5
3F2
100
AcDbEntity
  8
2
  6
CONTINUOUS
 62
     4
100
AcDbLine
 10
13.949254
 20
18.659554
 30
0.0
 11
14.31922
 21
18.873154
 31
0.0
  0
LINE
  5
3F3
100
AcDbEntity
  8
2
  6
CONTINUOUS
 62
     4
100
AcDbLine
 10
13.940594
 20
18.914554
 30
0.0
 11
13.940594
 21
18.664554
 31
0.0
  0
LINE
  5
3F4
100
AcDbEntity
  8
2
  6
CONTINUOUS
 62
     4
100
AcDbLine
 10
13.949254
 20
18.909554
 30
0.0
 11
13.949254
 21
18.659554
 31
0.0
  0
LINE
  5
3F5
100
AcDbEntity
  8
2
  6
CONTINUOUS
 62
     4
100
AcDbLine
 10
13.940594
 20
18.664554
 30
0.0
 11
13.949254
 21
18.659554
 31
0.0
  0
ARC
  5
3F6
100
AcDbEntity
  8
0
 62
     3
100
AcDbCircle
 10
13.831649
 20
19.025701
 30
0.0
 40
0.00625
100
AcDbArc
 50
150.0
 51
285.0
  0
LINE
  5
3F7
100
AcDbEntity
  8
0
 62
     3
100
AcDbLine
 10
13.826237
 20
19.028826
 30
0.0
 11
13.829302
 21
19.034135
 31
0.0
  0
LINE
  5
3F8
100
AcDbEntity
  8
2
  6
CONTINUOUS
 62
     4
100
AcDbLine
 10
13.781858
 20
19.109303
 30
0.0
 11
13.781858
 21
19.104303
 31
0.0
  0
LINE
  5
3F9
100
AcDbEntity
  8
2
  6
CONTINUOUS
 62
     4
100
AcDbLine
 10
13.940594
 20
18.914554
 30
0.0
 11
13.949254
 21
18.909554
 31
0.0
  0
LINE
  5
3FA
100
AcDbEntity
  8
0
 62
     3
100
AcDbLine
 10
13.853189
 20
19.041551
 30
0.0
 11
13.846566
 21
19.039776
 31
0.0
  0
ARC
  5
3FB
100
AcDbEntity
  8
0
 62
     3
100
AcDbCircle
 10
13.852866
 20
19.042758
 30
0.0
 40
0.00125
100
AcDbArc
 50
285.0
 51
60.0
  0
LINE
  5
3FC
100
AcDbEntity
  8
0
 62
     3
100
AcDbLine
 10
13.848654
 20
19.023787
 30
0.0
 11
13.833267
 21
19.019664
 31
0.0
  0
ARC
  5
3FD
100
AcDbEntity
  8
0
 62
     3
100
AcDbCircle
 10
13.84736
 20
19.028616
 30
0.0
 40
0.005
100
AcDbArc
 50
285.0
 51
60.0
  0
LINE
  5
3FE
100
AcDbEntity
  8
0
 62
     3
100
AcDbLine
 10
13.845963
 20
19.035196
 30
0.0
 11
13.84986
 21
19.032946
 31
0.0
  0
ARC
  5
3FF
100
AcDbEntity
  8
0
 62
     3
100
AcDbCircle
 10
13.847213
 20
19.037361
 30
0.0
 40
0.0025
100
AcDbArc
 50
105.0
 51
240.0
  0
LINE
  5
400
100
AcDbEntity
  8
1
  6
CONTINUOUS
 62
     5
100
AcDbLine
 10
14.223695
 20
18.694493
 30
0.0
 11
14.318958
 21
18.749493
 31
0.0
  0
LWPOLYLINE
  5
401
100
AcDbEntity
  8
1
  6
CONTINUOUS
 62
     5
100
AcDbPolyline
 90
        2
 70
     0
 43
0.005
 10
14.224959
 20
18.692351
 10
14.320221
 20
18.747351
  0
LINE
  5
402
100
AcDbEntity
  8
1
  6
CONTINUOUS
 62
     5
100
AcDbLine
 10
14.318958
 20
18.652484
 30
0.0
 11
14.318958
 21
19.114493
 31
0.0
  0
LINE
  5
403
100
AcDbEntity
  8
1
  6
CONTINUOUS
 62
     5
100
AcDbLine
 10
14.329783
 20
18.648889
 30
0.0
 11
14.329783
 21
19.108243
 31
0.0
  0
LINE
  5
404
100
AcDbEntity
  8
1
  6
CONTINUOUS
 62
     5
100
AcDbLine
 10
14.318958
 20
18.652484
 30
0.0
 11
14.318958
 21
19.114493
 31
0.0
  0
LINE
  5
405
100
AcDbEntity
  8
1
  6
CONTINUOUS
 62
     5
100
AcDbLine
 10
14.329783
 20
18.648889
 30
0.0
 11
14.329783
 21
19.108243
 31
0.0
  0
ARC
  5
406
100
AcDbEntity
  8
1
  6
CONTINUOUS
 62
     5
100
AcDbCircle
 10
14.311458
 20
18.652484
 30
0.0
 40
0.0075
100
AcDbArc
 50
240.0
 51
0.0
  0
ARC
  5
407
100
AcDbEntity
  8
1
  6
CONTINUOUS
 62
     5
100
AcDbCircle
 10
14.311458
 20
18.652484
 30
0.0
 40
0.0075
100
AcDbArc
 50
240.0
 51
0.0
  0
LINE
  5
408
100
AcDbEntity
  8
1
  6
CONTINUOUS
 62
     5
100
AcDbLine
 10
14.223695
 20
18.694493
 30
0.0
 11
14.223695
 21
18.681993
 31
0.0
  0
LINE
  5
409
100
AcDbEntity
  8
1
  6
CONTINUOUS
 62
     5
100
AcDbLine
 10
14.223695
 20
18.694493
 30
0.0
 11
14.223695
 21
18.681993
 31
0.0
  0
LINE
  5
40A
100
AcDbEntity
  8
1
  6
CONTINUOUS
 62
     5
100
AcDbLine
 10
14.305408
 20
18.634816
 30
0.0
 11
14.223695
 21
18.681993
 31
0.0
  0
LINE
  5
40B
100
AcDbEntity
  8
1
  6
CONTINUOUS
 62
     5
100
AcDbLine
 10
14.305408
 20
18.634816
 30
0.0
 11
14.223695
 21
18.681993
 31
0.0
  0
LINE
  5
40C
100
AcDbEntity
  8
1
  6
CONTINUOUS
 62
     5
100
AcDbLine
 10
14.307708
 20
18.645989
 30
0.0
 11
14.223695
 21
18.694493
 31
0.0
  0
LINE
  5
40D
100
AcDbEntity
  8
1
  6
CONTINUOUS
 62
     5
100
AcDbLine
 10
14.307708
 20
18.645989
 30
0.0
 11
14.223695
 21
18.694493
 31
0.0
  0
ARC
  5
40E
100
AcDbEntity
  8
1
  6
CONTINUOUS
 62
     5
100
AcDbCircle
 10
14.313533
 20
18.648889
 30
0.0
 40
0.01625
100
AcDbArc
 50
240.0
 51
0.0
  0
ARC
  5
40F
100
AcDbEntity
  8
1
  6
CONTINUOUS
 62
     5
100
AcDbCircle
 10
14.313533
 20
18.648889
 30
0.0
 40
0.01625
100
AcDbArc
 50
240.0
 51
0.0
  0
LINE
  5
410
100
AcDbEntity
  8
1
  6
CONTINUOUS
 62
     5
100
AcDbLine
 10
14.318958
 20
19.114493
 30
0.0
 11
14.329783
 21
19.108243
 31
0.0
  0
LINE
  5
411
100
AcDbEntity
  8
1
  6
CONTINUOUS
 62
     5
100
AcDbLine
 10
14.318958
 20
19.114493
 30
0.0
 11
14.329783
 21
19.108243
 31
0.0
  0
LWPOLYLINE
  5
412
100
AcDbEntity
  8
1
  6
CONTINUOUS
 62
     5
100
AcDbPolyline
 90
        2
 70
     0
 43
0.005
 10
14.183578
 20
20.454297
 10
13.150848
 20
19.85805
  0
LINE
  5
413
100
AcDbEntity
  8
1
 62
     5
100
AcDbLine
 10
13.149619
 20
19.860229
 30
0.0
 11
14.181233
 21
20.452944
 31
0.0
  0
LINE
  5
414
100
AcDbEntity
  8
1
  6
CONTINUOUS
100
AcDbLine
 39
0.05
 10
13.149619
 20
19.847729
 30
0.0
 11
14.141218
 21
19.275229
 31
0.0
  0
LINE
  5
415
100
AcDbEntity
  8
1
  6
CONTINUOUS
100
AcDbLine
 10
13.149619
 20
19.847729
 30
0.0
 11
14.141218
 21
19.281479
 31
0.0
  0
LINE
  5
416
100
AcDbEntity
  8
1
  6
CONTINUOUS
 62
     5
100
AcDbLine
 39
0.05
 10
13.149619
 20
19.847729
 30
0.0
 11
14.141218
 21
19.275229
 31
0.0
  0
LINE
  5
417
100
AcDbEntity
  8
1
  6
CONTINUOUS
100
AcDbLine
 10
13.149619
 20
19.847729
 30
0.0
 11
14.141218
 21
19.281479
 31
0.0
  0
LINE
  5
418
100
AcDbEntity
  8
0
 62
     3
100
AcDbLine
 10
13.015783
 20
19.527491
 30
0.0
 11
13.661102
 21
19.154916
 31
0.0
  0
LINE
  5
419
100
AcDbEntity
  8
2
  6
CONTINUOUS
 62
     4
100
AcDbLine
 10
13.672483
 20
19.546155
 30
0.0
 11
13.348845
 21
19.359303
 31
0.0
  0
LINE
  5
41A
100
AcDbEntity
  8
2
  6
CONTINUOUS
 62
     4
100
AcDbLine
 10
13.676813
 20
19.543655
 30
0.0
 11
13.348845
 21
19.354303
 31
0.0
  0
LINE
  5
41B
100
AcDbEntity
  8
1
  6
CONTINUOUS
100
AcDbLine
 39
0.05
 10
13.149619
 20
19.860229
 30
0.0
 11
14.141218
 21
19.287729
 31
0.0
  0
LINE
  5
41C
100
AcDbEntity
  8
1
  6
CONTINUOUS
 62
     5
100
AcDbLine
 39
0.05
 10
13.149619
 20
19.860229
 30
0.0
 11
14.141218
 21
19.287729
 31
0.0
  0
HATCH
  5
41D
100
AcDbEntity
  8
2
  6
CONTINUOUS
 62
     9
100
AcDbHatch
 10
0.0
 20
0.0
 30
0.0
210
0.0
220
0.0
230
1.0
  2
SOLID
 70
     1
 71
     0
 91
        1
 92
        7
 72
     1
 73
     1
 93
        7
 10
13.14961925565036
 20
19.84772857496781
 42
0.0
 10
13.14961925565036
 20
19.86022857496781
 42
0.0
 10
14.18024423494126
 20
20.45526018419497
 42
0.0369683020279065
 10
14.01050228080172
 20
20.49073261169642
 42
0.0
 10
12.97287210657865
 20
19.89165655128945
 42
0.0
 10
12.97287210657865
 20
19.580526952702
 42
0.0
 10
13.29264907392911
 20
19.76515027088244
 42
0.0
 97
        0
 75
     0
 76
     1
 47
0.022773
 98
        1
 10
13.123194
 20
19.821084
  0
LINE
  5
41E
100
AcDbEntity
  8
1
  6
CONTINUOUS
 62
     5
100
AcDbLine
 10
12.962047
 20
19.897907
 30
0.0
 11
13.992446
 21
20.492808
 31
0.0
  0
LINE
  5
41F
100
AcDbEntity
  8
1
  6
CONTINUOUS
100
AcDbLine
 10
12.972872
 20
19.891657
 30
0.0
 11
14.010241
 21
20.490582
 31
0.0
  0
LINE
  5
420
100
AcDbEntity
  8
1
  6
CONTINUOUS
 62
     5
100
AcDbLine
 10
14.179983
 20
20.455109
 30
0.0
 11
13.149619
 21
19.860229
 31
0.0
  0
LINE
  5
421
100
AcDbEntity
  8
1
  6
CONTINUOUS
 62
     5
100
AcDbLine
 10
12.962047
 20
19.897907
 30
0.0
 11
13.992446
 21
20.492808
 31
0.0
  0
LINE
  5
422
100
AcDbEntity
  8
1
  6
CONTINUOUS
 62
     5
100
AcDbLine
 10
12.972872
 20
19.891657
 30
0.0
 11
14.010241
 21
20.490582
 31
0.0
  0
LINE
  5
423
100
AcDbEntity
  8
1
  6
CONTINUOUS
 62
     5
100
AcDbLine
 10
13.150869
 20
19.858064
 30
0.0
 11
14.181233
 21
20.452944
 31
0.0
  0
LINE
  5
424
100
AcDbEntity
  8
1
  6
CONTINUOUS
 62
     5
100
AcDbLine
 10
12.962047
 20
19.897907
 30
0.0
 11
12.972872
 21
19.891657
 31
0.0
  0
LINE
  5
425
100
AcDbEntity
  8
1
  6
CONTINUOUS
 62
     5
100
AcDbLine
 10
12.962047
 20
19.897907
 30
0.0
 11
12.972872
 21
19.891657
 31
0.0
  0
LINE
  5
426
100
AcDbEntity
  8
GREEN
100
AcDbLine
 10
12.950236
 20
19.567458
 30
0.0
 11
13.292911
 21
19.765301
 31
0.0
  0
LINE
  5
427
100
AcDbEntity
  8
1
  6
CONTINUOUS
 62
     5
100
AcDbLine
 10
12.962047
 20
19.574277
 30
0.0
 11
12.962047
 21
19.897907
 31
0.0
  0
LINE
  5
428
100
AcDbEntity
  8
1
  6
CONTINUOUS
 62
     5
100
AcDbLine
 10
12.962047
 20
19.574277
 30
0.0
 11
12.962047
 21
19.897907
 31
0.0
  0
LINE
  5
429
100
AcDbEntity
  8
GREEN
100
AcDbLine
 10
13.014732
 20
19.528339
 30
0.0
 11
13.359037
 21
19.727123
 31
0.0
  0
LINE
  5
42A
100
AcDbEntity
  8
2
  6
CONTINUOUS
 62
     4
100
AcDbLine
 10
13.455977
 20
19.671155
 30
0.0
 11
13.132339
 21
19.484303
 31
0.0
  0
LINE
  5
42B
100
AcDbEntity
  8
2
  6
CONTINUOUS
 62
     4
100
AcDbLine
 10
13.132339
 20
19.484303
 30
0.0
 11
13.348845
 21
19.359303
 31
0.0
  0
LINE
  5
42C
100
AcDbEntity
  8
2
  6
CONTINUOUS
 62
     4
100
AcDbLine
 10
13.132339
 20
19.479303
 30
0.0
 11
13.348845
 21
19.354303
 31
0.0
  0
LINE
  5
42D
100
AcDbEntity
  8
2
  6
CONTINUOUS
 62
     4
100
AcDbLine
 10
13.132339
 20
19.484303
 30
0.0
 11
13.132339
 21
19.479303
 31
0.0
  0
LINE
  5
42E
100
AcDbEntity
  8
0
 62
     3
100
AcDbLine
 10
13.019472
 20
19.50169
 30
0.0
 11
13.016407
 21
19.496381
 31
0.0
  0
ARC
  5
42F
100
AcDbEntity
  8
0
 62
     3
100
AcDbCircle
 10
13.015158
 20
19.526409
 30
0.0
 40
0.00125
100
AcDbArc
 50
60.0
 51
195.0
  0
LINE
  5
430
100
AcDbEntity
  8
0
 62
     3
100
AcDbLine
 10
13.015725
 20
19.519462
 30
0.0
 11
13.01395
 21
19.526085
 31
0.0
  0
ARC
  5
431
100
AcDbEntity
  8
0
 62
     3
100
AcDbCircle
 10
13.01331
 20
19.518815
 30
0.0
 40
0.0025
100
AcDbArc
 50
240.0
 51
15.0
  0
LINE
  5
432
100
AcDbEntity
  8
0
 62
     3
100
AcDbLine
 10
13.008164
 20
19.5189
 30
0.0
 11
13.01206
 21
19.51665
 31
0.0
  0
ARC
  5
433
100
AcDbEntity
  8
0
 62
     3
100
AcDbCircle
 10
13.005664
 20
19.51457
 30
0.0
 40
0.005
100
AcDbArc
 50
60.0
 51
195.0
  0
LINE
  5
434
100
AcDbEntity
  8
0
 62
     3
100
AcDbLine
 10
13.004957
 20
19.497889
 30
0.0
 11
13.000834
 21
19.513276
 31
0.0
  0
ARC
  5
435
100
AcDbEntity
  8
0
 62
     3
100
AcDbCircle
 10
13.010994
 20
19.499506
 30
0.0
 40
0.00625
100
AcDbArc
 50
195.0
 51
330.0
  0
LINE
  5
436
100
AcDbEntity
  8
0
 62
     3
100
AcDbLine
 10
13.119329
 20
19.444037
 30
0.0
 11
13.019472
 21
19.50169
 31
0.0
  0
LINE
  5
437
100
AcDbEntity
  8
2
  6
CONTINUOUS
 62
     4
100
AcDbLine
 10
13.348845
 20
19.359303
 30
0.0
 11
13.348845
 21
19.354303
 31
0.0
  0
LINE
  5
438
100
AcDbEntity
  8
1
  6
CONTINUOUS
 62
     5
100
AcDbLine
 39
0.05
 10
13.149619
 20
19.860229
 30
0.0
 11
13.149619
 21
19.847729
 31
0.0
  0
LINE
  5
439
100
AcDbEntity
  8
1
  6
CONTINUOUS
 62
     5
100
AcDbLine
 39
0.05
 10
13.149619
 20
19.860229
 30
0.0
 11
13.149619
 21
19.847729
 31
0.0
  0
LINE
  5
43A
100
AcDbEntity
  8
1
  6
CONTINUOUS
 62
     5
100
AcDbLine
 10
13.149619
 20
19.860229
 30
0.0
 11
13.149619
 21
19.847729
 31
0.0
  0
LINE
  5
43B
100
AcDbEntity
  8
1
  6
CONTINUOUS
 62
     5
100
AcDbLine
 10
13.149619
 20
19.860229
 30
0.0
 11
13.149619
 21
19.847729
 31
0.0
  0
LINE
  5
43C
100
AcDbEntity
  8
1
  6
CONTINUOUS
 62
     5
100
AcDbLine
 10
12.972872
 20
19.580527
 30
0.0
 11
12.972872
 21
19.891657
 31
0.0
  0
LINE
  5
43D
100
AcDbEntity
  8
1
  6
CONTINUOUS
 62
     5
100
AcDbLine
 10
12.972872
 20
19.580527
 30
0.0
 11
12.972872
 21
19.891657
 31
0.0
  0
LINE
  5
43E
100
AcDbEntity
  8
2
  6
CONTINUOUS
 62
     4
100
AcDbLine
 10
13.888989
 20
19.421155
 30
0.0
 11
13.565351
 21
19.234303
 31
0.0
  0
LINE
  5
43F
100
AcDbEntity
  8
2
  6
CONTINUOUS
 62
     4
100
AcDbLine
 10
13.565351
 20
19.234303
 30
0.0
 11
13.565351
 21
19.229303
 31
0.0
  0
LINE
  5
440
100
AcDbEntity
  8
1
  6
CONTINUOUS
100
AcDbLine
 39
0.05
 10
14.141218
 20
19.287729
 30
0.0
 11
14.141218
 21
19.275229
 31
0.0
  0
HATCH
  5
4F6
100
AcDbEntity
  8
R-DOOR-PATT
100
AcDbHatch
 10
0.0
 20
0.0
 30
0.0
210
0.0
220
0.0
230
1.0
  2
ANSI31
 70
     0
 71
     1
 91
        1
 92
        7
 72
     0
 73
     1
 93
        6
 10
10.51910322071709
 20
9.399449522721617
 10
8.87603684680765
 20
9.399449522721617
 10
7.894036846807622
 20
9.399449522721617
 10
6.251154028285937
 20
9.399449522721617
 10
5.385128624501519
 20
8.899449522721617
 10
11.38512862450152
 20
8.899449522721617
 97
        6
330
142
330
288
330
110
330
115
330
10E
330
137
 75
     0
 76
     1
 52
0.0
 41
1.0
 77
     0
 78
     1
 53
45.0
 43
0.0
 44
0.0
 45
-0.0883883476483184
 46
0.0883883476483185
 79
     0
 47
0.011642
 98
        1
 10
9.332574
 20
9.264643
  0
DIMENSION
  5
51A
100
AcDbEntity
  8
R-DOOR-ANNO
100
AcDbDimension
  2
*D14
 10
3.615596
 20
8.89945
 30
0.0
 11
3.615596
 21
10.755021
 31
0.0
 70
   160
  3
ROMANS
100
AcDbAlignedDimension
 13
8.091343
 23
12.646749
 33
0.0
 14
5.385129
 24
8.89945
 34
0.0
 50
90.0
100
AcDbRotatedDimension
1001
ACAD
1000
DSTYLE
1002
{
1070
   288
1070
     1
1070
   270
1070
     4
1070
     4
1000
mm
1070
   274
1070
     0
1070
   171
1070
     0
1070
   170
1070
     1
1002
}
  0
DIMENSION
  5
529
100
AcDbEntity
  8
R-DOOR-ANNO
100
AcDbDimension
  2
*D15
 10
15.167461
 20
9.39945
 30
0.0
 11
13.290318
 21
7.892726
 31
0.0
 70
   160
  3
ROMANS
100
AcDbAlignedDimension
 13
9.376121
 23
9.64945
 33
0.0
 14
10.283333
 24
9.39945
 34
0.0
 50
90.0
100
AcDbRotatedDimension
1001
ACAD
1000
DSTYLE
1002
{
1070
   288
1070
     1
1070
   270
1070
     4
1070
     4
1000
mm
1070
   274
1070
     0
1070
   171
1070
     0
1070
   170
1070
     1
1002
}
  0
DIMENSION
  5
537
100
AcDbEntity
  8
R-DOOR-ANNO
100
AcDbDimension
  2
*D16
 10
9.38055
 20
15.026128
 30
0.0
 11
11.42055
 21
15.026128
 31
0.0
 70
   160
  3
ROMANS
100
AcDbAlignedDimension
 13
7.391922
 23
13.523442
 33
0.0
 14
9.38055
 24
13.523442
 34
0.0
100
AcDbRotatedDimension
1001
ACAD
1000
DSTYLE
1002
{
1070
   288
1070
     1
1070
   270
1070
     4
1070
     4
1000
mm
1070
   274
1070
     0
1070
   171
1070
     0
1070
   170
1070
     1
1002
}
  0
ENDSEC
  0
SECTION
  2
OBJECTS
  0
DICTIONARY
  5
C
100
AcDbDictionary
  3
ACAD_GROUP
350
D
  3
ACAD_MLINESTYLE
350
1B
  3
ACDBVARIABLEDICTIONARY
350
4CB
  0
DICTIONARY
  5
D
102
{ACAD_REACTORS
330
C
102
}
100
AcDbDictionary
  0
DICTIONARY
  5
1B
102
{ACAD_REACTORS
330
C
102
}
100
AcDbDictionary
  3
STANDARD
350
1C
  0
DICTIONARY
  5
4CB
102
{ACAD_REACTORS
330
C
102
}
100
AcDbDictionary
  3
SORTENTS
350
4CC
  0
MLINESTYLE
  5
1C
102
{ACAD_REACTORS
330
1B
102
}
100
AcDbMlineStyle
  2
STANDARD
 70
     0
  3

 62
   256
 51
90.0
 52
90.0
 71
     2
 49
0.5
 62
   256
  6
BYLAYER
 49
-0.5
 62
   256
  6
BYLAYER
  0
DICTIONARYVAR
  5
4CC
102
{ACAD_REACTORS
330
4CB
102
}
100
DictionaryVariables
280
     0
  1
96
  0
ENDSEC
  0
EOF
