  0
SECTION
  2
HEADER
  9
$ACADVER
  1
AC1014
  9
$ACADMAINTVER
 70
     9
  9
$DWGCODEPAGE
  3
ANSI_1252
  9
$INSBASE
 10
0.0
 20
0.0
 30
0.0
  9
$EXTMIN
 10
0.0
 20
0.0
 30
0.0
  9
$EXTMAX
 10
28.904892
 20
38.475081
 30
15.0
  9
$LIMMIN
 10
0.0
 20
0.0
  9
$LIMMAX
 10
28.904892
 20
38.475081
  9
$ORTHOMODE
 70
     1
  9
$REGENMODE
 70
     1
  9
$FILLMODE
 70
     1
  9
$QTEXTMODE
 70
     0
  9
$MIRRTEXT
 70
     1
  9
$DRAGMODE
 70
     2
  9
$LTSCALE
 40
1.0
  9
$OSMODE
 70
     3
  9
$ATTMODE
 70
     1
  9
$TEXTSIZE
 40
0.2
  9
$TRACEWID
 40
0.05
  9
$TEXTSTYLE
  7
STANDARD
  9
$CLAYER
  8
R-DOOR-ANNO
  9
$CELTYPE
  6
BYLAYER
  9
$CECOLOR
 62
   256
  9
$CELTSCALE
 40
1.0
  9
$DELOBJ
 70
     1
  9
$DISPSILH
 70
     0
  9
$DIMSCALE
 40
2.0
  9
$DIMASZ
 40
0.18
  9
$DIMEXO
 40
0.0625
  9
$DIMDLI
 40
0.38
  9
$DIMRND
 40
0.0
  9
$DIMDLE
 40
0.0
  9
$DIMEXE
 40
0.18
  9
$DIMTP
 40
0.0
  9
$DIMTM
 40
0.0
  9
$DIMTXT
 40
0.18
  9
$DIMCEN
 40
0.09
  9
$DIMTSZ
 40
0.0
  9
$DIMTOL
 70
     0
  9
$DIMLIM
 70
     0
  9
$DIMTIH
 70
     1
  9
$DIMTOH
 70
     1
  9
$DIMSE1
 70
     0
  9
$DIMSE2
 70
     0
  9
$DIMTAD
 70
     0
  9
$DIMZIN
 70
     0
  9
$DIMBLK
  1

  9
$DIMASO
 70
     1
  9
$DIMSHO
 70
     1
  9
$DIMPOST
  1

  9
$DIMAPOST
  1
mm
  9
$DIMALT
 70
     1
  9
$DIMALTD
 70
     0
  9
$DIMALTF
 40
25.4
  9
$DIMLFAC
 40
1.0
  9
$DIMTOFL
 70
     0
  9
$DIMTVP
 40
0.0
  9
$DIMTIX
 70
     0
  9
$DIMSOXD
 70
     0
  9
$DIMSAH
 70
     0
  9
$DIMBLK1
  1

  9
$DIMBLK2
  1

  9
$DIMSTYLE
  2
STANDARD
  9
$DIMCLRD
 70
     0
  9
$DIMCLRE
 70
     0
  9
$DIMCLRT
 70
     0
  9
$DIMTFAC
 40
1.0
  9
$DIMGAP
 40
0.09
  9
$DIMJUST
 70
     0
  9
$DIMSD1
 70
     0
  9
$DIMSD2
 70
     0
  9
$DIMTOLJ
 70
     1
  9
$DIMTZIN
 70
     0
  9
$DIMALTZ
 70
     0
  9
$DIMALTTZ
 70
     0
  9
$DIMFIT
 70
     3
  9
$DIMUPT
 70
     1
  9
$DIMUNIT
 70
     4
  9
$DIMDEC
 70
     4
  9
$DIMTDEC
 70
     4
  9
$DIMALTU
 70
     2
  9
$DIMALTTD
 70
     0
  9
$DIMTXSTY
  7
STANDARD
  9
$DIMAUNIT
 70
     0
  9
$LUNITS
 70
     2
  9
$LUPREC
 70
     4
  9
$SKETCHINC
 40
0.1
  9
$FILLETRAD
 40
0.5
  9
$AUNITS
 70
     0
  9
$AUPREC
 70
     0
  9
$MENU
  1
.
  9
$ELEVATION
 40
0.0
  9
$PELEVATION
 40
0.0
  9
$THICKNESS
 40
0.0
  9
$LIMCHECK
 70
     0
  9
$BLIPMODE
 70
     0
  9
$CHAMFERA
 40
0.5
  9
$CHAMFERB
 40
0.5
  9
$CHAMFERC
 40
1.0
  9
$CHAMFERD
 40
0.0
  9
$SKPOLY
 70
     0
  9
$TDCREATE
 40
2451964.362878449
  9
$TDUPDATE
 40
2452102.444846701
  9
$TDINDWG
 40
0.0535292824
  9
$TDUSRTIMER
 40
0.0535292824
  9
$USRTIMER
 70
     1
  9
$ANGBASE
 50
0.0
  9
$ANGDIR
 70
     0
  9
$PDMODE
 70
     0
  9
$PDSIZE
 40
0.0
  9
$PLINEWID
 40
0.0
  9
$COORDS
 70
     1
  9
$SPLFRAME
 70
     0
  9
$SPLINETYPE
 70
     6
  9
$SPLINESEGS
 70
     8
  9
$ATTDIA
 70
     0
  9
$ATTREQ
 70
     1
  9
$HANDLING
 70
     1
  9
$HANDSEED
  5
6C7
  9
$SURFTAB1
 70
     6
  9
$SURFTAB2
 70
     6
  9
$SURFTYPE
 70
     6
  9
$SURFU
 70
     6
  9
$SURFV
 70
     6
  9
$UCSNAME
  2
SM-TEMP
  9
$UCSORG
 10
0.0
 20
0.0
 30
0.0
  9
$UCSXDIR
 10
1.0
 20
0.0
 30
0.0
  9
$UCSYDIR
 10
0.0
 20
1.0
 30
0.0
  9
$PUCSNAME
  2

  9
$PUCSORG
 10
0.0
 20
0.0
 30
0.0
  9
$PUCSXDIR
 10
1.0
 20
0.0
 30
0.0
  9
$PUCSYDIR
 10
0.0
 20
1.0
 30
0.0
  9
$USERI1
 70
     0
  9
$USERI2
 70
     0
  9
$USERI3
 70
     0
  9
$USERI4
 70
     0
  9
$USERI5
 70
     0
  9
$USERR1
 40
0.0
  9
$USERR2
 40
0.0
  9
$USERR3
 40
0.0
  9
$USERR4
 40
0.0
  9
$USERR5
 40
0.0
  9
$WORLDVIEW
 70
     1
  9
$SHADEDGE
 70
     3
  9
$SHADEDIF
 70
    70
  9
$TILEMODE
 70
     1
  9
$MAXACTVP
 70
    48
  9
$PINSBASE
 10
0.0
 20
0.0
 30
0.0
  9
$PLIMCHECK
 70
     0
  9
$PEXTMIN
 10
1.000000E+20
 20
1.000000E+20
 30
1.000000E+20
  9
$PEXTMAX
 10
-1.000000E+20
 20
-1.000000E+20
 30
-1.000000E+20
  9
$PLIMMIN
 10
0.0
 20
0.0
  9
$PLIMMAX
 10
12.0
 20
9.0
  9
$UNITMODE
 70
     0
  9
$VISRETAIN
 70
     1
  9
$PLINEGEN
 70
     0
  9
$PSLTSCALE
 70
     1
  9
$TREEDEPTH
 70
  3020
  9
$PICKSTYLE
 70
     1
  9
$CMLSTYLE
  2
STANDARD
  9
$CMLJUST
 70
     0
  9
$CMLSCALE
 40
1.0
  9
$PROXYGRAPHICS
 70
     1
  9
$MEASUREMENT
 70
     0
  0
ENDSEC
  0
SECTION
  2
CLASSES
  0
CLASS
  1
HATCH
  2
AcDbHatch
  3
"ACAD_SEDONA"
 90
        0
280
     0
281
     1
  0
CLASS
  1
LWPOLYLINE
  2
AcDbPolyline
  3
"AutoCAD"
 90
        0
280
     0
281
     1
  0
ENDSEC
  0
SECTION
  2
TABLES
  0
TABLE
  2
VPORT
  5
8
100
AcDbSymbolTable
 70
     1
  0
VPORT
  5
6BF
100
AcDbSymbolTableRecord
100
AcDbViewportTableRecord
  2
*ACTIVE
 70
     0
 10
0.0
 20
0.0
 11
1.0
 21
1.0
 12
14.452446
 22
19.237541
 13
0.0
 23
0.0
 14
0.5
 24
0.5
 15
0.5
 25
0.5
 16
0.0
 26
0.0
 36
1.0
 17
0.0
 27
0.0
 37
0.0
 40
38.884598
 41
1.74735
 42
50.0
 43
0.0
 44
0.0
 50
0.0
 51
0.0
 71
     0
 72
   100
 73
     1
 74
     1
 75
     0
 76
     0
 77
     0
 78
     0
  0
ENDTAB
  0
TABLE
  2
LTYPE
  5
5
100
AcDbSymbolTable
 70
     1
  0
LTYPE
  5
12
100
AcDbSymbolTableRecord
100
AcDbLinetypeTableRecord
  2
BYBLOCK
 70
     0
  3

 72
    65
 73
     0
 40
0.0
  0
LTYPE
  5
13
100
AcDbSymbolTableRecord
100
AcDbLinetypeTableRecord
  2
BYLAYER
 70
     0
  3

 72
    65
 73
     0
 40
0.0
  0
LTYPE
  5
14
100
AcDbSymbolTableRecord
100
AcDbLinetypeTableRecord
  2
CONTINUOUS
 70
     0
  3
Solid line
 72
    65
 73
     0
 40
0.0
  0
ENDTAB
  0
TABLE
  2
LAYER
  5
2
100
AcDbSymbolTable
 70
     9
  0
LAYER
  5
E
100
AcDbSymbolTableRecord
100
AcDbLayerTableRecord
  2
0
 70
     0
 62
     7
  6
CONTINUOUS
  0
LAYER
  5
5F
100
AcDbSymbolTableRecord
100
AcDbLayerTableRecord
  2
DEFPOINTS
 70
     0
 62
     7
  6
CONTINUOUS
  0
LAYER
  5
60
100
AcDbSymbolTableRecord
100
AcDbLayerTableRecord
  2
DIMN
 70
     0
 62
     4
  6
CONTINUOUS
  0
LAYER
  5
61
100
AcDbSymbolTableRecord
100
AcDbLayerTableRecord
  2
BORDER
 70
     0
 62
     4
  6
CONTINUOUS
  0
LAYER
  5
62
100
AcDbSymbolTableRecord
100
AcDbLayerTableRecord
  2
BOARDER
 70
     0
 62
     7
  6
CONTINUOUS
  0
LAYER
  5
63
100
AcDbSymbolTableRecord
100
AcDbLayerTableRecord
  2
R-DOOR-ANNO
 70
     0
 62
     7
  6
CONTINUOUS
  0
LAYER
  5
64
100
AcDbSymbolTableRecord
100
AcDbLayerTableRecord
  2
R-DOOR-PATT
 70
     0
 62
     5
  6
CONTINUOUS
  0
LAYER
  5
65
100
AcDbSymbolTableRecord
100
AcDbLayerTableRecord
  2
R-DOOR-DETL
 70
     0
 62
     3
  6
CONTINUOUS
  0
LAYER
  5
66
100
AcDbSymbolTableRecord
100
AcDbLayerTableRecord
  2
4-2
 70
     0
 62
     7
  6
CONTINUOUS
  0
ENDTAB
  0
TABLE
  2
STYLE
  5
3
100
AcDbSymbolTable
 70
     2
  0
STYLE
  5
F
100
AcDbSymbolTableRecord
100
AcDbTextStyleTableRecord
  2
STANDARD
 70
     0
 40
0.0
 41
1.0
 50
0.0
 71
     0
 42
0.2
  3
txt
  4

  0
STYLE
  5
67
100
AcDbSymbolTableRecord
100
AcDbTextStyleTableRecord
  2
ROMANS
 70
     0
 40
0.0
 41
1.0
 50
0.0
 71
     0
 42
0.5
  3
romans
  4

  0
ENDTAB
  0
TABLE
  2
VIEW
  5
6
100
AcDbSymbolTable
 70
     0
  0
ENDTAB
  0
TABLE
  2
UCS
  5
7
100
AcDbSymbolTable
 70
     0
  0
ENDTAB
  0
TABLE
  2
APPID
  5
9
100
AcDbSymbolTable
 70
     1
  0
APPID
  5
10
100
AcDbSymbolTableRecord
100
AcDbRegAppTableRecord
  2
ACAD
 70
     0
  0
ENDTAB
  0
TABLE
  2
DIMSTYLE
  5
A
100
AcDbSymbolTable
 70
     2
  0
DIMSTYLE
105
1D
102
{ACAD_REACTORS
330
2EC
330
684
330
693
330
6AF
330
6BE
102
}
100
AcDbSymbolTableRecord
100
AcDbDimStyleTableRecord
  2
STANDARD
 70
     0
  3

  4

  5

  6

  7

 40
1.0
 41
0.18
 42
0.0625
 43
0.38
 44
0.18
 45
0.0
 46
0.0
 47
0.0
 48
0.0
140
0.18
141
0.09
142
0.0
143
25.4
144
1.0
145
0.0
146
1.0
147
0.09
 71
     0
 72
     0
 73
     1
 74
     1
 75
     0
 76
     0
 77
     0
 78
     0
170
     0
171
     2
172
     0
173
     0
174
     0
175
     0
176
     0
177
     0
178
     0
270
     2
271
     4
272
     4
273
     2
274
     2
340
F
275
     0
280
     0
281
     0
282
     0
283
     1
284
     0
285
     0
286
     0
287
     3
288
     0
  0
DIMSTYLE
105
622
100
AcDbSymbolTableRecord
100
AcDbDimStyleTableRecord
  2
STANDARD1
 70
     0
  3

  4

  5

  6

  7

 40
0.25
 41
0.1
 42
0.05
 43
0.1
 44
0.1
 45
0.0
 46
0.0
 47
0.024
 48
0.024
140
0.18
141
0.0
142
0.0
143
25.4
144
1.0
145
0.0
146
1.0
147
0.09
 71
     0
 72
     0
 73
     1
 74
     1
 75
     0
 76
     0
 77
     0
 78
     4
170
     0
171
     2
172
     0
173
     0
174
     0
175
     0
176
     0
177
     0
178
     0
270
     2
271
     3
272
     3
273
     2
274
     2
340
67
275
     0
280
     0
281
     0
282
     0
283
     1
284
     4
285
     0
286
     0
287
     3
288
     0
  0
ENDTAB
  0
TABLE
  2
BLOCK_RECORD
  5
1
100
AcDbSymbolTable
 70
    25
  0
BLOCK_RECORD
  5
18
100
AcDbSymbolTableRecord
100
AcDbBlockTableRecord
  2
*MODEL_SPACE
  0
BLOCK_RECORD
  5
15
100
AcDbSymbolTableRecord
100
AcDbBlockTableRecord
  2
*PAPER_SPACE
  0
BLOCK_RECORD
  5
20
100
AcDbSymbolTableRecord
100
AcDbBlockTableRecord
  2
A$C2189253D
  0
BLOCK_RECORD
  5
24
100
AcDbSymbolTableRecord
100
AcDbBlockTableRecord
  2
A$C21405640
  0
BLOCK_RECORD
  5
2C
100
AcDbSymbolTableRecord
100
AcDbBlockTableRecord
  2
A$C35F20450
  0
BLOCK_RECORD
  5
30
100
AcDbSymbolTableRecord
100
AcDbBlockTableRecord
  2
_DOTSMALL
  0
BLOCK_RECORD
  5
37
100
AcDbSymbolTableRecord
100
AcDbBlockTableRecord
  2
*D4
  0
BLOCK_RECORD
  5
44
100
AcDbSymbolTableRecord
100
AcDbBlockTableRecord
  2
*D5
  0
BLOCK_RECORD
  5
51
100
AcDbSymbolTableRecord
100
AcDbBlockTableRecord
  2
*D6
  0
BLOCK_RECORD
  5
68
100
AcDbSymbolTableRecord
100
AcDbBlockTableRecord
  2
A$C5A5F2F9C
  0
BLOCK_RECORD
  5
567
100
AcDbSymbolTableRecord
100
AcDbBlockTableRecord
  2
*D8
  0
BLOCK_RECORD
  5
5BC
100
AcDbSymbolTableRecord
100
AcDbBlockTableRecord
  2
A$C6BE867F4
  0
BLOCK_RECORD
  5
5C4
100
AcDbSymbolTableRecord
100
AcDbBlockTableRecord
  2
A$C0E897680
  0
BLOCK_RECORD
  5
5C8
100
AcDbSymbolTableRecord
100
AcDbBlockTableRecord
  2
A$C60D73A4C
  0
BLOCK_RECORD
  5
5CC
100
AcDbSymbolTableRecord
100
AcDbBlockTableRecord
  2
A$C74654F65
  0
BLOCK_RECORD
  5
5D0
100
AcDbSymbolTableRecord
100
AcDbBlockTableRecord
  2
A$C5FA07A05
  0
BLOCK_RECORD
  5
5D4
100
AcDbSymbolTableRecord
100
AcDbBlockTableRecord
  2
A$C46F93324
  0
BLOCK_RECORD
  5
623
100
AcDbSymbolTableRecord
100
AcDbBlockTableRecord
  2
A$C216638AD
  0
BLOCK_RECORD
  5
651
100
AcDbSymbolTableRecord
100
AcDbBlockTableRecord
  2
A$C433421F4
  0
BLOCK_RECORD
  5
677
100
AcDbSymbolTableRecord
100
AcDbBlockTableRecord
  2
*D20
  0
BLOCK_RECORD
  5
685
100
AcDbSymbolTableRecord
100
AcDbBlockTableRecord
  2
*D21
  0
BLOCK_RECORD
  5
6A2
100
AcDbSymbolTableRecord
100
AcDbBlockTableRecord
  2
*D23
  0
BLOCK_RECORD
  5
6B0
100
AcDbSymbolTableRecord
100
AcDbBlockTableRecord
  2
*D24
  0
ENDTAB
  0
ENDSEC
  0
SECTION
  2
BLOCKS
  0
BLOCK
  5
19
100
AcDbEntity
  8
0
100
AcDbBlockBegin
  2
*MODEL_SPACE
 70
     0
 10
0.0
 20
0.0
 30
0.0
  3
*MODEL_SPACE
  1

  0
ENDBLK
  5
1A
100
AcDbEntity
  8
0
100
AcDbBlockEnd
  0
BLOCK
  5
16
100
AcDbEntity
 67
     1
  8
0
100
AcDbBlockBegin
  2
*PAPER_SPACE
 70
     0
 10
0.0
 20
0.0
 30
0.0
  3
*PAPER_SPACE
  1

  0
ENDBLK
  5
17
100
AcDbEntity
 67
     1
  8
0
100
AcDbBlockEnd
  0
BLOCK
  5
22
100
AcDbEntity
  8
0
100
AcDbBlockBegin
  2
A$C2189253D
 70
     0
 10
0.0
 20
0.0
 30
0.0
  3
A$C2189253D
  1

  0
HATCH
  5
21
100
AcDbEntity
  8
BOARDER
  6
CONTINUOUS
 62
     4
100
AcDbHatch
 10
0.0
 20
0.0
 30
0.0
210
0.0
220
0.0
230
1.0
  2
ANSI31
 70
     0
 71
     0
 91
        3
 92
        7
 72
     1
 73
     1
 93
        8
 10
0.1273646403742585
 20
0.2547293417921961
 42
1.0
 10
0.1273646403742585
 20
0.0000000027943585
 42
0.0
 10
0.2547293098731842
 20
0.000000002794359
 42
0.0
 10
0.2547293098731842
 20
0.1198050709874456
 42
0.0
 10
0.1273646403742585
 20
0.1198050709874452
 42
-1.0
 10
0.1273646403742585
 20
0.1349242735991094
 42
0.0
 10
0.2547293098731842
 20
0.1349242735991099
 42
0.0
 10
0.2547293098731842
 20
0.2547293417921961
 42
0.0
 97
        0
 92
        7
 72
     1
 73
     1
 93
       12
 10
0.2729453093314724
 20
0.2547293417921956
 42
0.0
 10
0.2729453093314742
 20
0.0000000027943585
 42
0.0
 10
0.3927503775245586
 20
0.0000000027943585
 42
0.0
 10
0.3927503775245586
 20
0.1273646722932775
 42
-1.0
 10
0.4078695801362234
 20
0.1273646722932775
 42
0.0
 10
0.4078695801362234
 20
0.0000000027943581
 42
0.0
 10
0.5276746483293114
 20
0.0000000027943576
 42
0.0
 10
0.5276746483293114
 20
0.1106172266293384
 42
0.4142135623730797
 10
0.5109272026653731
 20
0.1273646722932775
 42
0.4142135623730875
 10
0.5276746483293114
 20
0.1441121179572162
 42
0.0
 10
0.5276746483293114
 20
0.2379818961282574
 42
0.4142135623731106
 10
0.5109272026653713
 20
0.2547293417921961
 42
0.0
 97
        0
 92
        7
 72
     0
 73
     1
 93
        6
 10
0.5458906477876049
 20
0.2547293417921961
 10
0.5458906477876031
 20
0.0000000027943576
 10
0.8006199867854384
 20
0.0000000027943581
 10
0.8006199867854402
 20
0.127364672293278
 10
0.6732553172865199
 20
0.1273646722932771
 10
0.6732553172865181
 20
0.2547293417921961
 97
        0
 75
     0
 76
     1
 52
0.0
 41
0.040373
 77
     0
 78
     1
 53
45.0
 43
-7.406223
 44
-1.968858
 45
-0.0035684948455219
 46
0.0035684948455219
 79
     0
 47
0.0009
 98
        3
 10
0.137804
 20
0.196439
 10
0.137804
 20
0.196439
 10
0.137804
 20
0.196439
  0
ENDBLK
  5
23
100
AcDbEntity
  8
0
100
AcDbBlockEnd
  0
BLOCK
  5
2A
100
AcDbEntity
  8
0
100
AcDbBlockBegin
  2
A$C21405640
 70
     0
 10
0.0
 20
0.0
 30
0.0
  3
A$C21405640
  1

  0
MTEXT
  5
25
100
AcDbEntity
  8
0
100
AcDbMText
 10
0.504549
 20
2.99683
 30
0.0
 40
0.614073
 41
19.242589
 71
     1
 72
     5
  1
\fArial|b0|i1|c0|p34;Phone Orders (800) 421-6144\PFax Orders     (800) 262-3299\PWWW.CRLAURENCE.COM
  0
MTEXT
  5
26
100
AcDbEntity
  8
0
100
AcDbMText
 10
7.702431
 20
6.455969
 30
0.0
 40
0.876824
 41
21.937261
 71
     1
 72
     5
  1
\fArial|b1|i0|c0|p34;DOOR RAIL SYSTEM
  0
LWPOLYLINE
  5
27
100
AcDbEntity
  8
0
100
AcDbPolyline
 90
        2
 70
     0
 43
0.098252
 10
0.440527
 20
5.243578
 10
19.707511
 20
5.243578
  0
MTEXT
  5
28
100
AcDbEntity
  8
0
100
AcDbMText
 10
0.488738
 20
4.418164
 30
0.0
 40
0.776802
 41
19.420041
 71
     1
 72
     5
  1
\fArial|b1|i1|c0|p34;C.R. Laurence Architectural Products
  0
INSERT
  5
29
100
AcDbEntity
  8
0
 62
     7
100
AcDbBlockReference
  2
A$C2189253D
 10
0.460151
 20
5.536767
 30
0.0
 41
8.113806
 42
8.113806
 43
8.113806
  0
ENDBLK
  5
2B
100
AcDbEntity
  8
0
100
AcDbBlockEnd
  0
BLOCK
  5
2E
100
AcDbEntity
  8
0
 62
     3
100
AcDbBlockBegin
  2
A$C35F20450
 70
     0
 10
0.0
 20
0.0
 30
0.0
  3
A$C35F20450
  1

  0
INSERT
  5
2D
100
AcDbEntity
  8
DIMN
100
AcDbBlockReference
  2
A$C21405640
 10
0.0
 20
0.0
 30
0.0
 41
0.5
 42
0.5
 43
0.5
  0
ENDBLK
  5
2F
100
AcDbEntity
  8
0
 62
     3
100
AcDbBlockEnd
  0
BLOCK
  5
35
100
AcDbEntity
  8
0
100
AcDbBlockBegin
  2
_DOTSMALL
 70
     0
 10
0.0
 20
0.0
 30
0.0
  3
_DOTSMALL
  1

  0
POLYLINE
  5
31
100
AcDbEntity
  8
0
  6
BYBLOCK
 62
     0
100
AcDb2dPolyline
 66
     1
 10
0.0
 20
0.0
 30
0.0
 70
     1
 40
0.5
 41
0.5
  0
VERTEX
  5
32
100
AcDbEntity
  8
0
  6
BYBLOCK
 62
     0
100
AcDbVertex
100
AcDb2dVertex
 10
-0.0625
 20
0.0
 30
0.0
 42
1.0
  0
VERTEX
  5
33
100
AcDbEntity
  8
0
  6
BYBLOCK
 62
     0
100
AcDbVertex
100
AcDb2dVertex
 10
0.0625
 20
0.0
 30
0.0
 42
1.0
  0
SEQEND
  5
34
100
AcDbEntity
  8
0
  6
BYBLOCK
 62
     0
  0
ENDBLK
  5
36
100
AcDbEntity
  8
0
100
AcDbBlockEnd
  0
BLOCK
  5
42
100
AcDbEntity
  8
0
100
AcDbBlockBegin
  2
*D4
 70
     1
 10
0.0
 20
0.0
 30
0.0
  3
*D4
  1

  0
LINE
  5
38
100
AcDbEntity
  8
0
  6
BYBLOCK
 62
     0
100
AcDbLine
 10
52.241549
 20
35.321661
 30
0.0
 11
57.456075
 21
35.321661
 31
0.0
  0
LINE
  5
39
100
AcDbEntity
  8
0
  6
BYBLOCK
 62
     0
100
AcDbLine
 10
53.475846
 20
16.63783
 30
0.0
 11
57.456075
 21
16.63783
 31
0.0
  0
LINE
  5
3A
100
AcDbEntity
  8
0
  6
BYBLOCK
 62
     0
100
AcDbLine
 10
57.096075
 20
34.961661
 30
0.0
 11
57.096075
 21
26.339745
 31
0.0
  0
LINE
  5
3B
100
AcDbEntity
  8
0
  6
BYBLOCK
 62
     0
100
AcDbLine
 10
57.096075
 20
16.99783
 30
0.0
 11
57.096075
 21
25.619745
 31
0.0
  0
SOLID
  5
3C
100
AcDbEntity
  8
0
  6
BYBLOCK
 62
     0
100
AcDbTrace
 10
57.036075
 20
34.961661
 30
0.0
 11
57.156075
 21
34.961661
 31
0.0
 12
57.096075
 22
35.321661
 32
0.0
 13
57.096075
 23
35.321661
 33
0.0
  0
SOLID
  5
3D
100
AcDbEntity
  8
0
  6
BYBLOCK
 62
     0
100
AcDbTrace
 10
57.036075
 20
16.99783
 30
0.0
 11
57.156075
 21
16.99783
 31
0.0
 12
57.096075
 22
16.63783
 32
0.0
 13
57.096075
 23
16.63783
 33
0.0
  0
MTEXT
  5
3E
100
AcDbEntity
  8
0
  6
BYBLOCK
 62
     0
100
AcDbMText
 10
57.096075
 20
25.979745
 30
0.0
 40
0.36
 41
0.0
 71
     5
 72
     1
  1
\A1;CLEAR OPENING
  0
POINT
  5
3F
100
AcDbEntity
  8
DEFPOINTS
  6
BYBLOCK
 62
     0
100
AcDbPoint
 10
52.116549
 20
35.321661
 30
0.0
  0
POINT
  5
40
100
AcDbEntity
  8
DEFPOINTS
  6
BYBLOCK
 62
     0
100
AcDbPoint
 10
53.350846
 20
16.63783
 30
0.0
  0
POINT
  5
41
100
AcDbEntity
  8
DEFPOINTS
  6
BYBLOCK
 62
     0
100
AcDbPoint
 10
57.096075
 20
16.63783
 30
0.0
  0
ENDBLK
  5
43
100
AcDbEntity
  8
0
100
AcDbBlockEnd
  0
BLOCK
  5
4F
100
AcDbEntity
  8
0
100
AcDbBlockBegin
  2
*D5
 70
     1
 10
0.0
 20
0.0
 30
0.0
  3
*D5
  1

  0
LINE
  5
45
100
AcDbEntity
  8
0
  6
BYBLOCK
 62
     0
100
AcDbLine
 10
48.351682
 20
30.321661
 30
0.0
 11
41.788832
 21
30.321661
 31
0.0
  0
LINE
  5
46
100
AcDbEntity
  8
0
  6
BYBLOCK
 62
     0
100
AcDbLine
 10
46.070432
 20
35.321661
 30
0.0
 11
41.788832
 21
35.321661
 31
0.0
  0
LINE
  5
47
100
AcDbEntity
  8
0
  6
BYBLOCK
 62
     0
100
AcDbLine
 10
42.148832
 20
30.681661
 30
0.0
 11
42.148832
 21
32.161661
 31
0.0
  0
LINE
  5
48
100
AcDbEntity
  8
0
  6
BYBLOCK
 62
     0
100
AcDbLine
 10
42.148832
 20
34.961661
 30
0.0
 11
42.148832
 21
33.481661
 31
0.0
  0
SOLID
  5
49
100
AcDbEntity
  8
0
  6
BYBLOCK
 62
     0
100
AcDbTrace
 10
42.088832
 20
30.681661
 30
0.0
 11
42.208832
 21
30.681661
 31
0.0
 12
42.148832
 22
30.321661
 32
0.0
 13
42.148832
 23
30.321661
 33
0.0
  0
SOLID
  5
4A
100
AcDbEntity
  8
0
  6
BYBLOCK
 62
     0
100
AcDbTrace
 10
42.088832
 20
34.961661
 30
0.0
 11
42.208832
 21
34.961661
 31
0.0
 12
42.148832
 22
35.321661
 32
0.0
 13
42.148832
 23
35.321661
 33
0.0
  0
MTEXT
  5
4B
100
AcDbEntity
  8
0
  6
BYBLOCK
 62
     0
100
AcDbMText
 10
42.148832
 20
32.821661
 30
0.0
 40
0.36
 41
0.0
 71
     5
 72
     1
  1
\A1;5\P[127mm]
  0
POINT
  5
4C
100
AcDbEntity
  8
DEFPOINTS
  6
BYBLOCK
 62
     0
100
AcDbPoint
 10
48.476682
 20
30.321661
 30
0.0
  0
POINT
  5
4D
100
AcDbEntity
  8
DEFPOINTS
  6
BYBLOCK
 62
     0
100
AcDbPoint
 10
46.195432
 20
35.321661
 30
0.0
  0
POINT
  5
4E
100
AcDbEntity
  8
DEFPOINTS
  6
BYBLOCK
 62
     0
100
AcDbPoint
 10
42.148832
 20
35.321661
 30
0.0
  0
ENDBLK
  5
50
100
AcDbEntity
  8
0
100
AcDbBlockEnd
  0
BLOCK
  5
5D
100
AcDbEntity
  8
0
100
AcDbBlockBegin
  2
*D6
 70
     1
 10
0.0
 20
0.0
 30
0.0
  3
*D6
  1

  0
LINE
  5
52
100
AcDbEntity
  8
0
  6
BYBLOCK
 62
     0
100
AcDbLine
 10
51.595904
 20
33.571661
 30
0.0
 11
54.428383
 21
33.571661
 31
0.0
  0
LINE
  5
53
100
AcDbEntity
  8
0
  6
BYBLOCK
 62
     0
100
AcDbLine
 10
50.166425
 20
33.321661
 30
0.0
 11
54.428383
 21
33.321661
 31
0.0
  0
LINE
  5
54
100
AcDbEntity
  8
0
  6
BYBLOCK
 62
     0
100
AcDbLine
 10
54.068383
 20
33.931661
 30
0.0
 11
54.068383
 21
34.291661
 31
0.0
  0
LINE
  5
55
100
AcDbEntity
  8
0
  6
BYBLOCK
 62
     0
100
AcDbLine
 10
54.068383
 20
32.961661
 30
0.0
 11
54.068383
 21
32.601661
 31
0.0
  0
LINE
  5
56
100
AcDbEntity
  8
0
  6
BYBLOCK
 62
     0
100
AcDbLine
 10
54.068383
 20
32.601661
 30
0.0
 11
53.708383
 21
32.601661
 31
0.0
  0
SOLID
  5
57
100
AcDbEntity
  8
0
  6
BYBLOCK
 62
     0
100
AcDbTrace
 10
54.008383
 20
33.931661
 30
0.0
 11
54.128383
 21
33.931661
 31
0.0
 12
54.068383
 22
33.571661
 32
0.0
 13
54.068383
 23
33.571661
 33
0.0
  0
SOLID
  5
58
100
AcDbEntity
  8
0
  6
BYBLOCK
 62
     0
100
AcDbTrace
 10
54.008383
 20
32.961661
 30
0.0
 11
54.128383
 21
32.961661
 31
0.0
 12
54.068383
 22
33.321661
 32
0.0
 13
54.068383
 23
33.321661
 33
0.0
  0
MTEXT
  5
59
100
AcDbEntity
  8
0
  6
BYBLOCK
 62
     0
100
AcDbMText
 10
52.808383
 20
32.601661
 30
0.0
 40
0.36
 41
0.0
 71
     5
 72
     1
  1
\A1;1/4\P[6mm]
  0
POINT
  5
5A
100
AcDbEntity
  8
DEFPOINTS
  6
BYBLOCK
 62
     0
100
AcDbPoint
 10
51.470904
 20
33.571661
 30
0.0
  0
POINT
  5
5B
100
AcDbEntity
  8
DEFPOINTS
  6
BYBLOCK
 62
     0
100
AcDbPoint
 10
50.041425
 20
33.321661
 30
0.0
  0
POINT
  5
5C
100
AcDbEntity
  8
DEFPOINTS
  6
BYBLOCK
 62
     0
100
AcDbPoint
 10
54.068383
 20
33.321661
 30
0.0
  0
ENDBLK
  5
5E
100
AcDbEntity
  8
0
100
AcDbBlockEnd
  0
BLOCK
  5
2E4
100
AcDbEntity
  8
0
100
AcDbBlockBegin
  2
A$C5A5F2F9C
 70
     0
 10
0.0
 20
0.0
 30
0.0
  3
A$C5A5F2F9C
  1

  0
DIMENSION
  5
69
100
AcDbEntity
  8
DIMN
 62
     7
100
AcDbDimension
  2
*D4
 10
22.404686
 20
11.265054
 30
0.0
 11
22.404686
 21
20.60697
 31
0.0
 12
-34.691388
 22
-5.372776
 32
0.0
  1
CLEAR OPENING
  3
STANDARD
100
AcDbAlignedDimension
 13
17.425161
 23
29.948885
 33
0.0
 14
18.659458
 24
11.265054
 34
0.0
 50
90.0
100
AcDbRotatedDimension
1001
ACAD
1000
DSTYLE
1002
{
1070
   270
1070
     7
1070
    40
1040
2.0
1002
}
  0
LINE
  5
6A
100
AcDbEntity
  8
BORDER
100
AcDbLine
 10
28.904892
 20
0.0
 30
0.0
 11
28.904892
 21
38.475081
 31
0.0
  0
LINE
  5
6B
100
AcDbEntity
  8
BORDER
100
AcDbLine
 10
0.0
 20
38.475081
 30
0.0
 11
0.0
 21
0.0
 31
0.0
  0
LINE
  5
6C
100
AcDbEntity
  8
0
  6
BYBLOCK
 62
     0
100
AcDbLine
 10
7.447966
 20
14.827354
 30
0.0
 11
7.447966
 21
18.62812
 31
0.0
  0
LINE
  5
6D
100
AcDbEntity
  8
R-DOOR-DETL
 62
     3
100
AcDbLine
 10
14.570236
 20
18.572482
 30
0.0
 11
14.570236
 21
14.512354
 31
0.0
  0
LINE
  5
6E
100
AcDbEntity
  8
R-DOOR-DETL
 62
     3
100
AcDbLine
 10
14.632736
 20
18.619357
 30
0.0
 11
14.632736
 21
14.512354
 31
0.0
  0
LINE
  5
6F
100
AcDbEntity
  8
R-DOOR-DETL
 62
     3
100
AcDbLine
 10
14.695236
 20
18.630437
 30
0.0
 11
14.695236
 21
14.512354
 31
0.0
  0
LINE
  5
70
100
AcDbEntity
  8
R-DOOR-DETL
 62
     3
100
AcDbLine
 10
14.748162
 20
18.592655
 30
0.0
 11
14.748162
 21
14.512354
 31
0.0
  0
LINE
  5
71
100
AcDbEntity
  8
R-DOOR-DETL
 62
     3
100
AcDbLine
 10
14.320236
 20
18.56613
 30
0.0
 11
14.320236
 21
14.512354
 31
0.0
  0
LINE
  5
72
100
AcDbEntity
  8
R-DOOR-DETL
 62
     3
100
AcDbLine
 10
14.382736
 20
18.590822
 30
0.0
 11
14.382736
 21
14.512354
 31
0.0
  0
LINE
  5
73
100
AcDbEntity
  8
R-DOOR-DETL
 62
     3
100
AcDbLine
 10
14.445236
 20
18.629553
 30
0.0
 11
14.445236
 21
14.512354
 31
0.0
  0
LINE
  5
74
100
AcDbEntity
  8
R-DOOR-DETL
 62
     3
100
AcDbLine
 10
14.262736
 20
18.584245
 30
0.0
 11
14.262736
 21
14.512354
 31
0.0
  0
INSERT
  5
75
100
AcDbEntity
  8
R-DOOR-ANNO
  6
CONTINUOUS
100
AcDbBlockReference
  2
A$C35F20450
 10
0.292955
 20
0.395791
 30
0.0
 41
1.125
 42
1.125
 43
1.125
  0
LINE
  5
76
100
AcDbEntity
  8
BORDER
100
AcDbLine
 10
0.0
 20
0.0
 30
0.0
 11
28.904892
 21
0.0
 31
0.0
  0
TEXT
  5
77
100
AcDbEntity
  8
R-DOOR-ANNO
  6
CONTINUOUS
100
AcDbText
 10
23.555847
 20
0.5625
 30
0.0
 40
0.703125
  1
STYLE 10
  7
ROMANS
100
AcDbText
  0
LINE
  5
78
100
AcDbEntity
  8
R-DOOR-PATT
  6
CONTINUOUS
 62
     5
100
AcDbLine
 10
12.106039
 20
9.265054
 30
0.0
 11
11.504044
 21
9.86705
 31
0.0
  0
LINE
  5
79
100
AcDbEntity
  8
R-DOOR-PATT
  6
CONTINUOUS
 62
     5
100
AcDbLine
 10
12.989923
 20
9.265054
 30
0.0
 11
11.504044
 21
10.750933
 31
0.0
  0
LINE
  5
7A
100
AcDbEntity
  8
R-DOOR-PATT
  6
CONTINUOUS
 62
     5
100
AcDbLine
 10
12.547981
 20
9.265054
 30
0.0
 11
11.504044
 21
10.308992
 31
0.0
  0
LINE
  5
7B
100
AcDbEntity
  8
R-DOOR-PATT
  6
CONTINUOUS
 62
     5
100
AcDbLine
 10
14.315748
 20
9.265054
 30
0.0
 11
12.315748
 21
11.265054
 31
0.0
  0
LINE
  5
7C
100
AcDbEntity
  8
R-DOOR-PATT
  6
CONTINUOUS
 62
     5
100
AcDbLine
 10
14.75769
 20
9.265054
 30
0.0
 11
12.75769
 21
11.265054
 31
0.0
  0
LINE
  5
7D
100
AcDbEntity
  8
R-DOOR-PATT
  6
CONTINUOUS
 62
     5
100
AcDbLine
 10
16.525457
 20
9.265054
 30
0.0
 11
14.525457
 21
11.265054
 31
0.0
  0
LINE
  5
7E
100
AcDbEntity
  8
R-DOOR-PATT
  6
CONTINUOUS
 62
     5
100
AcDbLine
 10
16.083515
 20
9.265054
 30
0.0
 11
14.083515
 21
11.265054
 31
0.0
  0
LINE
  5
7F
100
AcDbEntity
  8
R-DOOR-PATT
  6
CONTINUOUS
 62
     5
100
AcDbLine
 10
15.641573
 20
9.265054
 30
0.0
 11
13.641573
 21
11.265054
 31
0.0
  0
LINE
  5
80
100
AcDbEntity
  8
R-DOOR-PATT
  6
CONTINUOUS
 62
     5
100
AcDbLine
 10
15.199632
 20
9.265054
 30
0.0
 11
13.199632
 21
11.265054
 31
0.0
  0
LINE
  5
81
100
AcDbEntity
  8
R-DOOR-PATT
  6
CONTINUOUS
 62
     5
100
AcDbLine
 10
17.40934
 20
9.265054
 30
0.0
 11
15.40934
 21
11.265054
 31
0.0
  0
LINE
  5
82
100
AcDbEntity
  8
R-DOOR-PATT
  6
CONTINUOUS
 62
     5
100
AcDbLine
 10
16.967398
 20
9.265054
 30
0.0
 11
14.967398
 21
11.265054
 31
0.0
  0
LINE
  5
83
100
AcDbEntity
  8
R-DOOR-PATT
  6
CONTINUOUS
 62
     5
100
AcDbLine
 10
17.504044
 20
9.612292
 30
0.0
 11
15.851282
 21
11.265054
 31
0.0
  0
LINE
  5
84
100
AcDbEntity
  8
R-DOOR-PATT
  6
CONTINUOUS
 62
     5
100
AcDbLine
 10
13.873806
 20
9.265054
 30
0.0
 11
11.873806
 21
11.265054
 31
0.0
  0
LINE
  5
85
100
AcDbEntity
  8
R-DOOR-PATT
  6
CONTINUOUS
 62
     5
100
AcDbLine
 10
13.431865
 20
9.265054
 30
0.0
 11
11.504044
 21
11.192875
 31
0.0
  0
TEXT
  5
86
100
AcDbEntity
  8
R-DOOR-ANNO
  6
CONTINUOUS
100
AcDbText
 10
6.732616
 20
7.317083
 30
0.0
 40
0.46875
  1
TOP AND BOTTOM WITH NON CLAD HEADER
  7
ROMANS
 72
     1
 11
14.522794
 21
7.317083
 31
0.0
100
AcDbText
  0
TEXT
  5
87
100
AcDbEntity
  8
R-DOOR-ANNO
  6
CONTINUOUS
100
AcDbText
 10
7.35018
 20
8.011299
 30
0.0
 40
0.46875
  1
CRL 4" TAPERED DOOR RAIL NON CLAD
  7
ROMANS
 72
     1
 11
14.571162
 21
8.011299
 31
0.0
100
AcDbText
  0
LINE
  5
88
100
AcDbEntity
  8
R-DOOR-PATT
  6
CONTINUOUS
 62
     5
100
AcDbLine
 10
11.664098
 20
9.265054
 30
0.0
 11
11.504044
 21
9.425108
 31
0.0
  0
LINE
  5
89
100
AcDbEntity
  8
0
  6
BYBLOCK
 62
     0
100
AcDbLine
 10
11.397147
 20
11.265054
 30
0.0
 11
7.112671
 21
11.265054
 31
0.0
  0
LINE
  5
8A
100
AcDbEntity
  8
0
  6
BYBLOCK
 62
     0
100
AcDbLine
 10
14.022147
 20
14.512354
 30
0.0
 11
7.112671
 21
14.512354
 31
0.0
  0
LINE
  5
8B
100
AcDbEntity
  8
0
  6
BYBLOCK
 62
     0
100
AcDbLine
 10
13.912772
 20
14.512354
 30
0.0
 11
7.132966
 21
14.512354
 31
0.0
  0
LINE
  5
8C
100
AcDbEntity
  8
0
  6
BYBLOCK
 62
     0
100
AcDbLine
 10
14.131522
 20
14.512354
 30
0.0
 11
7.73947
 21
14.512354
 31
0.0
  0
MTEXT
  5
8D
100
AcDbEntity
  8
0
  6
BYBLOCK
 62
     0
100
AcDbMText
 10
7.427671
 20
12.888704
 30
0.0
 40
0.315
 41
0.0
 71
     5
 72
     1
  1
\A1;3 1/4\P[83mm]
  0
SOLID
  5
8E
100
AcDbEntity
  8
0
  6
BYBLOCK
 62
     0
100
AcDbTrace
 10
7.375171
 20
11.580054
 30
0.0
 11
7.480171
 21
11.580054
 31
0.0
 12
7.427671
 22
11.265054
 32
0.0
 13
7.427671
 23
11.265054
 33
0.0
  0
POINT
  5
8F
100
AcDbEntity
  8
DEFPOINTS
  6
BYBLOCK
 62
     0
100
AcDbPoint
 10
7.427671
 20
11.265054
 30
0.0
  0
LINE
  5
90
100
AcDbEntity
  8
0
  6
BYBLOCK
 62
     0
100
AcDbLine
 10
7.427671
 20
11.580054
 30
0.0
 11
7.427671
 21
12.311204
 31
0.0
  0
LINE
  5
91
100
AcDbEntity
  8
0
  6
BYBLOCK
 62
     0
100
AcDbLine
 10
7.427671
 20
14.197354
 30
0.0
 11
7.427671
 21
13.466204
 31
0.0
  0
POINT
  5
92
100
AcDbEntity
  8
DEFPOINTS
  6
BYBLOCK
 62
     0
100
AcDbPoint
 10
8.09947
 20
14.512354
 30
0.0
  0
POINT
  5
93
100
AcDbEntity
  8
DEFPOINTS
  6
BYBLOCK
 62
     0
100
AcDbPoint
 10
7.447966
 20
14.512354
 30
0.0
  0
SOLID
  5
94
100
AcDbEntity
  8
0
  6
BYBLOCK
 62
     0
100
AcDbTrace
 10
7.395466
 20
14.827354
 30
0.0
 11
7.500466
 21
14.827354
 31
0.0
 12
7.447966
 22
14.512354
 32
0.0
 13
7.447966
 23
14.512354
 33
0.0
  0
SOLID
  5
95
100
AcDbEntity
  8
0
  6
BYBLOCK
 62
     0
100
AcDbTrace
 10
7.375171
 20
14.197354
 30
0.0
 11
7.480171
 21
14.197354
 31
0.0
 12
7.427671
 22
14.512354
 32
0.0
 13
7.427671
 23
14.512354
 33
0.0
  0
TEXT
  5
96
100
AcDbEntity
  8
0
100
AcDbText
 10
10.929399
 20
12.94089
 30
0.0
 40
0.36
  1
SHOE
  7
ROMANS
100
AcDbText
  0
LINE
  5
97
100
AcDbEntity
  8
R-DOOR-ANNO
  6
CONTINUOUS
100
AcDbLine
 10
13.639604
 20
13.72324
 30
0.0
 11
12.568551
 21
13.12735
 31
0.0
1001
ACAD
1000
DSTYLE
1002
{
1070
   173
1070
     1
1070
     6
1000
_DOTSMALL
1002
}
  0
LINE
  5
98
100
AcDbEntity
  8
R-DOOR-DETL
  6
CONTINUOUS
 62
     3
100
AcDbLine
 10
15.437514
 20
14.728489
 30
0.0
 11
15.437514
 21
11.530054
 31
0.0
  0
LINE
  5
99
100
AcDbEntity
  8
R-DOOR-DETL
  6
CONTINUOUS
 62
     3
100
AcDbLine
 10
13.575529
 20
11.530054
 30
0.0
 11
13.575529
 21
14.728489
 31
0.0
  0
LINE
  5
9A
100
AcDbEntity
  8
0
100
AcDbLine
 10
11.506522
 20
11.265054
 30
0.0
 11
17.506522
 21
11.265054
 31
0.0
  0
LINE
  5
9B
100
AcDbEntity
  8
0
100
AcDbLine
 10
12.413022
 20
11.265054
 30
0.0
 11
16.600022
 21
11.265054
 31
0.0
  0
LINE
  5
9C
100
AcDbEntity
  8
R-DOOR-PATT
  6
CONTINUOUS
 62
     5
100
AcDbLine
 10
17.504044
 20
10.054234
 30
0.0
 11
16.293224
 21
11.265054
 31
0.0
  0
POINT
  5
9D
100
AcDbEntity
  8
DEFPOINTS
  6
BYBLOCK
 62
     0
100
AcDbPoint
 10
11.506522
 20
11.265054
 30
0.0
  0
LINE
  5
9E
100
AcDbEntity
  8
R-DOOR-PATT
  6
CONTINUOUS
 62
     5
100
AcDbLine
 10
17.504044
 20
10.496176
 30
0.0
 11
16.735165
 21
11.265054
 31
0.0
  0
SOLID
  5
9F
100
AcDbEntity
  8
0
  6
BYBLOCK
 62
     0
100
AcDbTrace
 10
18.370841
 20
10.950054
 30
0.0
 11
18.475841
 21
10.950054
 31
0.0
 12
18.423341
 22
11.265054
 32
0.0
 13
18.423341
 23
11.265054
 33
0.0
  0
LINE
  5
A0
100
AcDbEntity
  8
R-DOOR-PATT
  6
CONTINUOUS
 62
     5
100
AcDbLine
 10
17.504044
 20
10.938118
 30
0.0
 11
17.177107
 21
11.265054
 31
0.0
  0
POINT
  5
A1
100
AcDbEntity
  8
DEFPOINTS
  6
BYBLOCK
 62
     0
100
AcDbPoint
 10
17.177107
 20
11.265054
 30
0.0
  0
LINE
  5
A2
100
AcDbEntity
  8
0
  6
BYBLOCK
 62
     0
100
AcDbLine
 10
17.286482
 20
11.265054
 30
0.0
 11
18.738341
 21
11.265054
 31
0.0
  0
LINE
  5
A3
100
AcDbEntity
  8
0
  6
BYBLOCK
 62
     0
100
AcDbLine
 10
18.423341
 20
10.950054
 30
0.0
 11
18.423341
 21
10.635054
 31
0.0
  0
LINE
  5
A4
100
AcDbEntity
  8
0
  6
BYBLOCK
 62
     0
100
AcDbLine
 10
15.496889
 20
11.515054
 30
0.0
 11
18.738341
 21
11.515054
 31
0.0
  0
LINE
  5
A5
100
AcDbEntity
  8
R-DOOR-DETL
  6
CONTINUOUS
 62
     3
100
AcDbLine
 10
15.287514
 20
11.940054
 30
0.0
 11
15.287514
 21
12.593851
 31
0.0
  0
LINE
  5
A6
100
AcDbEntity
  8
R-DOOR-DETL
  6
CONTINUOUS
 62
     3
100
AcDbLine
 10
13.725529
 20
12.593851
 30
0.0
 11
13.725529
 21
11.940054
 31
0.0
  0
ARC
  5
A7
100
AcDbEntity
  8
R-DOOR-DETL
  6
CONTINUOUS
 62
     3
100
AcDbCircle
 10
15.302514
 20
11.940054
 30
0.0
 40
0.015
100
AcDbArc
 50
180.0
 51
270.0
  0
ARC
  5
A8
100
AcDbEntity
  8
R-DOOR-DETL
  6
CONTINUOUS
 62
     3
100
AcDbCircle
 10
15.322514
 20
11.910054
 30
0.0
 40
0.015
100
AcDbArc
 50
0.0
 51
90.0
  0
LINE
  5
A9
100
AcDbEntity
  8
R-DOOR-DETL
  6
CONTINUOUS
 62
     3
100
AcDbLine
 10
15.322514
 20
11.925054
 30
0.0
 11
15.302514
 21
11.925054
 31
0.0
  0
LINE
  5
AA
100
AcDbEntity
  8
R-DOOR-DETL
  6
CONTINUOUS
 62
     3
100
AcDbLine
 10
13.710529
 20
11.925054
 30
0.0
 11
13.690529
 21
11.925054
 31
0.0
  0
ARC
  5
AB
100
AcDbEntity
  8
R-DOOR-DETL
  6
CONTINUOUS
 62
     3
100
AcDbCircle
 10
13.690529
 20
11.910054
 30
0.0
 40
0.015
100
AcDbArc
 50
90.0
 51
180.0
  0
ARC
  5
AC
100
AcDbEntity
  8
R-DOOR-DETL
  6
CONTINUOUS
 62
     3
100
AcDbCircle
 10
13.710529
 20
11.940054
 30
0.0
 40
0.015
100
AcDbArc
 50
270.0
 51
0.0
  0
POINT
  5
AD
100
AcDbEntity
  8
DEFPOINTS
  6
BYBLOCK
 62
     0
100
AcDbPoint
 10
15.387514
 20
11.515054
 30
0.0
  0
ARC
  5
AE
100
AcDbEntity
  8
R-DOOR-DETL
  6
CONTINUOUS
 62
     3
100
AcDbCircle
 10
15.422514
 20
11.530054
 30
0.0
 40
0.015
100
AcDbArc
 50
270.0
 51
0.0
  0
LINE
  5
AF
100
AcDbEntity
  8
R-DOOR-DETL
  6
CONTINUOUS
 62
     3
100
AcDbLine
 10
15.422514
 20
11.515054
 30
0.0
 11
15.352514
 21
11.515054
 31
0.0
  0
ARC
  5
B0
100
AcDbEntity
  8
R-DOOR-DETL
  6
CONTINUOUS
 62
     3
100
AcDbCircle
 10
15.352514
 20
11.530054
 30
0.0
 40
0.015
100
AcDbArc
 50
180.0
 51
270.0
  0
ARC
  5
B1
100
AcDbEntity
  8
R-DOOR-DETL
  6
CONTINUOUS
 62
     3
100
AcDbCircle
 10
13.590529
 20
11.530054
 30
0.0
 40
0.015
100
AcDbArc
 50
180.0
 51
270.0
  0
ARC
  5
B2
100
AcDbEntity
  8
R-DOOR-DETL
  6
CONTINUOUS
 62
     3
100
AcDbCircle
 10
13.660529
 20
11.530054
 30
0.0
 40
0.015
100
AcDbArc
 50
270.0
 51
0.0
  0
LINE
  5
B3
100
AcDbEntity
  8
R-DOOR-DETL
  6
CONTINUOUS
 62
     3
100
AcDbLine
 10
13.660529
 20
11.515054
 30
0.0
 11
13.590529
 21
11.515054
 31
0.0
  0
LINE
  5
B4
100
AcDbEntity
  8
R-DOOR-DETL
  6
CONTINUOUS
 62
     3
100
AcDbLine
 10
13.675529
 20
11.910054
 30
0.0
 11
13.675529
 21
11.530054
 31
0.0
  0
LINE
  5
B5
100
AcDbEntity
  8
R-DOOR-DETL
  6
CONTINUOUS
 62
     3
100
AcDbLine
 10
15.337514
 20
11.530054
 30
0.0
 11
15.337514
 21
11.910054
 31
0.0
  0
LINE
  5
B6
100
AcDbEntity
  8
R-DOOR-ANNO
  6
CONTINUOUS
100
AcDbLine
 10
12.568551
 20
13.12735
 30
0.0
 11
12.388552
 21
13.127951
 31
0.0
1001
ACAD
1000
DSTYLE
1002
{
1070
   173
1070
     1
1070
     6
1000
_DOTSMALL
1002
}
  0
ARC
  5
B7
100
AcDbEntity
  8
R-DOOR-DETL
  6
CONTINUOUS
 62
     3
100
AcDbCircle
 10
15.107902
 20
13.064054
 30
0.0
 40
0.031
100
AcDbArc
 50
90.0
 51
150.0
  0
LINE
  5
B8
100
AcDbEntity
  8
R-DOOR-DETL
  6
CONTINUOUS
 62
     3
100
AcDbLine
 10
15.257514
 20
13.095054
 30
0.0
 11
14.506522
 21
13.095054
 31
0.0
  0
LINE
  5
B9
100
AcDbEntity
  8
R-DOOR-DETL
  6
CONTINUOUS
 62
     3
100
AcDbLine
 10
15.030394
 20
12.814839
 30
0.0
 11
15.019742
 21
12.706821
 31
0.0
  0
ARC
  5
BA
100
AcDbEntity
  8
R-DOOR-DETL
  6
CONTINUOUS
 62
     3
100
AcDbCircle
 10
14.931522
 20
12.770054
 30
0.0
 40
0.1005
100
AcDbArc
 50
122.506128
 51
57.493872
  0
LINE
  5
BB
100
AcDbEntity
  8
R-DOOR-DETL
  6
CONTINUOUS
 62
     3
100
AcDbLine
 10
14.92087
 20
12.662036
 30
0.0
 11
14.83265
 21
12.72527
 31
0.0
  0
LINE
  5
BC
100
AcDbEntity
  8
R-DOOR-DETL
  6
CONTINUOUS
 62
     3
100
AcDbLine
 10
15.019742
 20
12.706821
 30
0.0
 11
14.92087
 21
12.662036
 31
0.0
  0
ARC
  5
BD
100
AcDbEntity
  8
R-DOOR-DETL
  6
CONTINUOUS
 62
     3
100
AcDbCircle
 10
14.860855
 20
12.880953
 30
0.0
 40
0.031
100
AcDbArc
 50
302.506128
 51
30.0
  0
ARC
  5
BE
100
AcDbEntity
  8
R-DOOR-DETL
  6
CONTINUOUS
 62
     3
100
AcDbCircle
 10
15.002188
 20
12.880953
 30
0.0
 40
0.031
100
AcDbArc
 50
150.0
 51
237.493872
  0
LINE
  5
BF
100
AcDbEntity
  8
R-DOOR-DETL
  6
CONTINUOUS
 62
     3
100
AcDbLine
 10
15.081055
 20
13.079554
 30
0.0
 11
14.975342
 21
12.896453
 31
0.0
  0
LINE
  5
C0
100
AcDbEntity
  8
R-DOOR-DETL
  6
CONTINUOUS
 62
     3
100
AcDbLine
 10
15.030394
 20
12.814839
 30
0.0
 11
14.942173
 21
12.878072
 31
0.0
  0
ARC
  5
C1
100
AcDbEntity
  8
R-DOOR-DETL
  6
CONTINUOUS
 62
     3
100
AcDbCircle
 10
14.755141
 20
13.064054
 30
0.0
 40
0.031
100
AcDbArc
 50
30.0
 51
90.0
  0
LINE
  5
C2
100
AcDbEntity
  8
R-DOOR-DETL
  6
CONTINUOUS
 62
     3
100
AcDbLine
 10
14.843301
 20
12.833288
 30
0.0
 11
14.83265
 21
12.72527
 31
0.0
  0
LINE
  5
C3
100
AcDbEntity
  8
R-DOOR-DETL
  6
CONTINUOUS
 62
     3
100
AcDbLine
 10
14.887702
 20
12.896453
 30
0.0
 11
14.781988
 21
13.079554
 31
0.0
  0
LINE
  5
C4
100
AcDbEntity
  8
R-DOOR-DETL
  6
CONTINUOUS
 62
     3
100
AcDbLine
 10
14.942173
 20
12.878072
 30
0.0
 11
14.843301
 21
12.833288
 31
0.0
  0
LINE
  5
C5
100
AcDbEntity
  8
R-DOOR-DETL
  6
CONTINUOUS
 62
     3
100
AcDbLine
 10
14.560793
 20
12.676054
 30
0.0
 11
14.615064
 21
12.770054
 31
0.0
  0
LINE
  5
C6
100
AcDbEntity
  8
R-DOOR-DETL
  6
CONTINUOUS
 62
     3
100
AcDbLine
 10
14.615064
 20
12.770054
 30
0.0
 11
14.560793
 21
12.864054
 31
0.0
  0
LINE
  5
C7
100
AcDbEntity
  8
R-DOOR-DETL
  6
CONTINUOUS
 62
     3
100
AcDbLine
 10
14.452251
 20
12.676054
 30
0.0
 11
14.39798
 21
12.770054
 31
0.0
  0
LINE
  5
C8
100
AcDbEntity
  8
R-DOOR-DETL
  6
CONTINUOUS
 62
     3
100
AcDbLine
 10
14.39798
 20
12.770054
 30
0.0
 11
14.452251
 21
12.864054
 31
0.0
  0
LINE
  5
C9
100
AcDbEntity
  8
R-DOOR-DETL
  6
CONTINUOUS
 62
     3
100
AcDbLine
 10
14.452251
 20
12.676054
 30
0.0
 11
14.560793
 21
12.676054
 31
0.0
  0
LINE
  5
CA
100
AcDbEntity
  8
R-DOOR-DETL
  6
CONTINUOUS
 62
     3
100
AcDbLine
 10
14.452251
 20
12.864054
 30
0.0
 11
14.560793
 21
12.864054
 31
0.0
  0
LINE
  5
CB
100
AcDbEntity
  8
R-DOOR-DETL
  6
CONTINUOUS
 62
     3
100
AcDbLine
 10
14.755141
 20
13.095054
 30
0.0
 11
14.257902
 21
13.095054
 31
0.0
  0
LINE
  5
CC
100
AcDbEntity
  8
R-DOOR-DETL
  6
CONTINUOUS
 62
     3
100
AcDbLine
 10
15.251514
 20
13.095054
 30
0.0
 11
15.107902
 21
13.095054
 31
0.0
  0
LINE
  5
CD
100
AcDbEntity
  8
R-DOOR-DETL
  6
CONTINUOUS
 62
     3
100
AcDbLine
 10
15.201522
 20
12.818851
 30
0.0
 11
15.267514
 21
12.818851
 31
0.0
  0
LINE
  5
CE
100
AcDbEntity
  8
R-DOOR-DETL
  6
CONTINUOUS
 62
     3
100
AcDbLine
 10
15.206522
 20
12.808851
 30
0.0
 11
15.272514
 21
12.808851
 31
0.0
  0
ARC
  5
CF
100
AcDbEntity
  8
R-DOOR-DETL
  6
CONTINUOUS
 62
     3
100
AcDbCircle
 10
15.201522
 20
12.803851
 30
0.0
 40
0.015
100
AcDbArc
 50
90.0
 51
180.0
  0
ARC
  5
D0
100
AcDbEntity
  8
R-DOOR-DETL
  6
CONTINUOUS
 62
     3
100
AcDbCircle
 10
15.206522
 20
12.793851
 30
0.0
 40
0.015
100
AcDbArc
 50
90.0
 51
180.0
  0
ARC
  5
D1
100
AcDbEntity
  8
R-DOOR-DETL
  6
CONTINUOUS
 62
     3
100
AcDbCircle
 10
15.251514
 20
13.064054
 30
0.0
 40
0.031
100
AcDbArc
 50
360.0
 51
90.0
  0
ARC
  5
D2
100
AcDbEntity
  8
R-DOOR-DETL
  6
CONTINUOUS
 62
     3
100
AcDbCircle
 10
15.257514
 20
13.065054
 30
0.0
 40
0.03
100
AcDbArc
 50
360.0
 51
90.0
  0
LINE
  5
D3
100
AcDbEntity
  8
R-DOOR-DETL
  6
CONTINUOUS
 62
     3
100
AcDbLine
 10
15.282514
 20
12.833851
 30
0.0
 11
15.282514
 21
13.064054
 31
0.0
  0
ARC
  5
D4
100
AcDbEntity
  8
R-DOOR-DETL
  6
CONTINUOUS
 62
     3
100
AcDbCircle
 10
15.267514
 20
12.833851
 30
0.0
 40
0.015
100
AcDbArc
 50
270.0
 51
360.0
  0
ARC
  5
D5
100
AcDbEntity
  8
R-DOOR-DETL
  6
CONTINUOUS
 62
     3
100
AcDbCircle
 10
15.272514
 20
12.823851
 30
0.0
 40
0.015
100
AcDbArc
 50
270.0
 51
0.0
  0
LINE
  5
D6
100
AcDbEntity
  8
R-DOOR-DETL
  6
CONTINUOUS
 62
     3
100
AcDbLine
 10
15.287514
 20
12.823851
 30
0.0
 11
15.287514
 21
13.065054
 31
0.0
  0
LINE
  5
D7
100
AcDbEntity
  8
R-DOOR-DETL
  6
CONTINUOUS
 62
     3
100
AcDbLine
 10
14.157464
 20
12.692503
 30
0.0
 11
14.186654
 21
12.797046
 31
0.0
  0
ARC
  5
D8
100
AcDbEntity
  8
R-DOOR-DETL
  6
CONTINUOUS
 62
     3
100
AcDbCircle
 10
14.081522
 20
12.770054
 30
0.0
 40
0.1005
100
AcDbArc
 50
122.506128
 51
57.493872
  0
LINE
  5
D9
100
AcDbEntity
  8
R-DOOR-DETL
  6
CONTINUOUS
 62
     3
100
AcDbLine
 10
13.97639
 20
12.743062
 30
0.0
 11
14.052331
 21
12.665511
 31
0.0
  0
LINE
  5
DA
100
AcDbEntity
  8
R-DOOR-DETL
  6
CONTINUOUS
 62
     3
100
AcDbLine
 10
14.052331
 20
12.665511
 30
0.0
 11
14.157464
 21
12.692503
 31
0.0
  0
ARC
  5
DB
100
AcDbEntity
  8
R-DOOR-DETL
  6
CONTINUOUS
 62
     3
100
AcDbCircle
 10
14.152188
 20
12.880953
 30
0.0
 40
0.031
100
AcDbArc
 50
150.0
 51
237.493872
  0
LINE
  5
DC
100
AcDbEntity
  8
R-DOOR-DETL
  6
CONTINUOUS
 62
     3
100
AcDbLine
 10
14.231055
 20
13.079554
 30
0.0
 11
14.125342
 21
12.896453
 31
0.0
  0
LINE
  5
DD
100
AcDbEntity
  8
R-DOOR-DETL
  6
CONTINUOUS
 62
     3
100
AcDbLine
 10
14.110712
 20
12.874597
 30
0.0
 11
14.186654
 21
12.797046
 31
0.0
  0
ARC
  5
DE
100
AcDbEntity
  8
R-DOOR-DETL
  6
CONTINUOUS
 62
     3
100
AcDbCircle
 10
13.761529
 20
13.064054
 30
0.0
 40
0.031
100
AcDbArc
 50
90.0
 51
180.0
  0
ARC
  5
DF
100
AcDbEntity
  8
R-DOOR-DETL
  6
CONTINUOUS
 62
     3
100
AcDbCircle
 10
13.905141
 20
13.064054
 30
0.0
 40
0.031
100
AcDbArc
 50
30.0
 51
90.0
  0
LINE
  5
E0
100
AcDbEntity
  8
R-DOOR-DETL
  6
CONTINUOUS
 62
     3
100
AcDbLine
 10
13.745529
 20
12.818851
 30
0.0
 11
13.811522
 21
12.818851
 31
0.0
  0
LINE
  5
E1
100
AcDbEntity
  8
R-DOOR-DETL
  6
CONTINUOUS
 62
     3
100
AcDbLine
 10
13.740529
 20
12.808851
 30
0.0
 11
13.806522
 21
12.808851
 31
0.0
  0
ARC
  5
E2
100
AcDbEntity
  8
R-DOOR-DETL
  6
CONTINUOUS
 62
     3
100
AcDbCircle
 10
13.745529
 20
12.833851
 30
0.0
 40
0.015
100
AcDbArc
 50
180.0
 51
270.0
  0
LINE
  5
E3
100
AcDbEntity
  8
R-DOOR-DETL
  6
CONTINUOUS
 62
     3
100
AcDbLine
 10
13.730529
 20
13.064054
 30
0.0
 11
13.730529
 21
12.833851
 31
0.0
  0
LINE
  5
E4
100
AcDbEntity
  8
R-DOOR-DETL
  6
CONTINUOUS
 62
     3
100
AcDbLine
 10
13.725529
 20
13.065054
 30
0.0
 11
13.725529
 21
12.823851
 31
0.0
  0
ARC
  5
E5
100
AcDbEntity
  8
R-DOOR-DETL
  6
CONTINUOUS
 62
     3
100
AcDbCircle
 10
13.811522
 20
12.803851
 30
0.0
 40
0.015
100
AcDbArc
 50
0.0
 51
90.0
  0
LINE
  5
E6
100
AcDbEntity
  8
R-DOOR-DETL
  6
CONTINUOUS
 62
     3
100
AcDbLine
 10
13.905141
 20
13.095054
 30
0.0
 11
13.761529
 21
13.095054
 31
0.0
  0
LINE
  5
E7
100
AcDbEntity
  8
R-DOOR-DETL
  6
CONTINUOUS
 62
     3
100
AcDbLine
 10
14.037702
 20
12.896453
 30
0.0
 11
13.931988
 21
13.079554
 31
0.0
  0
LINE
  5
E8
100
AcDbEntity
  8
R-DOOR-DETL
  6
CONTINUOUS
 62
     3
100
AcDbLine
 10
13.97639
 20
12.743062
 30
0.0
 11
14.00558
 21
12.847605
 31
0.0
  0
ARC
  5
E9
100
AcDbEntity
  8
R-DOOR-DETL
  6
CONTINUOUS
 62
     3
100
AcDbCircle
 10
13.806522
 20
12.793851
 30
0.0
 40
0.015
100
AcDbArc
 50
0.0
 51
90.0
  0
ARC
  5
EA
100
AcDbEntity
  8
R-DOOR-DETL
  6
CONTINUOUS
 62
     3
100
AcDbCircle
 10
14.010855
 20
12.880953
 30
0.0
 40
0.031
100
AcDbArc
 50
302.506128
 51
30.0
  0
LINE
  5
EB
100
AcDbEntity
  8
R-DOOR-DETL
  6
CONTINUOUS
 62
     3
100
AcDbLine
 10
14.00558
 20
12.847605
 30
0.0
 11
14.110712
 21
12.874597
 31
0.0
  0
LINE
  5
EC
100
AcDbEntity
  8
R-DOOR-DETL
  6
CONTINUOUS
 62
     3
100
AcDbLine
 10
13.824022
 20
13.095054
 30
0.0
 11
15.189022
 21
13.095054
 31
0.0
  0
LINE
  5
ED
100
AcDbEntity
  8
R-DOOR-DETL
  6
CONTINUOUS
 62
     3
100
AcDbLine
 10
13.824022
 20
12.970054
 30
0.0
 11
15.189022
 21
12.970054
 31
0.0
  0
ARC
  5
EE
100
AcDbEntity
  8
R-DOOR-DETL
  6
CONTINUOUS
 62
     3
100
AcDbCircle
 10
14.257902
 20
13.064054
 30
0.0
 40
0.031
100
AcDbArc
 50
90.0
 51
150.0
  0
LINE
  5
EF
100
AcDbEntity
  8
R-DOOR-DETL
  6
CONTINUOUS
 62
     3
100
AcDbLine
 10
14.506522
 20
13.095054
 30
0.0
 11
13.755529
 21
13.095054
 31
0.0
  0
LINE
  5
F0
100
AcDbEntity
  8
R-DOOR-DETL
  6
CONTINUOUS
 62
     3
100
AcDbLine
 10
15.272514
 20
12.608851
 30
0.0
 11
15.206522
 21
12.608851
 31
0.0
  0
ARC
  5
F1
100
AcDbEntity
  8
R-DOOR-DETL
  6
CONTINUOUS
 62
     3
100
AcDbCircle
 10
15.206522
 20
12.623851
 30
0.0
 40
0.015
100
AcDbArc
 50
180.0
 51
270.0
  0
ARC
  5
F2
100
AcDbEntity
  8
R-DOOR-DETL
  6
CONTINUOUS
 62
     3
100
AcDbCircle
 10
15.272514
 20
12.593851
 30
0.0
 40
0.015
100
AcDbArc
 50
0.0
 51
90.0
  0
LINE
  5
F3
100
AcDbEntity
  8
R-DOOR-DETL
  6
CONTINUOUS
 62
     3
100
AcDbLine
 10
13.806522
 20
12.608851
 30
0.0
 11
13.740529
 21
12.608851
 31
0.0
  0
ARC
  5
F4
100
AcDbEntity
  8
R-DOOR-DETL
  6
CONTINUOUS
 62
     3
100
AcDbCircle
 10
13.806522
 20
12.623851
 30
0.0
 40
0.015
100
AcDbArc
 50
270.0
 51
0.0
  0
CIRCLE
  5
F5
100
AcDbEntity
  8
R-DOOR-DETL
  6
CONTINUOUS
 62
     3
100
AcDbCircle
 10
14.931522
 20
12.770054
 30
0.0
 40
0.1625
  0
LINE
  5
F6
100
AcDbEntity
  8
R-DOOR-DETL
  6
CONTINUOUS
 62
     3
100
AcDbLine
 10
15.191522
 20
12.623851
 30
0.0
 11
15.191522
 21
12.793851
 31
0.0
  0
LINE
  5
F7
100
AcDbEntity
  8
R-DOOR-DETL
  6
CONTINUOUS
 62
     3
100
AcDbLine
 10
13.821522
 20
12.793851
 30
0.0
 11
13.821522
 21
12.623851
 31
0.0
  0
CIRCLE
  5
F8
100
AcDbEntity
  8
R-DOOR-DETL
  6
CONTINUOUS
 62
     3
100
AcDbCircle
 10
14.081522
 20
12.770054
 30
0.0
 40
0.1625
  0
CIRCLE
  5
F9
100
AcDbEntity
  8
R-DOOR-DETL
  6
CONTINUOUS
 62
     3
100
AcDbCircle
 10
14.506522
 20
12.770054
 30
0.0
 40
0.1625
  0
ARC
  5
FA
100
AcDbEntity
  8
R-DOOR-DETL
  6
CONTINUOUS
 62
     3
100
AcDbCircle
 10
13.755529
 20
13.065054
 30
0.0
 40
0.03
100
AcDbArc
 50
90.0
 51
180.0
  0
ARC
  5
FB
100
AcDbEntity
  8
R-DOOR-DETL
  6
CONTINUOUS
 62
     3
100
AcDbCircle
 10
13.740529
 20
12.823851
 30
0.0
 40
0.015
100
AcDbArc
 50
180.0
 51
270.0
  0
ARC
  5
FC
100
AcDbEntity
  8
R-DOOR-DETL
  6
CONTINUOUS
 62
     3
100
AcDbCircle
 10
13.740529
 20
12.593851
 30
0.0
 40
0.015
100
AcDbArc
 50
90.0
 51
180.0
  0
ARC
  5
FD
100
AcDbEntity
  8
R-DOOR-DETL
  6
CONTINUOUS
 62
     3
100
AcDbCircle
 10
15.171522
 20
12.534054
 30
0.0
 40
0.015
100
AcDbArc
 50
270.0
 51
0.0
  0
ARC
  5
FE
100
AcDbEntity
  8
R-DOOR-DETL
  6
CONTINUOUS
 62
     3
100
AcDbCircle
 10
13.841522
 20
12.534054
 30
0.0
 40
0.015
100
AcDbArc
 50
180.0
 51
270.0
  0
LINE
  5
FF
100
AcDbEntity
  8
R-DOOR-DETL
  6
CONTINUOUS
 62
     3
100
AcDbLine
 10
13.841522
 20
12.519054
 30
0.0
 11
15.171522
 21
12.519054
 31
0.0
  0
LINE
  5
100
100
AcDbEntity
  8
R-DOOR-DETL
  6
CONTINUOUS
 62
     3
100
AcDbLine
 10
13.824022
 20
12.545054
 30
0.0
 11
15.189022
 21
12.545054
 31
0.0
  0
LINE
  5
101
100
AcDbEntity
  8
R-DOOR-DETL
  6
CONTINUOUS
 62
     3
100
AcDbLine
 10
15.186522
 20
12.534054
 30
0.0
 11
15.186522
 21
12.803851
 31
0.0
  0
LINE
  5
102
100
AcDbEntity
  8
R-DOOR-DETL
  6
CONTINUOUS
 62
     3
100
AcDbLine
 10
15.189022
 20
12.545054
 30
0.0
 11
15.189022
 21
13.095054
 31
0.0
  0
LINE
  5
103
100
AcDbEntity
  8
R-DOOR-DETL
  6
CONTINUOUS
 62
     3
100
AcDbLine
 10
13.826522
 20
12.803851
 30
0.0
 11
13.826522
 21
12.534054
 31
0.0
  0
LINE
  5
104
100
AcDbEntity
  8
R-DOOR-DETL
  6
CONTINUOUS
 62
     3
100
AcDbLine
 10
13.824022
 20
12.545054
 30
0.0
 11
13.824022
 21
13.095054
 31
0.0
  0
CIRCLE
  5
105
100
AcDbEntity
  8
R-DOOR-DETL
  6
CONTINUOUS
 62
     3
100
AcDbCircle
 10
14.931522
 20
12.770054
 30
0.0
 40
0.1875
  0
CIRCLE
  5
106
100
AcDbEntity
  8
R-DOOR-DETL
  6
CONTINUOUS
 62
     3
100
AcDbCircle
 10
14.081522
 20
12.770054
 30
0.0
 40
0.1875
  0
CIRCLE
  5
107
100
AcDbEntity
  8
R-DOOR-DETL
  6
CONTINUOUS
 62
     3
100
AcDbCircle
 10
14.506522
 20
12.770054
 30
0.0
 40
0.1875
  0
MTEXT
  5
108
100
AcDbEntity
  8
0
  6
BYBLOCK
 62
     0
100
AcDbMText
 10
19.525841
 20
12.145054
 30
0.0
 40
0.315
 41
0.0
 71
     5
 72
     1
  1
\A1;1/4\P[6mm]
  0
LINE
  5
109
100
AcDbEntity
  8
0
  6
BYBLOCK
 62
     0
100
AcDbLine
 10
18.423341
 20
11.830054
 30
0.0
 11
18.423341
 21
12.145054
 31
0.0
  0
LINE
  5
10A
100
AcDbEntity
  8
0
  6
BYBLOCK
 62
     0
100
AcDbLine
 10
18.423341
 20
12.145054
 30
0.0
 11
18.738341
 21
12.145054
 31
0.0
  0
POINT
  5
10B
100
AcDbEntity
  8
DEFPOINTS
  6
BYBLOCK
 62
     0
100
AcDbPoint
 10
18.423341
 20
11.515054
 30
0.0
  0
SOLID
  5
10C
100
AcDbEntity
  8
0
  6
BYBLOCK
 62
     0
100
AcDbTrace
 10
18.370841
 20
11.830054
 30
0.0
 11
18.475841
 21
11.830054
 31
0.0
 12
18.423341
 22
11.515054
 32
0.0
 13
18.423341
 23
11.515054
 33
0.0
  0
ARC
  5
10D
100
AcDbEntity
  8
R-DOOR-DETL
  6
CONTINUOUS
 62
     3
100
AcDbCircle
 10
15.211515
 20
14.838394
 30
0.0
 40
0.04
100
AcDbArc
 50
330.0
 51
24.0
  0
ARC
  5
10E
100
AcDbEntity
  8
R-DOOR-DETL
  6
CONTINUOUS
 62
     3
100
AcDbCircle
 10
13.801528
 20
14.838394
 30
0.0
 40
0.04
100
AcDbArc
 50
156.0
 51
210.0
  0
LINE
  5
10F
100
AcDbEntity
  8
R-DOOR-DETL
  6
CONTINUOUS
 62
     3
100
AcDbLine
 10
14.966471
 20
14.842682
 30
0.0
 11
14.94408
 21
15.333411
 31
0.0
  0
LINE
  5
110
100
AcDbEntity
  8
R-DOOR-DETL
  6
CONTINUOUS
 62
     3
100
AcDbLine
 10
14.748162
 20
15.324064
 30
0.0
 11
14.748162
 21
14.574064
 31
0.0
  0
LINE
  5
111
100
AcDbEntity
  8
R-DOOR-DETL
  6
CONTINUOUS
 62
     3
100
AcDbLine
 10
14.798162
 20
14.574064
 30
0.0
 11
14.798162
 21
15.324064
 31
0.0
  0
LINE
  5
112
100
AcDbEntity
  8
R-DOOR-DETL
  6
CONTINUOUS
 62
     3
100
AcDbLine
 10
14.798162
 20
15.324064
 30
0.0
 11
14.798162
 21
14.472197
 31
0.0
  0
LINE
  5
113
100
AcDbEntity
  8
R-DOOR-DETL
  6
CONTINUOUS
 62
     3
100
AcDbLine
 10
15.059107
 20
15.493721
 30
0.0
 11
15.427269
 21
14.771164
 31
0.0
  0
LINE
  5
114
100
AcDbEntity
  8
R-DOOR-DETL
  6
CONTINUOUS
 62
     3
100
AcDbLine
 10
14.044427
 20
14.842682
 30
0.0
 11
14.066818
 21
15.333411
 31
0.0
  0
LINE
  5
115
100
AcDbEntity
  8
R-DOOR-DETL
  6
CONTINUOUS
 62
     3
100
AcDbLine
 10
14.262736
 20
15.324064
 30
0.0
 11
14.262736
 21
14.574064
 31
0.0
  0
LINE
  5
116
100
AcDbEntity
  8
R-DOOR-DETL
  6
CONTINUOUS
 62
     3
100
AcDbLine
 10
14.212736
 20
14.574064
 30
0.0
 11
14.212736
 21
15.324064
 31
0.0
  0
LINE
  5
117
100
AcDbEntity
  8
R-DOOR-DETL
  6
CONTINUOUS
 62
     3
100
AcDbLine
 10
14.212736
 20
15.324064
 30
0.0
 11
14.212736
 21
14.472197
 31
0.0
  0
LINE
  5
118
100
AcDbEntity
  8
R-DOOR-DETL
  6
CONTINUOUS
 62
     3
100
AcDbLine
 10
13.585775
 20
14.771164
 30
0.0
 11
13.953936
 21
15.493721
 31
0.0
  0
LINE
  5
119
100
AcDbEntity
  8
R-DOOR-DETL
  6
CONTINUOUS
 62
     3
100
AcDbLine
 10
14.956522
 20
13.874758
 30
0.0
 11
14.956522
 21
14.308693
 31
0.0
  0
LINE
  5
11A
100
AcDbEntity
  8
R-DOOR-DETL
  6
CONTINUOUS
 62
     3
100
AcDbLine
 10
14.056522
 20
14.308693
 30
0.0
 11
14.056522
 21
13.874758
 31
0.0
  0
ARC
  5
11B
100
AcDbEntity
  8
R-DOOR-DETL
  6
CONTINUOUS
 62
     3
100
AcDbCircle
 10
14.822027
 20
13.999354
 30
0.0
 40
0.094
100
AcDbArc
 50
270.0
 51
0.0
  0
LINE
  5
11C
100
AcDbEntity
  8
R-DOOR-DETL
  6
CONTINUOUS
 62
     3
100
AcDbLine
 10
14.655027
 20
14.035354
 30
0.0
 11
14.655027
 21
13.920354
 31
0.0
  0
LINE
  5
11D
100
AcDbEntity
  8
R-DOOR-DETL
  6
CONTINUOUS
 62
     3
100
AcDbLine
 10
14.355871
 20
14.035354
 30
0.0
 11
14.355871
 21
13.920354
 31
0.0
  0
ARC
  5
11E
100
AcDbEntity
  8
R-DOOR-DETL
  6
CONTINUOUS
 62
     3
100
AcDbCircle
 10
14.188871
 20
13.999354
 30
0.0
 40
0.094
100
AcDbArc
 50
180.0
 51
270.0
  0
LWPOLYLINE
  5
11F
100
AcDbEntity
  8
R-DOOR-ANNO
  6
CONTINUOUS
100
AcDbPolyline
 90
        3
 70
     0
 43
0.0
 10
14.81901
 20
14.346367
 10
16.307161
 20
13.6134
 10
16.487161
 20
13.6134
1001
ACAD
1000
DSTYLE
1002
{
1070
   173
1070
     1
1070
     6
1000
_DOTSMALL
1002
}
  0
ARC
  5
120
100
AcDbEntity
  8
R-DOOR-DETL
  6
CONTINUOUS
 62
     3
100
AcDbCircle
 10
15.120514
 20
13.624355
 30
0.0
 40
0.059055
100
AcDbArc
 50
229.185014
 51
118.310064
  0
ARC
  5
121
100
AcDbEntity
  8
R-DOOR-DETL
  6
CONTINUOUS
 62
     3
100
AcDbCircle
 10
15.059023
 20
13.536097
 30
0.0
 40
0.049213
100
AcDbArc
 50
62.278938
 51
180.0
  0
ARC
  5
122
100
AcDbEntity
  8
R-DOOR-DETL
  6
CONTINUOUS
 62
     3
100
AcDbCircle
 10
15.05996
 20
13.713259
 30
0.0
 40
0.049213
100
AcDbArc
 50
260.249923
 51
311.403987
  0
ARC
  5
123
100
AcDbEntity
  8
R-DOOR-DETL
  6
CONTINUOUS
 62
     3
100
AcDbCircle
 10
14.896522
 20
13.874758
 30
0.0
 40
0.06
100
AcDbArc
 50
270.0
 51
360.0
  0
ARC
  5
124
100
AcDbEntity
  8
R-DOOR-DETL
  6
CONTINUOUS
 62
     3
100
AcDbCircle
 10
14.670027
 20
13.920354
 30
0.0
 40
0.015
100
AcDbArc
 50
180.0
 51
270.0
  0
ARC
  5
125
100
AcDbEntity
  8
R-DOOR-DETL
  6
CONTINUOUS
 62
     3
100
AcDbCircle
 10
14.340871
 20
13.920354
 30
0.0
 40
0.015
100
AcDbArc
 50
270.0
 51
360.0
  0
LINE
  5
126
100
AcDbEntity
  8
R-DOOR-DETL
  6
CONTINUOUS
 62
     3
100
AcDbLine
 10
14.59718
 20
13.978724
 30
0.0
 11
14.40918
 21
13.978724
 31
0.0
  0
LINE
  5
127
100
AcDbEntity
  8
R-DOOR-DETL
  6
CONTINUOUS
 62
     3
100
AcDbLine
 10
14.59718
 20
13.918724
 30
0.0
 11
14.40918
 21
13.918724
 31
0.0
  0
LINE
  5
128
100
AcDbEntity
  8
R-DOOR-DETL
  6
CONTINUOUS
 62
     3
100
AcDbLine
 10
14.62718
 20
13.888724
 30
0.0
 11
14.37918
 21
13.888724
 31
0.0
  0
LINE
  5
129
100
AcDbEntity
  8
R-DOOR-DETL
  6
CONTINUOUS
 62
     3
100
AcDbLine
 10
14.62718
 20
13.948724
 30
0.0
 11
14.37918
 21
13.948724
 31
0.0
  0
LINE
  5
12A
100
AcDbEntity
  8
R-DOOR-DETL
  6
CONTINUOUS
 62
     3
100
AcDbLine
 10
14.62718
 20
13.828724
 30
0.0
 11
14.37918
 21
13.828724
 31
0.0
  0
LINE
  5
12B
100
AcDbEntity
  8
4-2
  6
CONTINUOUS
 62
     4
100
AcDbLine
 10
14.37918
 20
13.814758
 30
0.0
 11
14.62718
 21
13.814758
 31
0.0
  0
LINE
  5
12C
100
AcDbEntity
  8
R-DOOR-DETL
  6
CONTINUOUS
 62
     3
100
AcDbLine
 10
14.59718
 20
13.858724
 30
0.0
 11
14.40918
 21
13.858724
 31
0.0
  0
LINE
  5
12D
100
AcDbEntity
  8
R-DOOR-DETL
  6
CONTINUOUS
 62
     3
100
AcDbLine
 10
14.670027
 20
13.905354
 30
0.0
 11
14.822027
 21
13.905354
 31
0.0
  0
LINE
  5
12E
100
AcDbEntity
  8
R-DOOR-DETL
  6
CONTINUOUS
 62
     3
100
AcDbLine
 10
14.506522
 20
13.664758
 30
0.0
 11
15.051626
 21
13.664758
 31
0.0
  0
LINE
  5
12F
100
AcDbEntity
  8
R-DOOR-DETL
  6
CONTINUOUS
 62
     3
100
AcDbLine
 10
14.506522
 20
13.814758
 30
0.0
 11
14.896522
 21
13.814758
 31
0.0
  0
ARC
  5
130
100
AcDbEntity
  8
R-DOOR-DETL
  6
CONTINUOUS
 62
     3
100
AcDbCircle
 10
14.116522
 20
13.874758
 30
0.0
 40
0.06
100
AcDbArc
 50
180.0
 51
270.0
  0
ARC
  5
131
100
AcDbEntity
  8
R-DOOR-DETL
  6
CONTINUOUS
 62
     3
100
AcDbCircle
 10
13.953083
 20
13.713259
 30
0.0
 40
0.049213
100
AcDbArc
 50
228.596013
 51
279.750077
  0
ARC
  5
132
100
AcDbEntity
  8
R-DOOR-DETL
  6
CONTINUOUS
 62
     3
100
AcDbCircle
 10
13.892529
 20
13.624355
 30
0.0
 40
0.059055
100
AcDbArc
 50
61.689936
 51
310.814986
  0
ARC
  5
133
100
AcDbEntity
  8
R-DOOR-DETL
  6
CONTINUOUS
 62
     3
100
AcDbCircle
 10
13.954021
 20
13.536097
 30
0.0
 40
0.049212
100
AcDbArc
 50
0.0
 51
117.721062
  0
LINE
  5
134
100
AcDbEntity
  8
R-DOOR-DETL
  6
CONTINUOUS
 62
     3
100
AcDbLine
 10
14.340871
 20
13.905354
 30
0.0
 11
14.188871
 21
13.905354
 31
0.0
  0
LINE
  5
135
100
AcDbEntity
  8
R-DOOR-DETL
  6
CONTINUOUS
 62
     3
100
AcDbLine
 10
14.116522
 20
13.814758
 30
0.0
 11
14.506522
 21
13.814758
 31
0.0
  0
LINE
  5
136
100
AcDbEntity
  8
R-DOOR-DETL
  6
CONTINUOUS
 62
     3
100
AcDbLine
 10
13.961417
 20
13.664758
 30
0.0
 11
14.506522
 21
13.664758
 31
0.0
  0
INSERT
  5
137
100
AcDbEntity
  8
R-DOOR-ANNO
  6
CONTINUOUS
100
AcDbBlockReference
  2
_DOTSMALL
 10
13.639604
 20
13.72324
 30
0.0
 41
0.18
 42
0.18
 43
0.18
 50
153.778112
1001
ACAD
1000
DSTYLE
1002
{
1070
   173
1070
     1
1070
     6
1000
_DOTSMALL
1002
}
  0
ARC
  5
138
100
AcDbEntity
  8
R-DOOR-DETL
  6
CONTINUOUS
 62
     3
100
AcDbCircle
 10
14.506522
 20
13.341609
 30
0.0
 40
0.15678
100
AcDbArc
 50
10.315077
 51
34.562525
  0
ARC
  5
139
100
AcDbEntity
  8
R-DOOR-DETL
  6
CONTINUOUS
 62
     3
100
AcDbCircle
 10
14.506522
 20
13.341609
 30
0.0
 40
0.15678
100
AcDbArc
 50
145.437475
 51
169.684923
  0
ARC
  5
13A
100
AcDbEntity
  8
R-DOOR-DETL
  6
CONTINUOUS
 62
     3
100
AcDbCircle
 10
14.506522
 20
13.341609
 30
0.0
 40
0.059055
100
AcDbArc
 50
139.488274
 51
40.511726
  0
ARC
  5
13B
100
AcDbEntity
  8
R-DOOR-DETL
  6
CONTINUOUS
 62
     3
100
AcDbCircle
 10
14.97881
 20
13.376054
 30
0.0
 40
0.031
100
AcDbArc
 50
270.0
 51
0.0
  0
ARC
  5
13C
100
AcDbEntity
  8
R-DOOR-DETL
  6
CONTINUOUS
 62
     3
100
AcDbCircle
 10
14.690283
 20
13.375054
 30
0.0
 40
0.03
100
AcDbArc
 50
190.315077
 51
270.0
  0
ARC
  5
13D
100
AcDbEntity
  8
R-DOOR-DETL
  6
CONTINUOUS
 62
     3
100
AcDbCircle
 10
14.322761
 20
13.375054
 30
0.0
 40
0.03
100
AcDbArc
 50
270.0
 51
349.684923
  0
LINE
  5
13E
100
AcDbEntity
  8
R-DOOR-DETL
  6
CONTINUOUS
 62
     3
100
AcDbLine
 10
14.97881
 20
13.345054
 30
0.0
 11
14.690283
 21
13.345054
 31
0.0
  0
ARC
  5
13F
100
AcDbEntity
  8
R-DOOR-DETL
  6
CONTINUOUS
 62
     3
100
AcDbCircle
 10
14.034233
 20
13.376054
 30
0.0
 40
0.031
100
AcDbArc
 50
180.0
 51
270.0
  0
LINE
  5
140
100
AcDbEntity
  8
R-DOOR-DETL
  6
CONTINUOUS
 62
     3
100
AcDbLine
 10
14.322761
 20
13.345054
 30
0.0
 11
14.034233
 21
13.345054
 31
0.0
  0
ARC
  5
141
100
AcDbEntity
  8
R-DOOR-DETL
  6
CONTINUOUS
 62
     3
100
AcDbCircle
 10
14.595104
 20
13.402633
 30
0.0
 40
0.049213
100
AcDbArc
 50
34.562525
 51
207.417802
  0
ARC
  5
142
100
AcDbEntity
  8
R-DOOR-DETL
  6
CONTINUOUS
 62
     3
100
AcDbCircle
 10
14.417939
 20
13.402633
 30
0.0
 40
0.049213
100
AcDbArc
 50
332.582198
 51
145.437475
  0
LINE
  5
143
100
AcDbEntity
  8
R-DOOR-DETL
  6
CONTINUOUS
 62
     3
100
AcDbLine
 10
15.00981
 20
13.536097
 30
0.0
 11
15.00981
 21
13.376054
 31
0.0
  0
LINE
  5
144
100
AcDbEntity
  8
R-DOOR-DETL
  6
CONTINUOUS
 62
     3
100
AcDbLine
 10
14.003233
 20
13.376054
 30
0.0
 11
14.003233
 21
13.536097
 31
0.0
  0
LINE
  5
145
100
AcDbEntity
  8
R-DOOR-DETL
  6
CONTINUOUS
 62
     3
100
AcDbLine
 10
15.112687
 20
14.814049
 30
0.0
 11
14.99644
 21
14.814049
 31
0.0
  0
ARC
  5
146
100
AcDbEntity
  8
R-DOOR-DETL
  6
CONTINUOUS
 62
     3
100
AcDbCircle
 10
14.99644
 20
14.844049
 30
0.0
 40
0.03
100
AcDbArc
 50
182.612502
 51
270.0
  0
LINE
  5
147
100
AcDbEntity
  8
R-DOOR-DETL
  6
CONTINUOUS
 62
     3
100
AcDbLine
 10
14.78832
 20
14.462354
 30
0.0
 11
14.78832
 21
14.512354
 31
0.0
  0
LINE
  5
148
100
AcDbEntity
  8
R-DOOR-DETL
  6
CONTINUOUS
 62
     3
100
AcDbLine
 10
14.748162
 20
14.574064
 30
0.0
 11
14.798162
 21
14.574064
 31
0.0
  0
ARC
  5
149
100
AcDbEntity
  8
R-DOOR-DETL
  6
CONTINUOUS
 62
     3
100
AcDbCircle
 10
14.78832
 20
14.472197
 30
0.0
 40
0.009842
100
AcDbArc
 50
270.0
 51
360.0
  0
LINE
  5
14A
100
AcDbEntity
  8
R-DOOR-DETL
  6
CONTINUOUS
 62
     3
100
AcDbLine
 10
14.472578
 20
14.512354
 30
0.0
 11
14.472578
 21
14.462354
 31
0.0
  0
LINE
  5
14B
100
AcDbEntity
  8
R-DOOR-DETL
  6
CONTINUOUS
 62
     3
100
AcDbLine
 10
14.53832
 20
14.512354
 30
0.0
 11
14.53832
 21
14.462354
 31
0.0
  0
ARC
  5
14C
100
AcDbEntity
  8
R-DOOR-DETL
  6
CONTINUOUS
 62
     3
100
AcDbCircle
 10
14.556027
 20
14.447354
 30
0.0
 40
0.015
100
AcDbArc
 50
90.0
 51
180.0
  0
ARC
  5
14D
100
AcDbEntity
  8
R-DOOR-DETL
  6
CONTINUOUS
 62
     3
100
AcDbCircle
 10
14.454871
 20
14.447354
 30
0.0
 40
0.015
100
AcDbArc
 50
0.0
 51
90.0
  0
POINT
  5
14E
100
AcDbEntity
  8
DEFPOINTS
  6
BYBLOCK
 62
     0
100
AcDbPoint
 10
14.256522
 20
14.512354
 30
0.0
  0
LINE
  5
14F
100
AcDbEntity
  8
R-DOOR-DETL
 62
     3
100
AcDbLine
 10
14.695236
 20
14.512354
 30
0.0
 11
14.320236
 21
14.512354
 31
0.0
  0
LINE
  5
150
100
AcDbEntity
  8
R-DOOR-DETL
  6
CONTINUOUS
 62
     3
100
AcDbLine
 10
14.78832
 20
14.512354
 30
0.0
 11
14.53832
 21
14.512354
 31
0.0
  0
LINE
  5
151
100
AcDbEntity
  8
R-DOOR-DETL
  6
CONTINUOUS
 62
     3
100
AcDbLine
 10
14.53832
 20
14.462354
 30
0.0
 11
14.78832
 21
14.462354
 31
0.0
  0
LINE
  5
152
100
AcDbEntity
  8
R-DOOR-DETL
  6
CONTINUOUS
 62
     3
100
AcDbLine
 10
14.78832
 20
14.462354
 30
0.0
 11
14.556027
 21
14.462354
 31
0.0
  0
LINE
  5
153
100
AcDbEntity
  8
R-DOOR-DETL
 62
     3
100
AcDbLine
 10
14.752736
 20
14.512354
 30
0.0
 11
14.262736
 21
14.512354
 31
0.0
  0
ARC
  5
154
100
AcDbEntity
  8
R-DOOR-DETL
  6
CONTINUOUS
 62
     3
100
AcDbCircle
 10
15.112687
 20
14.784049
 30
0.0
 40
0.03
100
AcDbArc
 50
59.0
 51
90.0
  0
LINE
  5
155
100
AcDbEntity
  8
R-DOOR-DETL
  6
CONTINUOUS
 62
     3
100
AcDbLine
 10
15.18814
 20
14.773711
 30
0.0
 11
15.128138
 21
14.809764
 31
0.0
  0
ARC
  5
156
100
AcDbEntity
  8
R-DOOR-DETL
  6
CONTINUOUS
 62
     3
100
AcDbCircle
 10
15.172689
 20
14.747996
 30
0.0
 40
0.03
100
AcDbArc
 50
329.0
 51
59.0
  0
ARC
  5
157
100
AcDbEntity
  8
R-DOOR-DETL
  6
CONTINUOUS
 62
     3
100
AcDbCircle
 10
15.343514
 20
14.728489
 30
0.0
 40
0.094
100
AcDbArc
 50
0.0
 51
27.0
  0
ARC
  5
158
100
AcDbEntity
  8
R-DOOR-DETL
  6
CONTINUOUS
 62
     3
100
AcDbCircle
 10
14.014458
 20
14.844049
 30
0.0
 40
0.03
100
AcDbArc
 50
270.0
 51
357.387498
  0
LINE
  5
159
100
AcDbEntity
  8
R-DOOR-DETL
  6
CONTINUOUS
 62
     3
100
AcDbLine
 10
13.898211
 20
14.814049
 30
0.0
 11
14.014458
 21
14.814049
 31
0.0
  0
ARC
  5
15A
100
AcDbEntity
  8
R-DOOR-DETL
  6
CONTINUOUS
 62
     3
100
AcDbCircle
 10
13.898211
 20
14.784049
 30
0.0
 40
0.03
100
AcDbArc
 50
90.0
 51
121.0
  0
LINE
  5
15B
100
AcDbEntity
  8
R-DOOR-DETL
  6
CONTINUOUS
 62
     3
100
AcDbLine
 10
13.822758
 20
14.773711
 30
0.0
 11
13.88276
 21
14.809764
 31
0.0
  0
ARC
  5
15C
100
AcDbEntity
  8
R-DOOR-DETL
  6
CONTINUOUS
 62
     3
100
AcDbCircle
 10
13.838209
 20
14.747996
 30
0.0
 40
0.03
100
AcDbArc
 50
121.0
 51
211.0
  0
LINE
  5
15D
100
AcDbEntity
  8
R-DOOR-DETL
  6
CONTINUOUS
 62
     3
100
AcDbLine
 10
14.222578
 20
14.462354
 30
0.0
 11
14.222578
 21
14.512354
 31
0.0
  0
ARC
  5
15E
100
AcDbEntity
  8
R-DOOR-DETL
  6
CONTINUOUS
 62
     3
100
AcDbCircle
 10
14.222578
 20
14.472197
 30
0.0
 40
0.009842
100
AcDbArc
 50
180.0
 51
270.0
  0
POINT
  5
15F
100
AcDbEntity
  8
DEFPOINTS
  6
BYBLOCK
 62
     0
100
AcDbPoint
 10
14.131522
 20
14.512354
 30
0.0
  0
POINT
  5
160
100
AcDbEntity
  8
DEFPOINTS
  6
BYBLOCK
 62
     0
100
AcDbPoint
 10
14.022147
 20
14.512354
 30
0.0
  0
LINE
  5
161
100
AcDbEntity
  8
R-DOOR-DETL
  6
CONTINUOUS
 62
     3
100
AcDbLine
 10
14.262736
 20
14.574064
 30
0.0
 11
14.212736
 21
14.574064
 31
0.0
  0
LINE
  5
162
100
AcDbEntity
  8
R-DOOR-DETL
  6
CONTINUOUS
 62
     3
100
AcDbLine
 10
14.222578
 20
14.512354
 30
0.0
 11
14.472578
 21
14.512354
 31
0.0
  0
LINE
  5
163
100
AcDbEntity
  8
R-DOOR-DETL
  6
CONTINUOUS
 62
     3
100
AcDbLine
 10
14.472578
 20
14.462354
 30
0.0
 11
14.222578
 21
14.462354
 31
0.0
  0
LINE
  5
164
100
AcDbEntity
  8
R-DOOR-DETL
  6
CONTINUOUS
 62
     3
100
AcDbLine
 10
14.222578
 20
14.462354
 30
0.0
 11
14.454871
 21
14.462354
 31
0.0
  0
INSERT
  5
165
100
AcDbEntity
  8
R-DOOR-ANNO
  6
CONTINUOUS
100
AcDbBlockReference
  2
_DOTSMALL
 10
14.795685
 20
14.370682
 30
0.0
 41
0.18
 42
0.18
 43
0.18
 50
153.778112
1001
ACAD
1000
DSTYLE
1002
{
1070
   173
1070
     1
1070
     6
1000
_DOTSMALL
1002
}
  0
ARC
  5
166
100
AcDbEntity
  8
R-DOOR-DETL
  6
CONTINUOUS
 62
     3
100
AcDbCircle
 10
13.669529
 20
14.728489
 30
0.0
 40
0.094
100
AcDbArc
 50
153.0
 51
180.0
  0
LINE
  5
167
100
AcDbEntity
  8
R-DOOR-DETL
  6
CONTINUOUS
 62
     3
100
AcDbLine
 10
14.916027
 20
13.999354
 30
0.0
 11
14.916027
 21
14.254271
 31
0.0
  0
LINE
  5
168
100
AcDbEntity
  8
R-DOOR-DETL
  6
CONTINUOUS
 62
     3
100
AcDbLine
 10
14.094871
 20
13.999354
 30
0.0
 11
14.094871
 21
14.254271
 31
0.0
  0
LINE
  5
169
100
AcDbEntity
  8
R-DOOR-DETL
  6
CONTINUOUS
 62
     3
100
AcDbLine
 10
14.771027
 20
14.192354
 30
0.0
 11
14.771027
 21
14.065354
 31
0.0
  0
LINE
  5
16A
100
AcDbEntity
  8
R-DOOR-DETL
  6
CONTINUOUS
 62
     3
100
AcDbLine
 10
14.753616
 20
14.182083
 30
0.0
 11
14.753616
 21
14.057083
 31
0.0
  0
ARC
  5
16B
100
AcDbEntity
  8
R-DOOR-DETL
  6
CONTINUOUS
 62
     3
100
AcDbCircle
 10
14.756027
 20
14.065354
 30
0.0
 40
0.015
100
AcDbArc
 50
270.0
 51
360.0
  0
ARC
  5
16C
100
AcDbEntity
  8
R-DOOR-DETL
  6
CONTINUOUS
 62
     3
100
AcDbCircle
 10
14.670027
 20
14.035354
 30
0.0
 40
0.015
100
AcDbArc
 50
90.0
 51
180.0
  0
LINE
  5
16D
100
AcDbEntity
  8
R-DOOR-DETL
  6
CONTINUOUS
 62
     3
100
AcDbLine
 10
14.253616
 20
14.182083
 30
0.0
 11
14.253616
 21
14.057083
 31
0.0
  0
LINE
  5
16E
100
AcDbEntity
  8
R-DOOR-DETL
  6
CONTINUOUS
 62
     3
100
AcDbLine
 10
14.254871
 20
14.050354
 30
0.0
 11
14.340871
 21
14.050354
 31
0.0
  0
ARC
  5
16F
100
AcDbEntity
  8
R-DOOR-DETL
  6
CONTINUOUS
 62
     3
100
AcDbCircle
 10
14.340871
 20
14.035354
 30
0.0
 40
0.015
100
AcDbArc
 50
360.0
 51
90.0
  0
LINE
  5
170
100
AcDbEntity
  8
R-DOOR-DETL
  6
CONTINUOUS
 62
     3
100
AcDbLine
 10
14.59718
 20
14.098724
 30
0.0
 11
14.40918
 21
14.098724
 31
0.0
  0
LINE
  5
171
100
AcDbEntity
  8
R-DOOR-DETL
  6
CONTINUOUS
 62
     3
100
AcDbLine
 10
14.59718
 20
14.038724
 30
0.0
 11
14.40918
 21
14.038724
 31
0.0
  0
LINE
  5
172
100
AcDbEntity
  8
R-DOOR-DETL
  6
CONTINUOUS
 62
     3
100
AcDbLine
 10
14.62718
 20
14.008724
 30
0.0
 11
14.37918
 21
14.008724
 31
0.0
  0
LINE
  5
173
100
AcDbEntity
  8
R-DOOR-DETL
  6
CONTINUOUS
 62
     3
100
AcDbLine
 10
14.62718
 20
14.068724
 30
0.0
 11
14.37918
 21
14.068724
 31
0.0
  0
LINE
  5
174
100
AcDbEntity
  8
R-DOOR-DETL
  6
CONTINUOUS
 62
     3
100
AcDbLine
 10
14.62718
 20
14.128724
 30
0.0
 11
14.37918
 21
14.128724
 31
0.0
  0
LINE
  5
175
100
AcDbEntity
  8
R-DOOR-DETL
  6
CONTINUOUS
 62
     3
100
AcDbLine
 10
14.59718
 20
14.158724
 30
0.0
 11
14.40918
 21
14.158724
 31
0.0
  0
LINE
  5
176
100
AcDbEntity
  8
R-DOOR-DETL
  6
CONTINUOUS
 62
     3
100
AcDbLine
 10
14.62718
 20
14.188724
 30
0.0
 11
14.37918
 21
14.188724
 31
0.0
  0
LINE
  5
177
100
AcDbEntity
  8
R-DOOR-DETL
  6
CONTINUOUS
 62
     3
100
AcDbLine
 10
14.756027
 20
14.050354
 30
0.0
 11
14.670027
 21
14.050354
 31
0.0
  0
LINE
  5
178
100
AcDbEntity
  8
R-DOOR-DETL
  6
CONTINUOUS
 62
     3
100
AcDbLine
 10
14.753616
 20
14.057083
 30
0.0
 11
14.253616
 21
14.057083
 31
0.0
  0
LINE
  5
179
100
AcDbEntity
  8
R-DOOR-DETL
  6
CONTINUOUS
 62
     3
100
AcDbLine
 10
14.753616
 20
14.182083
 30
0.0
 11
14.253616
 21
14.182083
 31
0.0
  0
LINE
  5
17A
100
AcDbEntity
  8
R-DOOR-DETL
  6
CONTINUOUS
 62
     3
100
AcDbLine
 10
14.239871
 20
14.192354
 30
0.0
 11
14.239871
 21
14.065354
 31
0.0
  0
ARC
  5
17B
100
AcDbEntity
  8
R-DOOR-DETL
  6
CONTINUOUS
 62
     3
100
AcDbCircle
 10
14.254871
 20
14.065354
 30
0.0
 40
0.015
100
AcDbArc
 50
180.0
 51
270.0
  0
ARC
  5
17C
100
AcDbEntity
  8
R-DOOR-DETL
  6
CONTINUOUS
 62
     3
100
AcDbCircle
 10
14.946027
 20
14.254271
 30
0.0
 40
0.03
100
AcDbArc
 50
149.0
 51
180.0
  0
ARC
  5
17D
100
AcDbEntity
  8
R-DOOR-DETL
  6
CONTINUOUS
 62
     3
100
AcDbCircle
 10
14.986522
 20
14.308693
 30
0.0
 40
0.03
100
AcDbArc
 50
150.0
 51
180.0
  0
LINE
  5
17E
100
AcDbEntity
  8
R-DOOR-DETL
  6
CONTINUOUS
 62
     3
100
AcDbLine
 10
14.556027
 20
14.317354
 30
0.0
 11
14.646027
 21
14.317354
 31
0.0
  0
ARC
  5
17F
100
AcDbEntity
  8
R-DOOR-DETL
  6
CONTINUOUS
 62
     3
100
AcDbCircle
 10
14.556027
 20
14.332354
 30
0.0
 40
0.015
100
AcDbArc
 50
180.0
 51
270.0
  0
ARC
  5
180
100
AcDbEntity
  8
R-DOOR-DETL
  6
CONTINUOUS
 62
     3
100
AcDbCircle
 10
14.454871
 20
14.332354
 30
0.0
 40
0.015
100
AcDbArc
 50
270.0
 51
360.0
  0
LINE
  5
181
100
AcDbEntity
  8
R-DOOR-DETL
  6
CONTINUOUS
 62
     3
100
AcDbLine
 10
14.454871
 20
14.317354
 30
0.0
 11
14.364871
 21
14.317354
 31
0.0
  0
LINE
  5
182
100
AcDbEntity
  8
R-DOOR-DETL
  6
CONTINUOUS
 62
     3
100
AcDbLine
 10
14.59718
 20
14.218724
 30
0.0
 11
14.40918
 21
14.218724
 31
0.0
  0
ARC
  5
183
100
AcDbEntity
  8
R-DOOR-DETL
  6
CONTINUOUS
 62
     3
100
AcDbCircle
 10
14.064871
 20
14.254271
 30
0.0
 40
0.03
100
AcDbArc
 50
0.0
 51
31.0
  0
ARC
  5
184
100
AcDbEntity
  8
R-DOOR-DETL
  6
CONTINUOUS
 62
     3
100
AcDbCircle
 10
14.026522
 20
14.308693
 30
0.0
 40
0.03
100
AcDbArc
 50
0.0
 51
30.0
  0
LINE
  5
185
100
AcDbEntity
  8
R-DOOR-DETL
  6
CONTINUOUS
 62
     3
100
AcDbLine
 10
14.052502
 20
14.323693
 30
0.0
 11
14.056522
 21
14.316732
 31
0.0
  0
ARC
  5
186
100
AcDbEntity
  8
R-DOOR-DETL
  6
CONTINUOUS
 62
     3
100
AcDbCircle
 10
14.646027
 20
14.192354
 30
0.0
 40
0.125
100
AcDbArc
 50
360.0
 51
90.0
  0
ARC
  5
187
100
AcDbEntity
  8
R-DOOR-DETL
  6
CONTINUOUS
 62
     3
100
AcDbCircle
 10
14.364871
 20
14.192354
 30
0.0
 40
0.125
100
AcDbArc
 50
90.0
 51
180.0
  0
LINE
  5
188
100
AcDbEntity
  8
R-DOOR-DETL
  6
CONTINUOUS
 62
     3
100
AcDbLine
 10
14.920312
 20
14.269722
 30
0.0
 11
15.198404
 21
14.732545
 31
0.0
  0
LINE
  5
189
100
AcDbEntity
  8
R-DOOR-DETL
  6
CONTINUOUS
 62
     3
100
AcDbLine
 10
14.960541
 20
14.323693
 30
0.0
 11
15.246156
 21
14.818394
 31
0.0
  0
LINE
  5
18A
100
AcDbEntity
  8
R-DOOR-DETL
  6
CONTINUOUS
 62
     3
100
AcDbLine
 10
14.541027
 20
14.447354
 30
0.0
 11
14.541027
 21
14.332354
 31
0.0
  0
LINE
  5
18B
100
AcDbEntity
  8
R-DOOR-DETL
  6
CONTINUOUS
 62
     3
100
AcDbLine
 10
14.469871
 20
14.447354
 30
0.0
 11
14.469871
 21
14.332354
 31
0.0
  0
LINE
  5
18C
100
AcDbEntity
  8
R-DOOR-DETL
  6
CONTINUOUS
 62
     3
100
AcDbLine
 10
14.090586
 20
14.269722
 30
0.0
 11
13.812494
 21
14.732545
 31
0.0
  0
LINE
  5
18D
100
AcDbEntity
  8
R-DOOR-DETL
  6
CONTINUOUS
 62
     3
100
AcDbLine
 10
13.766887
 20
14.818394
 30
0.0
 11
14.052502
 21
14.323693
 31
0.0
  0
TEXT
  5
18E
100
AcDbEntity
  8
0
100
AcDbText
 10
16.545732
 20
13.4334
 30
0.0
 40
0.36
  1
GLASS CLAMP
  7
ROMANS
100
AcDbText
  0
ARC
  5
18F
100
AcDbEntity
  8
R-DOOR-DETL
  6
CONTINUOUS
 62
     3
100
AcDbCircle
 10
14.975353
 20
15.451046
 30
0.0
 40
0.094
100
AcDbArc
 50
27.0
 51
90.0
  0
LINE
  5
190
100
AcDbEntity
  8
R-DOOR-DETL
  6
CONTINUOUS
 62
     3
100
AcDbLine
 10
14.799594
 20
15.465834
 30
0.0
 11
14.799594
 21
15.535046
 31
0.0
  0
ARC
  5
191
100
AcDbEntity
  8
R-DOOR-DETL
  6
CONTINUOUS
 62
     3
100
AcDbCircle
 10
14.954352
 20
15.415991
 30
0.0
 40
0.04
100
AcDbArc
 50
24.0
 51
90.0
  0
ARC
  5
192
100
AcDbEntity
  8
R-DOOR-DETL
  6
CONTINUOUS
 62
     3
100
AcDbCircle
 10
14.809437
 20
15.465834
 30
0.0
 40
0.009842
100
AcDbArc
 50
180.0
 51
270.0
  0
LINE
  5
193
100
AcDbEntity
  8
R-DOOR-DETL
  6
CONTINUOUS
 62
     3
100
AcDbLine
 10
14.954352
 20
15.455991
 30
0.0
 11
14.809437
 21
15.455991
 31
0.0
  0
ARC
  5
194
100
AcDbEntity
  8
R-DOOR-DETL
  6
CONTINUOUS
 62
     3
100
AcDbCircle
 10
14.809594
 20
15.535046
 30
0.0
 40
0.01
100
AcDbArc
 50
90.0
 51
180.0
  0
LINE
  5
195
100
AcDbEntity
  8
R-DOOR-DETL
  6
CONTINUOUS
 62
     3
100
AcDbLine
 10
14.809594
 20
15.545046
 30
0.0
 11
14.975353
 21
15.545046
 31
0.0
  0
LINE
  5
196
100
AcDbEntity
  8
R-DOOR-DETL
  6
CONTINUOUS
 62
     3
100
AcDbLine
 10
14.904122
 20
15.371588
 30
0.0
 11
14.798162
 21
15.371588
 31
0.0
  0
LINE
  5
197
100
AcDbEntity
  8
R-DOOR-DETL
  6
CONTINUOUS
 62
     3
100
AcDbLine
 10
14.798162
 20
15.324064
 30
0.0
 11
14.748162
 21
15.324064
 31
0.0
  0
ARC
  5
198
100
AcDbEntity
  8
R-DOOR-DETL
  6
CONTINUOUS
 62
     3
100
AcDbCircle
 10
14.78832
 20
15.324064
 30
0.0
 40
0.009843
100
AcDbArc
 50
360.0
 51
70.528779
  0
ARC
  5
199
100
AcDbEntity
  8
R-DOOR-DETL
  6
CONTINUOUS
 62
     3
100
AcDbCircle
 10
14.798162
 20
15.351903
 30
0.0
 40
0.019685
100
AcDbArc
 50
90.0
 51
250.528779
  0
ARC
  5
19A
100
AcDbEntity
  8
R-DOOR-DETL
  6
CONTINUOUS
 62
     3
100
AcDbCircle
 10
14.904122
 20
15.331588
 30
0.0
 40
0.04
100
AcDbArc
 50
2.612502
 51
90.0
  0
LINE
  5
19B
100
AcDbEntity
  8
R-DOOR-DETL
  6
CONTINUOUS
 62
     3
100
AcDbLine
 10
14.213449
 20
15.535046
 30
0.0
 11
14.213449
 21
15.465834
 31
0.0
  0
ARC
  5
19C
100
AcDbEntity
  8
R-DOOR-DETL
  6
CONTINUOUS
 62
     3
100
AcDbCircle
 10
14.037691
 20
15.451046
 30
0.0
 40
0.094
100
AcDbArc
 50
90.0
 51
153.0
  0
ARC
  5
19D
100
AcDbEntity
  8
R-DOOR-DETL
  6
CONTINUOUS
 62
     3
100
AcDbCircle
 10
14.203607
 20
15.465834
 30
0.0
 40
0.009843
100
AcDbArc
 50
270.0
 51
0.0
  0
LINE
  5
19E
100
AcDbEntity
  8
R-DOOR-DETL
  6
CONTINUOUS
 62
     3
100
AcDbLine
 10
14.203607
 20
15.455991
 30
0.0
 11
14.058691
 21
15.455991
 31
0.0
  0
ARC
  5
19F
100
AcDbEntity
  8
R-DOOR-DETL
  6
CONTINUOUS
 62
     3
100
AcDbCircle
 10
14.058691
 20
15.415991
 30
0.0
 40
0.04
100
AcDbArc
 50
90.0
 51
156.0
  0
ARC
  5
1A0
100
AcDbEntity
  8
R-DOOR-DETL
  6
CONTINUOUS
 62
     3
100
AcDbCircle
 10
14.203449
 20
15.535046
 30
0.0
 40
0.01
100
AcDbArc
 50
360.0
 51
90.0
  0
LINE
  5
1A1
100
AcDbEntity
  8
R-DOOR-DETL
  6
CONTINUOUS
 62
     3
100
AcDbLine
 10
14.037691
 20
15.545046
 30
0.0
 11
14.203449
 21
15.545046
 31
0.0
  0
LINE
  5
1A2
100
AcDbEntity
  8
R-DOOR-DETL
  6
CONTINUOUS
 62
     3
100
AcDbLine
 10
14.106776
 20
15.371588
 30
0.0
 11
14.212736
 21
15.371588
 31
0.0
  0
ARC
  5
1A3
100
AcDbEntity
  8
R-DOOR-DETL
  6
CONTINUOUS
 62
     3
100
AcDbCircle
 10
14.222578
 20
15.324064
 30
0.0
 40
0.009843
100
AcDbArc
 50
109.471221
 51
180.0
  0
ARC
  5
1A4
100
AcDbEntity
  8
R-DOOR-DETL
  6
CONTINUOUS
 62
     3
100
AcDbCircle
 10
14.212736
 20
15.351903
 30
0.0
 40
0.019685
100
AcDbArc
 50
289.471221
 51
90.0
  0
ARC
  5
1A5
100
AcDbEntity
  8
R-DOOR-DETL
  6
CONTINUOUS
 62
     3
100
AcDbCircle
 10
14.106776
 20
15.331588
 30
0.0
 40
0.04
100
AcDbArc
 50
90.0
 51
177.387498
  0
LINE
  5
1A6
100
AcDbEntity
  8
R-DOOR-DETL
  6
CONTINUOUS
 62
     3
100
AcDbLine
 10
14.212736
 20
15.324064
 30
0.0
 11
14.262736
 21
15.324064
 31
0.0
  0
LINE
  5
1A7
100
AcDbEntity
  8
R-DOOR-DETL
  6
CONTINUOUS
 62
     3
100
AcDbLine
 10
15.248057
 20
14.854663
 30
0.0
 11
14.990894
 21
15.432261
 31
0.0
  0
LINE
  5
1A8
100
AcDbEntity
  8
R-DOOR-DETL
  6
CONTINUOUS
 62
     3
100
AcDbLine
 10
14.022149
 20
15.432261
 30
0.0
 11
13.764986
 21
14.854663
 31
0.0
  0
LINE
  5
1A9
100
AcDbEntity
  8
R-DOOR-PATT
  6
CONTINUOUS
 62
     5
100
AcDbLine
 10
17.504044
 20
30.717763
 30
0.0
 11
16.735165
 21
29.948885
 31
0.0
  0
LINE
  5
1AA
100
AcDbEntity
  8
R-DOOR-PATT
  6
CONTINUOUS
 62
     5
100
AcDbLine
 10
17.504044
 20
31.159705
 30
0.0
 11
16.293224
 21
29.948885
 31
0.0
  0
LINE
  5
1AB
100
AcDbEntity
  8
R-DOOR-PATT
  6
CONTINUOUS
 62
     5
100
AcDbLine
 10
14.315748
 20
31.948885
 30
0.0
 11
12.315748
 21
29.948885
 31
0.0
  0
LINE
  5
1AC
100
AcDbEntity
  8
R-DOOR-PATT
  6
CONTINUOUS
 62
     5
100
AcDbLine
 10
14.75769
 20
31.948885
 30
0.0
 11
12.75769
 21
29.948885
 31
0.0
  0
LINE
  5
1AD
100
AcDbEntity
  8
R-DOOR-PATT
  6
CONTINUOUS
 62
     5
100
AcDbLine
 10
16.525457
 20
31.948885
 30
0.0
 11
14.525457
 21
29.948885
 31
0.0
  0
LINE
  5
1AE
100
AcDbEntity
  8
R-DOOR-PATT
  6
CONTINUOUS
 62
     5
100
AcDbLine
 10
15.199632
 20
31.948885
 30
0.0
 11
13.199632
 21
29.948885
 31
0.0
  0
LINE
  5
1AF
100
AcDbEntity
  8
R-DOOR-PATT
  6
CONTINUOUS
 62
     5
100
AcDbLine
 10
15.641573
 20
31.948885
 30
0.0
 11
13.641573
 21
29.948885
 31
0.0
  0
LINE
  5
1B0
100
AcDbEntity
  8
R-DOOR-PATT
  6
CONTINUOUS
 62
     5
100
AcDbLine
 10
16.083515
 20
31.948885
 30
0.0
 11
14.083515
 21
29.948885
 31
0.0
  0
LINE
  5
1B1
100
AcDbEntity
  8
R-DOOR-PATT
  6
CONTINUOUS
 62
     5
100
AcDbLine
 10
17.504044
 20
31.601647
 30
0.0
 11
15.851282
 21
29.948885
 31
0.0
  0
LINE
  5
1B2
100
AcDbEntity
  8
R-DOOR-PATT
  6
CONTINUOUS
 62
     5
100
AcDbLine
 10
17.40934
 20
31.948885
 30
0.0
 11
15.40934
 21
29.948885
 31
0.0
  0
LINE
  5
1B3
100
AcDbEntity
  8
R-DOOR-PATT
  6
CONTINUOUS
 62
     5
100
AcDbLine
 10
16.967398
 20
31.948885
 30
0.0
 11
14.967398
 21
29.948885
 31
0.0
  0
LINE
  5
1B4
100
AcDbEntity
  8
R-DOOR-PATT
  6
CONTINUOUS
 62
     5
100
AcDbLine
 10
13.873806
 20
31.948885
 30
0.0
 11
11.873806
 21
29.948885
 31
0.0
  0
LINE
  5
1B5
100
AcDbEntity
  8
R-DOOR-PATT
  6
CONTINUOUS
 62
     5
100
AcDbLine
 10
13.431865
 20
31.948885
 30
0.0
 11
11.504044
 21
30.021064
 31
0.0
  0
LINE
  5
1B6
100
AcDbEntity
  8
R-DOOR-PATT
  6
CONTINUOUS
 62
     5
100
AcDbLine
 10
17.504044
 20
30.275822
 30
0.0
 11
17.177107
 21
29.948885
 31
0.0
  0
LINE
  5
1B7
100
AcDbEntity
  8
0
  6
BYBLOCK
 62
     0
100
AcDbLine
 10
7.447966
 20
24.633885
 30
0.0
 11
7.447966
 21
20.83312
 31
0.0
  0
LINE
  5
1B8
100
AcDbEntity
  8
R-DOOR-DETL
 62
     3
100
AcDbLine
 10
14.568741
 20
20.877793
 30
0.0
 11
14.568741
 21
24.94899
 31
0.0
  0
LINE
  5
1B9
100
AcDbEntity
  8
R-DOOR-DETL
 62
     3
100
AcDbLine
 10
14.631241
 20
20.916524
 30
0.0
 11
14.631241
 21
24.94899
 31
0.0
  0
LINE
  5
1BA
100
AcDbEntity
  8
R-DOOR-DETL
 62
     3
100
AcDbLine
 10
14.693741
 20
20.941216
 30
0.0
 11
14.693741
 21
24.94899
 31
0.0
  0
LINE
  5
1BB
100
AcDbEntity
  8
R-DOOR-DETL
 62
     3
100
AcDbLine
 10
14.751241
 20
24.94899
 30
0.0
 11
14.751241
 21
20.92373
 31
0.0
  0
LINE
  5
1BC
100
AcDbEntity
  8
R-DOOR-DETL
 62
     3
100
AcDbLine
 10
14.318741
 20
20.876909
 30
0.0
 11
14.318741
 21
24.94899
 31
0.0
  0
LINE
  5
1BD
100
AcDbEntity
  8
R-DOOR-DETL
 62
     3
100
AcDbLine
 10
14.381241
 20
20.887989
 30
0.0
 11
14.381241
 21
24.94899
 31
0.0
  0
LINE
  5
1BE
100
AcDbEntity
  8
R-DOOR-DETL
 62
     3
100
AcDbLine
 10
14.443741
 20
20.934864
 30
0.0
 11
14.443741
 21
24.94899
 31
0.0
  0
LINE
  5
1BF
100
AcDbEntity
  8
R-DOOR-DETL
 62
     3
100
AcDbLine
 10
14.259243
 20
20.919383
 30
0.0
 11
14.259243
 21
24.94899
 31
0.0
  0
MTEXT
  5
1C0
100
AcDbEntity
  8
DIMN
  6
BYBLOCK
 62
     7
100
AcDbMText
 10
7.447966
 20
19.73062
 30
0.0
 40
0.315
 41
0.0
 71
     5
 72
     1
  1
GLASS\PCLEAR OPENING\PLESS 8 1/4"\P[210mm]
  0
LINE
  5
1C1
100
AcDbEntity
  8
R-DOOR-DETL
 62
     3
100
AcDbLine
 10
14.670783
 20
18.647893
 30
0.0
 11
14.545783
 21
18.554143
 31
0.0
  0
LINE
  5
1C2
100
AcDbEntity
  8
R-DOOR-DETL
 62
     3
100
AcDbLine
 10
14.358283
 20
18.554143
 30
0.0
 11
14.262736
 21
18.584245
 31
0.0
  0
LINE
  5
1C3
100
AcDbEntity
  8
R-DOOR-DETL
 62
     3
100
AcDbLine
 10
14.420783
 20
18.647893
 30
0.0
 11
14.358283
 21
18.554143
 31
0.0
  0
LINE
  5
1C4
100
AcDbEntity
  8
R-DOOR-DETL
 62
     3
100
AcDbLine
 10
14.545783
 20
18.554143
 30
0.0
 11
14.420783
 21
18.647893
 31
0.0
  0
LINE
  5
1C5
100
AcDbEntity
  8
R-DOOR-DETL
 62
     3
100
AcDbLine
 10
14.748162
 20
18.592655
 30
0.0
 11
14.670783
 21
18.647893
 31
0.0
  0
LINE
  5
1C6
100
AcDbEntity
  8
R-DOOR-DETL
 62
     3
100
AcDbLine
 10
14.468194
 20
20.953203
 30
0.0
 11
14.593194
 21
20.859453
 31
0.0
  0
LINE
  5
1C7
100
AcDbEntity
  8
R-DOOR-DETL
 62
     3
100
AcDbLine
 10
14.593194
 20
20.859453
 30
0.0
 11
14.655694
 21
20.953203
 31
0.0
  0
LINE
  5
1C8
100
AcDbEntity
  8
R-DOOR-DETL
 62
     3
100
AcDbLine
 10
14.259243
 20
20.919383
 30
0.0
 11
14.343194
 21
20.859453
 31
0.0
  0
LINE
  5
1C9
100
AcDbEntity
  8
R-DOOR-DETL
 62
     3
100
AcDbLine
 10
14.343194
 20
20.859453
 30
0.0
 11
14.468194
 21
20.953203
 31
0.0
  0
LINE
  5
1CA
100
AcDbEntity
  8
R-DOOR-DETL
 62
     3
100
AcDbLine
 10
14.655694
 20
20.953203
 30
0.0
 11
14.749243
 21
20.92373
 31
0.0
  0
DIMENSION
  5
1CB
100
AcDbEntity
  8
DIMN
 62
     7
100
AcDbDimension
  2
*D5
 10
7.457444
 20
29.948885
 30
0.0
 11
7.457444
 21
27.448885
 31
0.0
 12
-34.691388
 22
-5.372776
 32
0.0
  1
<>\P[127mm]
  3
STANDARD
100
AcDbAlignedDimension
 13
13.785294
 23
24.948885
 33
0.0
 14
11.504044
 24
29.948885
 34
0.0
 50
90.0
100
AcDbRotatedDimension
1001
ACAD
1000
DSTYLE
1002
{
1070
   270
1070
     7
1070
    40
1040
2.0
1002
}
  0
LINE
  5
1CC
100
AcDbEntity
  8
0
  6
BYBLOCK
 62
     0
100
AcDbLine
 10
13.894669
 20
24.948885
 30
0.0
 11
7.115109
 21
24.948885
 31
0.0
  0
LINE
  5
1CD
100
AcDbEntity
  8
0
  6
BYBLOCK
 62
     0
100
AcDbLine
 10
13.785294
 20
24.948885
 30
0.0
 11
7.132966
 21
24.948885
 31
0.0
  0
LINE
  5
1CE
100
AcDbEntity
  8
0
  6
BYBLOCK
 62
     0
100
AcDbLine
 10
14.004044
 20
24.948885
 30
0.0
 11
7.73947
 21
24.948885
 31
0.0
  0
SOLID
  5
1CF
100
AcDbEntity
  8
0
  6
BYBLOCK
 62
     0
100
AcDbTrace
 10
7.395466
 20
24.633885
 30
0.0
 11
7.500466
 21
24.633885
 31
0.0
 12
7.447966
 22
24.948885
 32
0.0
 13
7.447966
 23
24.948885
 33
0.0
  0
LINE
  5
1D0
100
AcDbEntity
  8
R-DOOR-DETL
  6
CONTINUOUS
 62
     3
100
AcDbLine
 10
15.184044
 20
26.660088
 30
0.0
 11
15.184044
 21
26.929885
 31
0.0
  0
LINE
  5
1D1
100
AcDbEntity
  8
R-DOOR-DETL
  6
CONTINUOUS
 62
     3
100
AcDbLine
 10
15.189044
 20
26.670088
 30
0.0
 11
15.189044
 21
26.840088
 31
0.0
  0
LINE
  5
1D2
100
AcDbEntity
  8
R-DOOR-DETL
  6
CONTINUOUS
 62
     3
100
AcDbLine
 10
13.824044
 20
26.929885
 30
0.0
 11
13.824044
 21
26.660088
 31
0.0
  0
LINE
  5
1D3
100
AcDbEntity
  8
R-DOOR-DETL
  6
CONTINUOUS
 62
     3
100
AcDbLine
 10
13.819044
 20
26.840088
 30
0.0
 11
13.819044
 21
26.670088
 31
0.0
  0
DIMENSION
  5
1D4
100
AcDbEntity
  8
DIMN
 62
     7
100
AcDbDimension
  2
*D6
 10
19.376995
 20
27.948885
 30
0.0
 11
18.116995
 21
27.228885
 31
0.0
 12
-34.691388
 22
-5.372776
 32
0.0
  1
<>\P[6mm]
  3
STANDARD
100
AcDbAlignedDimension
 13
16.779516
 23
28.198885
 33
0.0
 14
15.350036
 24
27.948885
 34
0.0
 50
90.0
100
AcDbRotatedDimension
1001
ACAD
1000
DSTYLE
1002
{
1070
   270
1070
     7
1070
    40
1040
2.0
1002
}
  0
LINE
  5
1D5
100
AcDbEntity
  8
R-DOOR-DETL
  6
CONTINUOUS
 62
     3
100
AcDbLine
 10
15.435036
 20
27.933885
 30
0.0
 11
15.435036
 21
24.735451
 31
0.0
  0
LINE
  5
1D6
100
AcDbEntity
  8
R-DOOR-DETL
  6
CONTINUOUS
 62
     3
100
AcDbLine
 10
13.573051
 20
24.735451
 30
0.0
 11
13.573051
 21
27.933885
 31
0.0
  0
CIRCLE
  5
1D7
100
AcDbEntity
  8
R-DOOR-DETL
  6
CONTINUOUS
 62
     3
100
AcDbCircle
 10
14.929044
 20
26.693885
 30
0.0
 40
0.1875
  0
CIRCLE
  5
1D8
100
AcDbEntity
  8
R-DOOR-DETL
  6
CONTINUOUS
 62
     3
100
AcDbCircle
 10
14.929044
 20
26.693885
 30
0.0
 40
0.1625
  0
CIRCLE
  5
1D9
100
AcDbEntity
  8
R-DOOR-DETL
  6
CONTINUOUS
 62
     3
100
AcDbCircle
 10
14.504044
 20
26.693885
 30
0.0
 40
0.1875
  0
CIRCLE
  5
1DA
100
AcDbEntity
  8
R-DOOR-DETL
  6
CONTINUOUS
 62
     3
100
AcDbCircle
 10
14.504044
 20
26.693885
 30
0.0
 40
0.1625
  0
LINE
  5
1DB
100
AcDbEntity
  8
R-DOOR-DETL
  6
CONTINUOUS
 62
     3
100
AcDbLine
 10
15.186544
 20
26.918885
 30
0.0
 11
15.186544
 21
26.368885
 31
0.0
  0
CIRCLE
  5
1DC
100
AcDbEntity
  8
R-DOOR-DETL
  6
CONTINUOUS
 62
     3
100
AcDbCircle
 10
14.079044
 20
26.693885
 30
0.0
 40
0.1625
  0
LINE
  5
1DD
100
AcDbEntity
  8
R-DOOR-DETL
  6
CONTINUOUS
 62
     3
100
AcDbLine
 10
13.821544
 20
26.918885
 30
0.0
 11
13.821544
 21
26.368885
 31
0.0
  0
CIRCLE
  5
1DE
100
AcDbEntity
  8
R-DOOR-DETL
  6
CONTINUOUS
 62
     3
100
AcDbCircle
 10
14.079044
 20
26.693885
 30
0.0
 40
0.1875
  0
LINE
  5
1DF
100
AcDbEntity
  8
R-DOOR-DETL
  6
CONTINUOUS
 62
     3
100
AcDbLine
 10
14.544106
 20
25.01399
 30
0.0
 11
14.544106
 21
25.12899
 31
0.0
  0
LINE
  5
1E0
100
AcDbEntity
  8
R-DOOR-DETL
  6
CONTINUOUS
 62
     3
100
AcDbLine
 10
14.466379
 20
25.01399
 30
0.0
 11
14.466379
 21
25.12899
 31
0.0
  0
ARC
  5
1E1
100
AcDbEntity
  8
R-DOOR-DETL
  6
CONTINUOUS
 62
     3
100
AcDbCircle
 10
14.649106
 20
25.26899
 30
0.0
 40
0.125
100
AcDbArc
 50
270.0
 51
0.0
  0
ARC
  5
1E2
100
AcDbEntity
  8
R-DOOR-DETL
  6
CONTINUOUS
 62
     3
100
AcDbCircle
 10
14.361379
 20
25.26899
 30
0.0
 40
0.125
100
AcDbArc
 50
180.0
 51
270.0
  0
LINE
  5
1E3
100
AcDbEntity
  8
R-DOOR-DETL
  6
CONTINUOUS
 62
     3
100
AcDbLine
 10
15.243678
 20
24.645546
 30
0.0
 11
14.958063
 21
25.140246
 31
0.0
  0
LINE
  5
1E4
100
AcDbEntity
  8
R-DOOR-DETL
  6
CONTINUOUS
 62
     3
100
AcDbLine
 10
14.050025
 20
25.140246
 30
0.0
 11
13.764409
 21
24.645546
 31
0.0
  0
LINE
  5
1E5
100
AcDbEntity
  8
R-DOOR-DETL
  6
CONTINUOUS
 62
     3
100
AcDbLine
 10
14.923391
 20
25.191623
 30
0.0
 11
15.201483
 21
24.728799
 31
0.0
  0
LINE
  5
1E6
100
AcDbEntity
  8
R-DOOR-DETL
  6
CONTINUOUS
 62
     3
100
AcDbLine
 10
14.087094
 20
25.191623
 30
0.0
 11
13.809001
 21
24.728799
 31
0.0
  0
LWPOLYLINE
  5
1E7
100
AcDbEntity
  8
R-DOOR-ANNO
  6
CONTINUOUS
100
AcDbPolyline
 90
        3
 70
     0
 43
0.0
 10
14.957161
 20
25.011814
 10
16.445312
 20
24.278847
 10
16.625312
 20
24.278847
1001
ACAD
1000
DSTYLE
1002
{
1070
   173
1070
     1
1070
     6
1000
_DOTSMALL
1002
}
  0
LINE
  5
1E8
100
AcDbEntity
  8
R-DOOR-DETL
  6
CONTINUOUS
 62
     3
100
AcDbLine
 10
15.424791
 20
24.692775
 30
0.0
 11
15.056629
 21
23.970218
 31
0.0
  0
LINE
  5
1E9
100
AcDbEntity
  8
R-DOOR-DETL
  6
CONTINUOUS
 62
     3
100
AcDbLine
 10
14.988416
 20
24.031678
 30
0.0
 11
15.245579
 21
24.609276
 31
0.0
  0
LINE
  5
1EA
100
AcDbEntity
  8
R-DOOR-DETL
  6
CONTINUOUS
 62
     3
100
AcDbLine
 10
13.762508
 20
24.609276
 30
0.0
 11
14.019671
 21
24.031678
 31
0.0
  0
LINE
  5
1EB
100
AcDbEntity
  8
R-DOOR-DETL
  6
CONTINUOUS
 62
     3
100
AcDbLine
 10
14.969551
 20
24.618663
 30
0.0
 11
14.947159
 21
24.127933
 31
0.0
  0
LINE
  5
1EC
100
AcDbEntity
  8
R-DOOR-DETL
  6
CONTINUOUS
 62
     3
100
AcDbLine
 10
14.040934
 20
24.618663
 30
0.0
 11
14.063325
 21
24.127933
 31
0.0
  0
LINE
  5
1ED
100
AcDbEntity
  8
R-DOOR-DETL
  6
CONTINUOUS
 62
     3
100
AcDbLine
 10
13.951458
 20
23.970218
 30
0.0
 11
13.583297
 21
24.692775
 31
0.0
  0
LINE
  5
1EE
100
AcDbEntity
  8
R-DOOR-DETL
  6
CONTINUOUS
 62
     3
100
AcDbLine
 10
14.801241
 20
24.13728
 30
0.0
 11
14.801241
 21
24.989148
 31
0.0
  0
LINE
  5
1EF
100
AcDbEntity
  8
R-DOOR-DETL
  6
CONTINUOUS
 62
     3
100
AcDbLine
 10
14.209243
 20
24.13728
 30
0.0
 11
14.209243
 21
24.989148
 31
0.0
  0
LINE
  5
1F0
100
AcDbEntity
  8
R-DOOR-DETL
 62
     3
100
AcDbLine
 10
14.751241
 20
24.13728
 30
0.0
 11
14.751241
 21
24.88728
 31
0.0
  0
LINE
  5
1F1
100
AcDbEntity
  8
R-DOOR-DETL
 62
     3
100
AcDbLine
 10
14.801241
 20
24.88728
 30
0.0
 11
14.801241
 21
24.13728
 31
0.0
  0
LINE
  5
1F2
100
AcDbEntity
  8
R-DOOR-DETL
 62
     3
100
AcDbLine
 10
14.259243
 20
24.13728
 30
0.0
 11
14.259243
 21
24.88728
 31
0.0
  0
LINE
  5
1F3
100
AcDbEntity
  8
R-DOOR-DETL
 62
     3
100
AcDbLine
 10
14.209243
 20
24.88728
 30
0.0
 11
14.209243
 21
24.13728
 31
0.0
  0
ARC
  5
1F4
100
AcDbEntity
  8
R-DOOR-DETL
  6
CONTINUOUS
 62
     3
100
AcDbCircle
 10
14.951874
 20
24.047948
 30
0.0
 40
0.04
100
AcDbArc
 50
270.0
 51
336.0
  0
ARC
  5
1F5
100
AcDbEntity
  8
R-DOOR-DETL
  6
CONTINUOUS
 62
     3
100
AcDbCircle
 10
14.806959
 20
23.998105
 30
0.0
 40
0.009842
100
AcDbArc
 50
90.0
 51
180.0
  0
LINE
  5
1F6
100
AcDbEntity
  8
R-DOOR-DETL
  6
CONTINUOUS
 62
     3
100
AcDbLine
 10
14.806959
 20
24.007948
 30
0.0
 11
14.951874
 21
24.007948
 31
0.0
  0
ARC
  5
1F7
100
AcDbEntity
  8
R-DOOR-DETL
  6
CONTINUOUS
 62
     3
100
AcDbCircle
 10
14.201129
 20
23.998105
 30
0.0
 40
0.009843
100
AcDbArc
 50
0.0
 51
90.0
  0
LINE
  5
1F8
100
AcDbEntity
  8
R-DOOR-DETL
  6
CONTINUOUS
 62
     3
100
AcDbLine
 10
14.056213
 20
24.007948
 30
0.0
 11
14.201129
 21
24.007948
 31
0.0
  0
ARC
  5
1F9
100
AcDbEntity
  8
R-DOOR-DETL
  6
CONTINUOUS
 62
     3
100
AcDbCircle
 10
14.056213
 20
24.047948
 30
0.0
 40
0.04
100
AcDbArc
 50
204.0
 51
270.0
  0
ARC
  5
1FA
100
AcDbEntity
  8
R-DOOR-DETL
  6
CONTINUOUS
 62
     3
100
AcDbCircle
 10
14.907201
 20
24.129756
 30
0.0
 40
0.04
100
AcDbArc
 50
270.0
 51
357.387498
  0
LINE
  5
1FB
100
AcDbEntity
  8
R-DOOR-DETL
 62
     3
100
AcDbLine
 10
14.801241
 20
24.13728
 30
0.0
 11
14.751241
 21
24.13728
 31
0.0
  0
ARC
  5
1FC
100
AcDbEntity
  8
R-DOOR-DETL
  6
CONTINUOUS
 62
     3
100
AcDbCircle
 10
14.791399
 20
24.13728
 30
0.0
 40
0.009842
100
AcDbArc
 50
289.471221
 51
360.0
  0
ARC
  5
1FD
100
AcDbEntity
  8
R-DOOR-DETL
  6
CONTINUOUS
 62
     3
100
AcDbCircle
 10
14.801241
 20
24.109441
 30
0.0
 40
0.019685
100
AcDbArc
 50
109.471221
 51
270.0
  0
LINE
  5
1FE
100
AcDbEntity
  8
R-DOOR-DETL
  6
CONTINUOUS
 62
     3
100
AcDbLine
 10
14.907201
 20
24.089756
 30
0.0
 11
14.801241
 21
24.089756
 31
0.0
  0
ARC
  5
1FF
100
AcDbEntity
  8
R-DOOR-DETL
  6
CONTINUOUS
 62
     3
100
AcDbCircle
 10
14.219086
 20
24.13728
 30
0.0
 40
0.009842
100
AcDbArc
 50
180.0
 51
250.528779
  0
ARC
  5
200
100
AcDbEntity
  8
R-DOOR-DETL
  6
CONTINUOUS
 62
     3
100
AcDbCircle
 10
14.209243
 20
24.109441
 30
0.0
 40
0.019685
100
AcDbArc
 50
270.0
 51
70.528779
  0
LINE
  5
201
100
AcDbEntity
  8
R-DOOR-DETL
  6
CONTINUOUS
 62
     3
100
AcDbLine
 10
14.103284
 20
24.089756
 30
0.0
 11
14.209243
 21
24.089756
 31
0.0
  0
ARC
  5
202
100
AcDbEntity
  8
R-DOOR-DETL
  6
CONTINUOUS
 62
     3
100
AcDbCircle
 10
14.103284
 20
24.129756
 30
0.0
 40
0.04
100
AcDbArc
 50
182.612502
 51
270.0
  0
LINE
  5
203
100
AcDbEntity
  8
R-DOOR-DETL
 62
     3
100
AcDbLine
 10
14.209243
 20
24.13728
 30
0.0
 11
14.259243
 21
24.13728
 31
0.0
  0
ARC
  5
204
100
AcDbEntity
  8
R-DOOR-DETL
  6
CONTINUOUS
 62
     3
100
AcDbCircle
 10
14.807116
 20
23.928893
 30
0.0
 40
0.01
100
AcDbArc
 50
180.0
 51
270.0
  0
LINE
  5
205
100
AcDbEntity
  8
R-DOOR-DETL
  6
CONTINUOUS
 62
     3
100
AcDbLine
 10
14.972875
 20
23.918893
 30
0.0
 11
14.807116
 21
23.918893
 31
0.0
  0
ARC
  5
206
100
AcDbEntity
  8
R-DOOR-DETL
  6
CONTINUOUS
 62
     3
100
AcDbCircle
 10
14.200971
 20
23.928893
 30
0.0
 40
0.01
100
AcDbArc
 50
270.0
 51
360.0
  0
LINE
  5
207
100
AcDbEntity
  8
R-DOOR-DETL
  6
CONTINUOUS
 62
     3
100
AcDbLine
 10
14.200971
 20
23.918893
 30
0.0
 11
14.035213
 21
23.918893
 31
0.0
  0
LINE
  5
208
100
AcDbEntity
  8
R-DOOR-DETL
  6
CONTINUOUS
 62
     3
100
AcDbLine
 10
14.797116
 20
23.928893
 30
0.0
 11
14.797116
 21
23.998105
 31
0.0
  0
ARC
  5
209
100
AcDbEntity
  8
R-DOOR-DETL
  6
CONTINUOUS
 62
     3
100
AcDbCircle
 10
14.972875
 20
24.012893
 30
0.0
 40
0.094
100
AcDbArc
 50
270.0
 51
333.0
  0
LINE
  5
20A
100
AcDbEntity
  8
R-DOOR-DETL
  6
CONTINUOUS
 62
     3
100
AcDbLine
 10
14.210971
 20
23.998105
 30
0.0
 11
14.210971
 21
23.928893
 31
0.0
  0
ARC
  5
20B
100
AcDbEntity
  8
R-DOOR-DETL
  6
CONTINUOUS
 62
     3
100
AcDbCircle
 10
14.035213
 20
24.012893
 30
0.0
 40
0.094
100
AcDbArc
 50
207.0
 51
270.0
  0
LINE
  5
20C
100
AcDbEntity
  8
R-DOOR-DETL
 62
     3
100
AcDbLine
 10
14.751241
 20
24.88728
 30
0.0
 11
14.801241
 21
24.88728
 31
0.0
  0
LINE
  5
20D
100
AcDbEntity
  8
R-DOOR-DETL
 62
     3
100
AcDbLine
 10
14.259243
 20
24.88728
 30
0.0
 11
14.209243
 21
24.88728
 31
0.0
  0
INSERT
  5
20E
100
AcDbEntity
  8
R-DOOR-ANNO
  6
CONTINUOUS
100
AcDbBlockReference
  2
_DOTSMALL
 10
14.957161
 20
25.011814
 30
0.0
 41
0.18
 42
0.18
 43
0.18
 50
90.385713
1001
ACAD
1000
DSTYLE
1002
{
1070
   173
1070
     1
1070
     6
1000
_DOTSMALL
1002
}
  0
LINE
  5
20F
100
AcDbEntity
  8
R-DOOR-DETL
 62
     3
100
AcDbLine
 10
14.791399
 20
24.99899
 30
0.0
 11
14.791399
 21
24.94899
 31
0.0
  0
ARC
  5
210
100
AcDbEntity
  8
R-DOOR-DETL
  6
CONTINUOUS
 62
     3
100
AcDbCircle
 10
14.791399
 20
24.989148
 30
0.0
 40
0.009842
100
AcDbArc
 50
360.0
 51
90.0
  0
LINE
  5
211
100
AcDbEntity
  8
R-DOOR-DETL
 62
     3
100
AcDbLine
 10
14.464322
 20
24.94899
 30
0.0
 11
14.464322
 21
24.99899
 31
0.0
  0
LINE
  5
212
100
AcDbEntity
  8
R-DOOR-DETL
 62
     3
100
AcDbLine
 10
14.541399
 20
24.94899
 30
0.0
 11
14.541399
 21
24.99899
 31
0.0
  0
ARC
  5
213
100
AcDbEntity
  8
R-DOOR-DETL
  6
CONTINUOUS
 62
     3
100
AcDbCircle
 10
14.559106
 20
25.01399
 30
0.0
 40
0.015
100
AcDbArc
 50
180.0
 51
270.0
  0
ARC
  5
214
100
AcDbEntity
  8
R-DOOR-DETL
  6
CONTINUOUS
 62
     3
100
AcDbCircle
 10
14.451379
 20
25.01399
 30
0.0
 40
0.015
100
AcDbArc
 50
270.0
 51
0.0
  0
LINE
  5
215
100
AcDbEntity
  8
R-DOOR-DETL
 62
     3
100
AcDbLine
 10
14.318741
 20
24.94899
 30
0.0
 11
14.693741
 21
24.94899
 31
0.0
  0
LINE
  5
216
100
AcDbEntity
  8
R-DOOR-DETL
 62
     3
100
AcDbLine
 10
14.791399
 20
24.94899
 30
0.0
 11
14.541399
 21
24.94899
 31
0.0
  0
LINE
  5
217
100
AcDbEntity
  8
R-DOOR-DETL
 62
     3
100
AcDbLine
 10
14.541399
 20
24.99899
 30
0.0
 11
14.791399
 21
24.99899
 31
0.0
  0
LINE
  5
218
100
AcDbEntity
  8
R-DOOR-DETL
  6
CONTINUOUS
 62
     3
100
AcDbLine
 10
14.791399
 20
24.99899
 30
0.0
 11
14.559106
 21
24.99899
 31
0.0
  0
LINE
  5
219
100
AcDbEntity
  8
R-DOOR-DETL
 62
     3
100
AcDbLine
 10
14.749243
 20
24.94899
 30
0.0
 11
14.259243
 21
24.94899
 31
0.0
  0
LINE
  5
21A
100
AcDbEntity
  8
R-DOOR-DETL
 62
     3
100
AcDbLine
 10
14.261241
 20
24.94899
 30
0.0
 11
14.751241
 21
24.94899
 31
0.0
  0
LINE
  5
21B
100
AcDbEntity
  8
R-DOOR-DETL
 62
     3
100
AcDbLine
 10
14.214322
 20
24.99899
 30
0.0
 11
14.214322
 21
24.94899
 31
0.0
  0
POINT
  5
21C
100
AcDbEntity
  8
DEFPOINTS
  6
BYBLOCK
 62
     0
100
AcDbPoint
 10
14.129044
 20
24.948885
 30
0.0
  0
POINT
  5
21D
100
AcDbEntity
  8
DEFPOINTS
  6
BYBLOCK
 62
     0
100
AcDbPoint
 10
14.004044
 20
24.948885
 30
0.0
  0
POINT
  5
21E
100
AcDbEntity
  8
DEFPOINTS
  6
BYBLOCK
 62
     0
100
AcDbPoint
 10
13.894669
 20
24.948885
 30
0.0
  0
ARC
  5
21F
100
AcDbEntity
  8
R-DOOR-DETL
  6
CONTINUOUS
 62
     3
100
AcDbCircle
 10
14.219086
 20
24.989148
 30
0.0
 40
0.009843
100
AcDbArc
 50
90.0
 51
180.0
  0
LINE
  5
220
100
AcDbEntity
  8
R-DOOR-DETL
  6
CONTINUOUS
 62
     3
100
AcDbLine
 10
14.219086
 20
24.99899
 30
0.0
 11
14.451379
 21
24.99899
 31
0.0
  0
LINE
  5
221
100
AcDbEntity
  8
R-DOOR-DETL
 62
     3
100
AcDbLine
 10
14.214322
 20
24.94899
 30
0.0
 11
14.464322
 21
24.94899
 31
0.0
  0
LINE
  5
222
100
AcDbEntity
  8
R-DOOR-DETL
 62
     3
100
AcDbLine
 10
14.464322
 20
24.99899
 30
0.0
 11
14.214322
 21
24.99899
 31
0.0
  0
LINE
  5
223
100
AcDbEntity
  8
R-DOOR-DETL
  6
CONTINUOUS
 62
     3
100
AcDbLine
 10
15.115767
 20
24.647295
 30
0.0
 11
14.99952
 21
24.647295
 31
0.0
  0
ARC
  5
224
100
AcDbEntity
  8
R-DOOR-DETL
  6
CONTINUOUS
 62
     3
100
AcDbCircle
 10
14.99952
 20
24.617295
 30
0.0
 40
0.03
100
AcDbArc
 50
90.0
 51
177.387498
  0
ARC
  5
225
100
AcDbEntity
  8
R-DOOR-DETL
  6
CONTINUOUS
 62
     3
100
AcDbCircle
 10
15.209037
 20
24.625546
 30
0.0
 40
0.04
100
AcDbArc
 50
336.0
 51
30.0
  0
LINE
  5
226
100
AcDbEntity
  8
R-DOOR-DETL
  6
CONTINUOUS
 62
     3
100
AcDbLine
 10
15.191219
 20
24.687633
 30
0.0
 11
15.131218
 21
24.65158
 31
0.0
  0
ARC
  5
227
100
AcDbEntity
  8
R-DOOR-DETL
  6
CONTINUOUS
 62
     3
100
AcDbCircle
 10
15.115767
 20
24.677295
 30
0.0
 40
0.03
100
AcDbArc
 50
270.0
 51
301.0
  0
ARC
  5
228
100
AcDbEntity
  8
R-DOOR-DETL
  6
CONTINUOUS
 62
     3
100
AcDbCircle
 10
15.175768
 20
24.713348
 30
0.0
 40
0.03
100
AcDbArc
 50
301.0
 51
31.0
  0
ARC
  5
229
100
AcDbEntity
  8
R-DOOR-DETL
  6
CONTINUOUS
 62
     3
100
AcDbCircle
 10
15.341036
 20
24.735451
 30
0.0
 40
0.094
100
AcDbArc
 50
333.0
 51
360.0
  0
LINE
  5
22A
100
AcDbEntity
  8
R-DOOR-DETL
  6
CONTINUOUS
 62
     3
100
AcDbLine
 10
13.819265
 20
24.687633
 30
0.0
 11
13.879267
 21
24.65158
 31
0.0
  0
ARC
  5
22B
100
AcDbEntity
  8
R-DOOR-DETL
  6
CONTINUOUS
 62
     3
100
AcDbCircle
 10
13.79905
 20
24.625546
 30
0.0
 40
0.04
100
AcDbArc
 50
150.0
 51
204.0
  0
LINE
  5
22C
100
AcDbEntity
  8
R-DOOR-DETL
  6
CONTINUOUS
 62
     3
100
AcDbLine
 10
13.894718
 20
24.647295
 30
0.0
 11
14.010965
 21
24.647295
 31
0.0
  0
ARC
  5
22D
100
AcDbEntity
  8
R-DOOR-DETL
  6
CONTINUOUS
 62
     3
100
AcDbCircle
 10
13.894718
 20
24.677295
 30
0.0
 40
0.03
100
AcDbArc
 50
239.0
 51
270.0
  0
ARC
  5
22E
100
AcDbEntity
  8
R-DOOR-DETL
  6
CONTINUOUS
 62
     3
100
AcDbCircle
 10
14.010965
 20
24.617295
 30
0.0
 40
0.03
100
AcDbArc
 50
2.612502
 51
90.0
  0
ARC
  5
22F
100
AcDbEntity
  8
R-DOOR-DETL
  6
CONTINUOUS
 62
     3
100
AcDbCircle
 10
13.834716
 20
24.713348
 30
0.0
 40
0.03
100
AcDbArc
 50
149.0
 51
239.0
  0
ARC
  5
230
100
AcDbEntity
  8
R-DOOR-DETL
  6
CONTINUOUS
 62
     3
100
AcDbCircle
 10
13.667051
 20
24.735451
 30
0.0
 40
0.094
100
AcDbArc
 50
180.0
 51
207.0
  0
ARC
  5
231
100
AcDbEntity
  8
R-DOOR-DETL
  6
CONTINUOUS
 62
     3
100
AcDbCircle
 10
13.667051
 20
24.735451
 30
0.0
 40
0.094
100
AcDbArc
 50
180.0
 51
207.0
  0
TEXT
  5
232
100
AcDbEntity
  8
0
100
AcDbText
 10
16.683883
 20
24.098847
 30
0.0
 40
0.36
  1
GLASS CLAMP
  7
ROMANS
100
AcDbText
  0
LINE
  5
233
100
AcDbEntity
  8
R-DOOR-DETL
  6
CONTINUOUS
 62
     3
100
AcDbLine
 10
15.007332
 20
26.087885
 30
0.0
 11
15.007332
 21
25.927843
 31
0.0
  0
LINE
  5
234
100
AcDbEntity
  8
R-DOOR-DETL
  6
CONTINUOUS
 62
     3
100
AcDbLine
 10
14.000755
 20
25.927843
 30
0.0
 11
14.000755
 21
26.087885
 31
0.0
  0
LINE
  5
235
100
AcDbEntity
  8
R-DOOR-ANNO
  6
CONTINUOUS
100
AcDbLine
 10
13.639604
 20
26.041924
 30
0.0
 11
12.568551
 21
25.446034
 31
0.0
1001
ACAD
1000
DSTYLE
1002
{
1070
   173
1070
     1
1070
     6
1000
_DOTSMALL
1002
}
  0
LINE
  5
236
100
AcDbEntity
  8
R-DOOR-ANNO
  6
CONTINUOUS
100
AcDbLine
 10
12.568551
 20
25.446034
 30
0.0
 11
12.388552
 21
25.446636
 31
0.0
1001
ACAD
1000
DSTYLE
1002
{
1070
   173
1070
     1
1070
     6
1000
_DOTSMALL
1002
}
  0
TEXT
  5
237
100
AcDbEntity
  8
0
100
AcDbText
 10
10.929399
 20
25.259575
 30
0.0
 40
0.36
  1
SHOE
  7
ROMANS
100
AcDbText
  0
ARC
  5
238
100
AcDbEntity
  8
R-DOOR-DETL
  6
CONTINUOUS
 62
     3
100
AcDbCircle
 10
15.118036
 20
25.839584
 30
0.0
 40
0.059055
100
AcDbArc
 50
241.689936
 51
130.814986
  0
ARC
  5
239
100
AcDbEntity
  8
R-DOOR-DETL
  6
CONTINUOUS
 62
     3
100
AcDbCircle
 10
15.057483
 20
25.75068
 30
0.0
 40
0.049213
100
AcDbArc
 50
48.596013
 51
99.750077
  0
ARC
  5
23A
100
AcDbEntity
  8
R-DOOR-DETL
  6
CONTINUOUS
 62
     3
100
AcDbCircle
 10
15.056545
 20
25.927843
 30
0.0
 40
0.049213
100
AcDbArc
 50
180.0
 51
297.721062
  0
LINE
  5
23B
100
AcDbEntity
  8
R-DOOR-DETL
  6
CONTINUOUS
 62
     3
100
AcDbLine
 10
15.049148
 20
25.799182
 30
0.0
 11
14.504044
 21
25.799182
 31
0.0
  0
ARC
  5
23C
100
AcDbEntity
  8
R-DOOR-DETL
  6
CONTINUOUS
 62
     3
100
AcDbCircle
 10
13.890051
 20
25.839584
 30
0.0
 40
0.059055
100
AcDbArc
 50
49.185014
 51
298.310064
  0
ARC
  5
23D
100
AcDbEntity
  8
R-DOOR-DETL
  6
CONTINUOUS
 62
     3
100
AcDbCircle
 10
13.951543
 20
25.927843
 30
0.0
 40
0.049213
100
AcDbArc
 50
242.278938
 51
0.0
  0
ARC
  5
23E
100
AcDbEntity
  8
R-DOOR-DETL
  6
CONTINUOUS
 62
     3
100
AcDbCircle
 10
13.950605
 20
25.75068
 30
0.0
 40
0.049212
100
AcDbArc
 50
80.249923
 51
131.403987
  0
LINE
  5
23F
100
AcDbEntity
  8
R-DOOR-DETL
  6
CONTINUOUS
 62
     3
100
AcDbLine
 10
14.504044
 20
25.799182
 30
0.0
 11
13.958939
 21
25.799182
 31
0.0
  0
ARC
  5
240
100
AcDbEntity
  8
R-DOOR-DETL
  6
CONTINUOUS
 62
     3
100
AcDbCircle
 10
14.894044
 20
25.589182
 30
0.0
 40
0.06
100
AcDbArc
 50
0.0
 51
90.0
  0
ARC
  5
241
100
AcDbEntity
  8
R-DOOR-DETL
  6
CONTINUOUS
 62
     3
100
AcDbCircle
 10
14.759106
 20
25.39599
 30
0.0
 40
0.015
100
AcDbArc
 50
0.0
 51
90.0
  0
ARC
  5
242
100
AcDbEntity
  8
R-DOOR-DETL
  6
CONTINUOUS
 62
     3
100
AcDbCircle
 10
14.825106
 20
25.46199
 30
0.0
 40
0.094
100
AcDbArc
 50
0.0
 51
90.0
  0
ARC
  5
243
100
AcDbEntity
  8
R-DOOR-DETL
  6
CONTINUOUS
 62
     3
100
AcDbCircle
 10
14.949106
 20
25.207074
 30
0.0
 40
0.03
100
AcDbArc
 50
180.0
 51
211.0
  0
LINE
  5
244
100
AcDbEntity
  8
R-DOOR-DETL
  6
CONTINUOUS
 62
     3
100
AcDbLine
 10
14.919106
 20
25.46199
 30
0.0
 11
14.919106
 21
25.207074
 31
0.0
  0
LINE
  5
245
100
AcDbEntity
  8
R-DOOR-DETL
  6
CONTINUOUS
 62
     3
100
AcDbLine
 10
14.774106
 20
25.26899
 30
0.0
 11
14.774106
 21
25.39599
 31
0.0
  0
LINE
  5
246
100
AcDbEntity
  8
R-DOOR-DETL
 62
     3
100
AcDbLine
 10
14.759027
 20
25.27535
 30
0.0
 11
14.759027
 21
25.40035
 31
0.0
  0
LINE
  5
247
100
AcDbEntity
  8
R-DOOR-DETL
  6
CONTINUOUS
 62
     3
100
AcDbLine
 10
14.658106
 20
25.42599
 30
0.0
 11
14.658106
 21
25.54099
 31
0.0
  0
ARC
  5
248
100
AcDbEntity
  8
R-DOOR-DETL
  6
CONTINUOUS
 62
     3
100
AcDbCircle
 10
14.673106
 20
25.42599
 30
0.0
 40
0.015
100
AcDbArc
 50
180.0
 51
270.0
  0
ARC
  5
249
100
AcDbEntity
  8
R-DOOR-DETL
  6
CONTINUOUS
 62
     3
100
AcDbCircle
 10
14.673106
 20
25.54099
 30
0.0
 40
0.015
100
AcDbArc
 50
90.0
 51
180.0
  0
ARC
  5
24A
100
AcDbEntity
  8
R-DOOR-DETL
  6
CONTINUOUS
 62
     3
100
AcDbCircle
 10
14.337379
 20
25.42599
 30
0.0
 40
0.015
100
AcDbArc
 50
270.0
 51
360.0
  0
ARC
  5
24B
100
AcDbEntity
  8
R-DOOR-DETL
  6
CONTINUOUS
 62
     3
100
AcDbCircle
 10
14.337379
 20
25.54099
 30
0.0
 40
0.015
100
AcDbArc
 50
0.0
 51
90.0
  0
LINE
  5
24C
100
AcDbEntity
  8
R-DOOR-DETL
  6
CONTINUOUS
 62
     3
100
AcDbLine
 10
14.251379
 20
25.41099
 30
0.0
 11
14.337379
 21
25.41099
 31
0.0
  0
LINE
  5
24D
100
AcDbEntity
  8
R-DOOR-DETL
  6
CONTINUOUS
 62
     3
100
AcDbLine
 10
14.352379
 20
25.42599
 30
0.0
 11
14.352379
 21
25.54099
 31
0.0
  0
LINE
  5
24E
100
AcDbEntity
  8
R-DOOR-DETL
 62
     3
100
AcDbLine
 10
14.259027
 20
25.27535
 30
0.0
 11
14.259027
 21
25.40035
 31
0.0
  0
LINE
  5
24F
100
AcDbEntity
  8
R-DOOR-DETL
  6
CONTINUOUS
 62
     3
100
AcDbLine
 10
14.40918
 20
25.365215
 30
0.0
 11
14.59718
 21
25.365215
 31
0.0
  0
LINE
  5
250
100
AcDbEntity
  8
R-DOOR-DETL
  6
CONTINUOUS
 62
     3
100
AcDbLine
 10
14.37918
 20
25.335215
 30
0.0
 11
14.62718
 21
25.335215
 31
0.0
  0
LINE
  5
251
100
AcDbEntity
  8
R-DOOR-DETL
  6
CONTINUOUS
 62
     3
100
AcDbLine
 10
14.40918
 20
25.425215
 30
0.0
 11
14.59718
 21
25.425215
 31
0.0
  0
LINE
  5
252
100
AcDbEntity
  8
R-DOOR-DETL
  6
CONTINUOUS
 62
     3
100
AcDbLine
 10
14.40918
 20
25.545215
 30
0.0
 11
14.59718
 21
25.545215
 31
0.0
  0
LINE
  5
253
100
AcDbEntity
  8
R-DOOR-DETL
  6
CONTINUOUS
 62
     3
100
AcDbLine
 10
14.40918
 20
25.605215
 30
0.0
 11
14.59718
 21
25.605215
 31
0.0
  0
LINE
  5
254
100
AcDbEntity
  8
R-DOOR-DETL
  6
CONTINUOUS
 62
     3
100
AcDbLine
 10
14.40918
 20
25.485215
 30
0.0
 11
14.59718
 21
25.485215
 31
0.0
  0
LINE
  5
255
100
AcDbEntity
  8
R-DOOR-DETL
  6
CONTINUOUS
 62
     3
100
AcDbLine
 10
14.37918
 20
25.455215
 30
0.0
 11
14.62718
 21
25.455215
 31
0.0
  0
LINE
  5
256
100
AcDbEntity
  8
R-DOOR-DETL
  6
CONTINUOUS
 62
     3
100
AcDbLine
 10
14.37918
 20
25.575215
 30
0.0
 11
14.62718
 21
25.575215
 31
0.0
  0
LINE
  5
257
100
AcDbEntity
  8
R-DOOR-DETL
  6
CONTINUOUS
 62
     3
100
AcDbLine
 10
14.37918
 20
25.515215
 30
0.0
 11
14.62718
 21
25.515215
 31
0.0
  0
LINE
  5
258
100
AcDbEntity
  8
R-DOOR-DETL
  6
CONTINUOUS
 62
     3
100
AcDbLine
 10
14.37918
 20
25.395215
 30
0.0
 11
14.62718
 21
25.395215
 31
0.0
  0
LINE
  5
259
100
AcDbEntity
  8
R-DOOR-DETL
  6
CONTINUOUS
 62
     3
100
AcDbLine
 10
14.37918
 20
25.635215
 30
0.0
 11
14.62718
 21
25.635215
 31
0.0
  0
LINE
  5
25A
100
AcDbEntity
  8
R-DOOR-DETL
  6
CONTINUOUS
 62
     3
100
AcDbLine
 10
14.62718
 20
25.649182
 30
0.0
 11
14.37918
 21
25.649182
 31
0.0
  0
LINE
  5
25B
100
AcDbEntity
  8
R-DOOR-DETL
  6
CONTINUOUS
 62
     3
100
AcDbLine
 10
14.40918
 20
25.245215
 30
0.0
 11
14.59718
 21
25.245215
 31
0.0
  0
LINE
  5
25C
100
AcDbEntity
  8
R-DOOR-DETL
  6
CONTINUOUS
 62
     3
100
AcDbLine
 10
14.40918
 20
25.305215
 30
0.0
 11
14.59718
 21
25.305215
 31
0.0
  0
LINE
  5
25D
100
AcDbEntity
  8
R-DOOR-DETL
  6
CONTINUOUS
 62
     3
100
AcDbLine
 10
14.37918
 20
25.275215
 30
0.0
 11
14.62718
 21
25.275215
 31
0.0
  0
LINE
  5
25E
100
AcDbEntity
  8
R-DOOR-DETL
  6
CONTINUOUS
 62
     3
100
AcDbLine
 10
14.759106
 20
25.41099
 30
0.0
 11
14.673106
 21
25.41099
 31
0.0
  0
LINE
  5
25F
100
AcDbEntity
  8
R-DOOR-DETL
  6
CONTINUOUS
 62
     3
100
AcDbLine
 10
14.673106
 20
25.55599
 30
0.0
 11
14.825106
 21
25.55599
 31
0.0
  0
LINE
  5
260
100
AcDbEntity
  8
R-DOOR-DETL
  6
CONTINUOUS
 62
     3
100
AcDbLine
 10
14.894044
 20
25.649182
 30
0.0
 11
14.504044
 21
25.649182
 31
0.0
  0
LINE
  5
261
100
AcDbEntity
  8
R-DOOR-DETL
 62
     3
100
AcDbLine
 10
14.259027
 20
25.40035
 30
0.0
 11
14.759027
 21
25.40035
 31
0.0
  0
LINE
  5
262
100
AcDbEntity
  8
R-DOOR-DETL
 62
     3
100
AcDbLine
 10
14.259027
 20
25.27535
 30
0.0
 11
14.759027
 21
25.27535
 31
0.0
  0
ARC
  5
263
100
AcDbEntity
  8
R-DOOR-DETL
  6
CONTINUOUS
 62
     3
100
AcDbCircle
 10
14.185379
 20
25.46199
 30
0.0
 40
0.094
100
AcDbArc
 50
90.0
 51
180.0
  0
ARC
  5
264
100
AcDbEntity
  8
R-DOOR-DETL
  6
CONTINUOUS
 62
     3
100
AcDbCircle
 10
14.114044
 20
25.589182
 30
0.0
 40
0.06
100
AcDbArc
 50
90.0
 51
180.0
  0
ARC
  5
265
100
AcDbEntity
  8
R-DOOR-DETL
  6
CONTINUOUS
 62
     3
100
AcDbCircle
 10
14.061379
 20
25.207074
 30
0.0
 40
0.03
100
AcDbArc
 50
329.0
 51
0.0
  0
LINE
  5
266
100
AcDbEntity
  8
R-DOOR-DETL
  6
CONTINUOUS
 62
     3
100
AcDbLine
 10
14.236379
 20
25.26899
 30
0.0
 11
14.236379
 21
25.39599
 31
0.0
  0
LINE
  5
267
100
AcDbEntity
  8
R-DOOR-DETL
  6
CONTINUOUS
 62
     3
100
AcDbLine
 10
14.091379
 20
25.46199
 30
0.0
 11
14.091379
 21
25.207074
 31
0.0
  0
ARC
  5
268
100
AcDbEntity
  8
R-DOOR-DETL
  6
CONTINUOUS
 62
     3
100
AcDbCircle
 10
14.251379
 20
25.39599
 30
0.0
 40
0.015
100
AcDbArc
 50
90.0
 51
180.0
  0
LINE
  5
269
100
AcDbEntity
  8
R-DOOR-DETL
  6
CONTINUOUS
 62
     3
100
AcDbLine
 10
14.337379
 20
25.55599
 30
0.0
 11
14.185379
 21
25.55599
 31
0.0
  0
LINE
  5
26A
100
AcDbEntity
  8
R-DOOR-DETL
  6
CONTINUOUS
 62
     3
100
AcDbLine
 10
14.504044
 20
25.649182
 30
0.0
 11
14.114044
 21
25.649182
 31
0.0
  0
LINE
  5
26B
100
AcDbEntity
  8
R-DOOR-DETL
  6
CONTINUOUS
 62
     3
100
AcDbLine
 10
14.958063
 20
25.140246
 30
0.0
 11
14.954044
 21
25.147207
 31
0.0
  0
ARC
  5
26C
100
AcDbEntity
  8
R-DOOR-DETL
  6
CONTINUOUS
 62
     3
100
AcDbCircle
 10
14.984044
 20
25.155246
 30
0.0
 40
0.03
100
AcDbArc
 50
180.0
 51
210.0
  0
LINE
  5
26D
100
AcDbEntity
  8
R-DOOR-DETL
  6
CONTINUOUS
 62
     3
100
AcDbLine
 10
14.559106
 20
25.14399
 30
0.0
 11
14.649106
 21
25.14399
 31
0.0
  0
ARC
  5
26E
100
AcDbEntity
  8
R-DOOR-DETL
  6
CONTINUOUS
 62
     3
100
AcDbCircle
 10
14.559106
 20
25.12899
 30
0.0
 40
0.015
100
AcDbArc
 50
90.0
 51
180.0
  0
LINE
  5
26F
100
AcDbEntity
  8
R-DOOR-DETL
  6
CONTINUOUS
 62
     3
100
AcDbLine
 10
14.451379
 20
25.14399
 30
0.0
 11
14.361379
 21
25.14399
 31
0.0
  0
ARC
  5
270
100
AcDbEntity
  8
R-DOOR-DETL
  6
CONTINUOUS
 62
     3
100
AcDbCircle
 10
14.451379
 20
25.12899
 30
0.0
 40
0.015
100
AcDbArc
 50
360.0
 51
90.0
  0
ARC
  5
271
100
AcDbEntity
  8
R-DOOR-DETL
  6
CONTINUOUS
 62
     3
100
AcDbCircle
 10
14.024044
 20
25.155246
 30
0.0
 40
0.03
100
AcDbArc
 50
330.0
 51
360.0
  0
LINE
  5
272
100
AcDbEntity
  8
R-DOOR-DETL
  6
CONTINUOUS
 62
     3
100
AcDbLine
 10
14.954044
 20
25.155246
 30
0.0
 11
14.954044
 21
25.589182
 31
0.0
  0
LINE
  5
273
100
AcDbEntity
  8
R-DOOR-DETL
  6
CONTINUOUS
 62
     3
100
AcDbLine
 10
14.054044
 20
25.589182
 30
0.0
 11
14.054044
 21
25.155246
 31
0.0
  0
LINE
  5
274
100
AcDbEntity
  8
R-DOOR-DETL
  6
CONTINUOUS
 62
     3
100
AcDbLine
 10
14.958234
 20
26.798428
 30
0.0
 11
14.853102
 21
26.771436
 31
0.0
  0
LINE
  5
275
100
AcDbEntity
  8
R-DOOR-DETL
  6
CONTINUOUS
 62
     3
100
AcDbLine
 10
15.004986
 20
26.616334
 30
0.0
 11
14.899853
 21
26.589342
 31
0.0
  0
LINE
  5
276
100
AcDbEntity
  8
R-DOOR-DETL
  6
CONTINUOUS
 62
     3
100
AcDbLine
 10
15.034176
 20
26.720877
 30
0.0
 11
15.004986
 21
26.616334
 31
0.0
  0
LINE
  5
277
100
AcDbEntity
  8
R-DOOR-DETL
  6
CONTINUOUS
 62
     3
100
AcDbLine
 10
14.899853
 20
26.589342
 30
0.0
 11
14.823912
 21
26.666893
 31
0.0
  0
LINE
  5
278
100
AcDbEntity
  8
R-DOOR-DETL
  6
CONTINUOUS
 62
     3
100
AcDbLine
 10
15.034176
 20
26.720877
 30
0.0
 11
14.958234
 21
26.798428
 31
0.0
  0
ARC
  5
279
100
AcDbEntity
  8
R-DOOR-DETL
  6
CONTINUOUS
 62
     3
100
AcDbCircle
 10
14.929044
 20
26.693885
 30
0.0
 40
0.1005
100
AcDbArc
 50
302.506128
 51
237.493872
  0
LINE
  5
27A
100
AcDbEntity
  8
R-DOOR-DETL
  6
CONTINUOUS
 62
     3
100
AcDbLine
 10
14.853102
 20
26.771436
 30
0.0
 11
14.823912
 21
26.666893
 31
0.0
  0
LINE
  5
27B
100
AcDbEntity
  8
R-DOOR-DETL
  6
CONTINUOUS
 62
     3
100
AcDbLine
 10
14.612586
 20
26.693885
 30
0.0
 11
14.558315
 21
26.599885
 31
0.0
  0
LINE
  5
27C
100
AcDbEntity
  8
R-DOOR-DETL
  6
CONTINUOUS
 62
     3
100
AcDbLine
 10
14.558315
 20
26.787885
 30
0.0
 11
14.612586
 21
26.693885
 31
0.0
  0
LINE
  5
27D
100
AcDbEntity
  8
R-DOOR-DETL
  6
CONTINUOUS
 62
     3
100
AcDbLine
 10
14.395502
 20
26.693885
 30
0.0
 11
14.449773
 21
26.599885
 31
0.0
  0
LINE
  5
27E
100
AcDbEntity
  8
R-DOOR-DETL
  6
CONTINUOUS
 62
     3
100
AcDbLine
 10
14.449773
 20
26.787885
 30
0.0
 11
14.395502
 21
26.693885
 31
0.0
  0
LINE
  5
27F
100
AcDbEntity
  8
R-DOOR-DETL
  6
CONTINUOUS
 62
     3
100
AcDbLine
 10
14.558315
 20
26.787885
 30
0.0
 11
14.449773
 21
26.787885
 31
0.0
  0
LINE
  5
280
100
AcDbEntity
  8
R-DOOR-DETL
  6
CONTINUOUS
 62
     3
100
AcDbLine
 10
14.558315
 20
26.599885
 30
0.0
 11
14.449773
 21
26.599885
 31
0.0
  0
LINE
  5
281
100
AcDbEntity
  8
R-DOOR-DETL
  6
CONTINUOUS
 62
     3
100
AcDbLine
 10
15.265036
 20
26.645088
 30
0.0
 11
15.199044
 21
26.645088
 31
0.0
  0
LINE
  5
282
100
AcDbEntity
  8
R-DOOR-DETL
  6
CONTINUOUS
 62
     3
100
AcDbLine
 10
15.270036
 20
26.655088
 30
0.0
 11
15.204044
 21
26.655088
 31
0.0
  0
ARC
  5
283
100
AcDbEntity
  8
R-DOOR-DETL
  6
CONTINUOUS
 62
     3
100
AcDbCircle
 10
15.199044
 20
26.660088
 30
0.0
 40
0.015
100
AcDbArc
 50
180.0
 51
270.0
  0
ARC
  5
284
100
AcDbEntity
  8
R-DOOR-DETL
  6
CONTINUOUS
 62
     3
100
AcDbCircle
 10
15.204044
 20
26.670088
 30
0.0
 40
0.015
100
AcDbArc
 50
180.0
 51
270.0
  0
ARC
  5
285
100
AcDbEntity
  8
R-DOOR-DETL
  6
CONTINUOUS
 62
     3
100
AcDbCircle
 10
15.265036
 20
26.630088
 30
0.0
 40
0.015
100
AcDbArc
 50
0.0
 51
90.0
  0
ARC
  5
286
100
AcDbEntity
  8
R-DOOR-DETL
  6
CONTINUOUS
 62
     3
100
AcDbCircle
 10
15.270036
 20
26.640088
 30
0.0
 40
0.015
100
AcDbArc
 50
0.0
 51
90.0
  0
LINE
  5
287
100
AcDbEntity
  8
R-DOOR-DETL
  6
CONTINUOUS
 62
     3
100
AcDbLine
 10
14.089695
 20
26.801903
 30
0.0
 11
14.177916
 21
26.738669
 31
0.0
  0
LINE
  5
288
100
AcDbEntity
  8
R-DOOR-DETL
  6
CONTINUOUS
 62
     3
100
AcDbLine
 10
13.990823
 20
26.757118
 30
0.0
 11
14.089695
 21
26.801903
 31
0.0
  0
LINE
  5
289
100
AcDbEntity
  8
R-DOOR-DETL
  6
CONTINUOUS
 62
     3
100
AcDbLine
 10
14.068392
 20
26.585867
 30
0.0
 11
14.167264
 21
26.630651
 31
0.0
  0
LINE
  5
28A
100
AcDbEntity
  8
R-DOOR-DETL
  6
CONTINUOUS
 62
     3
100
AcDbLine
 10
13.809044
 20
26.645088
 30
0.0
 11
13.743051
 21
26.645088
 31
0.0
  0
LINE
  5
28B
100
AcDbEntity
  8
R-DOOR-DETL
  6
CONTINUOUS
 62
     3
100
AcDbLine
 10
13.804044
 20
26.655088
 30
0.0
 11
13.738051
 21
26.655088
 31
0.0
  0
ARC
  5
28C
100
AcDbEntity
  8
R-DOOR-DETL
  6
CONTINUOUS
 62
     3
100
AcDbCircle
 10
13.743051
 20
26.630088
 30
0.0
 40
0.015
100
AcDbArc
 50
90.0
 51
180.0
  0
ARC
  5
28D
100
AcDbEntity
  8
R-DOOR-DETL
  6
CONTINUOUS
 62
     3
100
AcDbCircle
 10
13.809044
 20
26.660088
 30
0.0
 40
0.015
100
AcDbArc
 50
270.0
 51
360.0
  0
ARC
  5
28E
100
AcDbEntity
  8
R-DOOR-DETL
  6
CONTINUOUS
 62
     3
100
AcDbCircle
 10
13.804044
 20
26.670088
 30
0.0
 40
0.015
100
AcDbArc
 50
270.0
 51
360.0
  0
LINE
  5
28F
100
AcDbEntity
  8
R-DOOR-DETL
  6
CONTINUOUS
 62
     3
100
AcDbLine
 10
13.980172
 20
26.6491
 30
0.0
 11
14.068392
 21
26.585867
 31
0.0
  0
ARC
  5
290
100
AcDbEntity
  8
R-DOOR-DETL
  6
CONTINUOUS
 62
     3
100
AcDbCircle
 10
14.079044
 20
26.693885
 30
0.0
 40
0.1005
100
AcDbArc
 50
302.506128
 51
237.493872
  0
LINE
  5
291
100
AcDbEntity
  8
R-DOOR-DETL
  6
CONTINUOUS
 62
     3
100
AcDbLine
 10
14.167264
 20
26.630651
 30
0.0
 11
14.177916
 21
26.738669
 31
0.0
  0
LINE
  5
292
100
AcDbEntity
  8
R-DOOR-DETL
  6
CONTINUOUS
 62
     3
100
AcDbLine
 10
13.980172
 20
26.6491
 30
0.0
 11
13.990823
 21
26.757118
 31
0.0
  0
ARC
  5
293
100
AcDbEntity
  8
R-DOOR-DETL
  6
CONTINUOUS
 62
     3
100
AcDbCircle
 10
13.738051
 20
26.640088
 30
0.0
 40
0.015
100
AcDbArc
 50
90.0
 51
180.0
  0
LINE
  5
294
100
AcDbEntity
  8
R-DOOR-DETL
  6
CONTINUOUS
 62
     3
100
AcDbLine
 10
14.972864
 20
26.567486
 30
0.0
 11
15.078578
 21
26.384385
 31
0.0
  0
LINE
  5
295
100
AcDbEntity
  8
R-DOOR-DETL
  6
CONTINUOUS
 62
     3
100
AcDbLine
 10
14.77951
 20
26.384385
 30
0.0
 11
14.885224
 21
26.567486
 31
0.0
  0
LINE
  5
296
100
AcDbEntity
  8
R-DOOR-DETL
  6
CONTINUOUS
 62
     3
100
AcDbLine
 10
14.122864
 20
26.567486
 30
0.0
 11
14.228578
 21
26.384385
 31
0.0
  0
LINE
  5
297
100
AcDbEntity
  8
R-DOOR-DETL
  6
CONTINUOUS
 62
     3
100
AcDbLine
 10
13.92951
 20
26.384385
 30
0.0
 11
14.035224
 21
26.567486
 31
0.0
  0
ARC
  5
298
100
AcDbEntity
  8
R-DOOR-DETL
  6
CONTINUOUS
 62
     3
100
AcDbCircle
 10
15.105424
 20
26.399885
 30
0.0
 40
0.031
100
AcDbArc
 50
210.0
 51
270.0
  0
LINE
  5
299
100
AcDbEntity
  8
R-DOOR-DETL
  6
CONTINUOUS
 62
     3
100
AcDbLine
 10
14.504044
 20
26.368885
 30
0.0
 11
15.255036
 21
26.368885
 31
0.0
  0
ARC
  5
29A
100
AcDbEntity
  8
R-DOOR-DETL
  6
CONTINUOUS
 62
     3
100
AcDbCircle
 10
14.976332
 20
26.087885
 30
0.0
 40
0.031
100
AcDbArc
 50
0.0
 51
90.0
  0
ARC
  5
29B
100
AcDbEntity
  8
R-DOOR-DETL
  6
CONTINUOUS
 62
     3
100
AcDbCircle
 10
14.752663
 20
26.399885
 30
0.0
 40
0.031
100
AcDbArc
 50
270.0
 51
330.0
  0
ARC
  5
29C
100
AcDbEntity
  8
R-DOOR-DETL
  6
CONTINUOUS
 62
     3
100
AcDbCircle
 10
14.687805
 20
26.088885
 30
0.0
 40
0.03
100
AcDbArc
 50
90.0
 51
169.684923
  0
ARC
  5
29D
100
AcDbEntity
  8
R-DOOR-DETL
  6
CONTINUOUS
 62
     3
100
AcDbCircle
 10
14.320283
 20
26.088885
 30
0.0
 40
0.03
100
AcDbArc
 50
10.315077
 51
90.0
  0
LINE
  5
29E
100
AcDbEntity
  8
R-DOOR-DETL
  6
CONTINUOUS
 62
     3
100
AcDbLine
 10
14.687805
 20
26.118885
 30
0.0
 11
14.976332
 21
26.118885
 31
0.0
  0
LINE
  5
29F
100
AcDbEntity
  8
R-DOOR-DETL
  6
CONTINUOUS
 62
     3
100
AcDbLine
 10
14.255424
 20
26.368885
 30
0.0
 11
14.752663
 21
26.368885
 31
0.0
  0
LINE
  5
2A0
100
AcDbEntity
  8
R-DOOR-DETL
  6
CONTINUOUS
 62
     3
100
AcDbLine
 10
15.105424
 20
26.368885
 30
0.0
 11
15.249036
 21
26.368885
 31
0.0
  0
ARC
  5
2A1
100
AcDbEntity
  8
R-DOOR-DETL
  6
CONTINUOUS
 62
     3
100
AcDbCircle
 10
15.249036
 20
26.399885
 30
0.0
 40
0.031
100
AcDbArc
 50
270.0
 51
360.0
  0
ARC
  5
2A2
100
AcDbEntity
  8
R-DOOR-DETL
  6
CONTINUOUS
 62
     3
100
AcDbCircle
 10
15.255036
 20
26.398885
 30
0.0
 40
0.03
100
AcDbArc
 50
270.0
 51
0.0
  0
ARC
  5
2A3
100
AcDbEntity
  8
R-DOOR-DETL
  6
CONTINUOUS
 62
     3
100
AcDbCircle
 10
14.031755
 20
26.087885
 30
0.0
 40
0.031
100
AcDbArc
 50
90.0
 51
180.0
  0
ARC
  5
2A4
100
AcDbEntity
  8
R-DOOR-DETL
  6
CONTINUOUS
 62
     3
100
AcDbCircle
 10
13.902663
 20
26.399885
 30
0.0
 40
0.031
100
AcDbArc
 50
270.0
 51
330.0
  0
LINE
  5
2A5
100
AcDbEntity
  8
R-DOOR-DETL
  6
CONTINUOUS
 62
     3
100
AcDbLine
 10
13.759051
 20
26.368885
 30
0.0
 11
13.902663
 21
26.368885
 31
0.0
  0
LINE
  5
2A6
100
AcDbEntity
  8
R-DOOR-DETL
  6
CONTINUOUS
 62
     3
100
AcDbLine
 10
15.186544
 20
26.493885
 30
0.0
 11
13.821544
 21
26.493885
 31
0.0
  0
LINE
  5
2A7
100
AcDbEntity
  8
R-DOOR-DETL
  6
CONTINUOUS
 62
     3
100
AcDbLine
 10
15.186544
 20
26.368885
 30
0.0
 11
13.821544
 21
26.368885
 31
0.0
  0
ARC
  5
2A8
100
AcDbEntity
  8
R-DOOR-DETL
  6
CONTINUOUS
 62
     3
100
AcDbCircle
 10
14.255424
 20
26.399885
 30
0.0
 40
0.031
100
AcDbArc
 50
210.0
 51
270.0
  0
LINE
  5
2A9
100
AcDbEntity
  8
R-DOOR-DETL
  6
CONTINUOUS
 62
     3
100
AcDbLine
 10
14.031755
 20
26.118885
 30
0.0
 11
14.320283
 21
26.118885
 31
0.0
  0
LINE
  5
2AA
100
AcDbEntity
  8
R-DOOR-DETL
  6
CONTINUOUS
 62
     3
100
AcDbLine
 10
13.753051
 20
26.368885
 30
0.0
 11
14.504044
 21
26.368885
 31
0.0
  0
ARC
  5
2AB
100
AcDbEntity
  8
R-DOOR-DETL
  6
CONTINUOUS
 62
     3
100
AcDbCircle
 10
14.504044
 20
26.12233
 30
0.0
 40
0.15678
100
AcDbArc
 50
190.315077
 51
214.562525
  0
ARC
  5
2AC
100
AcDbEntity
  8
R-DOOR-DETL
  6
CONTINUOUS
 62
     3
100
AcDbCircle
 10
14.504044
 20
26.12233
 30
0.0
 40
0.15678
100
AcDbArc
 50
325.437475
 51
349.684923
  0
ARC
  5
2AD
100
AcDbEntity
  8
R-DOOR-DETL
  6
CONTINUOUS
 62
     3
100
AcDbCircle
 10
14.504044
 20
26.12233
 30
0.0
 40
0.059055
100
AcDbArc
 50
319.488274
 51
220.511726
  0
ARC
  5
2AE
100
AcDbEntity
  8
R-DOOR-DETL
  6
CONTINUOUS
 62
     3
100
AcDbCircle
 10
14.592626
 20
26.061306
 30
0.0
 40
0.049213
100
AcDbArc
 50
152.582198
 51
325.437475
  0
ARC
  5
2AF
100
AcDbEntity
  8
R-DOOR-DETL
  6
CONTINUOUS
 62
     3
100
AcDbCircle
 10
14.415461
 20
26.061306
 30
0.0
 40
0.049213
100
AcDbArc
 50
214.562525
 51
27.417802
  0
ARC
  5
2B0
100
AcDbEntity
  8
0
  6
BYBLOCK
 62
     0
100
AcDbCircle
 10
13.657862
 20
26.05211
 30
0.0
 40
0.01125
100
AcDbArc
 50
209.089746
 51
29.089746
  0
ARC
  5
2B1
100
AcDbEntity
  8
0
  6
BYBLOCK
 62
     0
100
AcDbCircle
 10
13.657862
 20
26.05211
 30
0.0
 40
0.01125
100
AcDbArc
 50
29.089746
 51
209.089746
  0
ARC
  5
2B2
100
AcDbEntity
  8
R-DOOR-DETL
  6
CONTINUOUS
 62
     3
100
AcDbCircle
 10
13.759051
 20
26.399885
 30
0.0
 40
0.031
100
AcDbArc
 50
180.0
 51
270.0
  0
ARC
  5
2B3
100
AcDbEntity
  8
R-DOOR-DETL
  6
CONTINUOUS
 62
     3
100
AcDbCircle
 10
13.753051
 20
26.398885
 30
0.0
 40
0.03
100
AcDbArc
 50
180.0
 51
270.0
  0
LINE
  5
2B4
100
AcDbEntity
  8
R-DOOR-DETL
  6
CONTINUOUS
 62
     3
100
AcDbLine
 10
15.280036
 20
26.399885
 30
0.0
 11
15.280036
 21
26.630088
 31
0.0
  0
LINE
  5
2B5
100
AcDbEntity
  8
R-DOOR-DETL
  6
CONTINUOUS
 62
     3
100
AcDbLine
 10
15.285036
 20
26.398885
 30
0.0
 11
15.285036
 21
26.640088
 31
0.0
  0
LINE
  5
2B6
100
AcDbEntity
  8
R-DOOR-DETL
  6
CONTINUOUS
 62
     3
100
AcDbLine
 10
13.728051
 20
26.630088
 30
0.0
 11
13.728051
 21
26.399885
 31
0.0
  0
LINE
  5
2B7
100
AcDbEntity
  8
R-DOOR-DETL
  6
CONTINUOUS
 62
     3
100
AcDbLine
 10
13.723051
 20
26.640088
 30
0.0
 11
13.723051
 21
26.398885
 31
0.0
  0
ARC
  5
2B8
100
AcDbEntity
  8
R-DOOR-DETL
  6
CONTINUOUS
 62
     3
100
AcDbCircle
 10
14.999711
 20
26.582986
 30
0.0
 40
0.031
100
AcDbArc
 50
122.506128
 51
210.0
  0
ARC
  5
2B9
100
AcDbEntity
  8
R-DOOR-DETL
  6
CONTINUOUS
 62
     3
100
AcDbCircle
 10
14.858377
 20
26.582986
 30
0.0
 40
0.031
100
AcDbArc
 50
330.0
 51
57.493872
  0
ARC
  5
2BA
100
AcDbEntity
  8
R-DOOR-DETL
  6
CONTINUOUS
 62
     3
100
AcDbCircle
 10
14.149711
 20
26.582986
 30
0.0
 40
0.031
100
AcDbArc
 50
122.506128
 51
210.0
  0
ARC
  5
2BB
100
AcDbEntity
  8
R-DOOR-DETL
  6
CONTINUOUS
 62
     3
100
AcDbCircle
 10
14.008377
 20
26.582986
 30
0.0
 40
0.031
100
AcDbArc
 50
330.0
 51
57.493872
  0
LWPOLYLINE
  5
2BC
100
AcDbEntity
  8
R-DOOR-DETL
 62
     3
100
AcDbPolyline
 90
       27
 70
     0
 43
0.0
 10
16.674044
 20
28.385885
 42
-0.985813
 10
16.534072
 20
28.383885
 10
16.391544
 20
28.383885
 42
1.0
 10
16.391544
 20
28.338885
 10
16.424044
 20
28.338885
 10
16.465777
 20
28.249388
 10
16.439235
 20
28.237011
 42
0.802585
 10
16.447687
 20
28.198885
 10
16.739044
 20
28.198885
 42
0.414214
 10
16.754044
 20
28.213885
 10
16.754044
 20
29.948885
 10
12.254044
 20
29.948885
 10
12.254044
 20
28.213885
 42
0.414214
 10
12.269044
 20
28.198885
 10
12.560401
 20
28.198885
 42
0.802585
 10
12.568853
 20
28.237011
 10
12.542311
 20
28.249388
 10
12.584044
 20
28.338885
 10
12.616544
 20
28.338885
 42
1.0
 10
12.616544
 20
28.383885
 10
12.474015
 20
28.383885
 42
-0.985813
 10
12.334044
 20
28.385885
 10
12.334044
 20
29.833885
 42
-0.414214
 10
12.349044
 20
29.848885
 10
16.659044
 20
29.848885
 42
-0.414214
 10
16.674044
 20
29.833885
 10
16.674044
 20
28.383885
  0
LINE
  5
2BD
100
AcDbEntity
  8
R-DOOR-DETL
  6
CONTINUOUS
 62
     3
100
AcDbLine
 10
15.335036
 20
27.553885
 30
0.0
 11
15.335036
 21
27.933885
 31
0.0
  0
LINE
  5
2BE
100
AcDbEntity
  8
R-DOOR-DETL
  6
CONTINUOUS
 62
     3
100
AcDbLine
 10
13.673051
 20
27.933885
 30
0.0
 11
13.673051
 21
27.553885
 31
0.0
  0
ARC
  5
2BF
100
AcDbEntity
  8
R-DOOR-DETL
  6
CONTINUOUS
 62
     3
100
AcDbCircle
 10
15.320036
 20
27.553885
 30
0.0
 40
0.015
100
AcDbArc
 50
270.0
 51
0.0
  0
LINE
  5
2C0
100
AcDbEntity
  8
R-DOOR-DETL
  6
CONTINUOUS
 62
     3
100
AcDbLine
 10
15.300036
 20
27.538885
 30
0.0
 11
15.320036
 21
27.538885
 31
0.0
  0
ARC
  5
2C1
100
AcDbEntity
  8
R-DOOR-DETL
  6
CONTINUOUS
 62
     3
100
AcDbCircle
 10
15.300036
 20
27.523885
 30
0.0
 40
0.015
100
AcDbArc
 50
90.0
 51
180.0
  0
LINE
  5
2C2
100
AcDbEntity
  8
R-DOOR-DETL
  6
CONTINUOUS
 62
     3
100
AcDbLine
 10
13.688051
 20
27.538885
 30
0.0
 11
13.708051
 21
27.538885
 31
0.0
  0
ARC
  5
2C3
100
AcDbEntity
  8
R-DOOR-DETL
  6
CONTINUOUS
 62
     3
100
AcDbCircle
 10
13.688051
 20
27.553885
 30
0.0
 40
0.015
100
AcDbArc
 50
180.0
 51
270.0
  0
ARC
  5
2C4
100
AcDbEntity
  8
R-DOOR-DETL
  6
CONTINUOUS
 62
     3
100
AcDbCircle
 10
13.708051
 20
27.523885
 30
0.0
 40
0.015
100
AcDbArc
 50
0.0
 51
90.0
  0
LINE
  5
2C5
100
AcDbEntity
  8
R-DOOR-DETL
  6
CONTINUOUS
 62
     3
100
AcDbLine
 10
15.204044
 20
26.855088
 30
0.0
 11
15.270036
 21
26.855088
 31
0.0
  0
ARC
  5
2C6
100
AcDbEntity
  8
R-DOOR-DETL
  6
CONTINUOUS
 62
     3
100
AcDbCircle
 10
15.169044
 20
26.929885
 30
0.0
 40
0.015
100
AcDbArc
 50
360.0
 51
90.0
  0
ARC
  5
2C7
100
AcDbEntity
  8
R-DOOR-DETL
  6
CONTINUOUS
 62
     3
100
AcDbCircle
 10
15.204044
 20
26.840088
 30
0.0
 40
0.015
100
AcDbArc
 50
90.0
 51
180.0
  0
ARC
  5
2C8
100
AcDbEntity
  8
R-DOOR-DETL
  6
CONTINUOUS
 62
     3
100
AcDbCircle
 10
15.270036
 20
26.870088
 30
0.0
 40
0.015
100
AcDbArc
 50
270.0
 51
360.0
  0
LINE
  5
2C9
100
AcDbEntity
  8
R-DOOR-DETL
  6
CONTINUOUS
 62
     3
100
AcDbLine
 10
13.738051
 20
26.855088
 30
0.0
 11
13.804044
 21
26.855088
 31
0.0
  0
ARC
  5
2CA
100
AcDbEntity
  8
R-DOOR-DETL
  6
CONTINUOUS
 62
     3
100
AcDbCircle
 10
13.839044
 20
26.929885
 30
0.0
 40
0.015
100
AcDbArc
 50
90.0
 51
180.0
  0
ARC
  5
2CB
100
AcDbEntity
  8
R-DOOR-DETL
  6
CONTINUOUS
 62
     3
100
AcDbCircle
 10
13.804044
 20
26.840088
 30
0.0
 40
0.015
100
AcDbArc
 50
360.0
 51
90.0
  0
LINE
  5
2CC
100
AcDbEntity
  8
R-DOOR-DETL
  6
CONTINUOUS
 62
     3
100
AcDbLine
 10
15.169044
 20
26.944885
 30
0.0
 11
13.839044
 21
26.944885
 31
0.0
  0
LINE
  5
2CD
100
AcDbEntity
  8
R-DOOR-DETL
  6
CONTINUOUS
 62
     3
100
AcDbLine
 10
15.186544
 20
26.918885
 30
0.0
 11
13.821544
 21
26.918885
 31
0.0
  0
ARC
  5
2CE
100
AcDbEntity
  8
R-DOOR-DETL
  6
CONTINUOUS
 62
     3
100
AcDbCircle
 10
13.738051
 20
26.870088
 30
0.0
 40
0.015
100
AcDbArc
 50
180.0
 51
270.0
  0
LINE
  5
2CF
100
AcDbEntity
  8
R-DOOR-DETL
  6
CONTINUOUS
 62
     3
100
AcDbLine
 10
15.285036
 20
26.870088
 30
0.0
 11
15.285036
 21
27.523885
 31
0.0
  0
LINE
  5
2D0
100
AcDbEntity
  8
R-DOOR-DETL
  6
CONTINUOUS
 62
     3
100
AcDbLine
 10
13.723051
 20
27.523885
 30
0.0
 11
13.723051
 21
26.870088
 31
0.0
  0
LWPOLYLINE
  5
2D1
100
AcDbEntity
  8
R-DOOR-DETL
 62
     3
100
AcDbPolyline
 90
       82
 70
     0
 43
0.0
 10
12.577905
 20
28.20742
 10
12.597299
 20
28.226814
 42
0.668179
 10
12.590228
 20
28.243885
 10
12.57223
 20
28.243885
 42
-0.668179
 10
12.558088
 20
28.278027
 10
12.603144
 20
28.323083
 42
-0.668179
 10
12.645822
 20
28.305405
 10
12.645822
 20
28.280885
 10
13.095044
 20
28.280885
 42
0.414214
 10
13.110044
 20
28.295885
 10
13.110044
 20
28.301885
 42
-0.414214
 10
13.125044
 20
28.316885
 10
13.909044
 20
28.316885
 42
-0.414214
 10
13.924044
 20
28.301885
 10
13.924044
 20
28.295885
 42
0.414214
 10
13.939044
 20
28.280885
 10
15.069044
 20
28.280885
 42
0.414214
 10
15.084044
 20
28.295885
 10
15.084044
 20
28.301885
 42
-0.414214
 10
15.099044
 20
28.316885
 10
15.883044
 20
28.316885
 42
-0.414214
 10
15.898044
 20
28.301885
 10
15.898044
 20
28.295885
 42
0.414214
 10
15.913044
 20
28.280885
 10
16.362266
 20
28.280885
 10
16.362266
 20
28.305405
 42
-0.668179
 10
16.404944
 20
28.323083
 10
16.45
 20
28.278027
 42
-0.668179
 10
16.435858
 20
28.243885
 10
16.41786
 20
28.243885
 42
0.668179
 10
16.410789
 20
28.226814
 10
16.430182
 20
28.20742
 42
-0.668179
 10
16.426647
 20
28.198885
 10
15.550044
 20
28.198885
 42
0.414214
 10
15.535044
 20
28.183885
 10
15.535044
 20
28.183885
 42
-0.414214
 10
15.520044
 20
28.168885
 10
15.425044
 20
28.168885
 42
-0.414214
 10
15.410044
 20
28.183885
 10
15.410044
 20
28.194885
 42
-0.414214
 10
15.425044
 20
28.209885
 10
15.446544
 20
28.209885
 42
0.414214
 10
15.461544
 20
28.224885
 10
15.461544
 20
28.239885
 42
0.414214
 10
15.446544
 20
28.254885
 10
15.186544
 20
28.254885
 42
0.414214
 10
15.171544
 20
28.239885
 10
15.171544
 20
28.224885
 42
0.414214
 10
15.186544
 20
28.209885
 10
15.208044
 20
28.209885
 42
-0.414214
 10
15.223044
 20
28.194885
 10
15.223044
 20
28.183885
 42
-0.414214
 10
15.208044
 20
28.168885
 10
15.120044
 20
28.168885
 42
-0.414214
 10
15.105044
 20
28.183885
 42
0.414214
 10
15.090044
 20
28.198885
 10
13.918044
 20
28.198885
 42
0.414214
 10
13.903044
 20
28.183885
 42
-0.414214
 10
13.888044
 20
28.168885
 10
13.800044
 20
28.168885
 42
-0.414214
 10
13.785044
 20
28.183885
 10
13.785044
 20
28.194885
 42
-0.414214
 10
13.800044
 20
28.209885
 10
13.821544
 20
28.209885
 42
0.414214
 10
13.836544
 20
28.224885
 10
13.836544
 20
28.239885
 42
0.414214
 10
13.821544
 20
28.254885
 10
13.561544
 20
28.254885
 42
0.414214
 10
13.546544
 20
28.239885
 10
13.546544
 20
28.224885
 42
0.414214
 10
13.561544
 20
28.209885
 10
13.583044
 20
28.209885
 42
-0.414214
 10
13.598044
 20
28.194885
 10
13.598044
 20
28.183885
 42
-0.414214
 10
13.583044
 20
28.168885
 10
13.488044
 20
28.168885
 42
-0.414214
 10
13.473044
 20
28.183885
 10
13.473044
 20
28.183885
 42
0.414214
 10
13.458044
 20
28.198885
 10
12.581441
 20
28.198885
 42
-0.668179
 10
12.577905
 20
28.20742
 10
12.597299
 20
28.226814
  0
ARC
  5
2D2
100
AcDbEntity
  8
R-DOOR-DETL
  6
CONTINUOUS
 62
     3
100
AcDbCircle
 10
15.420036
 20
27.933885
 30
0.0
 40
0.015
100
AcDbArc
 50
0.0
 51
90.0
  0
LINE
  5
2D3
100
AcDbEntity
  8
R-DOOR-DETL
  6
CONTINUOUS
 62
     3
100
AcDbLine
 10
15.350036
 20
27.948885
 30
0.0
 11
15.420036
 21
27.948885
 31
0.0
  0
ARC
  5
2D4
100
AcDbEntity
  8
R-DOOR-DETL
  6
CONTINUOUS
 62
     3
100
AcDbCircle
 10
15.350036
 20
27.933885
 30
0.0
 40
0.015
100
AcDbArc
 50
90.0
 51
180.0
  0
POINT
  5
2D5
100
AcDbEntity
  8
DEFPOINTS
  6
BYBLOCK
 62
     0
100
AcDbPoint
 10
15.385036
 20
27.948885
 30
0.0
  0
ARC
  5
2D6
100
AcDbEntity
  8
R-DOOR-DETL
  6
CONTINUOUS
 62
     3
100
AcDbCircle
 10
13.588051
 20
27.933885
 30
0.0
 40
0.015
100
AcDbArc
 50
90.0
 51
180.0
  0
ARC
  5
2D7
100
AcDbEntity
  8
R-DOOR-DETL
  6
CONTINUOUS
 62
     3
100
AcDbCircle
 10
13.658051
 20
27.933885
 30
0.0
 40
0.015
100
AcDbArc
 50
0.0
 51
90.0
  0
LINE
  5
2D8
100
AcDbEntity
  8
R-DOOR-DETL
  6
CONTINUOUS
 62
     3
100
AcDbLine
 10
13.588051
 20
27.948885
 30
0.0
 11
13.658051
 21
27.948885
 31
0.0
  0
LINE
  5
2D9
100
AcDbEntity
  8
0
100
AcDbLine
 10
17.504044
 20
29.948885
 30
0.0
 11
11.504044
 21
29.948885
 31
0.0
  0
TEXT
  5
2DA
100
AcDbEntity
  8
DIMN
100
AcDbText
 10
14.332871
 20
36.833401
 30
0.0
 40
0.375
  1
 IF 1/2" THRESHOLD IS USED, 
100
AcDbText
  0
LINE
  5
2DB
100
AcDbEntity
  8
R-DOOR-PATT
  6
CONTINUOUS
 62
     5
100
AcDbLine
 10
12.989923
 20
31.948885
 30
0.0
 11
11.504044
 21
30.463006
 31
0.0
  0
LINE
  5
2DC
100
AcDbEntity
  8
R-DOOR-PATT
  6
CONTINUOUS
 62
     5
100
AcDbLine
 10
12.547981
 20
31.948885
 30
0.0
 11
11.504044
 21
30.904948
 31
0.0
  0
LINE
  5
2DD
100
AcDbEntity
  8
R-DOOR-PATT
  6
CONTINUOUS
 62
     5
100
AcDbLine
 10
12.106039
 20
31.948885
 30
0.0
 11
11.504044
 21
31.346889
 31
0.0
  0
LINE
  5
2DE
100
AcDbEntity
  8
R-DOOR-PATT
  6
CONTINUOUS
 62
     5
100
AcDbLine
 10
11.664098
 20
31.948885
 30
0.0
 11
11.504044
 21
31.788831
 31
0.0
  0
TEXT
  5
2DF
100
AcDbEntity
  8
DIMN
100
AcDbText
 10
14.803047
 20
34.9515
 30
0.0
 40
0.375
  1
I.E. GLASS IS CLEAR OPENING LESS 8 3/4
100
AcDbText
  0
TEXT
  5
2E0
100
AcDbEntity
  8
DIMN
100
AcDbText
 10
14.758742
 20
35.571284
 30
0.0
 40
0.375
  1
TO GLASS INCREASES BY 1/2"
100
AcDbText
  0
TEXT
  5
2E1
100
AcDbEntity
  8
DIMN
100
AcDbText
 10
14.758742
 20
36.197764
 30
0.0
 40
0.375
  1
THE DIMENSION FROM FLOOR
100
AcDbText
  0
LINE
  5
2E2
100
AcDbEntity
  8
BORDER
100
AcDbLine
 10
28.904892
 20
38.475081
 30
0.0
 11
0.0
 21
38.475081
 31
0.0
  0
TEXT
  5
2E3
100
AcDbEntity
  8
DIMN
100
AcDbText
 10
14.730921
 20
37.556201
 30
0.0
 40
0.375
  1
NOTES:
100
AcDbText
  0
ENDBLK
  5
2E5
100
AcDbEntity
  8
0
100
AcDbBlockEnd
  0
BLOCK
  5
58F
100
AcDbEntity
  8
0
100
AcDbBlockBegin
  2
*D8
 70
     1
 10
0.0
 20
0.0
 30
0.0
  3
*D8
  1

  0
LINE
  5
590
100
AcDbEntity
  8
0
  6
BYBLOCK
 62
     0
100
AcDbLine
 10
19.70574
 20
31.542301
 30
0.0
 11
24.920265
 21
31.542301
 31
0.0
  0
LINE
  5
591
100
AcDbEntity
  8
0
  6
BYBLOCK
 62
     0
100
AcDbLine
 10
20.940036
 20
12.858471
 30
0.0
 11
24.920265
 21
12.858471
 31
0.0
  0
LINE
  5
592
100
AcDbEntity
  8
0
  6
BYBLOCK
 62
     0
100
AcDbLine
 10
24.560265
 20
31.182301
 30
0.0
 11
24.560265
 21
22.560386
 31
0.0
  0
LINE
  5
593
100
AcDbEntity
  8
0
  6
BYBLOCK
 62
     0
100
AcDbLine
 10
24.560265
 20
13.218471
 30
0.0
 11
24.560265
 21
21.840386
 31
0.0
  0
SOLID
  5
594
100
AcDbEntity
  8
0
  6
BYBLOCK
 62
     0
100
AcDbTrace
 10
24.500265
 20
31.182301
 30
0.0
 11
24.620265
 21
31.182301
 31
0.0
 12
24.560265
 22
31.542301
 32
0.0
 13
24.560265
 23
31.542301
 33
0.0
  0
SOLID
  5
595
100
AcDbEntity
  8
0
  6
BYBLOCK
 62
     0
100
AcDbTrace
 10
24.500265
 20
13.218471
 30
0.0
 11
24.620265
 21
13.218471
 31
0.0
 12
24.560265
 22
12.858471
 32
0.0
 13
24.560265
 23
12.858471
 33
0.0
  0
MTEXT
  5
596
100
AcDbEntity
  8
0
  6
BYBLOCK
 62
     0
100
AcDbMText
 10
24.560265
 20
22.200386
 30
0.0
 40
0.36
 41
0.0
 71
     5
 72
     1
  1
\A1;CLEAR OPENING
  0
POINT
  5
597
100
AcDbEntity
  8
DEFPOINTS
  6
BYBLOCK
 62
     0
100
AcDbPoint
 10
19.58074
 20
31.542301
 30
0.0
  0
POINT
  5
598
100
AcDbEntity
  8
DEFPOINTS
  6
BYBLOCK
 62
     0
100
AcDbPoint
 10
20.815036
 20
12.858471
 30
0.0
  0
POINT
  5
599
100
AcDbEntity
  8
DEFPOINTS
  6
BYBLOCK
 62
     0
100
AcDbPoint
 10
24.560265
 20
12.858471
 30
0.0
  0
ENDBLK
  5
59A
100
AcDbEntity
  8
0
100
AcDbBlockEnd
  0
BLOCK
  5
5C2
100
AcDbEntity
  8
0
100
AcDbBlockBegin
  2
A$C6BE867F4
 70
     0
 10
0.0
 20
0.0
 30
0.0
  3
A$C6BE867F4
  1

  0
MTEXT
  5
5BD
100
AcDbEntity
  8
0
 62
     4
100
AcDbMText
 10
2.434972
 20
2.319778
 30
0.0
 40
0.274008
 41
6.855394
 71
     1
 72
     5
  1
\fArial|b1|i0|c0|p34;DOOR RAIL SYSTEM
  0
LWPOLYLINE
  5
5BE
100
AcDbEntity
  8
0
 62
     4
100
AcDbPolyline
 90
        2
 70
     0
 43
0.030704
 10
0.137665
 20
1.940905
 10
6.158597
 20
1.940905
  0
MTEXT
  5
5BF
100
AcDbEntity
  8
0
 62
     4
100
AcDbMText
 10
0.152731
 20
1.682964
 30
0.0
 40
0.242751
 41
6.068763
 71
     1
 72
     5
  1
\fArial|b1|i1|c0|p34;C.R. Laurence Architectural Products
  0
MTEXT
  5
5C0
100
AcDbEntity
  8
0
 62
     4
100
AcDbMText
 10
0.157672
 20
1.238797
 30
0.0
 40
0.191898
 41
6.0133
 71
     1
 72
     5
  1
\fArial|b0|i1|c0|p34;Phone Orders (800) 421-6144\PFax Orders     (800) 262-3299\PWWW.CRLAURENCE.COM\PPatent Pending
  0
INSERT
  5
5C1
100
AcDbEntity
  8
0
 62
     4
100
AcDbBlockReference
  2
A$C2189253D
 10
0.143797
 20
2.032527
 30
0.0
 41
2.535564
 42
2.535564
 43
2.535564
  0
ENDBLK
  5
5C3
100
AcDbEntity
  8
0
100
AcDbBlockEnd
  0
BLOCK
  5
5C6
100
AcDbEntity
  8
0
100
AcDbBlockBegin
  2
A$C0E897680
 70
     0
 10
0.0
 20
0.0
 30
0.0
  3
A$C0E897680
  1

  0
INSERT
  5
5C5
100
AcDbEntity
  8
0
100
AcDbBlockReference
  2
A$C6BE867F4
 10
0.0
 20
0.0
 30
0.0
  0
ENDBLK
  5
5C7
100
AcDbEntity
  8
0
100
AcDbBlockEnd
  0
BLOCK
  5
5CA
100
AcDbEntity
  8
0
100
AcDbBlockBegin
  2
A$C60D73A4C
 70
     0
 10
0.0
 20
0.0
 30
0.0
  3
A$C60D73A4C
  1

  0
INSERT
  5
5C9
100
AcDbEntity
  8
R-DOOR-DETL
100
AcDbBlockReference
  2
A$C0E897680
 10
0.0
 20
0.0
 30
0.0
  0
ENDBLK
  5
5CB
100
AcDbEntity
  8
0
100
AcDbBlockEnd
  0
BLOCK
  5
5CE
100
AcDbEntity
  8
0
100
AcDbBlockBegin
  2
A$C74654F65
 70
     0
 10
0.0
 20
0.0
 30
0.0
  3
A$C74654F65
  1

  0
INSERT
  5
5CD
100
AcDbEntity
  8
R-DOOR-ANNO
100
AcDbBlockReference
  2
A$C60D73A4C
 10
0.0
 20
0.0
 30
0.0
  0
ENDBLK
  5
5CF
100
AcDbEntity
  8
0
100
AcDbBlockEnd
  0
BLOCK
  5
5D2
100
AcDbEntity
  8
0
100
AcDbBlockBegin
  2
A$C5FA07A05
 70
     0
 10
0.0
 20
0.0
 30
0.0
  3
A$C5FA07A05
  1

  0
INSERT
  5
5D1
100
AcDbEntity
  8
0
100
AcDbBlockReference
  2
A$C74654F65
 10
0.0
 20
0.0
 30
0.0
  0
ENDBLK
  5
5D3
100
AcDbEntity
  8
0
100
AcDbBlockEnd
  0
BLOCK
  5
5D6
100
AcDbEntity
  8
0
100
AcDbBlockBegin
  2
A$C46F93324
 70
     0
 10
0.0
 20
0.0
 30
0.0
  3
A$C46F93324
  1

  0
INSERT
  5
5D5
100
AcDbEntity
  8
0
100
AcDbBlockReference
  2
A$C5FA07A05
 10
0.0
 20
0.0
 30
0.0
 41
1.5
 42
1.5
 43
1.5
  0
ENDBLK
  5
5D7
100
AcDbEntity
  8
0
100
AcDbBlockEnd
  0
BLOCK
  5
625
100
AcDbEntity
  8
0
100
AcDbBlockBegin
  2
A$C216638AD
 70
     0
 10
0.0
 20
0.0
 30
0.0
  3
A$C216638AD
  1

  0
LWPOLYLINE
  5
624
100
AcDbEntity
  8
0
 62
     3
100
AcDbPolyline
 90
       20
 70
     1
 43
0.0
 10
1.963805
 20
0.0
 10
0.029202
 20
0.0
 42
-0.668179
 10
0.025666
 20
0.008536
 10
0.04506
 20
0.027929
 42
0.668179
 10
0.037989
 20
0.045
 10
0.019991
 20
0.045
 42
-0.668179
 10
0.005849
 20
0.079142
 10
0.050905
 20
0.124198
 42
-0.668179
 10
0.093583
 20
0.106521
 10
0.093583
 20
0.082
 10
1.963805
 20
0.082
 10
3.834027
 20
0.082
 10
3.834027
 20
0.106521
 42
-0.668179
 10
3.876705
 20
0.124198
 10
3.921761
 20
0.079142
 42
-0.668179
 10
3.907619
 20
0.045
 10
3.889621
 20
0.045
 42
0.668179
 10
3.88255
 20
0.027929
 10
3.901943
 20
0.008536
 42
-0.668179
 10
3.898408
 20
0.0
  0
ENDBLK
  5
626
100
AcDbEntity
  8
0
100
AcDbBlockEnd
  0
BLOCK
  5
65C
100
AcDbEntity
  8
0
100
AcDbBlockBegin
  2
A$C433421F4
 70
     0
 10
0.0
 20
0.0
 30
0.0
  3
A$C433421F4
  1

  0
LINE
  5
652
100
AcDbEntity
  8
R-DOOR-ANNO
100
AcDbLine
 10
3.154888
 20
0.993017
 30
0.0
 11
3.112969
 21
0.897275
 31
0.0
  0
LINE
  5
653
100
AcDbEntity
  8
R-DOOR-ANNO
100
AcDbLine
 10
3.095004
 20
0.993017
 30
0.0
 11
3.053086
 21
0.897275
 31
0.0
  0
TEXT
  5
654
100
AcDbEntity
  8
R-DOOR-ANNO
 62
     0
100
AcDbText
 10
0.690214
 20
0.669488
 30
0.0
 40
0.315
  1
LESS 
100
AcDbText
  0
TEXT
  5
655
100
AcDbEntity
  8
R-DOOR-ANNO
100
AcDbText
 10
2.175729
 20
0.710621
 30
0.0
 40
0.3
  1
6
100
AcDbText
  0
TEXT
  5
656
100
AcDbEntity
  8
R-DOOR-ANNO
 62
     0
100
AcDbText
 10
1.05
 20
0.0
 30
0.0
 40
0.315
  1
[165mm]
100
AcDbText
  0
LINE
  5
657
100
AcDbEntity
  8
R-DOOR-ANNO
100
AcDbLine
 10
2.544988
 20
0.848675
 30
0.0
 11
2.884447
 21
0.848675
 31
0.0
  0
TEXT
  5
658
100
AcDbEntity
  8
R-DOOR-ANNO
100
AcDbText
 10
2.64173
 20
0.496296
 30
0.0
 40
0.27
  1
2
100
AcDbText
  0
TEXT
  5
659
100
AcDbEntity
  8
R-DOOR-ANNO
 62
     0
100
AcDbText
 10
0.0
 20
1.338976
 30
0.0
 40
0.315
  1
CLEAR OPENING
100
AcDbText
  0
TEXT
  5
65A
100
AcDbEntity
  8
R-DOOR-ANNO
 62
     0
100
AcDbText
 10
1.2075
 20
1.863976
 30
0.0
 40
0.315
  1
GLASS 
100
AcDbText
  0
TEXT
  5
65B
100
AcDbEntity
  8
R-DOOR-ANNO
100
AcDbText
 10
2.688322
 20
0.946296
 30
0.0
 40
0.27
  1
1
100
AcDbText
  0
ENDBLK
  5
65D
100
AcDbEntity
  8
0
100
AcDbBlockEnd
  0
BLOCK
  5
678
100
AcDbEntity
  8
0
100
AcDbBlockBegin
  2
*D20
 70
     1
 10
0.0
 20
0.0
 30
0.0
  3
*D20
  1

  0
LINE
  5
679
100
AcDbEntity
  8
0
  6
BYBLOCK
 62
     0
100
AcDbLine
 10
11.379044
 20
29.948885
 30
0.0
 11
7.108578
 21
29.948885
 31
0.0
  0
LINE
  5
67A
100
AcDbEntity
  8
0
  6
BYBLOCK
 62
     0
100
AcDbLine
 10
10.33413
 20
24.948885
 30
0.0
 11
7.108578
 21
24.948885
 31
0.0
  0
LINE
  5
67B
100
AcDbEntity
  8
0
  6
BYBLOCK
 62
     0
100
AcDbLine
 10
7.468578
 20
29.588885
 30
0.0
 11
7.468578
 21
27.924911
 31
0.0
  0
LINE
  5
67C
100
AcDbEntity
  8
0
  6
BYBLOCK
 62
     0
100
AcDbLine
 10
7.468578
 20
25.308885
 30
0.0
 11
7.468578
 21
27.204911
 31
0.0
  0
SOLID
  5
67D
100
AcDbEntity
  8
0
  6
BYBLOCK
 62
     0
100
AcDbTrace
 10
7.408578
 20
29.588885
 30
0.0
 11
7.528578
 21
29.588885
 31
0.0
 12
7.468578
 22
29.948885
 32
0.0
 13
7.468578
 23
29.948885
 33
0.0
  0
SOLID
  5
67E
100
AcDbEntity
  8
0
  6
BYBLOCK
 62
     0
100
AcDbTrace
 10
7.408578
 20
25.308885
 30
0.0
 11
7.528578
 21
25.308885
 31
0.0
 12
7.468578
 22
24.948885
 32
0.0
 13
7.468578
 23
24.948885
 33
0.0
  0
MTEXT
  5
67F
100
AcDbEntity
  8
0
  6
BYBLOCK
 62
     0
100
AcDbMText
 10
7.468578
 20
27.564911
 30
0.0
 40
0.36
 41
0.0
 71
     5
 72
     1
  1
\A1;5" [127mm]
  0
POINT
  5
680
100
AcDbEntity
  8
DEFPOINTS
  6
BYBLOCK
 62
     0
100
AcDbPoint
 10
11.504044
 20
29.948885
 30
0.0
  0
POINT
  5
681
100
AcDbEntity
  8
DEFPOINTS
  6
BYBLOCK
 62
     0
100
AcDbPoint
 10
10.45913
 20
24.948885
 30
0.0
  0
POINT
  5
682
100
AcDbEntity
  8
DEFPOINTS
  6
BYBLOCK
 62
     0
100
AcDbPoint
 10
7.468578
 20
24.948885
 30
0.0
  0
ENDBLK
  5
683
100
AcDbEntity
  8
0
100
AcDbBlockEnd
  0
BLOCK
  5
686
100
AcDbEntity
  8
0
100
AcDbBlockBegin
  2
*D21
 70
     1
 10
0.0
 20
0.0
 30
0.0
  3
*D21
  1

  0
LINE
  5
687
100
AcDbEntity
  8
0
  6
BYBLOCK
 62
     0
100
AcDbLine
 10
15.510037
 20
27.948885
 30
0.0
 11
19.954203
 21
27.948885
 31
0.0
  0
LINE
  5
688
100
AcDbEntity
  8
0
  6
BYBLOCK
 62
     0
100
AcDbLine
 10
16.718366
 20
28.198885
 30
0.0
 11
19.954203
 21
28.198885
 31
0.0
  0
LINE
  5
689
100
AcDbEntity
  8
0
  6
BYBLOCK
 62
     0
100
AcDbLine
 10
19.594203
 20
28.558885
 30
0.0
 11
19.594203
 21
28.918885
 31
0.0
  0
LINE
  5
68A
100
AcDbEntity
  8
0
  6
BYBLOCK
 62
     0
100
AcDbLine
 10
19.594203
 20
27.588885
 30
0.0
 11
19.594203
 21
26.876637
 31
0.0
  0
LINE
  5
68B
100
AcDbEntity
  8
0
  6
BYBLOCK
 62
     0
100
AcDbLine
 10
19.594203
 20
26.876637
 30
0.0
 11
19.234203
 21
26.876637
 31
0.0
  0
SOLID
  5
68C
100
AcDbEntity
  8
0
  6
BYBLOCK
 62
     0
100
AcDbTrace
 10
19.534203
 20
28.558885
 30
0.0
 11
19.654203
 21
28.558885
 31
0.0
 12
19.594203
 22
28.198885
 32
0.0
 13
19.594203
 23
28.198885
 33
0.0
  0
SOLID
  5
68D
100
AcDbEntity
  8
0
  6
BYBLOCK
 62
     0
100
AcDbTrace
 10
19.534203
 20
27.588885
 30
0.0
 11
19.654203
 21
27.588885
 31
0.0
 12
19.594203
 22
27.948885
 32
0.0
 13
19.594203
 23
27.948885
 33
0.0
  0
MTEXT
  5
68E
100
AcDbEntity
  8
0
  6
BYBLOCK
 62
     0
100
AcDbMText
 10
17.854203
 20
26.876637
 30
0.0
 40
0.36
 41
0.0
 71
     5
 72
     1
  1
\A1;{\H1.000000x;\S1/4;}" [6mm]
  0
POINT
  5
68F
100
AcDbEntity
  8
DEFPOINTS
  6
BYBLOCK
 62
     0
100
AcDbPoint
 10
15.385037
 20
27.948885
 30
0.0
  0
POINT
  5
690
100
AcDbEntity
  8
DEFPOINTS
  6
BYBLOCK
 62
     0
100
AcDbPoint
 10
16.593366
 20
28.198885
 30
0.0
  0
POINT
  5
691
100
AcDbEntity
  8
DEFPOINTS
  6
BYBLOCK
 62
     0
100
AcDbPoint
 10
19.594203
 20
28.198885
 30
0.0
  0
ENDBLK
  5
692
100
AcDbEntity
  8
0
100
AcDbBlockEnd
  0
BLOCK
  5
6A3
100
AcDbEntity
  8
0
100
AcDbBlockBegin
  2
*D23
 70
     1
 10
0.0
 20
0.0
 30
0.0
  3
*D23
  1

  0
LINE
  5
6A4
100
AcDbEntity
  8
0
  6
BYBLOCK
 62
     0
100
AcDbLine
 10
10.397869
 20
14.54564
 30
0.0
 11
7.105694
 21
14.54564
 31
0.0
  0
LINE
  5
6A5
100
AcDbEntity
  8
0
  6
BYBLOCK
 62
     0
100
AcDbLine
 10
11.381522
 20
11.265054
 30
0.0
 11
7.105694
 21
11.265054
 31
0.0
  0
LINE
  5
6A6
100
AcDbEntity
  8
0
  6
BYBLOCK
 62
     0
100
AcDbLine
 10
7.465694
 20
14.18564
 30
0.0
 11
7.465694
 21
13.371838
 31
0.0
  0
LINE
  5
6A7
100
AcDbEntity
  8
0
  6
BYBLOCK
 62
     0
100
AcDbLine
 10
7.465694
 20
11.625054
 30
0.0
 11
7.465694
 21
12.171838
 31
0.0
  0
SOLID
  5
6A8
100
AcDbEntity
  8
0
  6
BYBLOCK
 62
     0
100
AcDbTrace
 10
7.405694
 20
14.18564
 30
0.0
 11
7.525694
 21
14.18564
 31
0.0
 12
7.465694
 22
14.54564
 32
0.0
 13
7.465694
 23
14.54564
 33
0.0
  0
SOLID
  5
6A9
100
AcDbEntity
  8
0
  6
BYBLOCK
 62
     0
100
AcDbTrace
 10
7.405694
 20
11.625054
 30
0.0
 11
7.525694
 21
11.625054
 31
0.0
 12
7.465694
 22
11.265054
 32
0.0
 13
7.465694
 23
11.265054
 33
0.0
  0
MTEXT
  5
6AA
100
AcDbEntity
  8
0
  6
BYBLOCK
 62
     0
100
AcDbMText
 10
7.465694
 20
12.771838
 30
0.0
 40
0.36
 41
0.0
 71
     5
 72
     1
  1
\A1;3{\H1.000000x;\S1/4;}" [83mm]
  0
POINT
  5
6AB
100
AcDbEntity
  8
DEFPOINTS
  6
BYBLOCK
 62
     0
100
AcDbPoint
 10
10.522869
 20
14.54564
 30
0.0
  0
POINT
  5
6AC
100
AcDbEntity
  8
DEFPOINTS
  6
BYBLOCK
 62
     0
100
AcDbPoint
 10
11.506522
 20
11.265054
 30
0.0
  0
POINT
  5
6AD
100
AcDbEntity
  8
DEFPOINTS
  6
BYBLOCK
 62
     0
100
AcDbPoint
 10
7.465694
 20
11.265054
 30
0.0
  0
ENDBLK
  5
6AE
100
AcDbEntity
  8
0
100
AcDbBlockEnd
  0
BLOCK
  5
6B1
100
AcDbEntity
  8
0
100
AcDbBlockBegin
  2
*D24
 70
     1
 10
0.0
 20
0.0
 30
0.0
  3
*D24
  1

  0
LINE
  5
6B2
100
AcDbEntity
  8
0
  6
BYBLOCK
 62
     0
100
AcDbLine
 10
16.418224
 20
11.265054
 30
0.0
 11
19.123964
 21
11.265054
 31
0.0
  0
LINE
  5
6B3
100
AcDbEntity
  8
0
  6
BYBLOCK
 62
     0
100
AcDbLine
 10
15.477514
 20
11.515054
 30
0.0
 11
19.123964
 21
11.515054
 31
0.0
  0
LINE
  5
6B4
100
AcDbEntity
  8
0
  6
BYBLOCK
 62
     0
100
AcDbLine
 10
18.763964
 20
10.905054
 30
0.0
 11
18.763964
 21
10.545054
 31
0.0
  0
LINE
  5
6B5
100
AcDbEntity
  8
0
  6
BYBLOCK
 62
     0
100
AcDbLine
 10
18.763964
 20
11.875054
 30
0.0
 11
18.763964
 21
12.367632
 31
0.0
  0
LINE
  5
6B6
100
AcDbEntity
  8
0
  6
BYBLOCK
 62
     0
100
AcDbLine
 10
18.763964
 20
12.367632
 30
0.0
 11
19.123964
 21
12.367632
 31
0.0
  0
SOLID
  5
6B7
100
AcDbEntity
  8
0
  6
BYBLOCK
 62
     0
100
AcDbTrace
 10
18.703964
 20
10.905054
 30
0.0
 11
18.823964
 21
10.905054
 31
0.0
 12
18.763964
 22
11.265054
 32
0.0
 13
18.763964
 23
11.265054
 33
0.0
  0
SOLID
  5
6B8
100
AcDbEntity
  8
0
  6
BYBLOCK
 62
     0
100
AcDbTrace
 10
18.703964
 20
11.875054
 30
0.0
 11
18.823964
 21
11.875054
 31
0.0
 12
18.763964
 22
11.515054
 32
0.0
 13
18.763964
 23
11.515054
 33
0.0
  0
MTEXT
  5
6B9
100
AcDbEntity
  8
0
  6
BYBLOCK
 62
     0
100
AcDbMText
 10
20.503964
 20
12.367632
 30
0.0
 40
0.36
 41
0.0
 71
     5
 72
     1
  1
\A1;{\H1.000000x;\S1/4;}" [6mm]
  0
POINT
  5
6BA
100
AcDbEntity
  8
DEFPOINTS
  6
BYBLOCK
 62
     0
100
AcDbPoint
 10
16.293224
 20
11.265054
 30
0.0
  0
POINT
  5
6BB
100
AcDbEntity
  8
DEFPOINTS
  6
BYBLOCK
 62
     0
100
AcDbPoint
 10
15.352514
 20
11.515054
 30
0.0
  0
POINT
  5
6BC
100
AcDbEntity
  8
DEFPOINTS
  6
BYBLOCK
 62
     0
100
AcDbPoint
 10
18.763964
 20
11.515054
 30
0.0
  0
ENDBLK
  5
6BD
100
AcDbEntity
  8
0
100
AcDbBlockEnd
  0
ENDSEC
  0
SECTION
  2
ENTITIES
  0
DIMENSION
  5
2EC
100
AcDbEntity
  8
DIMN
 62
     7
100
AcDbDimension
  2
*D8
 10
22.404687
 20
11.265054
 30
0.0
 11
22.404687
 21
20.606969
 31
0.0
 12
-2.155579
 22
-1.593417
 32
0.0
 70
    32
  1
CLEAR OPENING
  3
STANDARD
100
AcDbAlignedDimension
 13
17.425161
 23
29.948885
 33
0.0
 14
18.659458
 24
11.265054
 34
0.0
 50
90.0
100
AcDbRotatedDimension
1001
ACAD
1000
DSTYLE
1002
{
1070
   270
1070
     7
1070
    40
1040
2.0
1002
}
  0
LINE
  5
2ED
100
AcDbEntity
  8
BORDER
 62
     7
100
AcDbLine
 39
15.0
 10
28.904892
 20
0.0
 30
0.0
 11
28.904892
 21
38.475081
 31
0.0
  0
LINE
  5
2EE
100
AcDbEntity
  8
BORDER
 62
     7
100
AcDbLine
 39
15.0
 10
0.0
 20
38.475081
 30
0.0
 11
0.0
 21
0.0
 31
0.0
  0
LINE
  5
2EF
100
AcDbEntity
  8
0
  6
BYBLOCK
 62
     0
100
AcDbLine
 10
7.447966
 20
14.86064
 30
0.0
 11
7.447966
 21
17.942263
 31
0.0
  0
LINE
  5
2F0
100
AcDbEntity
  8
R-DOOR-DETL
 62
     3
100
AcDbLine
 10
14.570236
 20
18.572482
 30
0.0
 11
14.570236
 21
14.512354
 31
0.0
  0
LINE
  5
2F1
100
AcDbEntity
  8
R-DOOR-DETL
 62
     3
100
AcDbLine
 10
14.632736
 20
18.619357
 30
0.0
 11
14.632736
 21
14.512354
 31
0.0
  0
LINE
  5
2F2
100
AcDbEntity
  8
R-DOOR-DETL
 62
     3
100
AcDbLine
 10
14.695236
 20
18.630437
 30
0.0
 11
14.695236
 21
14.512354
 31
0.0
  0
LINE
  5
2F3
100
AcDbEntity
  8
R-DOOR-DETL
 62
     3
100
AcDbLine
 10
14.748162
 20
18.592655
 30
0.0
 11
14.748162
 21
14.512354
 31
0.0
  0
LINE
  5
2F4
100
AcDbEntity
  8
R-DOOR-DETL
 62
     3
100
AcDbLine
 10
14.320236
 20
18.566129
 30
0.0
 11
14.320236
 21
14.512354
 31
0.0
  0
LINE
  5
2F5
100
AcDbEntity
  8
R-DOOR-DETL
 62
     3
100
AcDbLine
 10
14.382736
 20
18.590822
 30
0.0
 11
14.382736
 21
14.512354
 31
0.0
  0
LINE
  5
2F6
100
AcDbEntity
  8
R-DOOR-DETL
 62
     3
100
AcDbLine
 10
14.445236
 20
18.629553
 30
0.0
 11
14.445236
 21
14.512354
 31
0.0
  0
LINE
  5
2F7
100
AcDbEntity
  8
R-DOOR-DETL
 62
     3
100
AcDbLine
 10
14.262736
 20
18.584245
 30
0.0
 11
14.262736
 21
14.512354
 31
0.0
  0
LINE
  5
2F9
100
AcDbEntity
  8
BORDER
 62
     7
100
AcDbLine
 39
15.0
 10
0.0
 20
0.0
 30
0.0
 11
28.904892
 21
0.0
 31
0.0
  0
TEXT
  5
2FA
100
AcDbEntity
  8
R-DOOR-ANNO
  6
CONTINUOUS
100
AcDbText
 10
23.555847
 20
0.5625
 30
0.0
 40
0.703125
  1
STYLE 10
  7
ROMANS
100
AcDbText
  0
LINE
  5
2FB
100
AcDbEntity
  8
R-DOOR-PATT
  6
CONTINUOUS
 62
     5
100
AcDbLine
 10
12.10604
 20
9.265054
 30
0.0
 11
11.504044
 21
9.86705
 31
0.0
  0
LINE
  5
2FC
100
AcDbEntity
  8
R-DOOR-PATT
  6
CONTINUOUS
 62
     5
100
AcDbLine
 10
12.989923
 20
9.265054
 30
0.0
 11
11.504044
 21
10.750933
 31
0.0
  0
LINE
  5
2FD
100
AcDbEntity
  8
R-DOOR-PATT
  6
CONTINUOUS
 62
     5
100
AcDbLine
 10
12.547981
 20
9.265054
 30
0.0
 11
11.504044
 21
10.308991
 31
0.0
  0
LINE
  5
2FE
100
AcDbEntity
  8
R-DOOR-PATT
  6
CONTINUOUS
 62
     5
100
AcDbLine
 10
14.315748
 20
9.265054
 30
0.0
 11
12.315748
 21
11.265054
 31
0.0
  0
LINE
  5
2FF
100
AcDbEntity
  8
R-DOOR-PATT
  6
CONTINUOUS
 62
     5
100
AcDbLine
 10
14.75769
 20
9.265054
 30
0.0
 11
12.75769
 21
11.265054
 31
0.0
  0
LINE
  5
300
100
AcDbEntity
  8
R-DOOR-PATT
  6
CONTINUOUS
 62
     5
100
AcDbLine
 10
16.525457
 20
9.265054
 30
0.0
 11
14.525457
 21
11.265054
 31
0.0
  0
LINE
  5
301
100
AcDbEntity
  8
R-DOOR-PATT
  6
CONTINUOUS
 62
     5
100
AcDbLine
 10
16.083515
 20
9.265054
 30
0.0
 11
14.083515
 21
11.265054
 31
0.0
  0
LINE
  5
302
100
AcDbEntity
  8
R-DOOR-PATT
  6
CONTINUOUS
 62
     5
100
AcDbLine
 10
15.641573
 20
9.265054
 30
0.0
 11
13.641573
 21
11.265054
 31
0.0
  0
LINE
  5
303
100
AcDbEntity
  8
R-DOOR-PATT
  6
CONTINUOUS
 62
     5
100
AcDbLine
 10
15.199632
 20
9.265054
 30
0.0
 11
13.199632
 21
11.265054
 31
0.0
  0
LINE
  5
304
100
AcDbEntity
  8
R-DOOR-PATT
  6
CONTINUOUS
 62
     5
100
AcDbLine
 10
17.40934
 20
9.265054
 30
0.0
 11
15.40934
 21
11.265054
 31
0.0
  0
LINE
  5
305
100
AcDbEntity
  8
R-DOOR-PATT
  6
CONTINUOUS
 62
     5
100
AcDbLine
 10
16.967399
 20
9.265054
 30
0.0
 11
14.967399
 21
11.265054
 31
0.0
  0
LINE
  5
306
100
AcDbEntity
  8
R-DOOR-PATT
  6
CONTINUOUS
 62
     5
100
AcDbLine
 10
17.504044
 20
9.612292
 30
0.0
 11
15.851282
 21
11.265054
 31
0.0
  0
LINE
  5
307
100
AcDbEntity
  8
R-DOOR-PATT
  6
CONTINUOUS
 62
     5
100
AcDbLine
 10
13.873807
 20
9.265054
 30
0.0
 11
11.873807
 21
11.265054
 31
0.0
  0
LINE
  5
308
100
AcDbEntity
  8
R-DOOR-PATT
  6
CONTINUOUS
 62
     5
100
AcDbLine
 10
13.431865
 20
9.265054
 30
0.0
 11
11.504044
 21
11.192875
 31
0.0
  0
TEXT
  5
309
100
AcDbEntity
  8
R-DOOR-ANNO
  6
CONTINUOUS
100
AcDbText
 10
7.343793
 20
7.113511
 30
0.0
 40
0.46875
  1
TOP AND BOTTOM WITH NON CLAD HEADER
  7
ROMANS
 72
     1
 11
15.133971
 21
7.113511
 31
0.0
100
AcDbText
  0
TEXT
  5
30A
100
AcDbEntity
  8
R-DOOR-ANNO
  6
CONTINUOUS
100
AcDbText
 10
8.854214
 20
8.011298
 30
0.0
 40
0.46875
  1
4" TAPERED DOOR RAIL NON CLAD
  7
ROMANS
 72
     1
 11
15.182339
 21
8.011298
 31
0.0
100
AcDbText
  0
LINE
  5
30B
100
AcDbEntity
  8
R-DOOR-PATT
  6
CONTINUOUS
 62
     5
100
AcDbLine
 10
11.664098
 20
9.265054
 30
0.0
 11
11.504044
 21
9.425108
 31
0.0
  0
LINE
  5
30D
100
AcDbEntity
  8
0
  6
BYBLOCK
 62
     0
100
AcDbLine
 10
14.022147
 20
14.54564
 30
0.0
 11
7.112672
 21
14.54564
 31
0.0
  0
LINE
  5
30E
100
AcDbEntity
  8
0
  6
BYBLOCK
 62
     0
100
AcDbLine
 10
13.912772
 20
14.54564
 30
0.0
 11
7.132966
 21
14.54564
 31
0.0
  0
LINE
  5
30F
100
AcDbEntity
  8
0
  6
BYBLOCK
 62
     0
100
AcDbLine
 10
14.131522
 20
14.54564
 30
0.0
 11
7.73947
 21
14.54564
 31
0.0
  0
POINT
  5
315
100
AcDbEntity
  8
DEFPOINTS
  6
BYBLOCK
 62
     0
100
AcDbPoint
 10
8.09947
 20
14.512354
 30
0.0
  0
POINT
  5
316
100
AcDbEntity
  8
DEFPOINTS
  6
BYBLOCK
 62
     0
100
AcDbPoint
 10
7.447966
 20
14.54564
 30
0.0
  0
SOLID
  5
317
100
AcDbEntity
  8
0
  6
BYBLOCK
 62
     0
100
AcDbTrace
 10
7.395466
 20
14.86064
 30
0.0
 11
7.500466
 21
14.86064
 31
0.0
 12
7.447966
 22
14.54564
 32
0.0
 13
7.447966
 23
14.54564
 33
0.0
  0
TEXT
  5
319
100
AcDbEntity
  8
0
100
AcDbText
 10
10.9294
 20
12.94089
 30
0.0
 40
0.36
  1
SHOE
  7
ROMANS
100
AcDbText
  0
LINE
  5
31A
100
AcDbEntity
  8
R-DOOR-ANNO
  6
CONTINUOUS
100
AcDbLine
 10
13.639604
 20
13.723239
 30
0.0
 11
12.568551
 21
13.12735
 31
0.0
1001
ACAD
1000
DSTYLE
1002
{
1070
   173
1070
     1
1070
     6
1000
_DOTSMALL
1002
}
  0
LINE
  5
31B
100
AcDbEntity
  8
R-DOOR-DETL
  6
CONTINUOUS
 62
     3
100
AcDbLine
 10
15.437514
 20
14.728488
 30
0.0
 11
15.437514
 21
11.530054
 31
0.0
  0
LINE
  5
31C
100
AcDbEntity
  8
R-DOOR-DETL
  6
CONTINUOUS
 62
     3
100
AcDbLine
 10
13.575529
 20
11.530054
 30
0.0
 11
13.575529
 21
14.728488
 31
0.0
  0
LINE
  5
31D
100
AcDbEntity
  8
0
100
AcDbLine
 10
11.506522
 20
11.265054
 30
0.0
 11
17.506522
 21
11.265054
 31
0.0
  0
LINE
  5
31E
100
AcDbEntity
  8
0
100
AcDbLine
 10
12.413022
 20
11.265054
 30
0.0
 11
16.600022
 21
11.265054
 31
0.0
  0
LINE
  5
31F
100
AcDbEntity
  8
R-DOOR-PATT
  6
CONTINUOUS
 62
     5
100
AcDbLine
 10
17.504044
 20
10.054234
 30
0.0
 11
16.293224
 21
11.265054
 31
0.0
  0
POINT
  5
320
100
AcDbEntity
  8
DEFPOINTS
  6
BYBLOCK
 62
     0
100
AcDbPoint
 10
11.506522
 20
11.265054
 30
0.0
  0
LINE
  5
321
100
AcDbEntity
  8
R-DOOR-PATT
  6
CONTINUOUS
 62
     5
100
AcDbLine
 10
17.504044
 20
10.496176
 30
0.0
 11
16.735166
 21
11.265054
 31
0.0
  0
LINE
  5
323
100
AcDbEntity
  8
R-DOOR-PATT
  6
CONTINUOUS
 62
     5
100
AcDbLine
 10
17.504044
 20
10.938117
 30
0.0
 11
17.177107
 21
11.265054
 31
0.0
  0
POINT
  5
324
100
AcDbEntity
  8
DEFPOINTS
  6
BYBLOCK
 62
     0
100
AcDbPoint
 10
17.177107
 20
11.265054
 30
0.0
  0
LINE
  5
325
100
AcDbEntity
  8
0
  6
BYBLOCK
 62
     0
100
AcDbLine
 10
17.286482
 20
11.265054
 30
0.0
 11
18.738341
 21
11.265054
 31
0.0
  0
LINE
  5
328
100
AcDbEntity
  8
R-DOOR-DETL
  6
CONTINUOUS
 62
     3
100
AcDbLine
 10
15.287514
 20
11.940054
 30
0.0
 11
15.287514
 21
12.593851
 31
0.0
  0
LINE
  5
329
100
AcDbEntity
  8
R-DOOR-DETL
  6
CONTINUOUS
 62
     3
100
AcDbLine
 10
13.725529
 20
12.593851
 30
0.0
 11
13.725529
 21
11.940054
 31
0.0
  0
ARC
  5
32A
100
AcDbEntity
  8
R-DOOR-DETL
  6
CONTINUOUS
 62
     3
100
AcDbCircle
 10
15.302514
 20
11.940054
 30
0.0
 40
0.015
100
AcDbArc
 50
180.0
 51
270.0
  0
ARC
  5
32B
100
AcDbEntity
  8
R-DOOR-DETL
  6
CONTINUOUS
 62
     3
100
AcDbCircle
 10
15.322514
 20
11.910054
 30
0.0
 40
0.015
100
AcDbArc
 50
0.0
 51
90.0
  0
LINE
  5
32C
100
AcDbEntity
  8
R-DOOR-DETL
  6
CONTINUOUS
 62
     3
100
AcDbLine
 10
15.322514
 20
11.925054
 30
0.0
 11
15.302514
 21
11.925054
 31
0.0
  0
LINE
  5
32D
100
AcDbEntity
  8
R-DOOR-DETL
  6
CONTINUOUS
 62
     3
100
AcDbLine
 10
13.710529
 20
11.925054
 30
0.0
 11
13.690529
 21
11.925054
 31
0.0
  0
ARC
  5
32E
100
AcDbEntity
  8
R-DOOR-DETL
  6
CONTINUOUS
 62
     3
100
AcDbCircle
 10
13.690529
 20
11.910054
 30
0.0
 40
0.015
100
AcDbArc
 50
90.0
 51
180.0
  0
ARC
  5
32F
100
AcDbEntity
  8
R-DOOR-DETL
  6
CONTINUOUS
 62
     3
100
AcDbCircle
 10
13.710529
 20
11.940054
 30
0.0
 40
0.015
100
AcDbArc
 50
270.0
 51
0.0
  0
POINT
  5
330
100
AcDbEntity
  8
DEFPOINTS
  6
BYBLOCK
 62
     0
100
AcDbPoint
 10
15.387514
 20
11.515054
 30
0.0
  0
ARC
  5
331
100
AcDbEntity
  8
R-DOOR-DETL
  6
CONTINUOUS
 62
     3
100
AcDbCircle
 10
15.422514
 20
11.530054
 30
0.0
 40
0.015
100
AcDbArc
 50
270.0
 51
0.0
  0
LINE
  5
332
100
AcDbEntity
  8
R-DOOR-DETL
  6
CONTINUOUS
 62
     3
100
AcDbLine
 10
15.422514
 20
11.515054
 30
0.0
 11
15.352514
 21
11.515054
 31
0.0
  0
ARC
  5
333
100
AcDbEntity
  8
R-DOOR-DETL
  6
CONTINUOUS
 62
     3
100
AcDbCircle
 10
15.352514
 20
11.530054
 30
0.0
 40
0.015
100
AcDbArc
 50
180.0
 51
270.0
  0
ARC
  5
334
100
AcDbEntity
  8
R-DOOR-DETL
  6
CONTINUOUS
 62
     3
100
AcDbCircle
 10
13.590529
 20
11.530054
 30
0.0
 40
0.015
100
AcDbArc
 50
180.0
 51
270.0
  0
ARC
  5
335
100
AcDbEntity
  8
R-DOOR-DETL
  6
CONTINUOUS
 62
     3
100
AcDbCircle
 10
13.660529
 20
11.530054
 30
0.0
 40
0.015
100
AcDbArc
 50
270.0
 51
0.0
  0
LINE
  5
336
100
AcDbEntity
  8
R-DOOR-DETL
  6
CONTINUOUS
 62
     3
100
AcDbLine
 10
13.660529
 20
11.515054
 30
0.0
 11
13.590529
 21
11.515054
 31
0.0
  0
LINE
  5
337
100
AcDbEntity
  8
R-DOOR-DETL
  6
CONTINUOUS
 62
     3
100
AcDbLine
 10
13.675529
 20
11.910054
 30
0.0
 11
13.675529
 21
11.530054
 31
0.0
  0
LINE
  5
338
100
AcDbEntity
  8
R-DOOR-DETL
  6
CONTINUOUS
 62
     3
100
AcDbLine
 10
15.337514
 20
11.530054
 30
0.0
 11
15.337514
 21
11.910054
 31
0.0
  0
LINE
  5
339
100
AcDbEntity
  8
R-DOOR-ANNO
  6
CONTINUOUS
100
AcDbLine
 10
12.568551
 20
13.12735
 30
0.0
 11
12.388552
 21
13.127951
 31
0.0
1001
ACAD
1000
DSTYLE
1002
{
1070
   173
1070
     1
1070
     6
1000
_DOTSMALL
1002
}
  0
ARC
  5
33A
100
AcDbEntity
  8
R-DOOR-DETL
  6
CONTINUOUS
 62
     3
100
AcDbCircle
 10
15.107902
 20
13.064054
 30
0.0
 40
0.031
100
AcDbArc
 50
90.0
 51
150.0
  0
LINE
  5
33B
100
AcDbEntity
  8
R-DOOR-DETL
  6
CONTINUOUS
 62
     3
100
AcDbLine
 10
15.257514
 20
13.095054
 30
0.0
 11
14.506522
 21
13.095054
 31
0.0
  0
LINE
  5
33C
100
AcDbEntity
  8
R-DOOR-DETL
  6
CONTINUOUS
 62
     3
100
AcDbLine
 10
15.030394
 20
12.814839
 30
0.0
 11
15.019742
 21
12.706821
 31
0.0
  0
ARC
  5
33D
100
AcDbEntity
  8
R-DOOR-DETL
  6
CONTINUOUS
 62
     3
100
AcDbCircle
 10
14.931522
 20
12.770054
 30
0.0
 40
0.1005
100
AcDbArc
 50
122.506128
 51
57.493872
  0
LINE
  5
33E
100
AcDbEntity
  8
R-DOOR-DETL
  6
CONTINUOUS
 62
     3
100
AcDbLine
 10
14.92087
 20
12.662036
 30
0.0
 11
14.83265
 21
12.72527
 31
0.0
  0
LINE
  5
33F
100
AcDbEntity
  8
R-DOOR-DETL
  6
CONTINUOUS
 62
     3
100
AcDbLine
 10
15.019742
 20
12.706821
 30
0.0
 11
14.92087
 21
12.662036
 31
0.0
  0
ARC
  5
340
100
AcDbEntity
  8
R-DOOR-DETL
  6
CONTINUOUS
 62
     3
100
AcDbCircle
 10
14.860855
 20
12.880953
 30
0.0
 40
0.031
100
AcDbArc
 50
302.506128
 51
30.0
  0
ARC
  5
341
100
AcDbEntity
  8
R-DOOR-DETL
  6
CONTINUOUS
 62
     3
100
AcDbCircle
 10
15.002189
 20
12.880953
 30
0.0
 40
0.031
100
AcDbArc
 50
150.0
 51
237.493872
  0
LINE
  5
342
100
AcDbEntity
  8
R-DOOR-DETL
  6
CONTINUOUS
 62
     3
100
AcDbLine
 10
15.081056
 20
13.079554
 30
0.0
 11
14.975342
 21
12.896453
 31
0.0
  0
LINE
  5
343
100
AcDbEntity
  8
R-DOOR-DETL
  6
CONTINUOUS
 62
     3
100
AcDbLine
 10
15.030394
 20
12.814839
 30
0.0
 11
14.942174
 21
12.878072
 31
0.0
  0
ARC
  5
344
100
AcDbEntity
  8
R-DOOR-DETL
  6
CONTINUOUS
 62
     3
100
AcDbCircle
 10
14.755141
 20
13.064054
 30
0.0
 40
0.031
100
AcDbArc
 50
30.0
 51
90.0
  0
LINE
  5
345
100
AcDbEntity
  8
R-DOOR-DETL
  6
CONTINUOUS
 62
     3
100
AcDbLine
 10
14.843301
 20
12.833288
 30
0.0
 11
14.83265
 21
12.72527
 31
0.0
  0
LINE
  5
346
100
AcDbEntity
  8
R-DOOR-DETL
  6
CONTINUOUS
 62
     3
100
AcDbLine
 10
14.887702
 20
12.896453
 30
0.0
 11
14.781988
 21
13.079554
 31
0.0
  0
LINE
  5
347
100
AcDbEntity
  8
R-DOOR-DETL
  6
CONTINUOUS
 62
     3
100
AcDbLine
 10
14.942174
 20
12.878072
 30
0.0
 11
14.843301
 21
12.833288
 31
0.0
  0
LINE
  5
348
100
AcDbEntity
  8
R-DOOR-DETL
  6
CONTINUOUS
 62
     3
100
AcDbLine
 10
14.560793
 20
12.676054
 30
0.0
 11
14.615064
 21
12.770054
 31
0.0
  0
LINE
  5
349
100
AcDbEntity
  8
R-DOOR-DETL
  6
CONTINUOUS
 62
     3
100
AcDbLine
 10
14.615064
 20
12.770054
 30
0.0
 11
14.560793
 21
12.864054
 31
0.0
  0
LINE
  5
34A
100
AcDbEntity
  8
R-DOOR-DETL
  6
CONTINUOUS
 62
     3
100
AcDbLine
 10
14.452251
 20
12.676054
 30
0.0
 11
14.39798
 21
12.770054
 31
0.0
  0
LINE
  5
34B
100
AcDbEntity
  8
R-DOOR-DETL
  6
CONTINUOUS
 62
     3
100
AcDbLine
 10
14.39798
 20
12.770054
 30
0.0
 11
14.452251
 21
12.864054
 31
0.0
  0
LINE
  5
34C
100
AcDbEntity
  8
R-DOOR-DETL
  6
CONTINUOUS
 62
     3
100
AcDbLine
 10
14.452251
 20
12.676054
 30
0.0
 11
14.560793
 21
12.676054
 31
0.0
  0
LINE
  5
34D
100
AcDbEntity
  8
R-DOOR-DETL
  6
CONTINUOUS
 62
     3
100
AcDbLine
 10
14.452251
 20
12.864054
 30
0.0
 11
14.560793
 21
12.864054
 31
0.0
  0
LINE
  5
34E
100
AcDbEntity
  8
R-DOOR-DETL
  6
CONTINUOUS
 62
     3
100
AcDbLine
 10
14.755141
 20
13.095054
 30
0.0
 11
14.257902
 21
13.095054
 31
0.0
  0
LINE
  5
34F
100
AcDbEntity
  8
R-DOOR-DETL
  6
CONTINUOUS
 62
     3
100
AcDbLine
 10
15.251514
 20
13.095054
 30
0.0
 11
15.107902
 21
13.095054
 31
0.0
  0
LINE
  5
350
100
AcDbEntity
  8
R-DOOR-DETL
  6
CONTINUOUS
 62
     3
100
AcDbLine
 10
15.201522
 20
12.818851
 30
0.0
 11
15.267514
 21
12.818851
 31
0.0
  0
LINE
  5
351
100
AcDbEntity
  8
R-DOOR-DETL
  6
CONTINUOUS
 62
     3
100
AcDbLine
 10
15.206522
 20
12.808851
 30
0.0
 11
15.272514
 21
12.808851
 31
0.0
  0
ARC
  5
352
100
AcDbEntity
  8
R-DOOR-DETL
  6
CONTINUOUS
 62
     3
100
AcDbCircle
 10
15.201522
 20
12.803851
 30
0.0
 40
0.015
100
AcDbArc
 50
90.0
 51
180.0
  0
ARC
  5
353
100
AcDbEntity
  8
R-DOOR-DETL
  6
CONTINUOUS
 62
     3
100
AcDbCircle
 10
15.206522
 20
12.793851
 30
0.0
 40
0.015
100
AcDbArc
 50
90.0
 51
180.0
  0
ARC
  5
354
100
AcDbEntity
  8
R-DOOR-DETL
  6
CONTINUOUS
 62
     3
100
AcDbCircle
 10
15.251514
 20
13.064054
 30
0.0
 40
0.031
100
AcDbArc
 50
360.0
 51
90.0
  0
ARC
  5
355
100
AcDbEntity
  8
R-DOOR-DETL
  6
CONTINUOUS
 62
     3
100
AcDbCircle
 10
15.257514
 20
13.065054
 30
0.0
 40
0.03
100
AcDbArc
 50
360.0
 51
90.0
  0
LINE
  5
356
100
AcDbEntity
  8
R-DOOR-DETL
  6
CONTINUOUS
 62
     3
100
AcDbLine
 10
15.282514
 20
12.833851
 30
0.0
 11
15.282514
 21
13.064054
 31
0.0
  0
ARC
  5
357
100
AcDbEntity
  8
R-DOOR-DETL
  6
CONTINUOUS
 62
     3
100
AcDbCircle
 10
15.267514
 20
12.833851
 30
0.0
 40
0.015
100
AcDbArc
 50
270.0
 51
360.0
  0
ARC
  5
358
100
AcDbEntity
  8
R-DOOR-DETL
  6
CONTINUOUS
 62
     3
100
AcDbCircle
 10
15.272514
 20
12.823851
 30
0.0
 40
0.015
100
AcDbArc
 50
270.0
 51
0.0
  0
LINE
  5
359
100
AcDbEntity
  8
R-DOOR-DETL
  6
CONTINUOUS
 62
     3
100
AcDbLine
 10
15.287514
 20
12.823851
 30
0.0
 11
15.287514
 21
13.065054
 31
0.0
  0
LINE
  5
35A
100
AcDbEntity
  8
R-DOOR-DETL
  6
CONTINUOUS
 62
     3
100
AcDbLine
 10
14.157464
 20
12.692503
 30
0.0
 11
14.186654
 21
12.797046
 31
0.0
  0
ARC
  5
35B
100
AcDbEntity
  8
R-DOOR-DETL
  6
CONTINUOUS
 62
     3
100
AcDbCircle
 10
14.081522
 20
12.770054
 30
0.0
 40
0.1005
100
AcDbArc
 50
122.506128
 51
57.493872
  0
LINE
  5
35C
100
AcDbEntity
  8
R-DOOR-DETL
  6
CONTINUOUS
 62
     3
100
AcDbLine
 10
13.97639
 20
12.743062
 30
0.0
 11
14.052332
 21
12.665511
 31
0.0
  0
LINE
  5
35D
100
AcDbEntity
  8
R-DOOR-DETL
  6
CONTINUOUS
 62
     3
100
AcDbLine
 10
14.052332
 20
12.665511
 30
0.0
 11
14.157464
 21
12.692503
 31
0.0
  0
ARC
  5
35E
100
AcDbEntity
  8
R-DOOR-DETL
  6
CONTINUOUS
 62
     3
100
AcDbCircle
 10
14.152189
 20
12.880953
 30
0.0
 40
0.031
100
AcDbArc
 50
150.0
 51
237.493872
  0
LINE
  5
35F
100
AcDbEntity
  8
R-DOOR-DETL
  6
CONTINUOUS
 62
     3
100
AcDbLine
 10
14.231056
 20
13.079554
 30
0.0
 11
14.125342
 21
12.896453
 31
0.0
  0
LINE
  5
360
100
AcDbEntity
  8
R-DOOR-DETL
  6
CONTINUOUS
 62
     3
100
AcDbLine
 10
14.110712
 20
12.874597
 30
0.0
 11
14.186654
 21
12.797046
 31
0.0
  0
ARC
  5
361
100
AcDbEntity
  8
R-DOOR-DETL
  6
CONTINUOUS
 62
     3
100
AcDbCircle
 10
13.761529
 20
13.064054
 30
0.0
 40
0.031
100
AcDbArc
 50
90.0
 51
180.0
  0
ARC
  5
362
100
AcDbEntity
  8
R-DOOR-DETL
  6
CONTINUOUS
 62
     3
100
AcDbCircle
 10
13.905141
 20
13.064054
 30
0.0
 40
0.031
100
AcDbArc
 50
30.0
 51
90.0
  0
LINE
  5
363
100
AcDbEntity
  8
R-DOOR-DETL
  6
CONTINUOUS
 62
     3
100
AcDbLine
 10
13.745529
 20
12.818851
 30
0.0
 11
13.811522
 21
12.818851
 31
0.0
  0
LINE
  5
364
100
AcDbEntity
  8
R-DOOR-DETL
  6
CONTINUOUS
 62
     3
100
AcDbLine
 10
13.740529
 20
12.808851
 30
0.0
 11
13.806522
 21
12.808851
 31
0.0
  0
ARC
  5
365
100
AcDbEntity
  8
R-DOOR-DETL
  6
CONTINUOUS
 62
     3
100
AcDbCircle
 10
13.745529
 20
12.833851
 30
0.0
 40
0.015
100
AcDbArc
 50
180.0
 51
270.0
  0
LINE
  5
366
100
AcDbEntity
  8
R-DOOR-DETL
  6
CONTINUOUS
 62
     3
100
AcDbLine
 10
13.730529
 20
13.064054
 30
0.0
 11
13.730529
 21
12.833851
 31
0.0
  0
LINE
  5
367
100
AcDbEntity
  8
R-DOOR-DETL
  6
CONTINUOUS
 62
     3
100
AcDbLine
 10
13.725529
 20
13.065054
 30
0.0
 11
13.725529
 21
12.823851
 31
0.0
  0
ARC
  5
368
100
AcDbEntity
  8
R-DOOR-DETL
  6
CONTINUOUS
 62
     3
100
AcDbCircle
 10
13.811522
 20
12.803851
 30
0.0
 40
0.015
100
AcDbArc
 50
0.0
 51
90.0
  0
LINE
  5
369
100
AcDbEntity
  8
R-DOOR-DETL
  6
CONTINUOUS
 62
     3
100
AcDbLine
 10
13.905141
 20
13.095054
 30
0.0
 11
13.761529
 21
13.095054
 31
0.0
  0
LINE
  5
36A
100
AcDbEntity
  8
R-DOOR-DETL
  6
CONTINUOUS
 62
     3
100
AcDbLine
 10
14.037702
 20
12.896453
 30
0.0
 11
13.931988
 21
13.079554
 31
0.0
  0
LINE
  5
36B
100
AcDbEntity
  8
R-DOOR-DETL
  6
CONTINUOUS
 62
     3
100
AcDbLine
 10
13.97639
 20
12.743062
 30
0.0
 11
14.00558
 21
12.847605
 31
0.0
  0
ARC
  5
36C
100
AcDbEntity
  8
R-DOOR-DETL
  6
CONTINUOUS
 62
     3
100
AcDbCircle
 10
13.806522
 20
12.793851
 30
0.0
 40
0.015
100
AcDbArc
 50
0.0
 51
90.0
  0
ARC
  5
36D
100
AcDbEntity
  8
R-DOOR-DETL
  6
CONTINUOUS
 62
     3
100
AcDbCircle
 10
14.010855
 20
12.880953
 30
0.0
 40
0.031
100
AcDbArc
 50
302.506128
 51
30.0
  0
LINE
  5
36E
100
AcDbEntity
  8
R-DOOR-DETL
  6
CONTINUOUS
 62
     3
100
AcDbLine
 10
14.00558
 20
12.847605
 30
0.0
 11
14.110712
 21
12.874597
 31
0.0
  0
LINE
  5
36F
100
AcDbEntity
  8
R-DOOR-DETL
  6
CONTINUOUS
 62
     3
100
AcDbLine
 10
13.824022
 20
13.095054
 30
0.0
 11
15.189022
 21
13.095054
 31
0.0
  0
LINE
  5
370
100
AcDbEntity
  8
R-DOOR-DETL
  6
CONTINUOUS
 62
     3
100
AcDbLine
 10
13.824022
 20
12.970054
 30
0.0
 11
15.189022
 21
12.970054
 31
0.0
  0
ARC
  5
371
100
AcDbEntity
  8
R-DOOR-DETL
  6
CONTINUOUS
 62
     3
100
AcDbCircle
 10
14.257902
 20
13.064054
 30
0.0
 40
0.031
100
AcDbArc
 50
90.0
 51
150.0
  0
LINE
  5
372
100
AcDbEntity
  8
R-DOOR-DETL
  6
CONTINUOUS
 62
     3
100
AcDbLine
 10
14.506522
 20
13.095054
 30
0.0
 11
13.755529
 21
13.095054
 31
0.0
  0
LINE
  5
373
100
AcDbEntity
  8
R-DOOR-DETL
  6
CONTINUOUS
 62
     3
100
AcDbLine
 10
15.272514
 20
12.608851
 30
0.0
 11
15.206522
 21
12.608851
 31
0.0
  0
ARC
  5
374
100
AcDbEntity
  8
R-DOOR-DETL
  6
CONTINUOUS
 62
     3
100
AcDbCircle
 10
15.206522
 20
12.623851
 30
0.0
 40
0.015
100
AcDbArc
 50
180.0
 51
270.0
  0
ARC
  5
375
100
AcDbEntity
  8
R-DOOR-DETL
  6
CONTINUOUS
 62
     3
100
AcDbCircle
 10
15.272514
 20
12.593851
 30
0.0
 40
0.015
100
AcDbArc
 50
0.0
 51
90.0
  0
LINE
  5
376
100
AcDbEntity
  8
R-DOOR-DETL
  6
CONTINUOUS
 62
     3
100
AcDbLine
 10
13.806522
 20
12.608851
 30
0.0
 11
13.740529
 21
12.608851
 31
0.0
  0
ARC
  5
377
100
AcDbEntity
  8
R-DOOR-DETL
  6
CONTINUOUS
 62
     3
100
AcDbCircle
 10
13.806522
 20
12.623851
 30
0.0
 40
0.015
100
AcDbArc
 50
270.0
 51
0.0
  0
CIRCLE
  5
378
100
AcDbEntity
  8
R-DOOR-DETL
  6
CONTINUOUS
 62
     3
100
AcDbCircle
 10
14.931522
 20
12.770054
 30
0.0
 40
0.1625
  0
LINE
  5
379
100
AcDbEntity
  8
R-DOOR-DETL
  6
CONTINUOUS
 62
     3
100
AcDbLine
 10
15.191522
 20
12.623851
 30
0.0
 11
15.191522
 21
12.793851
 31
0.0
  0
LINE
  5
37A
100
AcDbEntity
  8
R-DOOR-DETL
  6
CONTINUOUS
 62
     3
100
AcDbLine
 10
13.821522
 20
12.793851
 30
0.0
 11
13.821522
 21
12.623851
 31
0.0
  0
CIRCLE
  5
37B
100
AcDbEntity
  8
R-DOOR-DETL
  6
CONTINUOUS
 62
     3
100
AcDbCircle
 10
14.081522
 20
12.770054
 30
0.0
 40
0.1625
  0
CIRCLE
  5
37C
100
AcDbEntity
  8
R-DOOR-DETL
  6
CONTINUOUS
 62
     3
100
AcDbCircle
 10
14.506522
 20
12.770054
 30
0.0
 40
0.1625
  0
ARC
  5
37D
100
AcDbEntity
  8
R-DOOR-DETL
  6
CONTINUOUS
 62
     3
100
AcDbCircle
 10
13.755529
 20
13.065054
 30
0.0
 40
0.03
100
AcDbArc
 50
90.0
 51
180.0
  0
ARC
  5
37E
100
AcDbEntity
  8
R-DOOR-DETL
  6
CONTINUOUS
 62
     3
100
AcDbCircle
 10
13.740529
 20
12.823851
 30
0.0
 40
0.015
100
AcDbArc
 50
180.0
 51
270.0
  0
ARC
  5
37F
100
AcDbEntity
  8
R-DOOR-DETL
  6
CONTINUOUS
 62
     3
100
AcDbCircle
 10
13.740529
 20
12.593851
 30
0.0
 40
0.015
100
AcDbArc
 50
90.0
 51
180.0
  0
ARC
  5
380
100
AcDbEntity
  8
R-DOOR-DETL
  6
CONTINUOUS
 62
     3
100
AcDbCircle
 10
15.171522
 20
12.534054
 30
0.0
 40
0.015
100
AcDbArc
 50
270.0
 51
0.0
  0
ARC
  5
381
100
AcDbEntity
  8
R-DOOR-DETL
  6
CONTINUOUS
 62
     3
100
AcDbCircle
 10
13.841522
 20
12.534054
 30
0.0
 40
0.015
100
AcDbArc
 50
180.0
 51
270.0
  0
LINE
  5
382
100
AcDbEntity
  8
R-DOOR-DETL
  6
CONTINUOUS
 62
     3
100
AcDbLine
 10
13.841522
 20
12.519054
 30
0.0
 11
15.171522
 21
12.519054
 31
0.0
  0
LINE
  5
383
100
AcDbEntity
  8
R-DOOR-DETL
  6
CONTINUOUS
 62
     3
100
AcDbLine
 10
13.824022
 20
12.545054
 30
0.0
 11
15.189022
 21
12.545054
 31
0.0
  0
LINE
  5
384
100
AcDbEntity
  8
R-DOOR-DETL
  6
CONTINUOUS
 62
     3
100
AcDbLine
 10
15.186522
 20
12.534054
 30
0.0
 11
15.186522
 21
12.803851
 31
0.0
  0
LINE
  5
385
100
AcDbEntity
  8
R-DOOR-DETL
  6
CONTINUOUS
 62
     3
100
AcDbLine
 10
15.189022
 20
12.545054
 30
0.0
 11
15.189022
 21
13.095054
 31
0.0
  0
LINE
  5
386
100
AcDbEntity
  8
R-DOOR-DETL
  6
CONTINUOUS
 62
     3
100
AcDbLine
 10
13.826522
 20
12.803851
 30
0.0
 11
13.826522
 21
12.534054
 31
0.0
  0
LINE
  5
387
100
AcDbEntity
  8
R-DOOR-DETL
  6
CONTINUOUS
 62
     3
100
AcDbLine
 10
13.824022
 20
12.545054
 30
0.0
 11
13.824022
 21
13.095054
 31
0.0
  0
CIRCLE
  5
388
100
AcDbEntity
  8
R-DOOR-DETL
  6
CONTINUOUS
 62
     3
100
AcDbCircle
 10
14.931522
 20
12.770054
 30
0.0
 40
0.1875
  0
CIRCLE
  5
389
100
AcDbEntity
  8
R-DOOR-DETL
  6
CONTINUOUS
 62
     3
100
AcDbCircle
 10
14.081522
 20
12.770054
 30
0.0
 40
0.1875
  0
CIRCLE
  5
38A
100
AcDbEntity
  8
R-DOOR-DETL
  6
CONTINUOUS
 62
     3
100
AcDbCircle
 10
14.506522
 20
12.770054
 30
0.0
 40
0.1875
  0
ARC
  5
390
100
AcDbEntity
  8
R-DOOR-DETL
  6
CONTINUOUS
 62
     3
100
AcDbCircle
 10
15.211516
 20
14.838393
 30
0.0
 40
0.04
100
AcDbArc
 50
330.0
 51
24.0
  0
ARC
  5
391
100
AcDbEntity
  8
R-DOOR-DETL
  6
CONTINUOUS
 62
     3
100
AcDbCircle
 10
13.801528
 20
14.838393
 30
0.0
 40
0.04
100
AcDbArc
 50
156.0
 51
210.0
  0
LINE
  5
392
100
AcDbEntity
  8
R-DOOR-DETL
  6
CONTINUOUS
 62
     3
100
AcDbLine
 10
14.966472
 20
14.842681
 30
0.0
 11
14.94408
 21
15.333411
 31
0.0
  0
LINE
  5
393
100
AcDbEntity
  8
R-DOOR-DETL
  6
CONTINUOUS
 62
     3
100
AcDbLine
 10
14.748162
 20
15.324064
 30
0.0
 11
14.748162
 21
14.574064
 31
0.0
  0
LINE
  5
394
100
AcDbEntity
  8
R-DOOR-DETL
  6
CONTINUOUS
 62
     3
100
AcDbLine
 10
14.798162
 20
14.574064
 30
0.0
 11
14.798162
 21
15.324064
 31
0.0
  0
LINE
  5
395
100
AcDbEntity
  8
R-DOOR-DETL
  6
CONTINUOUS
 62
     3
100
AcDbLine
 10
14.798162
 20
15.324064
 30
0.0
 11
14.798162
 21
14.472196
 31
0.0
  0
LINE
  5
396
100
AcDbEntity
  8
R-DOOR-DETL
  6
CONTINUOUS
 62
     3
100
AcDbLine
 10
15.059107
 20
15.493721
 30
0.0
 11
15.427269
 21
14.771164
 31
0.0
  0
LINE
  5
397
100
AcDbEntity
  8
R-DOOR-DETL
  6
CONTINUOUS
 62
     3
100
AcDbLine
 10
14.044427
 20
14.842681
 30
0.0
 11
14.066818
 21
15.333411
 31
0.0
  0
LINE
  5
398
100
AcDbEntity
  8
R-DOOR-DETL
  6
CONTINUOUS
 62
     3
100
AcDbLine
 10
14.262736
 20
15.324064
 30
0.0
 11
14.262736
 21
14.574064
 31
0.0
  0
LINE
  5
399
100
AcDbEntity
  8
R-DOOR-DETL
  6
CONTINUOUS
 62
     3
100
AcDbLine
 10
14.212736
 20
14.574064
 30
0.0
 11
14.212736
 21
15.324064
 31
0.0
  0
LINE
  5
39A
100
AcDbEntity
  8
R-DOOR-DETL
  6
CONTINUOUS
 62
     3
100
AcDbLine
 10
14.212736
 20
15.324064
 30
0.0
 11
14.212736
 21
14.472196
 31
0.0
  0
LINE
  5
39B
100
AcDbEntity
  8
R-DOOR-DETL
  6
CONTINUOUS
 62
     3
100
AcDbLine
 10
13.585775
 20
14.771164
 30
0.0
 11
13.953936
 21
15.493721
 31
0.0
  0
LINE
  5
39C
100
AcDbEntity
  8
R-DOOR-DETL
  6
CONTINUOUS
 62
     3
100
AcDbLine
 10
14.956522
 20
13.874757
 30
0.0
 11
14.956522
 21
14.308693
 31
0.0
  0
LINE
  5
39D
100
AcDbEntity
  8
R-DOOR-DETL
  6
CONTINUOUS
 62
     3
100
AcDbLine
 10
14.056522
 20
14.308693
 30
0.0
 11
14.056522
 21
13.874757
 31
0.0
  0
ARC
  5
39E
100
AcDbEntity
  8
R-DOOR-DETL
  6
CONTINUOUS
 62
     3
100
AcDbCircle
 10
14.822027
 20
13.999354
 30
0.0
 40
0.094
100
AcDbArc
 50
270.0
 51
0.0
  0
LINE
  5
39F
100
AcDbEntity
  8
R-DOOR-DETL
  6
CONTINUOUS
 62
     3
100
AcDbLine
 10
14.655027
 20
14.035354
 30
0.0
 11
14.655027
 21
13.920354
 31
0.0
  0
LINE
  5
3A0
100
AcDbEntity
  8
R-DOOR-DETL
  6
CONTINUOUS
 62
     3
100
AcDbLine
 10
14.355872
 20
14.035354
 30
0.0
 11
14.355872
 21
13.920354
 31
0.0
  0
ARC
  5
3A1
100
AcDbEntity
  8
R-DOOR-DETL
  6
CONTINUOUS
 62
     3
100
AcDbCircle
 10
14.188872
 20
13.999354
 30
0.0
 40
0.094
100
AcDbArc
 50
180.0
 51
270.0
  0
LWPOLYLINE
  5
3A2
100
AcDbEntity
  8
R-DOOR-ANNO
  6
CONTINUOUS
100
AcDbPolyline
 90
        3
 70
     0
 43
0.0
 10
14.81901
 20
14.346367
 10
16.307161
 20
13.6134
 10
16.487161
 20
13.6134
1001
ACAD
1000
DSTYLE
1002
{
1070
   173
1070
     1
1070
     6
1000
_DOTSMALL
1002
}
  0
ARC
  5
3A3
100
AcDbEntity
  8
R-DOOR-DETL
  6
CONTINUOUS
 62
     3
100
AcDbCircle
 10
15.120514
 20
13.624355
 30
0.0
 40
0.059055
100
AcDbArc
 50
229.185014
 51
118.310064
  0
ARC
  5
3A4
100
AcDbEntity
  8
R-DOOR-DETL
  6
CONTINUOUS
 62
     3
100
AcDbCircle
 10
15.059023
 20
13.536096
 30
0.0
 40
0.049213
100
AcDbArc
 50
62.278938
 51
180.0
  0
ARC
  5
3A5
100
AcDbEntity
  8
R-DOOR-DETL
  6
CONTINUOUS
 62
     3
100
AcDbCircle
 10
15.059961
 20
13.713259
 30
0.0
 40
0.049213
100
AcDbArc
 50
260.249923
 51
311.403987
  0
ARC
  5
3A6
100
AcDbEntity
  8
R-DOOR-DETL
  6
CONTINUOUS
 62
     3
100
AcDbCircle
 10
14.896522
 20
13.874757
 30
0.0
 40
0.06
100
AcDbArc
 50
270.0
 51
360.0
  0
ARC
  5
3A7
100
AcDbEntity
  8
R-DOOR-DETL
  6
CONTINUOUS
 62
     3
100
AcDbCircle
 10
14.670027
 20
13.920354
 30
0.0
 40
0.015
100
AcDbArc
 50
180.0
 51
270.0
  0
ARC
  5
3A8
100
AcDbEntity
  8
R-DOOR-DETL
  6
CONTINUOUS
 62
     3
100
AcDbCircle
 10
14.340872
 20
13.920354
 30
0.0
 40
0.015
100
AcDbArc
 50
270.0
 51
360.0
  0
LINE
  5
3A9
100
AcDbEntity
  8
R-DOOR-DETL
  6
CONTINUOUS
 62
     3
100
AcDbLine
 10
14.597181
 20
13.978724
 30
0.0
 11
14.409181
 21
13.978724
 31
0.0
  0
LINE
  5
3AA
100
AcDbEntity
  8
R-DOOR-DETL
  6
CONTINUOUS
 62
     3
100
AcDbLine
 10
14.597181
 20
13.918724
 30
0.0
 11
14.409181
 21
13.918724
 31
0.0
  0
LINE
  5
3AB
100
AcDbEntity
  8
R-DOOR-DETL
  6
CONTINUOUS
 62
     3
100
AcDbLine
 10
14.627181
 20
13.888724
 30
0.0
 11
14.379181
 21
13.888724
 31
0.0
  0
LINE
  5
3AC
100
AcDbEntity
  8
R-DOOR-DETL
  6
CONTINUOUS
 62
     3
100
AcDbLine
 10
14.627181
 20
13.948724
 30
0.0
 11
14.379181
 21
13.948724
 31
0.0
  0
LINE
  5
3AD
100
AcDbEntity
  8
R-DOOR-DETL
  6
CONTINUOUS
 62
     3
100
AcDbLine
 10
14.627181
 20
13.828724
 30
0.0
 11
14.379181
 21
13.828724
 31
0.0
  0
LINE
  5
3AE
100
AcDbEntity
  8
4-2
  6
CONTINUOUS
 62
     4
100
AcDbLine
 10
14.379181
 20
13.814757
 30
0.0
 11
14.627181
 21
13.814757
 31
0.0
  0
LINE
  5
3AF
100
AcDbEntity
  8
R-DOOR-DETL
  6
CONTINUOUS
 62
     3
100
AcDbLine
 10
14.597181
 20
13.858724
 30
0.0
 11
14.409181
 21
13.858724
 31
0.0
  0
LINE
  5
3B0
100
AcDbEntity
  8
R-DOOR-DETL
  6
CONTINUOUS
 62
     3
100
AcDbLine
 10
14.670027
 20
13.905354
 30
0.0
 11
14.822027
 21
13.905354
 31
0.0
  0
LINE
  5
3B1
100
AcDbEntity
  8
R-DOOR-DETL
  6
CONTINUOUS
 62
     3
100
AcDbLine
 10
14.506522
 20
13.664757
 30
0.0
 11
15.051626
 21
13.664757
 31
0.0
  0
LINE
  5
3B2
100
AcDbEntity
  8
R-DOOR-DETL
  6
CONTINUOUS
 62
     3
100
AcDbLine
 10
14.506522
 20
13.814757
 30
0.0
 11
14.896522
 21
13.814757
 31
0.0
  0
ARC
  5
3B3
100
AcDbEntity
  8
R-DOOR-DETL
  6
CONTINUOUS
 62
     3
100
AcDbCircle
 10
14.116522
 20
13.874757
 30
0.0
 40
0.06
100
AcDbArc
 50
180.0
 51
270.0
  0
ARC
  5
3B4
100
AcDbEntity
  8
R-DOOR-DETL
  6
CONTINUOUS
 62
     3
100
AcDbCircle
 10
13.953083
 20
13.713259
 30
0.0
 40
0.049213
100
AcDbArc
 50
228.596013
 51
279.750077
  0
ARC
  5
3B5
100
AcDbEntity
  8
R-DOOR-DETL
  6
CONTINUOUS
 62
     3
100
AcDbCircle
 10
13.892529
 20
13.624355
 30
0.0
 40
0.059055
100
AcDbArc
 50
61.689936
 51
310.814986
  0
ARC
  5
3B6
100
AcDbEntity
  8
R-DOOR-DETL
  6
CONTINUOUS
 62
     3
100
AcDbCircle
 10
13.954021
 20
13.536096
 30
0.0
 40
0.049212
100
AcDbArc
 50
0.0
 51
117.721062
  0
LINE
  5
3B7
100
AcDbEntity
  8
R-DOOR-DETL
  6
CONTINUOUS
 62
     3
100
AcDbLine
 10
14.340872
 20
13.905354
 30
0.0
 11
14.188872
 21
13.905354
 31
0.0
  0
LINE
  5
3B8
100
AcDbEntity
  8
R-DOOR-DETL
  6
CONTINUOUS
 62
     3
100
AcDbLine
 10
14.116522
 20
13.814757
 30
0.0
 11
14.506522
 21
13.814757
 31
0.0
  0
LINE
  5
3B9
100
AcDbEntity
  8
R-DOOR-DETL
  6
CONTINUOUS
 62
     3
100
AcDbLine
 10
13.961417
 20
13.664757
 30
0.0
 11
14.506522
 21
13.664757
 31
0.0
  0
INSERT
  5
3BA
100
AcDbEntity
  8
R-DOOR-ANNO
  6
CONTINUOUS
100
AcDbBlockReference
  2
_DOTSMALL
 10
13.639604
 20
13.723239
 30
0.0
 41
0.18
 42
0.18
 43
0.18
 50
153.778112
1001
ACAD
1000
DSTYLE
1002
{
1070
   173
1070
     1
1070
     6
1000
_DOTSMALL
1002
}
  0
ARC
  5
3BB
100
AcDbEntity
  8
R-DOOR-DETL
  6
CONTINUOUS
 62
     3
100
AcDbCircle
 10
14.506522
 20
13.341609
 30
0.0
 40
0.15678
100
AcDbArc
 50
10.315077
 51
34.562525
  0
ARC
  5
3BC
100
AcDbEntity
  8
R-DOOR-DETL
  6
CONTINUOUS
 62
     3
100
AcDbCircle
 10
14.506522
 20
13.341609
 30
0.0
 40
0.15678
100
AcDbArc
 50
145.437475
 51
169.684923
  0
ARC
  5
3BD
100
AcDbEntity
  8
R-DOOR-DETL
  6
CONTINUOUS
 62
     3
100
AcDbCircle
 10
14.506522
 20
13.341609
 30
0.0
 40
0.059055
100
AcDbArc
 50
139.488274
 51
40.511726
  0
ARC
  5
3BE
100
AcDbEntity
  8
R-DOOR-DETL
  6
CONTINUOUS
 62
     3
100
AcDbCircle
 10
14.97881
 20
13.376054
 30
0.0
 40
0.031
100
AcDbArc
 50
270.0
 51
0.0
  0
ARC
  5
3BF
100
AcDbEntity
  8
R-DOOR-DETL
  6
CONTINUOUS
 62
     3
100
AcDbCircle
 10
14.690283
 20
13.375054
 30
0.0
 40
0.03
100
AcDbArc
 50
190.315077
 51
270.0
  0
ARC
  5
3C0
100
AcDbEntity
  8
R-DOOR-DETL
  6
CONTINUOUS
 62
     3
100
AcDbCircle
 10
14.322761
 20
13.375054
 30
0.0
 40
0.03
100
AcDbArc
 50
270.0
 51
349.684923
  0
LINE
  5
3C1
100
AcDbEntity
  8
R-DOOR-DETL
  6
CONTINUOUS
 62
     3
100
AcDbLine
 10
14.97881
 20
13.345054
 30
0.0
 11
14.690283
 21
13.345054
 31
0.0
  0
ARC
  5
3C2
100
AcDbEntity
  8
R-DOOR-DETL
  6
CONTINUOUS
 62
     3
100
AcDbCircle
 10
14.034233
 20
13.376054
 30
0.0
 40
0.031
100
AcDbArc
 50
180.0
 51
270.0
  0
LINE
  5
3C3
100
AcDbEntity
  8
R-DOOR-DETL
  6
CONTINUOUS
 62
     3
100
AcDbLine
 10
14.322761
 20
13.345054
 30
0.0
 11
14.034233
 21
13.345054
 31
0.0
  0
ARC
  5
3C4
100
AcDbEntity
  8
R-DOOR-DETL
  6
CONTINUOUS
 62
     3
100
AcDbCircle
 10
14.595104
 20
13.402633
 30
0.0
 40
0.049213
100
AcDbArc
 50
34.562525
 51
207.417802
  0
ARC
  5
3C5
100
AcDbEntity
  8
R-DOOR-DETL
  6
CONTINUOUS
 62
     3
100
AcDbCircle
 10
14.417939
 20
13.402633
 30
0.0
 40
0.049213
100
AcDbArc
 50
332.582198
 51
145.437475
  0
LINE
  5
3C6
100
AcDbEntity
  8
R-DOOR-DETL
  6
CONTINUOUS
 62
     3
100
AcDbLine
 10
15.00981
 20
13.536096
 30
0.0
 11
15.00981
 21
13.376054
 31
0.0
  0
LINE
  5
3C7
100
AcDbEntity
  8
R-DOOR-DETL
  6
CONTINUOUS
 62
     3
100
AcDbLine
 10
14.003233
 20
13.376054
 30
0.0
 11
14.003233
 21
13.536096
 31
0.0
  0
LINE
  5
3C8
100
AcDbEntity
  8
R-DOOR-DETL
  6
CONTINUOUS
 62
     3
100
AcDbLine
 10
15.112687
 20
14.814049
 30
0.0
 11
14.99644
 21
14.814049
 31
0.0
  0
ARC
  5
3C9
100
AcDbEntity
  8
R-DOOR-DETL
  6
CONTINUOUS
 62
     3
100
AcDbCircle
 10
14.99644
 20
14.844049
 30
0.0
 40
0.03
100
AcDbArc
 50
182.612502
 51
270.0
  0
LINE
  5
3CA
100
AcDbEntity
  8
R-DOOR-DETL
  6
CONTINUOUS
 62
     3
100
AcDbLine
 10
14.78832
 20
14.462354
 30
0.0
 11
14.78832
 21
14.512354
 31
0.0
  0
LINE
  5
3CB
100
AcDbEntity
  8
R-DOOR-DETL
  6
CONTINUOUS
 62
     3
100
AcDbLine
 10
14.748162
 20
14.574064
 30
0.0
 11
14.798162
 21
14.574064
 31
0.0
  0
ARC
  5
3CC
100
AcDbEntity
  8
R-DOOR-DETL
  6
CONTINUOUS
 62
     3
100
AcDbCircle
 10
14.78832
 20
14.472196
 30
0.0
 40
0.009842
100
AcDbArc
 50
270.0
 51
360.0
  0
LINE
  5
3CD
100
AcDbEntity
  8
R-DOOR-DETL
  6
CONTINUOUS
 62
     3
100
AcDbLine
 10
14.472578
 20
14.512354
 30
0.0
 11
14.472578
 21
14.462354
 31
0.0
  0
LINE
  5
3CE
100
AcDbEntity
  8
R-DOOR-DETL
  6
CONTINUOUS
 62
     3
100
AcDbLine
 10
14.53832
 20
14.512354
 30
0.0
 11
14.53832
 21
14.462354
 31
0.0
  0
ARC
  5
3CF
100
AcDbEntity
  8
R-DOOR-DETL
  6
CONTINUOUS
 62
     3
100
AcDbCircle
 10
14.556027
 20
14.447354
 30
0.0
 40
0.015
100
AcDbArc
 50
90.0
 51
180.0
  0
ARC
  5
3D0
100
AcDbEntity
  8
R-DOOR-DETL
  6
CONTINUOUS
 62
     3
100
AcDbCircle
 10
14.454872
 20
14.447354
 30
0.0
 40
0.015
100
AcDbArc
 50
0.0
 51
90.0
  0
POINT
  5
3D1
100
AcDbEntity
  8
DEFPOINTS
  6
BYBLOCK
 62
     0
100
AcDbPoint
 10
14.256522
 20
14.512354
 30
0.0
  0
LINE
  5
3D2
100
AcDbEntity
  8
R-DOOR-DETL
 62
     3
100
AcDbLine
 10
14.695236
 20
14.512354
 30
0.0
 11
14.320236
 21
14.512354
 31
0.0
  0
LINE
  5
3D3
100
AcDbEntity
  8
R-DOOR-DETL
  6
CONTINUOUS
 62
     3
100
AcDbLine
 10
14.78832
 20
14.512354
 30
0.0
 11
14.53832
 21
14.512354
 31
0.0
  0
LINE
  5
3D4
100
AcDbEntity
  8
R-DOOR-DETL
  6
CONTINUOUS
 62
     3
100
AcDbLine
 10
14.53832
 20
14.462354
 30
0.0
 11
14.78832
 21
14.462354
 31
0.0
  0
LINE
  5
3D5
100
AcDbEntity
  8
R-DOOR-DETL
  6
CONTINUOUS
 62
     3
100
AcDbLine
 10
14.78832
 20
14.462354
 30
0.0
 11
14.556027
 21
14.462354
 31
0.0
  0
LINE
  5
3D6
100
AcDbEntity
  8
R-DOOR-DETL
 62
     3
100
AcDbLine
 10
14.752736
 20
14.512354
 30
0.0
 11
14.262736
 21
14.512354
 31
0.0
  0
ARC
  5
3D7
100
AcDbEntity
  8
R-DOOR-DETL
  6
CONTINUOUS
 62
     3
100
AcDbCircle
 10
15.112687
 20
14.784049
 30
0.0
 40
0.03
100
AcDbArc
 50
59.0
 51
90.0
  0
LINE
  5
3D8
100
AcDbEntity
  8
R-DOOR-DETL
  6
CONTINUOUS
 62
     3
100
AcDbLine
 10
15.18814
 20
14.773711
 30
0.0
 11
15.128139
 21
14.809764
 31
0.0
  0
ARC
  5
3D9
100
AcDbEntity
  8
R-DOOR-DETL
  6
CONTINUOUS
 62
     3
100
AcDbCircle
 10
15.172689
 20
14.747996
 30
0.0
 40
0.03
100
AcDbArc
 50
329.0
 51
59.0
  0
ARC
  5
3DA
100
AcDbEntity
  8
R-DOOR-DETL
  6
CONTINUOUS
 62
     3
100
AcDbCircle
 10
15.343514
 20
14.728488
 30
0.0
 40
0.094
100
AcDbArc
 50
0.0
 51
27.0
  0
ARC
  5
3DB
100
AcDbEntity
  8
R-DOOR-DETL
  6
CONTINUOUS
 62
     3
100
AcDbCircle
 10
14.014458
 20
14.844049
 30
0.0
 40
0.03
100
AcDbArc
 50
270.0
 51
357.387498
  0
LINE
  5
3DC
100
AcDbEntity
  8
R-DOOR-DETL
  6
CONTINUOUS
 62
     3
100
AcDbLine
 10
13.898211
 20
14.814049
 30
0.0
 11
14.014458
 21
14.814049
 31
0.0
  0
ARC
  5
3DD
100
AcDbEntity
  8
R-DOOR-DETL
  6
CONTINUOUS
 62
     3
100
AcDbCircle
 10
13.898211
 20
14.784049
 30
0.0
 40
0.03
100
AcDbArc
 50
90.0
 51
121.0
  0
LINE
  5
3DE
100
AcDbEntity
  8
R-DOOR-DETL
  6
CONTINUOUS
 62
     3
100
AcDbLine
 10
13.822758
 20
14.773711
 30
0.0
 11
13.88276
 21
14.809764
 31
0.0
  0
ARC
  5
3DF
100
AcDbEntity
  8
R-DOOR-DETL
  6
CONTINUOUS
 62
     3
100
AcDbCircle
 10
13.838209
 20
14.747996
 30
0.0
 40
0.03
100
AcDbArc
 50
121.0
 51
211.0
  0
LINE
  5
3E0
100
AcDbEntity
  8
R-DOOR-DETL
  6
CONTINUOUS
 62
     3
100
AcDbLine
 10
14.222578
 20
14.462354
 30
0.0
 11
14.222578
 21
14.512354
 31
0.0
  0
ARC
  5
3E1
100
AcDbEntity
  8
R-DOOR-DETL
  6
CONTINUOUS
 62
     3
100
AcDbCircle
 10
14.222578
 20
14.472196
 30
0.0
 40
0.009842
100
AcDbArc
 50
180.0
 51
270.0
  0
LINE
  5
3E4
100
AcDbEntity
  8
R-DOOR-DETL
  6
CONTINUOUS
 62
     3
100
AcDbLine
 10
14.262736
 20
14.574064
 30
0.0
 11
14.212736
 21
14.574064
 31
0.0
  0
LINE
  5
3E5
100
AcDbEntity
  8
R-DOOR-DETL
  6
CONTINUOUS
 62
     3
100
AcDbLine
 10
14.222578
 20
14.512354
 30
0.0
 11
14.472578
 21
14.512354
 31
0.0
  0
LINE
  5
3E6
100
AcDbEntity
  8
R-DOOR-DETL
  6
CONTINUOUS
 62
     3
100
AcDbLine
 10
14.472578
 20
14.462354
 30
0.0
 11
14.222578
 21
14.462354
 31
0.0
  0
LINE
  5
3E7
100
AcDbEntity
  8
R-DOOR-DETL
  6
CONTINUOUS
 62
     3
100
AcDbLine
 10
14.222578
 20
14.462354
 30
0.0
 11
14.454872
 21
14.462354
 31
0.0
  0
INSERT
  5
3E8
100
AcDbEntity
  8
R-DOOR-ANNO
  6
CONTINUOUS
100
AcDbBlockReference
  2
_DOTSMALL
 10
14.795685
 20
14.370682
 30
0.0
 41
0.18
 42
0.18
 43
0.18
 50
153.778112
1001
ACAD
1000
DSTYLE
1002
{
1070
   173
1070
     1
1070
     6
1000
_DOTSMALL
1002
}
  0
ARC
  5
3E9
100
AcDbEntity
  8
R-DOOR-DETL
  6
CONTINUOUS
 62
     3
100
AcDbCircle
 10
13.669529
 20
14.728488
 30
0.0
 40
0.094
100
AcDbArc
 50
153.0
 51
180.0
  0
LINE
  5
3EA
100
AcDbEntity
  8
R-DOOR-DETL
  6
CONTINUOUS
 62
     3
100
AcDbLine
 10
14.916027
 20
13.999354
 30
0.0
 11
14.916027
 21
14.25427
 31
0.0
  0
LINE
  5
3EB
100
AcDbEntity
  8
R-DOOR-DETL
  6
CONTINUOUS
 62
     3
100
AcDbLine
 10
14.094872
 20
13.999354
 30
0.0
 11
14.094872
 21
14.25427
 31
0.0
  0
LINE
  5
3EC
100
AcDbEntity
  8
R-DOOR-DETL
  6
CONTINUOUS
 62
     3
100
AcDbLine
 10
14.771027
 20
14.192354
 30
0.0
 11
14.771027
 21
14.065354
 31
0.0
  0
LINE
  5
3ED
100
AcDbEntity
  8
R-DOOR-DETL
  6
CONTINUOUS
 62
     3
100
AcDbLine
 10
14.753616
 20
14.182082
 30
0.0
 11
14.753616
 21
14.057082
 31
0.0
  0
ARC
  5
3EE
100
AcDbEntity
  8
R-DOOR-DETL
  6
CONTINUOUS
 62
     3
100
AcDbCircle
 10
14.756027
 20
14.065354
 30
0.0
 40
0.015
100
AcDbArc
 50
270.0
 51
360.0
  0
ARC
  5
3EF
100
AcDbEntity
  8
R-DOOR-DETL
  6
CONTINUOUS
 62
     3
100
AcDbCircle
 10
14.670027
 20
14.035354
 30
0.0
 40
0.015
100
AcDbArc
 50
90.0
 51
180.0
  0
LINE
  5
3F0
100
AcDbEntity
  8
R-DOOR-DETL
  6
CONTINUOUS
 62
     3
100
AcDbLine
 10
14.253616
 20
14.182082
 30
0.0
 11
14.253616
 21
14.057082
 31
0.0
  0
LINE
  5
3F1
100
AcDbEntity
  8
R-DOOR-DETL
  6
CONTINUOUS
 62
     3
100
AcDbLine
 10
14.254872
 20
14.050354
 30
0.0
 11
14.340872
 21
14.050354
 31
0.0
  0
ARC
  5
3F2
100
AcDbEntity
  8
R-DOOR-DETL
  6
CONTINUOUS
 62
     3
100
AcDbCircle
 10
14.340872
 20
14.035354
 30
0.0
 40
0.015
100
AcDbArc
 50
360.0
 51
90.0
  0
LINE
  5
3F3
100
AcDbEntity
  8
R-DOOR-DETL
  6
CONTINUOUS
 62
     3
100
AcDbLine
 10
14.597181
 20
14.098724
 30
0.0
 11
14.409181
 21
14.098724
 31
0.0
  0
LINE
  5
3F4
100
AcDbEntity
  8
R-DOOR-DETL
  6
CONTINUOUS
 62
     3
100
AcDbLine
 10
14.597181
 20
14.038724
 30
0.0
 11
14.409181
 21
14.038724
 31
0.0
  0
LINE
  5
3F5
100
AcDbEntity
  8
R-DOOR-DETL
  6
CONTINUOUS
 62
     3
100
AcDbLine
 10
14.627181
 20
14.008724
 30
0.0
 11
14.379181
 21
14.008724
 31
0.0
  0
LINE
  5
3F6
100
AcDbEntity
  8
R-DOOR-DETL
  6
CONTINUOUS
 62
     3
100
AcDbLine
 10
14.627181
 20
14.068724
 30
0.0
 11
14.379181
 21
14.068724
 31
0.0
  0
LINE
  5
3F7
100
AcDbEntity
  8
R-DOOR-DETL
  6
CONTINUOUS
 62
     3
100
AcDbLine
 10
14.627181
 20
14.128724
 30
0.0
 11
14.379181
 21
14.128724
 31
0.0
  0
LINE
  5
3F8
100
AcDbEntity
  8
R-DOOR-DETL
  6
CONTINUOUS
 62
     3
100
AcDbLine
 10
14.597181
 20
14.158724
 30
0.0
 11
14.409181
 21
14.158724
 31
0.0
  0
LINE
  5
3F9
100
AcDbEntity
  8
R-DOOR-DETL
  6
CONTINUOUS
 62
     3
100
AcDbLine
 10
14.627181
 20
14.188724
 30
0.0
 11
14.379181
 21
14.188724
 31
0.0
  0
LINE
  5
3FA
100
AcDbEntity
  8
R-DOOR-DETL
  6
CONTINUOUS
 62
     3
100
AcDbLine
 10
14.756027
 20
14.050354
 30
0.0
 11
14.670027
 21
14.050354
 31
0.0
  0
LINE
  5
3FB
100
AcDbEntity
  8
R-DOOR-DETL
  6
CONTINUOUS
 62
     3
100
AcDbLine
 10
14.753616
 20
14.057082
 30
0.0
 11
14.253616
 21
14.057082
 31
0.0
  0
LINE
  5
3FC
100
AcDbEntity
  8
R-DOOR-DETL
  6
CONTINUOUS
 62
     3
100
AcDbLine
 10
14.753616
 20
14.182082
 30
0.0
 11
14.253616
 21
14.182082
 31
0.0
  0
LINE
  5
3FD
100
AcDbEntity
  8
R-DOOR-DETL
  6
CONTINUOUS
 62
     3
100
AcDbLine
 10
14.239872
 20
14.192354
 30
0.0
 11
14.239872
 21
14.065354
 31
0.0
  0
ARC
  5
3FE
100
AcDbEntity
  8
R-DOOR-DETL
  6
CONTINUOUS
 62
     3
100
AcDbCircle
 10
14.254872
 20
14.065354
 30
0.0
 40
0.015
100
AcDbArc
 50
180.0
 51
270.0
  0
ARC
  5
3FF
100
AcDbEntity
  8
R-DOOR-DETL
  6
CONTINUOUS
 62
     3
100
AcDbCircle
 10
14.946027
 20
14.25427
 30
0.0
 40
0.03
100
AcDbArc
 50
149.0
 51
180.0
  0
ARC
  5
400
100
AcDbEntity
  8
R-DOOR-DETL
  6
CONTINUOUS
 62
     3
100
AcDbCircle
 10
14.986522
 20
14.308693
 30
0.0
 40
0.03
100
AcDbArc
 50
150.0
 51
180.0
  0
LINE
  5
401
100
AcDbEntity
  8
R-DOOR-DETL
  6
CONTINUOUS
 62
     3
100
AcDbLine
 10
14.556027
 20
14.317354
 30
0.0
 11
14.646027
 21
14.317354
 31
0.0
  0
ARC
  5
402
100
AcDbEntity
  8
R-DOOR-DETL
  6
CONTINUOUS
 62
     3
100
AcDbCircle
 10
14.556027
 20
14.332354
 30
0.0
 40
0.015
100
AcDbArc
 50
180.0
 51
270.0
  0
ARC
  5
403
100
AcDbEntity
  8
R-DOOR-DETL
  6
CONTINUOUS
 62
     3
100
AcDbCircle
 10
14.454872
 20
14.332354
 30
0.0
 40
0.015
100
AcDbArc
 50
270.0
 51
360.0
  0
LINE
  5
404
100
AcDbEntity
  8
R-DOOR-DETL
  6
CONTINUOUS
 62
     3
100
AcDbLine
 10
14.454872
 20
14.317354
 30
0.0
 11
14.364872
 21
14.317354
 31
0.0
  0
LINE
  5
405
100
AcDbEntity
  8
R-DOOR-DETL
  6
CONTINUOUS
 62
     3
100
AcDbLine
 10
14.597181
 20
14.218724
 30
0.0
 11
14.409181
 21
14.218724
 31
0.0
  0
ARC
  5
406
100
AcDbEntity
  8
R-DOOR-DETL
  6
CONTINUOUS
 62
     3
100
AcDbCircle
 10
14.064872
 20
14.25427
 30
0.0
 40
0.03
100
AcDbArc
 50
0.0
 51
31.0
  0
ARC
  5
407
100
AcDbEntity
  8
R-DOOR-DETL
  6
CONTINUOUS
 62
     3
100
AcDbCircle
 10
14.026522
 20
14.308693
 30
0.0
 40
0.03
100
AcDbArc
 50
0.0
 51
30.0
  0
LINE
  5
408
100
AcDbEntity
  8
R-DOOR-DETL
  6
CONTINUOUS
 62
     3
100
AcDbLine
 10
14.052503
 20
14.323693
 30
0.0
 11
14.056522
 21
14.316732
 31
0.0
  0
ARC
  5
409
100
AcDbEntity
  8
R-DOOR-DETL
  6
CONTINUOUS
 62
     3
100
AcDbCircle
 10
14.646027
 20
14.192354
 30
0.0
 40
0.125
100
AcDbArc
 50
360.0
 51
90.0
  0
ARC
  5
40A
100
AcDbEntity
  8
R-DOOR-DETL
  6
CONTINUOUS
 62
     3
100
AcDbCircle
 10
14.364872
 20
14.192354
 30
0.0
 40
0.125
100
AcDbArc
 50
90.0
 51
180.0
  0
LINE
  5
40B
100
AcDbEntity
  8
R-DOOR-DETL
  6
CONTINUOUS
 62
     3
100
AcDbLine
 10
14.920312
 20
14.269721
 30
0.0
 11
15.198404
 21
14.732545
 31
0.0
  0
LINE
  5
40C
100
AcDbEntity
  8
R-DOOR-DETL
  6
CONTINUOUS
 62
     3
100
AcDbLine
 10
14.960541
 20
14.323693
 30
0.0
 11
15.246157
 21
14.818393
 31
0.0
  0
LINE
  5
40D
100
AcDbEntity
  8
R-DOOR-DETL
  6
CONTINUOUS
 62
     3
100
AcDbLine
 10
14.541027
 20
14.447354
 30
0.0
 11
14.541027
 21
14.332354
 31
0.0
  0
LINE
  5
40E
100
AcDbEntity
  8
R-DOOR-DETL
  6
CONTINUOUS
 62
     3
100
AcDbLine
 10
14.469872
 20
14.447354
 30
0.0
 11
14.469872
 21
14.332354
 31
0.0
  0
LINE
  5
40F
100
AcDbEntity
  8
R-DOOR-DETL
  6
CONTINUOUS
 62
     3
100
AcDbLine
 10
14.090587
 20
14.269721
 30
0.0
 11
13.812494
 21
14.732545
 31
0.0
  0
LINE
  5
410
100
AcDbEntity
  8
R-DOOR-DETL
  6
CONTINUOUS
 62
     3
100
AcDbLine
 10
13.766887
 20
14.818393
 30
0.0
 11
14.052503
 21
14.323693
 31
0.0
  0
TEXT
  5
411
100
AcDbEntity
  8
0
100
AcDbText
 10
16.545732
 20
13.4334
 30
0.0
 40
0.36
  1
GLASS CLAMP
  7
ROMANS
100
AcDbText
  0
ARC
  5
412
100
AcDbEntity
  8
R-DOOR-DETL
  6
CONTINUOUS
 62
     3
100
AcDbCircle
 10
14.975353
 20
15.451046
 30
0.0
 40
0.094
100
AcDbArc
 50
27.0
 51
90.0
  0
LINE
  5
413
100
AcDbEntity
  8
R-DOOR-DETL
  6
CONTINUOUS
 62
     3
100
AcDbLine
 10
14.799594
 20
15.465834
 30
0.0
 11
14.799594
 21
15.535046
 31
0.0
  0
ARC
  5
414
100
AcDbEntity
  8
R-DOOR-DETL
  6
CONTINUOUS
 62
     3
100
AcDbCircle
 10
14.954352
 20
15.415991
 30
0.0
 40
0.04
100
AcDbArc
 50
24.0
 51
90.0
  0
ARC
  5
415
100
AcDbEntity
  8
R-DOOR-DETL
  6
CONTINUOUS
 62
     3
100
AcDbCircle
 10
14.809437
 20
15.465834
 30
0.0
 40
0.009842
100
AcDbArc
 50
180.0
 51
270.0
  0
LINE
  5
416
100
AcDbEntity
  8
R-DOOR-DETL
  6
CONTINUOUS
 62
     3
100
AcDbLine
 10
14.954352
 20
15.455991
 30
0.0
 11
14.809437
 21
15.455991
 31
0.0
  0
ARC
  5
417
100
AcDbEntity
  8
R-DOOR-DETL
  6
CONTINUOUS
 62
     3
100
AcDbCircle
 10
14.809594
 20
15.535046
 30
0.0
 40
0.01
100
AcDbArc
 50
90.0
 51
180.0
  0
LINE
  5
418
100
AcDbEntity
  8
R-DOOR-DETL
  6
CONTINUOUS
 62
     3
100
AcDbLine
 10
14.809594
 20
15.545046
 30
0.0
 11
14.975353
 21
15.545046
 31
0.0
  0
LINE
  5
419
100
AcDbEntity
  8
R-DOOR-DETL
  6
CONTINUOUS
 62
     3
100
AcDbLine
 10
14.904122
 20
15.371588
 30
0.0
 11
14.798162
 21
15.371588
 31
0.0
  0
LINE
  5
41A
100
AcDbEntity
  8
R-DOOR-DETL
  6
CONTINUOUS
 62
     3
100
AcDbLine
 10
14.798162
 20
15.324064
 30
0.0
 11
14.748162
 21
15.324064
 31
0.0
  0
ARC
  5
41B
100
AcDbEntity
  8
R-DOOR-DETL
  6
CONTINUOUS
 62
     3
100
AcDbCircle
 10
14.78832
 20
15.324064
 30
0.0
 40
0.009843
100
AcDbArc
 50
360.0
 51
70.528779
  0
ARC
  5
41C
100
AcDbEntity
  8
R-DOOR-DETL
  6
CONTINUOUS
 62
     3
100
AcDbCircle
 10
14.798162
 20
15.351903
 30
0.0
 40
0.019685
100
AcDbArc
 50
90.0
 51
250.528779
  0
ARC
  5
41D
100
AcDbEntity
  8
R-DOOR-DETL
  6
CONTINUOUS
 62
     3
100
AcDbCircle
 10
14.904122
 20
15.331588
 30
0.0
 40
0.04
100
AcDbArc
 50
2.612502
 51
90.0
  0
LINE
  5
41E
100
AcDbEntity
  8
R-DOOR-DETL
  6
CONTINUOUS
 62
     3
100
AcDbLine
 10
14.213449
 20
15.535046
 30
0.0
 11
14.213449
 21
15.465834
 31
0.0
  0
ARC
  5
41F
100
AcDbEntity
  8
R-DOOR-DETL
  6
CONTINUOUS
 62
     3
100
AcDbCircle
 10
14.037691
 20
15.451046
 30
0.0
 40
0.094
100
AcDbArc
 50
90.0
 51
153.0
  0
ARC
  5
420
100
AcDbEntity
  8
R-DOOR-DETL
  6
CONTINUOUS
 62
     3
100
AcDbCircle
 10
14.203607
 20
15.465834
 30
0.0
 40
0.009843
100
AcDbArc
 50
270.0
 51
0.0
  0
LINE
  5
421
100
AcDbEntity
  8
R-DOOR-DETL
  6
CONTINUOUS
 62
     3
100
AcDbLine
 10
14.203607
 20
15.455991
 30
0.0
 11
14.058691
 21
15.455991
 31
0.0
  0
ARC
  5
422
100
AcDbEntity
  8
R-DOOR-DETL
  6
CONTINUOUS
 62
     3
100
AcDbCircle
 10
14.058691
 20
15.415991
 30
0.0
 40
0.04
100
AcDbArc
 50
90.0
 51
156.0
  0
ARC
  5
423
100
AcDbEntity
  8
R-DOOR-DETL
  6
CONTINUOUS
 62
     3
100
AcDbCircle
 10
14.203449
 20
15.535046
 30
0.0
 40
0.01
100
AcDbArc
 50
360.0
 51
90.0
  0
LINE
  5
424
100
AcDbEntity
  8
R-DOOR-DETL
  6
CONTINUOUS
 62
     3
100
AcDbLine
 10
14.037691
 20
15.545046
 30
0.0
 11
14.203449
 21
15.545046
 31
0.0
  0
LINE
  5
425
100
AcDbEntity
  8
R-DOOR-DETL
  6
CONTINUOUS
 62
     3
100
AcDbLine
 10
14.106776
 20
15.371588
 30
0.0
 11
14.212736
 21
15.371588
 31
0.0
  0
ARC
  5
426
100
AcDbEntity
  8
R-DOOR-DETL
  6
CONTINUOUS
 62
     3
100
AcDbCircle
 10
14.222578
 20
15.324064
 30
0.0
 40
0.009843
100
AcDbArc
 50
109.471221
 51
180.0
  0
ARC
  5
427
100
AcDbEntity
  8
R-DOOR-DETL
  6
CONTINUOUS
 62
     3
100
AcDbCircle
 10
14.212736
 20
15.351903
 30
0.0
 40
0.019685
100
AcDbArc
 50
289.471221
 51
90.0
  0
ARC
  5
428
100
AcDbEntity
  8
R-DOOR-DETL
  6
CONTINUOUS
 62
     3
100
AcDbCircle
 10
14.106776
 20
15.331588
 30
0.0
 40
0.04
100
AcDbArc
 50
90.0
 51
177.387498
  0
LINE
  5
429
100
AcDbEntity
  8
R-DOOR-DETL
  6
CONTINUOUS
 62
     3
100
AcDbLine
 10
14.212736
 20
15.324064
 30
0.0
 11
14.262736
 21
15.324064
 31
0.0
  0
LINE
  5
42A
100
AcDbEntity
  8
R-DOOR-DETL
  6
CONTINUOUS
 62
     3
100
AcDbLine
 10
15.248057
 20
14.854663
 30
0.0
 11
14.990894
 21
15.432261
 31
0.0
  0
LINE
  5
42B
100
AcDbEntity
  8
R-DOOR-DETL
  6
CONTINUOUS
 62
     3
100
AcDbLine
 10
14.02215
 20
15.432261
 30
0.0
 11
13.764986
 21
14.854663
 31
0.0
  0
LINE
  5
42C
100
AcDbEntity
  8
R-DOOR-PATT
  6
CONTINUOUS
 62
     5
100
AcDbLine
 10
17.504044
 20
30.717763
 30
0.0
 11
16.735166
 21
29.948885
 31
0.0
  0
LINE
  5
42D
100
AcDbEntity
  8
R-DOOR-PATT
  6
CONTINUOUS
 62
     5
100
AcDbLine
 10
17.504044
 20
31.159705
 30
0.0
 11
16.293224
 21
29.948885
 31
0.0
  0
LINE
  5
42E
100
AcDbEntity
  8
R-DOOR-PATT
  6
CONTINUOUS
 62
     5
100
AcDbLine
 10
14.315748
 20
31.948885
 30
0.0
 11
12.315748
 21
29.948885
 31
0.0
  0
LINE
  5
42F
100
AcDbEntity
  8
R-DOOR-PATT
  6
CONTINUOUS
 62
     5
100
AcDbLine
 10
14.75769
 20
31.948885
 30
0.0
 11
12.75769
 21
29.948885
 31
0.0
  0
LINE
  5
430
100
AcDbEntity
  8
R-DOOR-PATT
  6
CONTINUOUS
 62
     5
100
AcDbLine
 10
16.525457
 20
31.948885
 30
0.0
 11
14.525457
 21
29.948885
 31
0.0
  0
LINE
  5
431
100
AcDbEntity
  8
R-DOOR-PATT
  6
CONTINUOUS
 62
     5
100
AcDbLine
 10
15.199632
 20
31.948885
 30
0.0
 11
13.199632
 21
29.948885
 31
0.0
  0
LINE
  5
432
100
AcDbEntity
  8
R-DOOR-PATT
  6
CONTINUOUS
 62
     5
100
AcDbLine
 10
15.641573
 20
31.948885
 30
0.0
 11
13.641573
 21
29.948885
 31
0.0
  0
LINE
  5
433
100
AcDbEntity
  8
R-DOOR-PATT
  6
CONTINUOUS
 62
     5
100
AcDbLine
 10
16.083515
 20
31.948885
 30
0.0
 11
14.083515
 21
29.948885
 31
0.0
  0
LINE
  5
434
100
AcDbEntity
  8
R-DOOR-PATT
  6
CONTINUOUS
 62
     5
100
AcDbLine
 10
17.504044
 20
31.601646
 30
0.0
 11
15.851282
 21
29.948885
 31
0.0
  0
LINE
  5
435
100
AcDbEntity
  8
R-DOOR-PATT
  6
CONTINUOUS
 62
     5
100
AcDbLine
 10
17.40934
 20
31.948885
 30
0.0
 11
15.40934
 21
29.948885
 31
0.0
  0
LINE
  5
436
100
AcDbEntity
  8
R-DOOR-PATT
  6
CONTINUOUS
 62
     5
100
AcDbLine
 10
16.967399
 20
31.948885
 30
0.0
 11
14.967399
 21
29.948885
 31
0.0
  0
LINE
  5
437
100
AcDbEntity
  8
R-DOOR-PATT
  6
CONTINUOUS
 62
     5
100
AcDbLine
 10
13.873807
 20
31.948885
 30
0.0
 11
11.873807
 21
29.948885
 31
0.0
  0
LINE
  5
438
100
AcDbEntity
  8
R-DOOR-PATT
  6
CONTINUOUS
 62
     5
100
AcDbLine
 10
13.431865
 20
31.948885
 30
0.0
 11
11.504044
 21
30.021064
 31
0.0
  0
LINE
  5
439
100
AcDbEntity
  8
R-DOOR-PATT
  6
CONTINUOUS
 62
     5
100
AcDbLine
 10
17.504044
 20
30.275821
 30
0.0
 11
17.177107
 21
29.948885
 31
0.0
  0
LINE
  5
43A
100
AcDbEntity
  8
0
  6
BYBLOCK
 62
     0
100
AcDbLine
 10
7.447966
 20
24.633885
 30
0.0
 11
7.447966
 21
21.104027
 31
0.0
  0
LINE
  5
43B
100
AcDbEntity
  8
R-DOOR-DETL
 62
     3
100
AcDbLine
 10
14.568742
 20
20.877793
 30
0.0
 11
14.568742
 21
24.94899
 31
0.0
  0
LINE
  5
43C
100
AcDbEntity
  8
R-DOOR-DETL
 62
     3
100
AcDbLine
 10
14.631242
 20
20.916524
 30
0.0
 11
14.631242
 21
24.94899
 31
0.0
  0
LINE
  5
43D
100
AcDbEntity
  8
R-DOOR-DETL
 62
     3
100
AcDbLine
 10
14.693742
 20
20.941216
 30
0.0
 11
14.693742
 21
24.94899
 31
0.0
  0
LINE
  5
43E
100
AcDbEntity
  8
R-DOOR-DETL
 62
     3
100
AcDbLine
 10
14.751242
 20
24.94899
 30
0.0
 11
14.751242
 21
20.92373
 31
0.0
  0
LINE
  5
43F
100
AcDbEntity
  8
R-DOOR-DETL
 62
     3
100
AcDbLine
 10
14.318742
 20
20.876909
 30
0.0
 11
14.318742
 21
24.94899
 31
0.0
  0
LINE
  5
440
100
AcDbEntity
  8
R-DOOR-DETL
 62
     3
100
AcDbLine
 10
14.381242
 20
20.887988
 30
0.0
 11
14.381242
 21
24.94899
 31
0.0
  0
LINE
  5
441
100
AcDbEntity
  8
R-DOOR-DETL
 62
     3
100
AcDbLine
 10
14.443742
 20
20.934863
 30
0.0
 11
14.443742
 21
24.94899
 31
0.0
  0
LINE
  5
442
100
AcDbEntity
  8
R-DOOR-DETL
 62
     3
100
AcDbLine
 10
14.259243
 20
20.919382
 30
0.0
 11
14.259243
 21
24.94899
 31
0.0
  0
LINE
  5
444
100
AcDbEntity
  8
R-DOOR-DETL
 62
     3
100
AcDbLine
 10
14.670783
 20
18.647892
 30
0.0
 11
14.545783
 21
18.554142
 31
0.0
  0
LINE
  5
445
100
AcDbEntity
  8
R-DOOR-DETL
 62
     3
100
AcDbLine
 10
14.358283
 20
18.554142
 30
0.0
 11
14.262736
 21
18.584245
 31
0.0
  0
LINE
  5
446
100
AcDbEntity
  8
R-DOOR-DETL
 62
     3
100
AcDbLine
 10
14.420783
 20
18.647892
 30
0.0
 11
14.358283
 21
18.554142
 31
0.0
  0
LINE
  5
447
100
AcDbEntity
  8
R-DOOR-DETL
 62
     3
100
AcDbLine
 10
14.545783
 20
18.554142
 30
0.0
 11
14.420783
 21
18.647892
 31
0.0
  0
LINE
  5
448
100
AcDbEntity
  8
R-DOOR-DETL
 62
     3
100
AcDbLine
 10
14.748162
 20
18.592655
 30
0.0
 11
14.670783
 21
18.647892
 31
0.0
  0
LINE
  5
449
100
AcDbEntity
  8
R-DOOR-DETL
 62
     3
100
AcDbLine
 10
14.468194
 20
20.953203
 30
0.0
 11
14.593194
 21
20.859453
 31
0.0
  0
LINE
  5
44A
100
AcDbEntity
  8
R-DOOR-DETL
 62
     3
100
AcDbLine
 10
14.593194
 20
20.859453
 30
0.0
 11
14.655694
 21
20.953203
 31
0.0
  0
LINE
  5
44B
100
AcDbEntity
  8
R-DOOR-DETL
 62
     3
100
AcDbLine
 10
14.259243
 20
20.919382
 30
0.0
 11
14.343194
 21
20.859453
 31
0.0
  0
LINE
  5
44C
100
AcDbEntity
  8
R-DOOR-DETL
 62
     3
100
AcDbLine
 10
14.343194
 20
20.859453
 30
0.0
 11
14.468194
 21
20.953203
 31
0.0
  0
LINE
  5
44D
100
AcDbEntity
  8
R-DOOR-DETL
 62
     3
100
AcDbLine
 10
14.655694
 20
20.953203
 30
0.0
 11
14.749243
 21
20.92373
 31
0.0
  0
LINE
  5
44F
100
AcDbEntity
  8
0
  6
BYBLOCK
 62
     0
100
AcDbLine
 10
13.894669
 20
24.948885
 30
0.0
 11
7.115109
 21
24.948885
 31
0.0
  0
LINE
  5
450
100
AcDbEntity
  8
0
  6
BYBLOCK
 62
     0
100
AcDbLine
 10
13.785294
 20
24.948885
 30
0.0
 11
7.132966
 21
24.948885
 31
0.0
  0
LINE
  5
451
100
AcDbEntity
  8
0
  6
BYBLOCK
 62
     0
100
AcDbLine
 10
14.004044
 20
24.948885
 30
0.0
 11
7.73947
 21
24.948885
 31
0.0
  0
SOLID
  5
452
100
AcDbEntity
  8
0
  6
BYBLOCK
 62
     0
100
AcDbTrace
 10
7.395466
 20
24.633885
 30
0.0
 11
7.500466
 21
24.633885
 31
0.0
 12
7.447966
 22
24.948885
 32
0.0
 13
7.447966
 23
24.948885
 33
0.0
  0
LINE
  5
453
100
AcDbEntity
  8
R-DOOR-DETL
  6
CONTINUOUS
 62
     3
100
AcDbLine
 10
15.184044
 20
26.660088
 30
0.0
 11
15.184044
 21
26.929885
 31
0.0
  0
LINE
  5
454
100
AcDbEntity
  8
R-DOOR-DETL
  6
CONTINUOUS
 62
     3
100
AcDbLine
 10
15.189044
 20
26.670088
 30
0.0
 11
15.189044
 21
26.840088
 31
0.0
  0
LINE
  5
455
100
AcDbEntity
  8
R-DOOR-DETL
  6
CONTINUOUS
 62
     3
100
AcDbLine
 10
13.824044
 20
26.929885
 30
0.0
 11
13.824044
 21
26.660088
 31
0.0
  0
LINE
  5
456
100
AcDbEntity
  8
R-DOOR-DETL
  6
CONTINUOUS
 62
     3
100
AcDbLine
 10
13.819044
 20
26.840088
 30
0.0
 11
13.819044
 21
26.670088
 31
0.0
  0
LINE
  5
458
100
AcDbEntity
  8
R-DOOR-DETL
  6
CONTINUOUS
 62
     3
100
AcDbLine
 10
15.435037
 20
27.933885
 30
0.0
 11
15.435037
 21
24.73545
 31
0.0
  0
LINE
  5
459
100
AcDbEntity
  8
R-DOOR-DETL
  6
CONTINUOUS
 62
     3
100
AcDbLine
 10
13.573051
 20
24.73545
 30
0.0
 11
13.573051
 21
27.933885
 31
0.0
  0
CIRCLE
  5
45A
100
AcDbEntity
  8
R-DOOR-DETL
  6
CONTINUOUS
 62
     3
100
AcDbCircle
 10
14.929044
 20
26.693885
 30
0.0
 40
0.1875
  0
CIRCLE
  5
45B
100
AcDbEntity
  8
R-DOOR-DETL
  6
CONTINUOUS
 62
     3
100
AcDbCircle
 10
14.929044
 20
26.693885
 30
0.0
 40
0.1625
  0
CIRCLE
  5
45C
100
AcDbEntity
  8
R-DOOR-DETL
  6
CONTINUOUS
 62
     3
100
AcDbCircle
 10
14.504044
 20
26.693885
 30
0.0
 40
0.1875
  0
CIRCLE
  5
45D
100
AcDbEntity
  8
R-DOOR-DETL
  6
CONTINUOUS
 62
     3
100
AcDbCircle
 10
14.504044
 20
26.693885
 30
0.0
 40
0.1625
  0
LINE
  5
45E
100
AcDbEntity
  8
R-DOOR-DETL
  6
CONTINUOUS
 62
     3
100
AcDbLine
 10
15.186544
 20
26.918885
 30
0.0
 11
15.186544
 21
26.368885
 31
0.0
  0
CIRCLE
  5
45F
100
AcDbEntity
  8
R-DOOR-DETL
  6
CONTINUOUS
 62
     3
100
AcDbCircle
 10
14.079044
 20
26.693885
 30
0.0
 40
0.1625
  0
LINE
  5
460
100
AcDbEntity
  8
R-DOOR-DETL
  6
CONTINUOUS
 62
     3
100
AcDbLine
 10
13.821544
 20
26.918885
 30
0.0
 11
13.821544
 21
26.368885
 31
0.0
  0
CIRCLE
  5
461
100
AcDbEntity
  8
R-DOOR-DETL
  6
CONTINUOUS
 62
     3
100
AcDbCircle
 10
14.079044
 20
26.693885
 30
0.0
 40
0.1875
  0
LINE
  5
462
100
AcDbEntity
  8
R-DOOR-DETL
  6
CONTINUOUS
 62
     3
100
AcDbLine
 10
14.544106
 20
25.01399
 30
0.0
 11
14.544106
 21
25.12899
 31
0.0
  0
LINE
  5
463
100
AcDbEntity
  8
R-DOOR-DETL
  6
CONTINUOUS
 62
     3
100
AcDbLine
 10
14.466379
 20
25.01399
 30
0.0
 11
14.466379
 21
25.12899
 31
0.0
  0
ARC
  5
464
100
AcDbEntity
  8
R-DOOR-DETL
  6
CONTINUOUS
 62
     3
100
AcDbCircle
 10
14.649106
 20
25.26899
 30
0.0
 40
0.125
100
AcDbArc
 50
270.0
 51
0.0
  0
ARC
  5
465
100
AcDbEntity
  8
R-DOOR-DETL
  6
CONTINUOUS
 62
     3
100
AcDbCircle
 10
14.361379
 20
25.26899
 30
0.0
 40
0.125
100
AcDbArc
 50
180.0
 51
270.0
  0
LINE
  5
466
100
AcDbEntity
  8
R-DOOR-DETL
  6
CONTINUOUS
 62
     3
100
AcDbLine
 10
15.243679
 20
24.645545
 30
0.0
 11
14.958063
 21
25.140246
 31
0.0
  0
LINE
  5
467
100
AcDbEntity
  8
R-DOOR-DETL
  6
CONTINUOUS
 62
     3
100
AcDbLine
 10
14.050025
 20
25.140246
 30
0.0
 11
13.764409
 21
24.645545
 31
0.0
  0
LINE
  5
468
100
AcDbEntity
  8
R-DOOR-DETL
  6
CONTINUOUS
 62
     3
100
AcDbLine
 10
14.923391
 20
25.191622
 30
0.0
 11
15.201484
 21
24.728799
 31
0.0
  0
LINE
  5
469
100
AcDbEntity
  8
R-DOOR-DETL
  6
CONTINUOUS
 62
     3
100
AcDbLine
 10
14.087094
 20
25.191622
 30
0.0
 11
13.809001
 21
24.728799
 31
0.0
  0
LWPOLYLINE
  5
46A
100
AcDbEntity
  8
R-DOOR-ANNO
  6
CONTINUOUS
100
AcDbPolyline
 90
        3
 70
     0
 43
0.0
 10
14.957161
 20
25.011814
 10
16.445312
 20
24.278846
 10
16.625312
 20
24.278846
1001
ACAD
1000
DSTYLE
1002
{
1070
   173
1070
     1
1070
     6
1000
_DOTSMALL
1002
}
  0
LINE
  5
46B
100
AcDbEntity
  8
R-DOOR-DETL
  6
CONTINUOUS
 62
     3
100
AcDbLine
 10
15.424791
 20
24.692775
 30
0.0
 11
15.05663
 21
23.970218
 31
0.0
  0
LINE
  5
46C
100
AcDbEntity
  8
R-DOOR-DETL
  6
CONTINUOUS
 62
     3
100
AcDbLine
 10
14.988416
 20
24.031678
 30
0.0
 11
15.245579
 21
24.609276
 31
0.0
  0
LINE
  5
46D
100
AcDbEntity
  8
R-DOOR-DETL
  6
CONTINUOUS
 62
     3
100
AcDbLine
 10
13.762509
 20
24.609276
 30
0.0
 11
14.019672
 21
24.031678
 31
0.0
  0
LINE
  5
46E
100
AcDbEntity
  8
R-DOOR-DETL
  6
CONTINUOUS
 62
     3
100
AcDbLine
 10
14.969551
 20
24.618662
 30
0.0
 11
14.94716
 21
24.127933
 31
0.0
  0
LINE
  5
46F
100
AcDbEntity
  8
R-DOOR-DETL
  6
CONTINUOUS
 62
     3
100
AcDbLine
 10
14.040934
 20
24.618662
 30
0.0
 11
14.063325
 21
24.127933
 31
0.0
  0
LINE
  5
470
100
AcDbEntity
  8
R-DOOR-DETL
  6
CONTINUOUS
 62
     3
100
AcDbLine
 10
13.951458
 20
23.970218
 30
0.0
 11
13.583297
 21
24.692775
 31
0.0
  0
LINE
  5
471
100
AcDbEntity
  8
R-DOOR-DETL
  6
CONTINUOUS
 62
     3
100
AcDbLine
 10
14.801242
 20
24.13728
 30
0.0
 11
14.801242
 21
24.989147
 31
0.0
  0
LINE
  5
472
100
AcDbEntity
  8
R-DOOR-DETL
  6
CONTINUOUS
 62
     3
100
AcDbLine
 10
14.209243
 20
24.13728
 30
0.0
 11
14.209243
 21
24.989147
 31
0.0
  0
LINE
  5
473
100
AcDbEntity
  8
R-DOOR-DETL
 62
     3
100
AcDbLine
 10
14.751242
 20
24.13728
 30
0.0
 11
14.751242
 21
24.88728
 31
0.0
  0
LINE
  5
474
100
AcDbEntity
  8
R-DOOR-DETL
 62
     3
100
AcDbLine
 10
14.801242
 20
24.88728
 30
0.0
 11
14.801242
 21
24.13728
 31
0.0
  0
LINE
  5
475
100
AcDbEntity
  8
R-DOOR-DETL
 62
     3
100
AcDbLine
 10
14.259243
 20
24.13728
 30
0.0
 11
14.259243
 21
24.88728
 31
0.0
  0
LINE
  5
476
100
AcDbEntity
  8
R-DOOR-DETL
 62
     3
100
AcDbLine
 10
14.209243
 20
24.88728
 30
0.0
 11
14.209243
 21
24.13728
 31
0.0
  0
ARC
  5
477
100
AcDbEntity
  8
R-DOOR-DETL
  6
CONTINUOUS
 62
     3
100
AcDbCircle
 10
14.951875
 20
24.047948
 30
0.0
 40
0.04
100
AcDbArc
 50
270.0
 51
336.0
  0
ARC
  5
478
100
AcDbEntity
  8
R-DOOR-DETL
  6
CONTINUOUS
 62
     3
100
AcDbCircle
 10
14.806959
 20
23.998105
 30
0.0
 40
0.009842
100
AcDbArc
 50
90.0
 51
180.0
  0
LINE
  5
479
100
AcDbEntity
  8
R-DOOR-DETL
  6
CONTINUOUS
 62
     3
100
AcDbLine
 10
14.806959
 20
24.007948
 30
0.0
 11
14.951875
 21
24.007948
 31
0.0
  0
ARC
  5
47A
100
AcDbEntity
  8
R-DOOR-DETL
  6
CONTINUOUS
 62
     3
100
AcDbCircle
 10
14.201129
 20
23.998105
 30
0.0
 40
0.009843
100
AcDbArc
 50
0.0
 51
90.0
  0
LINE
  5
47B
100
AcDbEntity
  8
R-DOOR-DETL
  6
CONTINUOUS
 62
     3
100
AcDbLine
 10
14.056213
 20
24.007948
 30
0.0
 11
14.201129
 21
24.007948
 31
0.0
  0
ARC
  5
47C
100
AcDbEntity
  8
R-DOOR-DETL
  6
CONTINUOUS
 62
     3
100
AcDbCircle
 10
14.056213
 20
24.047948
 30
0.0
 40
0.04
100
AcDbArc
 50
204.0
 51
270.0
  0
ARC
  5
47D
100
AcDbEntity
  8
R-DOOR-DETL
  6
CONTINUOUS
 62
     3
100
AcDbCircle
 10
14.907201
 20
24.129756
 30
0.0
 40
0.04
100
AcDbArc
 50
270.0
 51
357.387498
  0
LINE
  5
47E
100
AcDbEntity
  8
R-DOOR-DETL
 62
     3
100
AcDbLine
 10
14.801242
 20
24.13728
 30
0.0
 11
14.751242
 21
24.13728
 31
0.0
  0
ARC
  5
47F
100
AcDbEntity
  8
R-DOOR-DETL
  6
CONTINUOUS
 62
     3
100
AcDbCircle
 10
14.791399
 20
24.13728
 30
0.0
 40
0.009842
100
AcDbArc
 50
289.471221
 51
360.0
  0
ARC
  5
480
100
AcDbEntity
  8
R-DOOR-DETL
  6
CONTINUOUS
 62
     3
100
AcDbCircle
 10
14.801242
 20
24.109441
 30
0.0
 40
0.019685
100
AcDbArc
 50
109.471221
 51
270.0
  0
LINE
  5
481
100
AcDbEntity
  8
R-DOOR-DETL
  6
CONTINUOUS
 62
     3
100
AcDbLine
 10
14.907201
 20
24.089756
 30
0.0
 11
14.801242
 21
24.089756
 31
0.0
  0
ARC
  5
482
100
AcDbEntity
  8
R-DOOR-DETL
  6
CONTINUOUS
 62
     3
100
AcDbCircle
 10
14.219086
 20
24.13728
 30
0.0
 40
0.009842
100
AcDbArc
 50
180.0
 51
250.528779
  0
ARC
  5
483
100
AcDbEntity
  8
R-DOOR-DETL
  6
CONTINUOUS
 62
     3
100
AcDbCircle
 10
14.209243
 20
24.109441
 30
0.0
 40
0.019685
100
AcDbArc
 50
270.0
 51
70.528779
  0
LINE
  5
484
100
AcDbEntity
  8
R-DOOR-DETL
  6
CONTINUOUS
 62
     3
100
AcDbLine
 10
14.103284
 20
24.089756
 30
0.0
 11
14.209243
 21
24.089756
 31
0.0
  0
ARC
  5
485
100
AcDbEntity
  8
R-DOOR-DETL
  6
CONTINUOUS
 62
     3
100
AcDbCircle
 10
14.103284
 20
24.129756
 30
0.0
 40
0.04
100
AcDbArc
 50
182.612502
 51
270.0
  0
LINE
  5
486
100
AcDbEntity
  8
R-DOOR-DETL
 62
     3
100
AcDbLine
 10
14.209243
 20
24.13728
 30
0.0
 11
14.259243
 21
24.13728
 31
0.0
  0
ARC
  5
487
100
AcDbEntity
  8
R-DOOR-DETL
  6
CONTINUOUS
 62
     3
100
AcDbCircle
 10
14.807117
 20
23.928893
 30
0.0
 40
0.01
100
AcDbArc
 50
180.0
 51
270.0
  0
LINE
  5
488
100
AcDbEntity
  8
R-DOOR-DETL
  6
CONTINUOUS
 62
     3
100
AcDbLine
 10
14.972875
 20
23.918893
 30
0.0
 11
14.807117
 21
23.918893
 31
0.0
  0
ARC
  5
489
100
AcDbEntity
  8
R-DOOR-DETL
  6
CONTINUOUS
 62
     3
100
AcDbCircle
 10
14.200971
 20
23.928893
 30
0.0
 40
0.01
100
AcDbArc
 50
270.0
 51
360.0
  0
LINE
  5
48A
100
AcDbEntity
  8
R-DOOR-DETL
  6
CONTINUOUS
 62
     3
100
AcDbLine
 10
14.200971
 20
23.918893
 30
0.0
 11
14.035213
 21
23.918893
 31
0.0
  0
LINE
  5
48B
100
AcDbEntity
  8
R-DOOR-DETL
  6
CONTINUOUS
 62
     3
100
AcDbLine
 10
14.797117
 20
23.928893
 30
0.0
 11
14.797117
 21
23.998105
 31
0.0
  0
ARC
  5
48C
100
AcDbEntity
  8
R-DOOR-DETL
  6
CONTINUOUS
 62
     3
100
AcDbCircle
 10
14.972875
 20
24.012893
 30
0.0
 40
0.094
100
AcDbArc
 50
270.0
 51
333.0
  0
LINE
  5
48D
100
AcDbEntity
  8
R-DOOR-DETL
  6
CONTINUOUS
 62
     3
100
AcDbLine
 10
14.210971
 20
23.998105
 30
0.0
 11
14.210971
 21
23.928893
 31
0.0
  0
ARC
  5
48E
100
AcDbEntity
  8
R-DOOR-DETL
  6
CONTINUOUS
 62
     3
100
AcDbCircle
 10
14.035213
 20
24.012893
 30
0.0
 40
0.094
100
AcDbArc
 50
207.0
 51
270.0
  0
LINE
  5
48F
100
AcDbEntity
  8
R-DOOR-DETL
 62
     3
100
AcDbLine
 10
14.751242
 20
24.88728
 30
0.0
 11
14.801242
 21
24.88728
 31
0.0
  0
LINE
  5
490
100
AcDbEntity
  8
R-DOOR-DETL
 62
     3
100
AcDbLine
 10
14.259243
 20
24.88728
 30
0.0
 11
14.209243
 21
24.88728
 31
0.0
  0
INSERT
  5
491
100
AcDbEntity
  8
R-DOOR-ANNO
  6
CONTINUOUS
100
AcDbBlockReference
  2
_DOTSMALL
 10
14.957161
 20
25.011814
 30
0.0
 41
0.18
 42
0.18
 43
0.18
 50
90.385713
1001
ACAD
1000
DSTYLE
1002
{
1070
   173
1070
     1
1070
     6
1000
_DOTSMALL
1002
}
  0
LINE
  5
492
100
AcDbEntity
  8
R-DOOR-DETL
 62
     3
100
AcDbLine
 10
14.791399
 20
24.99899
 30
0.0
 11
14.791399
 21
24.94899
 31
0.0
  0
ARC
  5
493
100
AcDbEntity
  8
R-DOOR-DETL
  6
CONTINUOUS
 62
     3
100
AcDbCircle
 10
14.791399
 20
24.989147
 30
0.0
 40
0.009842
100
AcDbArc
 50
360.0
 51
90.0
  0
LINE
  5
494
100
AcDbEntity
  8
R-DOOR-DETL
 62
     3
100
AcDbLine
 10
14.464322
 20
24.94899
 30
0.0
 11
14.464322
 21
24.99899
 31
0.0
  0
LINE
  5
495
100
AcDbEntity
  8
R-DOOR-DETL
 62
     3
100
AcDbLine
 10
14.541399
 20
24.94899
 30
0.0
 11
14.541399
 21
24.99899
 31
0.0
  0
ARC
  5
496
100
AcDbEntity
  8
R-DOOR-DETL
  6
CONTINUOUS
 62
     3
100
AcDbCircle
 10
14.559106
 20
25.01399
 30
0.0
 40
0.015
100
AcDbArc
 50
180.0
 51
270.0
  0
ARC
  5
497
100
AcDbEntity
  8
R-DOOR-DETL
  6
CONTINUOUS
 62
     3
100
AcDbCircle
 10
14.451379
 20
25.01399
 30
0.0
 40
0.015
100
AcDbArc
 50
270.0
 51
0.0
  0
LINE
  5
498
100
AcDbEntity
  8
R-DOOR-DETL
 62
     3
100
AcDbLine
 10
14.318742
 20
24.94899
 30
0.0
 11
14.693742
 21
24.94899
 31
0.0
  0
LINE
  5
499
100
AcDbEntity
  8
R-DOOR-DETL
 62
     3
100
AcDbLine
 10
14.791399
 20
24.94899
 30
0.0
 11
14.541399
 21
24.94899
 31
0.0
  0
LINE
  5
49A
100
AcDbEntity
  8
R-DOOR-DETL
 62
     3
100
AcDbLine
 10
14.541399
 20
24.99899
 30
0.0
 11
14.791399
 21
24.99899
 31
0.0
  0
LINE
  5
49B
100
AcDbEntity
  8
R-DOOR-DETL
  6
CONTINUOUS
 62
     3
100
AcDbLine
 10
14.791399
 20
24.99899
 30
0.0
 11
14.559106
 21
24.99899
 31
0.0
  0
LINE
  5
49C
100
AcDbEntity
  8
R-DOOR-DETL
 62
     3
100
AcDbLine
 10
14.749243
 20
24.94899
 30
0.0
 11
14.259243
 21
24.94899
 31
0.0
  0
LINE
  5
49D
100
AcDbEntity
  8
R-DOOR-DETL
 62
     3
100
AcDbLine
 10
14.261242
 20
24.94899
 30
0.0
 11
14.751242
 21
24.94899
 31
0.0
  0
LINE
  5
49E
100
AcDbEntity
  8
R-DOOR-DETL
 62
     3
100
AcDbLine
 10
14.214322
 20
24.99899
 30
0.0
 11
14.214322
 21
24.94899
 31
0.0
  0
POINT
  5
49F
100
AcDbEntity
  8
DEFPOINTS
  6
BYBLOCK
 62
     0
100
AcDbPoint
 10
14.129044
 20
24.948885
 30
0.0
  0
POINT
  5
4A0
100
AcDbEntity
  8
DEFPOINTS
  6
BYBLOCK
 62
     0
100
AcDbPoint
 10
14.004044
 20
24.948885
 30
0.0
  0
POINT
  5
4A1
100
AcDbEntity
  8
DEFPOINTS
  6
BYBLOCK
 62
     0
100
AcDbPoint
 10
13.894669
 20
24.948885
 30
0.0
  0
ARC
  5
4A2
100
AcDbEntity
  8
R-DOOR-DETL
  6
CONTINUOUS
 62
     3
100
AcDbCircle
 10
14.219086
 20
24.989147
 30
0.0
 40
0.009843
100
AcDbArc
 50
90.0
 51
180.0
  0
LINE
  5
4A3
100
AcDbEntity
  8
R-DOOR-DETL
  6
CONTINUOUS
 62
     3
100
AcDbLine
 10
14.219086
 20
24.99899
 30
0.0
 11
14.451379
 21
24.99899
 31
0.0
  0
LINE
  5
4A4
100
AcDbEntity
  8
R-DOOR-DETL
 62
     3
100
AcDbLine
 10
14.214322
 20
24.94899
 30
0.0
 11
14.464322
 21
24.94899
 31
0.0
  0
LINE
  5
4A5
100
AcDbEntity
  8
R-DOOR-DETL
 62
     3
100
AcDbLine
 10
14.464322
 20
24.99899
 30
0.0
 11
14.214322
 21
24.99899
 31
0.0
  0
LINE
  5
4A6
100
AcDbEntity
  8
R-DOOR-DETL
  6
CONTINUOUS
 62
     3
100
AcDbLine
 10
15.115767
 20
24.647295
 30
0.0
 11
14.99952
 21
24.647295
 31
0.0
  0
ARC
  5
4A7
100
AcDbEntity
  8
R-DOOR-DETL
  6
CONTINUOUS
 62
     3
100
AcDbCircle
 10
14.99952
 20
24.617295
 30
0.0
 40
0.03
100
AcDbArc
 50
90.0
 51
177.387498
  0
ARC
  5
4A8
100
AcDbEntity
  8
R-DOOR-DETL
  6
CONTINUOUS
 62
     3
100
AcDbCircle
 10
15.209038
 20
24.625545
 30
0.0
 40
0.04
100
AcDbArc
 50
336.0
 51
30.0
  0
LINE
  5
4A9
100
AcDbEntity
  8
R-DOOR-DETL
  6
CONTINUOUS
 62
     3
100
AcDbLine
 10
15.19122
 20
24.687633
 30
0.0
 11
15.131218
 21
24.65158
 31
0.0
  0
ARC
  5
4AA
100
AcDbEntity
  8
R-DOOR-DETL
  6
CONTINUOUS
 62
     3
100
AcDbCircle
 10
15.115767
 20
24.677295
 30
0.0
 40
0.03
100
AcDbArc
 50
270.0
 51
301.0
  0
ARC
  5
4AB
100
AcDbEntity
  8
R-DOOR-DETL
  6
CONTINUOUS
 62
     3
100
AcDbCircle
 10
15.175768
 20
24.713348
 30
0.0
 40
0.03
100
AcDbArc
 50
301.0
 51
31.0
  0
ARC
  5
4AC
100
AcDbEntity
  8
R-DOOR-DETL
  6
CONTINUOUS
 62
     3
100
AcDbCircle
 10
15.341037
 20
24.73545
 30
0.0
 40
0.094
100
AcDbArc
 50
333.0
 51
360.0
  0
LINE
  5
4AD
100
AcDbEntity
  8
R-DOOR-DETL
  6
CONTINUOUS
 62
     3
100
AcDbLine
 10
13.819265
 20
24.687633
 30
0.0
 11
13.879267
 21
24.65158
 31
0.0
  0
ARC
  5
4AE
100
AcDbEntity
  8
R-DOOR-DETL
  6
CONTINUOUS
 62
     3
100
AcDbCircle
 10
13.79905
 20
24.625545
 30
0.0
 40
0.04
100
AcDbArc
 50
150.0
 51
204.0
  0
LINE
  5
4AF
100
AcDbEntity
  8
R-DOOR-DETL
  6
CONTINUOUS
 62
     3
100
AcDbLine
 10
13.894718
 20
24.647295
 30
0.0
 11
14.010965
 21
24.647295
 31
0.0
  0
ARC
  5
4B0
100
AcDbEntity
  8
R-DOOR-DETL
  6
CONTINUOUS
 62
     3
100
AcDbCircle
 10
13.894718
 20
24.677295
 30
0.0
 40
0.03
100
AcDbArc
 50
239.0
 51
270.0
  0
ARC
  5
4B1
100
AcDbEntity
  8
R-DOOR-DETL
  6
CONTINUOUS
 62
     3
100
AcDbCircle
 10
14.010965
 20
24.617295
 30
0.0
 40
0.03
100
AcDbArc
 50
2.612502
 51
90.0
  0
ARC
  5
4B2
100
AcDbEntity
  8
R-DOOR-DETL
  6
CONTINUOUS
 62
     3
100
AcDbCircle
 10
13.834716
 20
24.713348
 30
0.0
 40
0.03
100
AcDbArc
 50
149.0
 51
239.0
  0
ARC
  5
4B3
100
AcDbEntity
  8
R-DOOR-DETL
  6
CONTINUOUS
 62
     3
100
AcDbCircle
 10
13.667051
 20
24.73545
 30
0.0
 40
0.094
100
AcDbArc
 50
180.0
 51
207.0
  0
ARC
  5
4B4
100
AcDbEntity
  8
R-DOOR-DETL
  6
CONTINUOUS
 62
     3
100
AcDbCircle
 10
13.667051
 20
24.73545
 30
0.0
 40
0.094
100
AcDbArc
 50
180.0
 51
207.0
  0
TEXT
  5
4B5
100
AcDbEntity
  8
0
100
AcDbText
 10
16.683883
 20
24.098846
 30
0.0
 40
0.36
  1
GLASS CLAMP
  7
ROMANS
100
AcDbText
  0
LINE
  5
4B6
100
AcDbEntity
  8
R-DOOR-DETL
  6
CONTINUOUS
 62
     3
100
AcDbLine
 10
15.007333
 20
26.087885
 30
0.0
 11
15.007333
 21
25.927842
 31
0.0
  0
LINE
  5
4B7
100
AcDbEntity
  8
R-DOOR-DETL
  6
CONTINUOUS
 62
     3
100
AcDbLine
 10
14.000755
 20
25.927842
 30
0.0
 11
14.000755
 21
26.087885
 31
0.0
  0
LINE
  5
4B8
100
AcDbEntity
  8
R-DOOR-ANNO
  6
CONTINUOUS
100
AcDbLine
 10
13.639604
 20
26.041924
 30
0.0
 11
12.568551
 21
25.446034
 31
0.0
1001
ACAD
1000
DSTYLE
1002
{
1070
   173
1070
     1
1070
     6
1000
_DOTSMALL
1002
}
  0
LINE
  5
4B9
100
AcDbEntity
  8
R-DOOR-ANNO
  6
CONTINUOUS
100
AcDbLine
 10
12.568551
 20
25.446034
 30
0.0
 11
12.388552
 21
25.446635
 31
0.0
1001
ACAD
1000
DSTYLE
1002
{
1070
   173
1070
     1
1070
     6
1000
_DOTSMALL
1002
}
  0
TEXT
  5
4BA
100
AcDbEntity
  8
0
100
AcDbText
 10
10.9294
 20
25.259575
 30
0.0
 40
0.36
  1
SHOE
  7
ROMANS
100
AcDbText
  0
ARC
  5
4BB
100
AcDbEntity
  8
R-DOOR-DETL
  6
CONTINUOUS
 62
     3
100
AcDbCircle
 10
15.118037
 20
25.839584
 30
0.0
 40
0.059055
100
AcDbArc
 50
241.689936
 51
130.814986
  0
ARC
  5
4BC
100
AcDbEntity
  8
R-DOOR-DETL
  6
CONTINUOUS
 62
     3
100
AcDbCircle
 10
15.057483
 20
25.75068
 30
0.0
 40
0.049213
100
AcDbArc
 50
48.596013
 51
99.750077
  0
ARC
  5
4BD
100
AcDbEntity
  8
R-DOOR-DETL
  6
CONTINUOUS
 62
     3
100
AcDbCircle
 10
15.056545
 20
25.927842
 30
0.0
 40
0.049213
100
AcDbArc
 50
180.0
 51
297.721062
  0
LINE
  5
4BE
100
AcDbEntity
  8
R-DOOR-DETL
  6
CONTINUOUS
 62
     3
100
AcDbLine
 10
15.049149
 20
25.799181
 30
0.0
 11
14.504044
 21
25.799181
 31
0.0
  0
ARC
  5
4BF
100
AcDbEntity
  8
R-DOOR-DETL
  6
CONTINUOUS
 62
     3
100
AcDbCircle
 10
13.890051
 20
25.839584
 30
0.0
 40
0.059055
100
AcDbArc
 50
49.185014
 51
298.310064
  0
ARC
  5
4C0
100
AcDbEntity
  8
R-DOOR-DETL
  6
CONTINUOUS
 62
     3
100
AcDbCircle
 10
13.951543
 20
25.927842
 30
0.0
 40
0.049213
100
AcDbArc
 50
242.278938
 51
0.0
  0
ARC
  5
4C1
100
AcDbEntity
  8
R-DOOR-DETL
  6
CONTINUOUS
 62
     3
100
AcDbCircle
 10
13.950605
 20
25.75068
 30
0.0
 40
0.049212
100
AcDbArc
 50
80.249923
 51
131.403987
  0
LINE
  5
4C2
100
AcDbEntity
  8
R-DOOR-DETL
  6
CONTINUOUS
 62
     3
100
AcDbLine
 10
14.504044
 20
25.799181
 30
0.0
 11
13.958939
 21
25.799181
 31
0.0
  0
ARC
  5
4C3
100
AcDbEntity
  8
R-DOOR-DETL
  6
CONTINUOUS
 62
     3
100
AcDbCircle
 10
14.894044
 20
25.589181
 30
0.0
 40
0.06
100
AcDbArc
 50
0.0
 51
90.0
  0
ARC
  5
4C4
100
AcDbEntity
  8
R-DOOR-DETL
  6
CONTINUOUS
 62
     3
100
AcDbCircle
 10
14.759106
 20
25.39599
 30
0.0
 40
0.015
100
AcDbArc
 50
0.0
 51
90.0
  0
ARC
  5
4C5
100
AcDbEntity
  8
R-DOOR-DETL
  6
CONTINUOUS
 62
     3
100
AcDbCircle
 10
14.825106
 20
25.46199
 30
0.0
 40
0.094
100
AcDbArc
 50
0.0
 51
90.0
  0
ARC
  5
4C6
100
AcDbEntity
  8
R-DOOR-DETL
  6
CONTINUOUS
 62
     3
100
AcDbCircle
 10
14.949106
 20
25.207073
 30
0.0
 40
0.03
100
AcDbArc
 50
180.0
 51
211.0
  0
LINE
  5
4C7
100
AcDbEntity
  8
R-DOOR-DETL
  6
CONTINUOUS
 62
     3
100
AcDbLine
 10
14.919106
 20
25.46199
 30
0.0
 11
14.919106
 21
25.207073
 31
0.0
  0
LINE
  5
4C8
100
AcDbEntity
  8
R-DOOR-DETL
  6
CONTINUOUS
 62
     3
100
AcDbLine
 10
14.774106
 20
25.26899
 30
0.0
 11
14.774106
 21
25.39599
 31
0.0
  0
LINE
  5
4C9
100
AcDbEntity
  8
R-DOOR-DETL
 62
     3
100
AcDbLine
 10
14.759027
 20
25.275349
 30
0.0
 11
14.759027
 21
25.400349
 31
0.0
  0
LINE
  5
4CA
100
AcDbEntity
  8
R-DOOR-DETL
  6
CONTINUOUS
 62
     3
100
AcDbLine
 10
14.658106
 20
25.42599
 30
0.0
 11
14.658106
 21
25.54099
 31
0.0
  0
ARC
  5
4CB
100
AcDbEntity
  8
R-DOOR-DETL
  6
CONTINUOUS
 62
     3
100
AcDbCircle
 10
14.673106
 20
25.42599
 30
0.0
 40
0.015
100
AcDbArc
 50
180.0
 51
270.0
  0
ARC
  5
4CC
100
AcDbEntity
  8
R-DOOR-DETL
  6
CONTINUOUS
 62
     3
100
AcDbCircle
 10
14.673106
 20
25.54099
 30
0.0
 40
0.015
100
AcDbArc
 50
90.0
 51
180.0
  0
ARC
  5
4CD
100
AcDbEntity
  8
R-DOOR-DETL
  6
CONTINUOUS
 62
     3
100
AcDbCircle
 10
14.337379
 20
25.42599
 30
0.0
 40
0.015
100
AcDbArc
 50
270.0
 51
360.0
  0
ARC
  5
4CE
100
AcDbEntity
  8
R-DOOR-DETL
  6
CONTINUOUS
 62
     3
100
AcDbCircle
 10
14.337379
 20
25.54099
 30
0.0
 40
0.015
100
AcDbArc
 50
0.0
 51
90.0
  0
LINE
  5
4CF
100
AcDbEntity
  8
R-DOOR-DETL
  6
CONTINUOUS
 62
     3
100
AcDbLine
 10
14.251379
 20
25.41099
 30
0.0
 11
14.337379
 21
25.41099
 31
0.0
  0
LINE
  5
4D0
100
AcDbEntity
  8
R-DOOR-DETL
  6
CONTINUOUS
 62
     3
100
AcDbLine
 10
14.352379
 20
25.42599
 30
0.0
 11
14.352379
 21
25.54099
 31
0.0
  0
LINE
  5
4D1
100
AcDbEntity
  8
R-DOOR-DETL
 62
     3
100
AcDbLine
 10
14.259027
 20
25.275349
 30
0.0
 11
14.259027
 21
25.400349
 31
0.0
  0
LINE
  5
4D2
100
AcDbEntity
  8
R-DOOR-DETL
  6
CONTINUOUS
 62
     3
100
AcDbLine
 10
14.409181
 20
25.365215
 30
0.0
 11
14.597181
 21
25.365215
 31
0.0
  0
LINE
  5
4D3
100
AcDbEntity
  8
R-DOOR-DETL
  6
CONTINUOUS
 62
     3
100
AcDbLine
 10
14.379181
 20
25.335215
 30
0.0
 11
14.627181
 21
25.335215
 31
0.0
  0
LINE
  5
4D4
100
AcDbEntity
  8
R-DOOR-DETL
  6
CONTINUOUS
 62
     3
100
AcDbLine
 10
14.409181
 20
25.425215
 30
0.0
 11
14.597181
 21
25.425215
 31
0.0
  0
LINE
  5
4D5
100
AcDbEntity
  8
R-DOOR-DETL
  6
CONTINUOUS
 62
     3
100
AcDbLine
 10
14.409181
 20
25.545215
 30
0.0
 11
14.597181
 21
25.545215
 31
0.0
  0
LINE
  5
4D6
100
AcDbEntity
  8
R-DOOR-DETL
  6
CONTINUOUS
 62
     3
100
AcDbLine
 10
14.409181
 20
25.605215
 30
0.0
 11
14.597181
 21
25.605215
 31
0.0
  0
LINE
  5
4D7
100
AcDbEntity
  8
R-DOOR-DETL
  6
CONTINUOUS
 62
     3
100
AcDbLine
 10
14.409181
 20
25.485215
 30
0.0
 11
14.597181
 21
25.485215
 31
0.0
  0
LINE
  5
4D8
100
AcDbEntity
  8
R-DOOR-DETL
  6
CONTINUOUS
 62
     3
100
AcDbLine
 10
14.379181
 20
25.455215
 30
0.0
 11
14.627181
 21
25.455215
 31
0.0
  0
LINE
  5
4D9
100
AcDbEntity
  8
R-DOOR-DETL
  6
CONTINUOUS
 62
     3
100
AcDbLine
 10
14.379181
 20
25.575215
 30
0.0
 11
14.627181
 21
25.575215
 31
0.0
  0
LINE
  5
4DA
100
AcDbEntity
  8
R-DOOR-DETL
  6
CONTINUOUS
 62
     3
100
AcDbLine
 10
14.379181
 20
25.515215
 30
0.0
 11
14.627181
 21
25.515215
 31
0.0
  0
LINE
  5
4DB
100
AcDbEntity
  8
R-DOOR-DETL
  6
CONTINUOUS
 62
     3
100
AcDbLine
 10
14.379181
 20
25.395215
 30
0.0
 11
14.627181
 21
25.395215
 31
0.0
  0
LINE
  5
4DC
100
AcDbEntity
  8
R-DOOR-DETL
  6
CONTINUOUS
 62
     3
100
AcDbLine
 10
14.379181
 20
25.635215
 30
0.0
 11
14.627181
 21
25.635215
 31
0.0
  0
LINE
  5
4DD
100
AcDbEntity
  8
R-DOOR-DETL
  6
CONTINUOUS
 62
     3
100
AcDbLine
 10
14.627181
 20
25.649181
 30
0.0
 11
14.379181
 21
25.649181
 31
0.0
  0
LINE
  5
4DE
100
AcDbEntity
  8
R-DOOR-DETL
  6
CONTINUOUS
 62
     3
100
AcDbLine
 10
14.409181
 20
25.245215
 30
0.0
 11
14.597181
 21
25.245215
 31
0.0
  0
LINE
  5
4DF
100
AcDbEntity
  8
R-DOOR-DETL
  6
CONTINUOUS
 62
     3
100
AcDbLine
 10
14.409181
 20
25.305215
 30
0.0
 11
14.597181
 21
25.305215
 31
0.0
  0
LINE
  5
4E0
100
AcDbEntity
  8
R-DOOR-DETL
  6
CONTINUOUS
 62
     3
100
AcDbLine
 10
14.379181
 20
25.275215
 30
0.0
 11
14.627181
 21
25.275215
 31
0.0
  0
LINE
  5
4E1
100
AcDbEntity
  8
R-DOOR-DETL
  6
CONTINUOUS
 62
     3
100
AcDbLine
 10
14.759106
 20
25.41099
 30
0.0
 11
14.673106
 21
25.41099
 31
0.0
  0
LINE
  5
4E2
100
AcDbEntity
  8
R-DOOR-DETL
  6
CONTINUOUS
 62
     3
100
AcDbLine
 10
14.673106
 20
25.55599
 30
0.0
 11
14.825106
 21
25.55599
 31
0.0
  0
LINE
  5
4E3
100
AcDbEntity
  8
R-DOOR-DETL
  6
CONTINUOUS
 62
     3
100
AcDbLine
 10
14.894044
 20
25.649181
 30
0.0
 11
14.504044
 21
25.649181
 31
0.0
  0
LINE
  5
4E4
100
AcDbEntity
  8
R-DOOR-DETL
 62
     3
100
AcDbLine
 10
14.259027
 20
25.400349
 30
0.0
 11
14.759027
 21
25.400349
 31
0.0
  0
LINE
  5
4E5
100
AcDbEntity
  8
R-DOOR-DETL
 62
     3
100
AcDbLine
 10
14.259027
 20
25.275349
 30
0.0
 11
14.759027
 21
25.275349
 31
0.0
  0
ARC
  5
4E6
100
AcDbEntity
  8
R-DOOR-DETL
  6
CONTINUOUS
 62
     3
100
AcDbCircle
 10
14.185379
 20
25.46199
 30
0.0
 40
0.094
100
AcDbArc
 50
90.0
 51
180.0
  0
ARC
  5
4E7
100
AcDbEntity
  8
R-DOOR-DETL
  6
CONTINUOUS
 62
     3
100
AcDbCircle
 10
14.114044
 20
25.589181
 30
0.0
 40
0.06
100
AcDbArc
 50
90.0
 51
180.0
  0
ARC
  5
4E8
100
AcDbEntity
  8
R-DOOR-DETL
  6
CONTINUOUS
 62
     3
100
AcDbCircle
 10
14.061379
 20
25.207073
 30
0.0
 40
0.03
100
AcDbArc
 50
329.0
 51
0.0
  0
LINE
  5
4E9
100
AcDbEntity
  8
R-DOOR-DETL
  6
CONTINUOUS
 62
     3
100
AcDbLine
 10
14.236379
 20
25.26899
 30
0.0
 11
14.236379
 21
25.39599
 31
0.0
  0
LINE
  5
4EA
100
AcDbEntity
  8
R-DOOR-DETL
  6
CONTINUOUS
 62
     3
100
AcDbLine
 10
14.091379
 20
25.46199
 30
0.0
 11
14.091379
 21
25.207073
 31
0.0
  0
ARC
  5
4EB
100
AcDbEntity
  8
R-DOOR-DETL
  6
CONTINUOUS
 62
     3
100
AcDbCircle
 10
14.251379
 20
25.39599
 30
0.0
 40
0.015
100
AcDbArc
 50
90.0
 51
180.0
  0
LINE
  5
4EC
100
AcDbEntity
  8
R-DOOR-DETL
  6
CONTINUOUS
 62
     3
100
AcDbLine
 10
14.337379
 20
25.55599
 30
0.0
 11
14.185379
 21
25.55599
 31
0.0
  0
LINE
  5
4ED
100
AcDbEntity
  8
R-DOOR-DETL
  6
CONTINUOUS
 62
     3
100
AcDbLine
 10
14.504044
 20
25.649181
 30
0.0
 11
14.114044
 21
25.649181
 31
0.0
  0
LINE
  5
4EE
100
AcDbEntity
  8
R-DOOR-DETL
  6
CONTINUOUS
 62
     3
100
AcDbLine
 10
14.958063
 20
25.140246
 30
0.0
 11
14.954044
 21
25.147207
 31
0.0
  0
ARC
  5
4EF
100
AcDbEntity
  8
R-DOOR-DETL
  6
CONTINUOUS
 62
     3
100
AcDbCircle
 10
14.984044
 20
25.155246
 30
0.0
 40
0.03
100
AcDbArc
 50
180.0
 51
210.0
  0
LINE
  5
4F0
100
AcDbEntity
  8
R-DOOR-DETL
  6
CONTINUOUS
 62
     3
100
AcDbLine
 10
14.559106
 20
25.14399
 30
0.0
 11
14.649106
 21
25.14399
 31
0.0
  0
ARC
  5
4F1
100
AcDbEntity
  8
R-DOOR-DETL
  6
CONTINUOUS
 62
     3
100
AcDbCircle
 10
14.559106
 20
25.12899
 30
0.0
 40
0.015
100
AcDbArc
 50
90.0
 51
180.0
  0
LINE
  5
4F2
100
AcDbEntity
  8
R-DOOR-DETL
  6
CONTINUOUS
 62
     3
100
AcDbLine
 10
14.451379
 20
25.14399
 30
0.0
 11
14.361379
 21
25.14399
 31
0.0
  0
ARC
  5
4F3
100
AcDbEntity
  8
R-DOOR-DETL
  6
CONTINUOUS
 62
     3
100
AcDbCircle
 10
14.451379
 20
25.12899
 30
0.0
 40
0.015
100
AcDbArc
 50
360.0
 51
90.0
  0
ARC
  5
4F4
100
AcDbEntity
  8
R-DOOR-DETL
  6
CONTINUOUS
 62
     3
100
AcDbCircle
 10
14.024044
 20
25.155246
 30
0.0
 40
0.03
100
AcDbArc
 50
330.0
 51
360.0
  0
LINE
  5
4F5
100
AcDbEntity
  8
R-DOOR-DETL
  6
CONTINUOUS
 62
     3
100
AcDbLine
 10
14.954044
 20
25.155246
 30
0.0
 11
14.954044
 21
25.589181
 31
0.0
  0
LINE
  5
4F6
100
AcDbEntity
  8
R-DOOR-DETL
  6
CONTINUOUS
 62
     3
100
AcDbLine
 10
14.054044
 20
25.589181
 30
0.0
 11
14.054044
 21
25.155246
 31
0.0
  0
LINE
  5
4F7
100
AcDbEntity
  8
R-DOOR-DETL
  6
CONTINUOUS
 62
     3
100
AcDbLine
 10
14.958234
 20
26.798428
 30
0.0
 11
14.853102
 21
26.771436
 31
0.0
  0
LINE
  5
4F8
100
AcDbEntity
  8
R-DOOR-DETL
  6
CONTINUOUS
 62
     3
100
AcDbLine
 10
15.004986
 20
26.616333
 30
0.0
 11
14.899854
 21
26.589342
 31
0.0
  0
LINE
  5
4F9
100
AcDbEntity
  8
R-DOOR-DETL
  6
CONTINUOUS
 62
     3
100
AcDbLine
 10
15.034176
 20
26.720877
 30
0.0
 11
15.004986
 21
26.616333
 31
0.0
  0
LINE
  5
4FA
100
AcDbEntity
  8
R-DOOR-DETL
  6
CONTINUOUS
 62
     3
100
AcDbLine
 10
14.899854
 20
26.589342
 30
0.0
 11
14.823912
 21
26.666893
 31
0.0
  0
LINE
  5
4FB
100
AcDbEntity
  8
R-DOOR-DETL
  6
CONTINUOUS
 62
     3
100
AcDbLine
 10
15.034176
 20
26.720877
 30
0.0
 11
14.958234
 21
26.798428
 31
0.0
  0
ARC
  5
4FC
100
AcDbEntity
  8
R-DOOR-DETL
  6
CONTINUOUS
 62
     3
100
AcDbCircle
 10
14.929044
 20
26.693885
 30
0.0
 40
0.1005
100
AcDbArc
 50
302.506128
 51
237.493872
  0
LINE
  5
4FD
100
AcDbEntity
  8
R-DOOR-DETL
  6
CONTINUOUS
 62
     3
100
AcDbLine
 10
14.853102
 20
26.771436
 30
0.0
 11
14.823912
 21
26.666893
 31
0.0
  0
LINE
  5
4FE
100
AcDbEntity
  8
R-DOOR-DETL
  6
CONTINUOUS
 62
     3
100
AcDbLine
 10
14.612586
 20
26.693885
 30
0.0
 11
14.558315
 21
26.599885
 31
0.0
  0
LINE
  5
4FF
100
AcDbEntity
  8
R-DOOR-DETL
  6
CONTINUOUS
 62
     3
100
AcDbLine
 10
14.558315
 20
26.787885
 30
0.0
 11
14.612586
 21
26.693885
 31
0.0
  0
LINE
  5
500
100
AcDbEntity
  8
R-DOOR-DETL
  6
CONTINUOUS
 62
     3
100
AcDbLine
 10
14.395502
 20
26.693885
 30
0.0
 11
14.449773
 21
26.599885
 31
0.0
  0
LINE
  5
501
100
AcDbEntity
  8
R-DOOR-DETL
  6
CONTINUOUS
 62
     3
100
AcDbLine
 10
14.449773
 20
26.787885
 30
0.0
 11
14.395502
 21
26.693885
 31
0.0
  0
LINE
  5
502
100
AcDbEntity
  8
R-DOOR-DETL
  6
CONTINUOUS
 62
     3
100
AcDbLine
 10
14.558315
 20
26.787885
 30
0.0
 11
14.449773
 21
26.787885
 31
0.0
  0
LINE
  5
503
100
AcDbEntity
  8
R-DOOR-DETL
  6
CONTINUOUS
 62
     3
100
AcDbLine
 10
14.558315
 20
26.599885
 30
0.0
 11
14.449773
 21
26.599885
 31
0.0
  0
LINE
  5
504
100
AcDbEntity
  8
R-DOOR-DETL
  6
CONTINUOUS
 62
     3
100
AcDbLine
 10
15.265037
 20
26.645088
 30
0.0
 11
15.199044
 21
26.645088
 31
0.0
  0
LINE
  5
505
100
AcDbEntity
  8
R-DOOR-DETL
  6
CONTINUOUS
 62
     3
100
AcDbLine
 10
15.270037
 20
26.655088
 30
0.0
 11
15.204044
 21
26.655088
 31
0.0
  0
ARC
  5
506
100
AcDbEntity
  8
R-DOOR-DETL
  6
CONTINUOUS
 62
     3
100
AcDbCircle
 10
15.199044
 20
26.660088
 30
0.0
 40
0.015
100
AcDbArc
 50
180.0
 51
270.0
  0
ARC
  5
507
100
AcDbEntity
  8
R-DOOR-DETL
  6
CONTINUOUS
 62
     3
100
AcDbCircle
 10
15.204044
 20
26.670088
 30
0.0
 40
0.015
100
AcDbArc
 50
180.0
 51
270.0
  0
ARC
  5
508
100
AcDbEntity
  8
R-DOOR-DETL
  6
CONTINUOUS
 62
     3
100
AcDbCircle
 10
15.265037
 20
26.630088
 30
0.0
 40
0.015
100
AcDbArc
 50
0.0
 51
90.0
  0
ARC
  5
509
100
AcDbEntity
  8
R-DOOR-DETL
  6
CONTINUOUS
 62
     3
100
AcDbCircle
 10
15.270037
 20
26.640088
 30
0.0
 40
0.015
100
AcDbArc
 50
0.0
 51
90.0
  0
LINE
  5
50A
100
AcDbEntity
  8
R-DOOR-DETL
  6
CONTINUOUS
 62
     3
100
AcDbLine
 10
14.089696
 20
26.801903
 30
0.0
 11
14.177916
 21
26.738669
 31
0.0
  0
LINE
  5
50B
100
AcDbEntity
  8
R-DOOR-DETL
  6
CONTINUOUS
 62
     3
100
AcDbLine
 10
13.990824
 20
26.757118
 30
0.0
 11
14.089696
 21
26.801903
 31
0.0
  0
LINE
  5
50C
100
AcDbEntity
  8
R-DOOR-DETL
  6
CONTINUOUS
 62
     3
100
AcDbLine
 10
14.068392
 20
26.585867
 30
0.0
 11
14.167264
 21
26.630651
 31
0.0
  0
LINE
  5
50D
100
AcDbEntity
  8
R-DOOR-DETL
  6
CONTINUOUS
 62
     3
100
AcDbLine
 10
13.809044
 20
26.645088
 30
0.0
 11
13.743051
 21
26.645088
 31
0.0
  0
LINE
  5
50E
100
AcDbEntity
  8
R-DOOR-DETL
  6
CONTINUOUS
 62
     3
100
AcDbLine
 10
13.804044
 20
26.655088
 30
0.0
 11
13.738051
 21
26.655088
 31
0.0
  0
ARC
  5
50F
100
AcDbEntity
  8
R-DOOR-DETL
  6
CONTINUOUS
 62
     3
100
AcDbCircle
 10
13.743051
 20
26.630088
 30
0.0
 40
0.015
100
AcDbArc
 50
90.0
 51
180.0
  0
ARC
  5
510
100
AcDbEntity
  8
R-DOOR-DETL
  6
CONTINUOUS
 62
     3
100
AcDbCircle
 10
13.809044
 20
26.660088
 30
0.0
 40
0.015
100
AcDbArc
 50
270.0
 51
360.0
  0
ARC
  5
511
100
AcDbEntity
  8
R-DOOR-DETL
  6
CONTINUOUS
 62
     3
100
AcDbCircle
 10
13.804044
 20
26.670088
 30
0.0
 40
0.015
100
AcDbArc
 50
270.0
 51
360.0
  0
LINE
  5
512
100
AcDbEntity
  8
R-DOOR-DETL
  6
CONTINUOUS
 62
     3
100
AcDbLine
 10
13.980172
 20
26.6491
 30
0.0
 11
14.068392
 21
26.585867
 31
0.0
  0
ARC
  5
513
100
AcDbEntity
  8
R-DOOR-DETL
  6
CONTINUOUS
 62
     3
100
AcDbCircle
 10
14.079044
 20
26.693885
 30
0.0
 40
0.1005
100
AcDbArc
 50
302.506128
 51
237.493872
  0
LINE
  5
514
100
AcDbEntity
  8
R-DOOR-DETL
  6
CONTINUOUS
 62
     3
100
AcDbLine
 10
14.167264
 20
26.630651
 30
0.0
 11
14.177916
 21
26.738669
 31
0.0
  0
LINE
  5
515
100
AcDbEntity
  8
R-DOOR-DETL
  6
CONTINUOUS
 62
     3
100
AcDbLine
 10
13.980172
 20
26.6491
 30
0.0
 11
13.990824
 21
26.757118
 31
0.0
  0
ARC
  5
516
100
AcDbEntity
  8
R-DOOR-DETL
  6
CONTINUOUS
 62
     3
100
AcDbCircle
 10
13.738051
 20
26.640088
 30
0.0
 40
0.015
100
AcDbArc
 50
90.0
 51
180.0
  0
LINE
  5
517
100
AcDbEntity
  8
R-DOOR-DETL
  6
CONTINUOUS
 62
     3
100
AcDbLine
 10
14.972864
 20
26.567486
 30
0.0
 11
15.078578
 21
26.384385
 31
0.0
  0
LINE
  5
518
100
AcDbEntity
  8
R-DOOR-DETL
  6
CONTINUOUS
 62
     3
100
AcDbLine
 10
14.77951
 20
26.384385
 30
0.0
 11
14.885224
 21
26.567486
 31
0.0
  0
LINE
  5
519
100
AcDbEntity
  8
R-DOOR-DETL
  6
CONTINUOUS
 62
     3
100
AcDbLine
 10
14.122864
 20
26.567486
 30
0.0
 11
14.228578
 21
26.384385
 31
0.0
  0
LINE
  5
51A
100
AcDbEntity
  8
R-DOOR-DETL
  6
CONTINUOUS
 62
     3
100
AcDbLine
 10
13.92951
 20
26.384385
 30
0.0
 11
14.035224
 21
26.567486
 31
0.0
  0
ARC
  5
51B
100
AcDbEntity
  8
R-DOOR-DETL
  6
CONTINUOUS
 62
     3
100
AcDbCircle
 10
15.105425
 20
26.399885
 30
0.0
 40
0.031
100
AcDbArc
 50
210.0
 51
270.0
  0
LINE
  5
51C
100
AcDbEntity
  8
R-DOOR-DETL
  6
CONTINUOUS
 62
     3
100
AcDbLine
 10
14.504044
 20
26.368885
 30
0.0
 11
15.255037
 21
26.368885
 31
0.0
  0
ARC
  5
51D
100
AcDbEntity
  8
R-DOOR-DETL
  6
CONTINUOUS
 62
     3
100
AcDbCircle
 10
14.976333
 20
26.087885
 30
0.0
 40
0.031
100
AcDbArc
 50
0.0
 51
90.0
  0
ARC
  5
51E
100
AcDbEntity
  8
R-DOOR-DETL
  6
CONTINUOUS
 62
     3
100
AcDbCircle
 10
14.752664
 20
26.399885
 30
0.0
 40
0.031
100
AcDbArc
 50
270.0
 51
330.0
  0
ARC
  5
51F
100
AcDbEntity
  8
R-DOOR-DETL
  6
CONTINUOUS
 62
     3
100
AcDbCircle
 10
14.687805
 20
26.088885
 30
0.0
 40
0.03
100
AcDbArc
 50
90.0
 51
169.684923
  0
ARC
  5
520
100
AcDbEntity
  8
R-DOOR-DETL
  6
CONTINUOUS
 62
     3
100
AcDbCircle
 10
14.320283
 20
26.088885
 30
0.0
 40
0.03
100
AcDbArc
 50
10.315077
 51
90.0
  0
LINE
  5
521
100
AcDbEntity
  8
R-DOOR-DETL
  6
CONTINUOUS
 62
     3
100
AcDbLine
 10
14.687805
 20
26.118885
 30
0.0
 11
14.976333
 21
26.118885
 31
0.0
  0
LINE
  5
522
100
AcDbEntity
  8
R-DOOR-DETL
  6
CONTINUOUS
 62
     3
100
AcDbLine
 10
14.255425
 20
26.368885
 30
0.0
 11
14.752664
 21
26.368885
 31
0.0
  0
LINE
  5
523
100
AcDbEntity
  8
R-DOOR-DETL
  6
CONTINUOUS
 62
     3
100
AcDbLine
 10
15.105425
 20
26.368885
 30
0.0
 11
15.249037
 21
26.368885
 31
0.0
  0
ARC
  5
524
100
AcDbEntity
  8
R-DOOR-DETL
  6
CONTINUOUS
 62
     3
100
AcDbCircle
 10
15.249037
 20
26.399885
 30
0.0
 40
0.031
100
AcDbArc
 50
270.0
 51
360.0
  0
ARC
  5
525
100
AcDbEntity
  8
R-DOOR-DETL
  6
CONTINUOUS
 62
     3
100
AcDbCircle
 10
15.255037
 20
26.398885
 30
0.0
 40
0.03
100
AcDbArc
 50
270.0
 51
0.0
  0
ARC
  5
526
100
AcDbEntity
  8
R-DOOR-DETL
  6
CONTINUOUS
 62
     3
100
AcDbCircle
 10
14.031755
 20
26.087885
 30
0.0
 40
0.031
100
AcDbArc
 50
90.0
 51
180.0
  0
ARC
  5
527
100
AcDbEntity
  8
R-DOOR-DETL
  6
CONTINUOUS
 62
     3
100
AcDbCircle
 10
13.902664
 20
26.399885
 30
0.0
 40
0.031
100
AcDbArc
 50
270.0
 51
330.0
  0
LINE
  5
528
100
AcDbEntity
  8
R-DOOR-DETL
  6
CONTINUOUS
 62
     3
100
AcDbLine
 10
13.759051
 20
26.368885
 30
0.0
 11
13.902664
 21
26.368885
 31
0.0
  0
LINE
  5
529
100
AcDbEntity
  8
R-DOOR-DETL
  6
CONTINUOUS
 62
     3
100
AcDbLine
 10
15.186544
 20
26.493885
 30
0.0
 11
13.821544
 21
26.493885
 31
0.0
  0
LINE
  5
52A
100
AcDbEntity
  8
R-DOOR-DETL
  6
CONTINUOUS
 62
     3
100
AcDbLine
 10
15.186544
 20
26.368885
 30
0.0
 11
13.821544
 21
26.368885
 31
0.0
  0
ARC
  5
52B
100
AcDbEntity
  8
R-DOOR-DETL
  6
CONTINUOUS
 62
     3
100
AcDbCircle
 10
14.255425
 20
26.399885
 30
0.0
 40
0.031
100
AcDbArc
 50
210.0
 51
270.0
  0
LINE
  5
52C
100
AcDbEntity
  8
R-DOOR-DETL
  6
CONTINUOUS
 62
     3
100
AcDbLine
 10
14.031755
 20
26.118885
 30
0.0
 11
14.320283
 21
26.118885
 31
0.0
  0
LINE
  5
52D
100
AcDbEntity
  8
R-DOOR-DETL
  6
CONTINUOUS
 62
     3
100
AcDbLine
 10
13.753051
 20
26.368885
 30
0.0
 11
14.504044
 21
26.368885
 31
0.0
  0
ARC
  5
52E
100
AcDbEntity
  8
R-DOOR-DETL
  6
CONTINUOUS
 62
     3
100
AcDbCircle
 10
14.504044
 20
26.12233
 30
0.0
 40
0.15678
100
AcDbArc
 50
190.315077
 51
214.562525
  0
ARC
  5
52F
100
AcDbEntity
  8
R-DOOR-DETL
  6
CONTINUOUS
 62
     3
100
AcDbCircle
 10
14.504044
 20
26.12233
 30
0.0
 40
0.15678
100
AcDbArc
 50
325.437475
 51
349.684923
  0
ARC
  5
530
100
AcDbEntity
  8
R-DOOR-DETL
  6
CONTINUOUS
 62
     3
100
AcDbCircle
 10
14.504044
 20
26.12233
 30
0.0
 40
0.059055
100
AcDbArc
 50
319.488274
 51
220.511726
  0
ARC
  5
531
100
AcDbEntity
  8
R-DOOR-DETL
  6
CONTINUOUS
 62
     3
100
AcDbCircle
 10
14.592627
 20
26.061306
 30
0.0
 40
0.049213
100
AcDbArc
 50
152.582198
 51
325.437475
  0
ARC
  5
532
100
AcDbEntity
  8
R-DOOR-DETL
  6
CONTINUOUS
 62
     3
100
AcDbCircle
 10
14.415462
 20
26.061306
 30
0.0
 40
0.049213
100
AcDbArc
 50
214.562525
 51
27.417802
  0
ARC
  5
533
100
AcDbEntity
  8
0
  6
BYBLOCK
 62
     0
100
AcDbCircle
 10
13.657863
 20
26.052109
 30
0.0
 40
0.01125
100
AcDbArc
 50
209.089746
 51
29.089746
  0
ARC
  5
534
100
AcDbEntity
  8
0
  6
BYBLOCK
 62
     0
100
AcDbCircle
 10
13.657863
 20
26.052109
 30
0.0
 40
0.01125
100
AcDbArc
 50
29.089746
 51
209.089746
  0
ARC
  5
535
100
AcDbEntity
  8
R-DOOR-DETL
  6
CONTINUOUS
 62
     3
100
AcDbCircle
 10
13.759051
 20
26.399885
 30
0.0
 40
0.031
100
AcDbArc
 50
180.0
 51
270.0
  0
ARC
  5
536
100
AcDbEntity
  8
R-DOOR-DETL
  6
CONTINUOUS
 62
     3
100
AcDbCircle
 10
13.753051
 20
26.398885
 30
0.0
 40
0.03
100
AcDbArc
 50
180.0
 51
270.0
  0
LINE
  5
537
100
AcDbEntity
  8
R-DOOR-DETL
  6
CONTINUOUS
 62
     3
100
AcDbLine
 10
15.280037
 20
26.399885
 30
0.0
 11
15.280037
 21
26.630088
 31
0.0
  0
LINE
  5
538
100
AcDbEntity
  8
R-DOOR-DETL
  6
CONTINUOUS
 62
     3
100
AcDbLine
 10
15.285037
 20
26.398885
 30
0.0
 11
15.285037
 21
26.640088
 31
0.0
  0
LINE
  5
539
100
AcDbEntity
  8
R-DOOR-DETL
  6
CONTINUOUS
 62
     3
100
AcDbLine
 10
13.728051
 20
26.630088
 30
0.0
 11
13.728051
 21
26.399885
 31
0.0
  0
LINE
  5
53A
100
AcDbEntity
  8
R-DOOR-DETL
  6
CONTINUOUS
 62
     3
100
AcDbLine
 10
13.723051
 20
26.640088
 30
0.0
 11
13.723051
 21
26.398885
 31
0.0
  0
ARC
  5
53B
100
AcDbEntity
  8
R-DOOR-DETL
  6
CONTINUOUS
 62
     3
100
AcDbCircle
 10
14.999711
 20
26.582986
 30
0.0
 40
0.031
100
AcDbArc
 50
122.506128
 51
210.0
  0
ARC
  5
53C
100
AcDbEntity
  8
R-DOOR-DETL
  6
CONTINUOUS
 62
     3
100
AcDbCircle
 10
14.858377
 20
26.582986
 30
0.0
 40
0.031
100
AcDbArc
 50
330.0
 51
57.493872
  0
ARC
  5
53D
100
AcDbEntity
  8
R-DOOR-DETL
  6
CONTINUOUS
 62
     3
100
AcDbCircle
 10
14.149711
 20
26.582986
 30
0.0
 40
0.031
100
AcDbArc
 50
122.506128
 51
210.0
  0
ARC
  5
53E
100
AcDbEntity
  8
R-DOOR-DETL
  6
CONTINUOUS
 62
     3
100
AcDbCircle
 10
14.008377
 20
26.582986
 30
0.0
 40
0.031
100
AcDbArc
 50
330.0
 51
57.493872
  0
LWPOLYLINE
  5
53F
100
AcDbEntity
  8
R-DOOR-DETL
 62
     3
100
AcDbPolyline
 90
       27
 70
     0
 43
0.0
 10
16.674044
 20
28.385885
 42
-0.985813
 10
16.534073
 20
28.383885
 10
16.391544
 20
28.383885
 42
1.0
 10
16.391544
 20
28.338885
 10
16.424044
 20
28.338885
 10
16.465777
 20
28.249388
 10
16.439235
 20
28.237011
 42
0.802585
 10
16.447687
 20
28.198885
 10
16.739044
 20
28.198885
 42
0.414214
 10
16.754044
 20
28.213885
 10
16.754044
 20
29.948885
 10
12.254044
 20
29.948885
 10
12.254044
 20
28.213885
 42
0.414214
 10
12.269044
 20
28.198885
 10
12.560401
 20
28.198885
 42
0.802585
 10
12.568853
 20
28.237011
 10
12.542311
 20
28.249388
 10
12.584044
 20
28.338885
 10
12.616544
 20
28.338885
 42
1.0
 10
12.616544
 20
28.383885
 10
12.474015
 20
28.383885
 42
-0.985813
 10
12.334044
 20
28.385885
 10
12.334044
 20
29.833885
 42
-0.414214
 10
12.349044
 20
29.848885
 10
16.659044
 20
29.848885
 42
-0.414214
 10
16.674044
 20
29.833885
 10
16.674044
 20
28.383885
  0
LINE
  5
540
100
AcDbEntity
  8
R-DOOR-DETL
  6
CONTINUOUS
 62
     3
100
AcDbLine
 10
15.335037
 20
27.553885
 30
0.0
 11
15.335037
 21
27.933885
 31
0.0
  0
LINE
  5
541
100
AcDbEntity
  8
R-DOOR-DETL
  6
CONTINUOUS
 62
     3
100
AcDbLine
 10
13.673051
 20
27.933885
 30
0.0
 11
13.673051
 21
27.553885
 31
0.0
  0
ARC
  5
542
100
AcDbEntity
  8
R-DOOR-DETL
  6
CONTINUOUS
 62
     3
100
AcDbCircle
 10
15.320037
 20
27.553885
 30
0.0
 40
0.015
100
AcDbArc
 50
270.0
 51
0.0
  0
LINE
  5
543
100
AcDbEntity
  8
R-DOOR-DETL
  6
CONTINUOUS
 62
     3
100
AcDbLine
 10
15.300037
 20
27.538885
 30
0.0
 11
15.320037
 21
27.538885
 31
0.0
  0
ARC
  5
544
100
AcDbEntity
  8
R-DOOR-DETL
  6
CONTINUOUS
 62
     3
100
AcDbCircle
 10
15.300037
 20
27.523885
 30
0.0
 40
0.015
100
AcDbArc
 50
90.0
 51
180.0
  0
LINE
  5
545
100
AcDbEntity
  8
R-DOOR-DETL
  6
CONTINUOUS
 62
     3
100
AcDbLine
 10
13.688051
 20
27.538885
 30
0.0
 11
13.708051
 21
27.538885
 31
0.0
  0
ARC
  5
546
100
AcDbEntity
  8
R-DOOR-DETL
  6
CONTINUOUS
 62
     3
100
AcDbCircle
 10
13.688051
 20
27.553885
 30
0.0
 40
0.015
100
AcDbArc
 50
180.0
 51
270.0
  0
ARC
  5
547
100
AcDbEntity
  8
R-DOOR-DETL
  6
CONTINUOUS
 62
     3
100
AcDbCircle
 10
13.708051
 20
27.523885
 30
0.0
 40
0.015
100
AcDbArc
 50
0.0
 51
90.0
  0
LINE
  5
548
100
AcDbEntity
  8
R-DOOR-DETL
  6
CONTINUOUS
 62
     3
100
AcDbLine
 10
15.204044
 20
26.855088
 30
0.0
 11
15.270037
 21
26.855088
 31
0.0
  0
ARC
  5
549
100
AcDbEntity
  8
R-DOOR-DETL
  6
CONTINUOUS
 62
     3
100
AcDbCircle
 10
15.169044
 20
26.929885
 30
0.0
 40
0.015
100
AcDbArc
 50
360.0
 51
90.0
  0
ARC
  5
54A
100
AcDbEntity
  8
R-DOOR-DETL
  6
CONTINUOUS
 62
     3
100
AcDbCircle
 10
15.204044
 20
26.840088
 30
0.0
 40
0.015
100
AcDbArc
 50
90.0
 51
180.0
  0
ARC
  5
54B
100
AcDbEntity
  8
R-DOOR-DETL
  6
CONTINUOUS
 62
     3
100
AcDbCircle
 10
15.270037
 20
26.870088
 30
0.0
 40
0.015
100
AcDbArc
 50
270.0
 51
360.0
  0
LINE
  5
54C
100
AcDbEntity
  8
R-DOOR-DETL
  6
CONTINUOUS
 62
     3
100
AcDbLine
 10
13.738051
 20
26.855088
 30
0.0
 11
13.804044
 21
26.855088
 31
0.0
  0
ARC
  5
54D
100
AcDbEntity
  8
R-DOOR-DETL
  6
CONTINUOUS
 62
     3
100
AcDbCircle
 10
13.839044
 20
26.929885
 30
0.0
 40
0.015
100
AcDbArc
 50
90.0
 51
180.0
  0
ARC
  5
54E
100
AcDbEntity
  8
R-DOOR-DETL
  6
CONTINUOUS
 62
     3
100
AcDbCircle
 10
13.804044
 20
26.840088
 30
0.0
 40
0.015
100
AcDbArc
 50
360.0
 51
90.0
  0
LINE
  5
54F
100
AcDbEntity
  8
R-DOOR-DETL
  6
CONTINUOUS
 62
     3
100
AcDbLine
 10
15.169044
 20
26.944885
 30
0.0
 11
13.839044
 21
26.944885
 31
0.0
  0
LINE
  5
550
100
AcDbEntity
  8
R-DOOR-DETL
  6
CONTINUOUS
 62
     3
100
AcDbLine
 10
15.186544
 20
26.918885
 30
0.0
 11
13.821544
 21
26.918885
 31
0.0
  0
ARC
  5
551
100
AcDbEntity
  8
R-DOOR-DETL
  6
CONTINUOUS
 62
     3
100
AcDbCircle
 10
13.738051
 20
26.870088
 30
0.0
 40
0.015
100
AcDbArc
 50
180.0
 51
270.0
  0
LINE
  5
552
100
AcDbEntity
  8
R-DOOR-DETL
  6
CONTINUOUS
 62
     3
100
AcDbLine
 10
15.285037
 20
26.870088
 30
0.0
 11
15.285037
 21
27.523885
 31
0.0
  0
LINE
  5
553
100
AcDbEntity
  8
R-DOOR-DETL
  6
CONTINUOUS
 62
     3
100
AcDbLine
 10
13.723051
 20
27.523885
 30
0.0
 11
13.723051
 21
26.870088
 31
0.0
  0
ARC
  5
555
100
AcDbEntity
  8
R-DOOR-DETL
  6
CONTINUOUS
 62
     3
100
AcDbCircle
 10
15.420037
 20
27.933885
 30
0.0
 40
0.015
100
AcDbArc
 50
0.0
 51
90.0
  0
LINE
  5
556
100
AcDbEntity
  8
R-DOOR-DETL
  6
CONTINUOUS
 62
     3
100
AcDbLine
 10
15.350037
 20
27.948885
 30
0.0
 11
15.420037
 21
27.948885
 31
0.0
  0
ARC
  5
557
100
AcDbEntity
  8
R-DOOR-DETL
  6
CONTINUOUS
 62
     3
100
AcDbCircle
 10
15.350037
 20
27.933885
 30
0.0
 40
0.015
100
AcDbArc
 50
90.0
 51
180.0
  0
POINT
  5
558
100
AcDbEntity
  8
DEFPOINTS
  6
BYBLOCK
 62
     0
100
AcDbPoint
 10
15.385037
 20
27.948885
 30
0.0
  0
ARC
  5
559
100
AcDbEntity
  8
R-DOOR-DETL
  6
CONTINUOUS
 62
     3
100
AcDbCircle
 10
13.588051
 20
27.933885
 30
0.0
 40
0.015
100
AcDbArc
 50
90.0
 51
180.0
  0
ARC
  5
55A
100
AcDbEntity
  8
R-DOOR-DETL
  6
CONTINUOUS
 62
     3
100
AcDbCircle
 10
13.658051
 20
27.933885
 30
0.0
 40
0.015
100
AcDbArc
 50
0.0
 51
90.0
  0
LINE
  5
55B
100
AcDbEntity
  8
R-DOOR-DETL
  6
CONTINUOUS
 62
     3
100
AcDbLine
 10
13.588051
 20
27.948885
 30
0.0
 11
13.658051
 21
27.948885
 31
0.0
  0
LINE
  5
55C
100
AcDbEntity
  8
0
100
AcDbLine
 10
17.504044
 20
29.948885
 30
0.0
 11
11.504044
 21
29.948885
 31
0.0
  0
TEXT
  5
55D
100
AcDbEntity
  8
DIMN
100
AcDbText
 10
14.332871
 20
36.833401
 30
0.0
 40
0.375
  1
 IF 1/2"[13mm] THRESHOLD IS USED, 
100
AcDbText
  0
LINE
  5
55E
100
AcDbEntity
  8
R-DOOR-PATT
  6
CONTINUOUS
 62
     5
100
AcDbLine
 10
12.989923
 20
31.948885
 30
0.0
 11
11.504044
 21
30.463006
 31
0.0
  0
LINE
  5
55F
100
AcDbEntity
  8
R-DOOR-PATT
  6
CONTINUOUS
 62
     5
100
AcDbLine
 10
12.547981
 20
31.948885
 30
0.0
 11
11.504044
 21
30.904947
 31
0.0
  0
LINE
  5
560
100
AcDbEntity
  8
R-DOOR-PATT
  6
CONTINUOUS
 62
     5
100
AcDbLine
 10
12.10604
 20
31.948885
 30
0.0
 11
11.504044
 21
31.346889
 31
0.0
  0
LINE
  5
561
100
AcDbEntity
  8
R-DOOR-PATT
  6
CONTINUOUS
 62
     5
100
AcDbLine
 10
11.664098
 20
31.948885
 30
0.0
 11
11.504044
 21
31.788831
 31
0.0
  0
TEXT
  5
562
100
AcDbEntity
  8
DIMN
100
AcDbText
 10
14.803047
 20
34.951499
 30
0.0
 40
0.375
  1
IS CLEAR OPENING LESS 8-3/4"[223mm]
100
AcDbText
  0
TEXT
  5
563
100
AcDbEntity
  8
DIMN
100
AcDbText
 10
14.758743
 20
35.571284
 30
0.0
 40
0.375
  1
INCREASES BY 1/2"[13mm] I.E. GLASS
100
AcDbText
  0
TEXT
  5
564
100
AcDbEntity
  8
DIMN
100
AcDbText
 10
14.758743
 20
36.197764
 30
0.0
 40
0.375
  1
THE DIMENSION FROM FLOOR TO GLASS
100
AcDbText
  0
LINE
  5
565
100
AcDbEntity
  8
BORDER
 62
     7
100
AcDbLine
 39
15.0
 10
28.904892
 20
38.475081
 30
0.0
 11
0.0
 21
38.475081
 31
0.0
  0
TEXT
  5
566
100
AcDbEntity
  8
DIMN
100
AcDbText
 10
14.730921
 20
37.556201
 30
0.0
 40
0.375
  1
NOTES:
100
AcDbText
  0
INSERT
  5
5D8
100
AcDbEntity
  8
0
100
AcDbBlockReference
  2
A$C46F93324
 10
0.153279
 20
0.175172
 30
0.0
  0
INSERT
  5
627
100
AcDbEntity
  8
0
100
AcDbBlockReference
  2
A$C216638AD
 10
12.540239
 20
28.198885
 30
0.0
  0
LINE
  5
65F
100
AcDbEntity
  8
R-DOOR-ANNO
100
AcDbLine
 10
8.890457
 20
19.477415
 30
0.0
 11
8.843298
 21
19.369706
 31
0.0
  0
LINE
  5
660
100
AcDbEntity
  8
R-DOOR-ANNO
100
AcDbLine
 10
8.823088
 20
19.477415
 30
0.0
 11
8.775929
 21
19.369706
 31
0.0
  0
TEXT
  5
661
100
AcDbEntity
  8
R-DOOR-ANNO
 62
     0
100
AcDbText
 10
6.117698
 20
19.113445
 30
0.0
 40
0.354375
  1
LESS 
100
AcDbText
  0
TEXT
  5
662
100
AcDbEntity
  8
R-DOOR-ANNO
100
AcDbText
 10
7.788903
 20
19.15972
 30
0.0
 40
0.3375
  1
8
100
AcDbText
  0
TEXT
  5
663
100
AcDbEntity
  8
R-DOOR-ANNO
 62
     0
100
AcDbText
 10
6.522458
 20
18.360271
 30
0.0
 40
0.354375
  1
[210mm]
100
AcDbText
  0
LINE
  5
664
100
AcDbEntity
  8
R-DOOR-ANNO
100
AcDbLine
 10
8.204319
 20
19.31503
 30
0.0
 11
8.58621
 21
19.31503
 31
0.0
  0
TEXT
  5
665
100
AcDbEntity
  8
R-DOOR-ANNO
100
AcDbText
 10
8.313154
 20
18.918604
 30
0.0
 40
0.30375
  1
4
100
AcDbText
  0
TEXT
  5
666
100
AcDbEntity
  8
R-DOOR-ANNO
 62
     0
100
AcDbText
 10
5.341208
 20
19.866619
 30
0.0
 40
0.354375
  1
CLEAR OPENING
100
AcDbText
  0
TEXT
  5
667
100
AcDbEntity
  8
R-DOOR-ANNO
 62
     0
100
AcDbText
 10
6.699645
 20
20.457244
 30
0.0
 40
0.354375
  1
GLASS 
100
AcDbText
  0
TEXT
  5
668
100
AcDbEntity
  8
R-DOOR-ANNO
100
AcDbText
 10
8.365571
 20
19.424854
 30
0.0
 40
0.30375
  1
1
100
AcDbText
  0
DIMENSION
  5
684
100
AcDbEntity
  8
R-DOOR-ANNO
100
AcDbDimension
  2
*D20
 10
7.468578
 20
24.948885
 30
0.0
 11
7.468578
 21
27.564911
 31
0.0
 70
   160
  3
STANDARD
100
AcDbAlignedDimension
 13
11.504044
 23
29.948885
 33
0.0
 14
10.45913
 24
24.948885
 34
0.0
 50
90.0
100
AcDbRotatedDimension
1001
ACAD
1000
DSTYLE
1002
{
1070
   288
1070
     1
1070
   270
1070
     4
1070
    40
1040
2.0
1070
     4
1000
mm
1070
   274
1070
     0
1070
   171
1070
     0
1070
   170
1070
     1
1002
}
  0
DIMENSION
  5
693
100
AcDbEntity
  8
R-DOOR-ANNO
100
AcDbDimension
  2
*D21
 10
19.594203
 20
28.198885
 30
0.0
 11
17.854203
 21
26.876637
 31
0.0
 70
   160
  3
STANDARD
100
AcDbAlignedDimension
 13
15.385037
 23
27.948885
 33
0.0
 14
16.593366
 24
28.198885
 34
0.0
 50
90.0
100
AcDbRotatedDimension
1001
ACAD
1000
DSTYLE
1002
{
1070
   288
1070
     1
1070
   270
1070
     4
1070
    40
1040
2.0
1070
     4
1000
mm
1070
   274
1070
     0
1070
   171
1070
     0
1070
   170
1070
     1
1002
}
  0
DIMENSION
  5
6AF
100
AcDbEntity
  8
R-DOOR-ANNO
100
AcDbDimension
  2
*D23
 10
7.465694
 20
11.265054
 30
0.0
 11
7.465694
 21
12.771838
 31
0.0
 70
   160
  3
STANDARD
100
AcDbAlignedDimension
 13
10.522869
 23
14.54564
 33
0.0
 14
11.506522
 24
11.265054
 34
0.0
 50
90.0
100
AcDbRotatedDimension
1001
ACAD
1000
DSTYLE
1002
{
1070
   288
1070
     1
1070
   270
1070
     4
1070
    40
1040
2.0
1070
     4
1000
mm
1070
   274
1070
     0
1070
   171
1070
     0
1070
   170
1070
     1
1002
}
  0
DIMENSION
  5
6BE
100
AcDbEntity
  8
R-DOOR-ANNO
100
AcDbDimension
  2
*D24
 10
18.763964
 20
11.515054
 30
0.0
 11
20.503964
 21
12.367632
 31
0.0
 70
   160
  3
STANDARD
100
AcDbAlignedDimension
 13
16.293224
 23
11.265054
 33
0.0
 14
15.352514
 24
11.515054
 34
0.0
 50
90.0
100
AcDbRotatedDimension
1001
ACAD
1000
DSTYLE
1002
{
1070
   288
1070
     1
1070
   270
1070
     4
1070
    40
1040
2.0
1070
     4
1000
mm
1070
   274
1070
     0
1070
   171
1070
     0
1070
   170
1070
     1
1002
}
  0
ENDSEC
  0
SECTION
  2
OBJECTS
  0
DICTIONARY
  5
C
100
AcDbDictionary
  3
ACAD_GROUP
350
D
  3
ACAD_MLINESTYLE
350
1B
  0
DICTIONARY
  5
D
102
{ACAD_REACTORS
330
C
102
}
100
AcDbDictionary
  0
DICTIONARY
  5
1B
102
{ACAD_REACTORS
330
C
102
}
100
AcDbDictionary
  3
STANDARD
350
1C
  0
MLINESTYLE
  5
1C
102
{ACAD_REACTORS
330
1B
102
}
100
AcDbMlineStyle
  2
STANDARD
 70
     0
  3

 62
   256
 51
90.0
 52
90.0
 71
     2
 49
0.5
 62
   256
  6
BYLAYER
 49
-0.5
 62
   256
  6
BYLAYER
  0
ENDSEC
  0
EOF
