  0
SECTION
  2
HEADER
  9
$ACADVER
  1
AC1014
  9
$ACADMAINTVER
 70
     9
  9
$DWGCODEPAGE
  3
ANSI_1252
  9
$INSBASE
 10
0.0
 20
0.0
 30
0.0
  9
$EXTMIN
 10
0.0
 20
0.0
 30
0.0
  9
$EXTMAX
 10
28.904892
 20
38.475081
 30
15.0
  9
$LIMMIN
 10
0.0
 20
0.0
  9
$LIMMAX
 10
28.904892
 20
38.475081
  9
$ORTHOMODE
 70
     1
  9
$REGENMODE
 70
     1
  9
$FILLMODE
 70
     1
  9
$QTEXTMODE
 70
     0
  9
$MIRRTEXT
 70
     1
  9
$DRAGMODE
 70
     2
  9
$LTSCALE
 40
1.0
  9
$OSMODE
 70
     3
  9
$ATTMODE
 70
     1
  9
$TEXTSIZE
 40
0.2
  9
$TRACEWID
 40
0.05
  9
$TEXTSTYLE
  7
STANDARD
  9
$CLAYER
  8
R-DOOR-ANNO
  9
$CELTYPE
  6
BYLAYER
  9
$CECOLOR
 62
   256
  9
$CELTSCALE
 40
1.0
  9
$DELOBJ
 70
     1
  9
$DISPSILH
 70
     0
  9
$DIMSCALE
 40
2.0
  9
$DIMASZ
 40
0.18
  9
$DIMEXO
 40
0.0625
  9
$DIMDLI
 40
0.38
  9
$DIMRND
 40
0.0
  9
$DIMDLE
 40
0.0
  9
$DIMEXE
 40
0.18
  9
$DIMTP
 40
0.0
  9
$DIMTM
 40
0.0
  9
$DIMTXT
 40
0.18
  9
$DIMCEN
 40
0.09
  9
$DIMTSZ
 40
0.0
  9
$DIMTOL
 70
     0
  9
$DIMLIM
 70
     0
  9
$DIMTIH
 70
     1
  9
$DIMTOH
 70
     1
  9
$DIMSE1
 70
     0
  9
$DIMSE2
 70
     0
  9
$DIMTAD
 70
     0
  9
$DIMZIN
 70
     0
  9
$DIMBLK
  1

  9
$DIMASO
 70
     1
  9
$DIMSHO
 70
     1
  9
$DIMPOST
  1

  9
$DIMAPOST
  1
mm
  9
$DIMALT
 70
     1
  9
$DIMALTD
 70
     0
  9
$DIMALTF
 40
25.4
  9
$DIMLFAC
 40
1.0
  9
$DIMTOFL
 70
     0
  9
$DIMTVP
 40
0.0
  9
$DIMTIX
 70
     0
  9
$DIMSOXD
 70
     0
  9
$DIMSAH
 70
     0
  9
$DIMBLK1
  1

  9
$DIMBLK2
  1

  9
$DIMSTYLE
  2
STANDARD
  9
$DIMCLRD
 70
     0
  9
$DIMCLRE
 70
     0
  9
$DIMCLRT
 70
     0
  9
$DIMTFAC
 40
1.0
  9
$DIMGAP
 40
0.09
  9
$DIMJUST
 70
     0
  9
$DIMSD1
 70
     0
  9
$DIMSD2
 70
     0
  9
$DIMTOLJ
 70
     1
  9
$DIMTZIN
 70
     0
  9
$DIMALTZ
 70
     0
  9
$DIMALTTZ
 70
     0
  9
$DIMFIT
 70
     3
  9
$DIMUPT
 70
     1
  9
$DIMUNIT
 70
     4
  9
$DIMDEC
 70
     4
  9
$DIMTDEC
 70
     4
  9
$DIMALTU
 70
     2
  9
$DIMALTTD
 70
     0
  9
$DIMTXSTY
  7
STANDARD
  9
$DIMAUNIT
 70
     0
  9
$LUNITS
 70
     2
  9
$LUPREC
 70
     4
  9
$SKETCHINC
 40
0.1
  9
$FILLETRAD
 40
0.5
  9
$AUNITS
 70
     0
  9
$AUPREC
 70
     0
  9
$MENU
  1
.
  9
$ELEVATION
 40
0.0
  9
$PELEVATION
 40
0.0
  9
$THICKNESS
 40
0.0
  9
$LIMCHECK
 70
     0
  9
$BLIPMODE
 70
     0
  9
$CHAMFERA
 40
0.5
  9
$CHAMFERB
 40
0.5
  9
$CHAMFERC
 40
1.0
  9
$CHAMFERD
 40
0.0
  9
$SKPOLY
 70
     0
  9
$TDCREATE
 40
2451964.367458530
  9
$TDUPDATE
 40
2452102.496121944
  9
$TDINDWG
 40
0.0430772222
  9
$TDUSRTIMER
 40
0.0430772222
  9
$USRTIMER
 70
     1
  9
$ANGBASE
 50
0.0
  9
$ANGDIR
 70
     0
  9
$PDMODE
 70
     0
  9
$PDSIZE
 40
0.0
  9
$PLINEWID
 40
0.0
  9
$COORDS
 70
     1
  9
$SPLFRAME
 70
     0
  9
$SPLINETYPE
 70
     6
  9
$SPLINESEGS
 70
     8
  9
$ATTDIA
 70
     0
  9
$ATTREQ
 70
     1
  9
$HANDLING
 70
     1
  9
$HANDSEED
  5
67A
  9
$SURFTAB1
 70
     6
  9
$SURFTAB2
 70
     6
  9
$SURFTYPE
 70
     6
  9
$SURFU
 70
     6
  9
$SURFV
 70
     6
  9
$UCSNAME
  2
SM-TEMP
  9
$UCSORG
 10
0.0
 20
0.0
 30
0.0
  9
$UCSXDIR
 10
1.0
 20
0.0
 30
0.0
  9
$UCSYDIR
 10
0.0
 20
1.0
 30
0.0
  9
$PUCSNAME
  2

  9
$PUCSORG
 10
0.0
 20
0.0
 30
0.0
  9
$PUCSXDIR
 10
1.0
 20
0.0
 30
0.0
  9
$PUCSYDIR
 10
0.0
 20
1.0
 30
0.0
  9
$USERI1
 70
     0
  9
$USERI2
 70
     0
  9
$USERI3
 70
     0
  9
$USERI4
 70
     0
  9
$USERI5
 70
     0
  9
$USERR1
 40
0.0
  9
$USERR2
 40
0.0
  9
$USERR3
 40
0.0
  9
$USERR4
 40
0.0
  9
$USERR5
 40
0.0
  9
$WORLDVIEW
 70
     1
  9
$SHADEDGE
 70
     3
  9
$SHADEDIF
 70
    70
  9
$TILEMODE
 70
     1
  9
$MAXACTVP
 70
    48
  9
$PINSBASE
 10
0.0
 20
0.0
 30
0.0
  9
$PLIMCHECK
 70
     0
  9
$PEXTMIN
 10
1.000000E+20
 20
1.000000E+20
 30
1.000000E+20
  9
$PEXTMAX
 10
-1.000000E+20
 20
-1.000000E+20
 30
-1.000000E+20
  9
$PLIMMIN
 10
0.0
 20
0.0
  9
$PLIMMAX
 10
12.0
 20
9.0
  9
$UNITMODE
 70
     0
  9
$VISRETAIN
 70
     1
  9
$PLINEGEN
 70
     0
  9
$PSLTSCALE
 70
     1
  9
$TREEDEPTH
 70
  3020
  9
$PICKSTYLE
 70
     1
  9
$CMLSTYLE
  2
STANDARD
  9
$CMLJUST
 70
     0
  9
$CMLSCALE
 40
1.0
  9
$PROXYGRAPHICS
 70
     1
  9
$MEASUREMENT
 70
     0
  0
ENDSEC
  0
SECTION
  2
CLASSES
  0
CLASS
  1
HATCH
  2
AcDbHatch
  3
"ACAD_SEDONA"
 90
        0
280
     0
281
     1
  0
CLASS
  1
LWPOLYLINE
  2
AcDbPolyline
  3
"AutoCAD"
 90
        0
280
     0
281
     1
  0
ENDSEC
  0
SECTION
  2
TABLES
  0
TABLE
  2
VPORT
  5
8
100
AcDbSymbolTable
 70
     1
  0
VPORT
  5
672
100
AcDbSymbolTableRecord
100
AcDbViewportTableRecord
  2
*ACTIVE
 70
     0
 10
0.0
 20
0.0
 11
1.0
 21
1.0
 12
14.452446
 22
19.237541
 13
0.0
 23
0.0
 14
0.5
 24
0.5
 15
0.5
 25
0.5
 16
0.0
 26
0.0
 36
1.0
 17
0.0
 27
0.0
 37
0.0
 40
38.884598
 41
1.74735
 42
50.0
 43
0.0
 44
0.0
 50
0.0
 51
0.0
 71
     0
 72
   100
 73
     1
 74
     1
 75
     0
 76
     0
 77
     0
 78
     0
  0
ENDTAB
  0
TABLE
  2
LTYPE
  5
5
100
AcDbSymbolTable
 70
     1
  0
LTYPE
  5
12
100
AcDbSymbolTableRecord
100
AcDbLinetypeTableRecord
  2
BYBLOCK
 70
     0
  3

 72
    65
 73
     0
 40
0.0
  0
LTYPE
  5
13
100
AcDbSymbolTableRecord
100
AcDbLinetypeTableRecord
  2
BYLAYER
 70
     0
  3

 72
    65
 73
     0
 40
0.0
  0
LTYPE
  5
14
100
AcDbSymbolTableRecord
100
AcDbLinetypeTableRecord
  2
CONTINUOUS
 70
     0
  3
Solid line
 72
    65
 73
     0
 40
0.0
  0
ENDTAB
  0
TABLE
  2
LAYER
  5
2
100
AcDbSymbolTable
 70
     9
  0
LAYER
  5
E
100
AcDbSymbolTableRecord
100
AcDbLayerTableRecord
  2
0
 70
     0
 62
     7
  6
CONTINUOUS
  0
LAYER
  5
79
100
AcDbSymbolTableRecord
100
AcDbLayerTableRecord
  2
DEFPOINTS
 70
     0
 62
     7
  6
CONTINUOUS
  0
LAYER
  5
7A
100
AcDbSymbolTableRecord
100
AcDbLayerTableRecord
  2
DIMN
 70
     0
 62
     4
  6
CONTINUOUS
  0
LAYER
  5
7B
100
AcDbSymbolTableRecord
100
AcDbLayerTableRecord
  2
BORDER
 70
     0
 62
     4
  6
CONTINUOUS
  0
LAYER
  5
7C
100
AcDbSymbolTableRecord
100
AcDbLayerTableRecord
  2
BOARDER
 70
     0
 62
     7
  6
CONTINUOUS
  0
LAYER
  5
7D
100
AcDbSymbolTableRecord
100
AcDbLayerTableRecord
  2
R-DOOR-ANNO
 70
     0
 62
     7
  6
CONTINUOUS
  0
LAYER
  5
7E
100
AcDbSymbolTableRecord
100
AcDbLayerTableRecord
  2
R-DOOR-PATT
 70
     0
 62
     5
  6
CONTINUOUS
  0
LAYER
  5
7F
100
AcDbSymbolTableRecord
100
AcDbLayerTableRecord
  2
R-DOOR-DETL
 70
     0
 62
     3
  6
CONTINUOUS
  0
LAYER
  5
80
100
AcDbSymbolTableRecord
100
AcDbLayerTableRecord
  2
10INCHRAIL
 70
     0
 62
     3
  6
CONTINUOUS
  0
ENDTAB
  0
TABLE
  2
STYLE
  5
3
100
AcDbSymbolTable
 70
     2
  0
STYLE
  5
F
100
AcDbSymbolTableRecord
100
AcDbTextStyleTableRecord
  2
STANDARD
 70
     0
 40
0.0
 41
1.0
 50
0.0
 71
     0
 42
0.2
  3
txt
  4

  0
STYLE
  5
81
100
AcDbSymbolTableRecord
100
AcDbTextStyleTableRecord
  2
ROMANS
 70
     0
 40
0.0
 41
1.0
 50
0.0
 71
     0
 42
0.5
  3
romans
  4

  0
ENDTAB
  0
TABLE
  2
VIEW
  5
6
100
AcDbSymbolTable
 70
     0
  0
ENDTAB
  0
TABLE
  2
UCS
  5
7
100
AcDbSymbolTable
 70
     0
  0
ENDTAB
  0
TABLE
  2
APPID
  5
9
100
AcDbSymbolTable
 70
     1
  0
APPID
  5
10
100
AcDbSymbolTableRecord
100
AcDbRegAppTableRecord
  2
ACAD
 70
     0
  0
ENDTAB
  0
TABLE
  2
DIMSTYLE
  5
A
100
AcDbSymbolTable
 70
     2
  0
DIMSTYLE
105
1D
102
{ACAD_REACTORS
330
2AA
330
637
330
646
330
662
330
671
102
}
100
AcDbSymbolTableRecord
100
AcDbDimStyleTableRecord
  2
STANDARD
 70
     0
  3

  4

  5

  6

  7

 40
1.0
 41
0.18
 42
0.0625
 43
0.38
 44
0.18
 45
0.0
 46
0.0
 47
0.0
 48
0.0
140
0.18
141
0.09
142
0.0
143
25.4
144
1.0
145
0.0
146
1.0
147
0.09
 71
     0
 72
     0
 73
     1
 74
     1
 75
     0
 76
     0
 77
     0
 78
     0
170
     0
171
     2
172
     0
173
     0
174
     0
175
     0
176
     0
177
     0
178
     0
270
     2
271
     4
272
     4
273
     2
274
     2
340
F
275
     0
280
     0
281
     0
282
     0
283
     1
284
     0
285
     0
286
     0
287
     3
288
     0
  0
DIMSTYLE
105
5DE
100
AcDbSymbolTableRecord
100
AcDbDimStyleTableRecord
  2
STANDARD1
 70
     0
  3

  4

  5

  6

  7

 40
0.25
 41
0.1
 42
0.05
 43
0.1
 44
0.1
 45
0.0
 46
0.0
 47
0.024
 48
0.024
140
0.18
141
0.0
142
0.0
143
25.4
144
1.0
145
0.0
146
1.0
147
0.09
 71
     0
 72
     0
 73
     1
 74
     1
 75
     0
 76
     0
 77
     0
 78
     4
170
     0
171
     2
172
     0
173
     0
174
     0
175
     0
176
     0
177
     0
178
     0
270
     2
271
     3
272
     3
273
     2
274
     2
340
81
275
     0
280
     0
281
     0
282
     0
283
     1
284
     4
285
     0
286
     0
287
     3
288
     0
  0
ENDTAB
  0
TABLE
  2
BLOCK_RECORD
  5
1
100
AcDbSymbolTable
 70
    29
  0
BLOCK_RECORD
  5
18
100
AcDbSymbolTableRecord
100
AcDbBlockTableRecord
  2
*MODEL_SPACE
  0
BLOCK_RECORD
  5
15
100
AcDbSymbolTableRecord
100
AcDbBlockTableRecord
  2
*PAPER_SPACE
  0
BLOCK_RECORD
  5
20
100
AcDbSymbolTableRecord
100
AcDbBlockTableRecord
  2
A$C2189253D
  0
BLOCK_RECORD
  5
24
100
AcDbSymbolTableRecord
100
AcDbBlockTableRecord
  2
A$C21405640
  0
BLOCK_RECORD
  5
2C
100
AcDbSymbolTableRecord
100
AcDbBlockTableRecord
  2
A$C35F20450
  0
BLOCK_RECORD
  5
30
100
AcDbSymbolTableRecord
100
AcDbBlockTableRecord
  2
_DOTSMALL
  0
BLOCK_RECORD
  5
37
100
AcDbSymbolTableRecord
100
AcDbBlockTableRecord
  2
*D4
  0
BLOCK_RECORD
  5
44
100
AcDbSymbolTableRecord
100
AcDbBlockTableRecord
  2
*D5
  0
BLOCK_RECORD
  5
51
100
AcDbSymbolTableRecord
100
AcDbBlockTableRecord
  2
*D6
  0
BLOCK_RECORD
  5
5E
100
AcDbSymbolTableRecord
100
AcDbBlockTableRecord
  2
*D7
  0
BLOCK_RECORD
  5
6B
100
AcDbSymbolTableRecord
100
AcDbBlockTableRecord
  2
*D8
  0
BLOCK_RECORD
  5
82
100
AcDbSymbolTableRecord
100
AcDbBlockTableRecord
  2
A$C6F0D54FB
  0
BLOCK_RECORD
  5
4BA
100
AcDbSymbolTableRecord
100
AcDbBlockTableRecord
  2
*D10
  0
BLOCK_RECORD
  5
541
100
AcDbSymbolTableRecord
100
AcDbBlockTableRecord
  2
A$C6BE867F4
  0
BLOCK_RECORD
  5
549
100
AcDbSymbolTableRecord
100
AcDbBlockTableRecord
  2
A$C0E897680
  0
BLOCK_RECORD
  5
54D
100
AcDbSymbolTableRecord
100
AcDbBlockTableRecord
  2
A$C60D73A4C
  0
BLOCK_RECORD
  5
551
100
AcDbSymbolTableRecord
100
AcDbBlockTableRecord
  2
A$C74654F65
  0
BLOCK_RECORD
  5
555
100
AcDbSymbolTableRecord
100
AcDbBlockTableRecord
  2
A$C5FA07A05
  0
BLOCK_RECORD
  5
559
100
AcDbSymbolTableRecord
100
AcDbBlockTableRecord
  2
A$C46F93324
  0
BLOCK_RECORD
  5
5A7
100
AcDbSymbolTableRecord
100
AcDbBlockTableRecord
  2
A$C4F467ADE
  0
BLOCK_RECORD
  5
5DF
100
AcDbSymbolTableRecord
100
AcDbBlockTableRecord
  2
A$C216638AD
  0
BLOCK_RECORD
  5
60E
100
AcDbSymbolTableRecord
100
AcDbBlockTableRecord
  2
A$C433421F4
  0
BLOCK_RECORD
  5
62A
100
AcDbSymbolTableRecord
100
AcDbBlockTableRecord
  2
*D24
  0
BLOCK_RECORD
  5
638
100
AcDbSymbolTableRecord
100
AcDbBlockTableRecord
  2
*D25
  0
BLOCK_RECORD
  5
655
100
AcDbSymbolTableRecord
100
AcDbBlockTableRecord
  2
*D27
  0
BLOCK_RECORD
  5
663
100
AcDbSymbolTableRecord
100
AcDbBlockTableRecord
  2
*D28
  0
ENDTAB
  0
ENDSEC
  0
SECTION
  2
BLOCKS
  0
BLOCK
  5
19
100
AcDbEntity
  8
0
100
AcDbBlockBegin
  2
*MODEL_SPACE
 70
     0
 10
0.0
 20
0.0
 30
0.0
  3
*MODEL_SPACE
  1

  0
ENDBLK
  5
1A
100
AcDbEntity
  8
0
100
AcDbBlockEnd
  0
BLOCK
  5
16
100
AcDbEntity
 67
     1
  8
0
100
AcDbBlockBegin
  2
*PAPER_SPACE
 70
     0
 10
0.0
 20
0.0
 30
0.0
  3
*PAPER_SPACE
  1

  0
ENDBLK
  5
17
100
AcDbEntity
 67
     1
  8
0
100
AcDbBlockEnd
  0
BLOCK
  5
22
100
AcDbEntity
  8
0
100
AcDbBlockBegin
  2
A$C2189253D
 70
     0
 10
0.0
 20
0.0
 30
0.0
  3
A$C2189253D
  1

  0
HATCH
  5
21
100
AcDbEntity
  8
BOARDER
  6
CONTINUOUS
 62
     4
100
AcDbHatch
 10
0.0
 20
0.0
 30
0.0
210
0.0
220
0.0
230
1.0
  2
ANSI31
 70
     0
 71
     0
 91
        3
 92
        7
 72
     1
 73
     1
 93
        8
 10
0.1273646403742585
 20
0.2547293417921961
 42
1.0
 10
0.1273646403742585
 20
0.0000000027943585
 42
0.0
 10
0.2547293098731842
 20
0.000000002794359
 42
0.0
 10
0.2547293098731842
 20
0.1198050709874456
 42
0.0
 10
0.1273646403742585
 20
0.1198050709874452
 42
-1.0
 10
0.1273646403742585
 20
0.1349242735991094
 42
0.0
 10
0.2547293098731842
 20
0.1349242735991099
 42
0.0
 10
0.2547293098731842
 20
0.2547293417921961
 42
0.0
 97
        0
 92
        7
 72
     1
 73
     1
 93
       12
 10
0.2729453093314724
 20
0.2547293417921956
 42
0.0
 10
0.2729453093314742
 20
0.0000000027943585
 42
0.0
 10
0.3927503775245586
 20
0.0000000027943585
 42
0.0
 10
0.3927503775245586
 20
0.1273646722932775
 42
-1.0
 10
0.4078695801362234
 20
0.1273646722932775
 42
0.0
 10
0.4078695801362234
 20
0.0000000027943581
 42
0.0
 10
0.5276746483293114
 20
0.0000000027943576
 42
0.0
 10
0.5276746483293114
 20
0.1106172266293384
 42
0.4142135623730797
 10
0.5109272026653731
 20
0.1273646722932775
 42
0.4142135623730875
 10
0.5276746483293114
 20
0.1441121179572162
 42
0.0
 10
0.5276746483293114
 20
0.2379818961282574
 42
0.4142135623731106
 10
0.5109272026653713
 20
0.2547293417921961
 42
0.0
 97
        0
 92
        7
 72
     0
 73
     1
 93
        6
 10
0.5458906477876049
 20
0.2547293417921961
 10
0.5458906477876031
 20
0.0000000027943576
 10
0.8006199867854384
 20
0.0000000027943581
 10
0.8006199867854402
 20
0.127364672293278
 10
0.6732553172865199
 20
0.1273646722932771
 10
0.6732553172865181
 20
0.2547293417921961
 97
        0
 75
     0
 76
     1
 52
0.0
 41
0.040373
 77
     0
 78
     1
 53
45.0
 43
-7.406223
 44
-1.968858
 45
-0.0035684948455219
 46
0.0035684948455219
 79
     0
 47
0.0009
 98
        3
 10
0.137804
 20
0.196439
 10
0.137804
 20
0.196439
 10
0.137804
 20
0.196439
  0
ENDBLK
  5
23
100
AcDbEntity
  8
0
100
AcDbBlockEnd
  0
BLOCK
  5
2A
100
AcDbEntity
  8
0
100
AcDbBlockBegin
  2
A$C21405640
 70
     0
 10
0.0
 20
0.0
 30
0.0
  3
A$C21405640
  1

  0
MTEXT
  5
25
100
AcDbEntity
  8
0
100
AcDbMText
 10
0.504549
 20
2.99683
 30
0.0
 40
0.614073
 41
19.242589
 71
     1
 72
     5
  1
\fArial|b0|i1|c0|p34;Phone Orders (800) 421-6144\PFax Orders     (800) 262-3299\PWWW.CRLAURENCE.COM
  0
MTEXT
  5
26
100
AcDbEntity
  8
0
100
AcDbMText
 10
7.702431
 20
6.455969
 30
0.0
 40
0.876824
 41
21.937261
 71
     1
 72
     5
  1
\fArial|b1|i0|c0|p34;DOOR RAIL SYSTEM
  0
LWPOLYLINE
  5
27
100
AcDbEntity
  8
0
100
AcDbPolyline
 90
        2
 70
     0
 43
0.098252
 10
0.440527
 20
5.243578
 10
19.707511
 20
5.243578
  0
MTEXT
  5
28
100
AcDbEntity
  8
0
100
AcDbMText
 10
0.488738
 20
4.418164
 30
0.0
 40
0.776802
 41
19.420041
 71
     1
 72
     5
  1
\fArial|b1|i1|c0|p34;C.R. Laurence Architectural Products
  0
INSERT
  5
29
100
AcDbEntity
  8
0
 62
     7
100
AcDbBlockReference
  2
A$C2189253D
 10
0.460151
 20
5.536767
 30
0.0
 41
8.113806
 42
8.113806
 43
8.113806
  0
ENDBLK
  5
2B
100
AcDbEntity
  8
0
100
AcDbBlockEnd
  0
BLOCK
  5
2E
100
AcDbEntity
  8
0
 62
     3
100
AcDbBlockBegin
  2
A$C35F20450
 70
     0
 10
0.0
 20
0.0
 30
0.0
  3
A$C35F20450
  1

  0
INSERT
  5
2D
100
AcDbEntity
  8
DIMN
100
AcDbBlockReference
  2
A$C21405640
 10
0.0
 20
0.0
 30
0.0
 41
0.5
 42
0.5
 43
0.5
  0
ENDBLK
  5
2F
100
AcDbEntity
  8
0
 62
     3
100
AcDbBlockEnd
  0
BLOCK
  5
35
100
AcDbEntity
  8
0
100
AcDbBlockBegin
  2
_DOTSMALL
 70
     0
 10
0.0
 20
0.0
 30
0.0
  3
_DOTSMALL
  1

  0
POLYLINE
  5
31
100
AcDbEntity
  8
0
  6
BYBLOCK
 62
     0
100
AcDb2dPolyline
 66
     1
 10
0.0
 20
0.0
 30
0.0
 70
     1
 40
0.5
 41
0.5
  0
VERTEX
  5
32
100
AcDbEntity
  8
0
  6
BYBLOCK
 62
     0
100
AcDbVertex
100
AcDb2dVertex
 10
-0.0625
 20
0.0
 30
0.0
 42
1.0
  0
VERTEX
  5
33
100
AcDbEntity
  8
0
  6
BYBLOCK
 62
     0
100
AcDbVertex
100
AcDb2dVertex
 10
0.0625
 20
0.0
 30
0.0
 42
1.0
  0
SEQEND
  5
34
100
AcDbEntity
  8
0
  6
BYBLOCK
 62
     0
  0
ENDBLK
  5
36
100
AcDbEntity
  8
0
100
AcDbBlockEnd
  0
BLOCK
  5
42
100
AcDbEntity
  8
0
100
AcDbBlockBegin
  2
*D4
 70
     1
 10
0.0
 20
0.0
 30
0.0
  3
*D4
  1

  0
LINE
  5
38
100
AcDbEntity
  8
0
  6
BYBLOCK
 62
     0
100
AcDbLine
 10
176.757178
 20
16.809968
 30
0.0
 11
172.917763
 21
16.809968
 31
0.0
  0
LINE
  5
39
100
AcDbEntity
  8
0
  6
BYBLOCK
 62
     0
100
AcDbLine
 10
179.347915
 20
21.966876
 30
0.0
 11
172.917763
 21
21.966876
 31
0.0
  0
LINE
  5
3A
100
AcDbEntity
  8
0
  6
BYBLOCK
 62
     0
100
AcDbLine
 10
173.277763
 20
17.169968
 30
0.0
 11
173.277763
 21
18.728422
 31
0.0
  0
LINE
  5
3B
100
AcDbEntity
  8
0
  6
BYBLOCK
 62
     0
100
AcDbLine
 10
173.277763
 20
21.606876
 30
0.0
 11
173.277763
 21
20.048422
 31
0.0
  0
SOLID
  5
3C
100
AcDbEntity
  8
0
  6
BYBLOCK
 62
     0
100
AcDbTrace
 10
173.217763
 20
17.169968
 30
0.0
 11
173.337763
 21
17.169968
 31
0.0
 12
173.277763
 22
16.809968
 32
0.0
 13
173.277763
 23
16.809968
 33
0.0
  0
SOLID
  5
3D
100
AcDbEntity
  8
0
  6
BYBLOCK
 62
     0
100
AcDbTrace
 10
173.217763
 20
21.606876
 30
0.0
 11
173.337763
 21
21.606876
 31
0.0
 12
173.277763
 22
21.966876
 32
0.0
 13
173.277763
 23
21.966876
 33
0.0
  0
MTEXT
  5
3E
100
AcDbEntity
  8
0
  6
BYBLOCK
 62
     0
100
AcDbMText
 10
173.277763
 20
19.388422
 30
0.0
 40
0.36
 41
0.0
 71
     5
 72
     1
  1
\A1;5 3/16\P[132mm]
  0
POINT
  5
3F
100
AcDbEntity
  8
DEFPOINTS
  6
BYBLOCK
 62
     0
100
AcDbPoint
 10
176.882178
 20
16.809968
 30
0.0
  0
POINT
  5
40
100
AcDbEntity
  8
DEFPOINTS
  6
BYBLOCK
 62
     0
100
AcDbPoint
 10
179.472915
 20
21.966876
 30
0.0
  0
POINT
  5
41
100
AcDbEntity
  8
DEFPOINTS
  6
BYBLOCK
 62
     0
100
AcDbPoint
 10
173.277763
 20
21.966876
 30
0.0
  0
ENDBLK
  5
43
100
AcDbEntity
  8
0
100
AcDbBlockEnd
  0
BLOCK
  5
4F
100
AcDbEntity
  8
0
100
AcDbBlockBegin
  2
*D5
 70
     1
 10
0.0
 20
0.0
 30
0.0
  3
*D5
  1

  0
LINE
  5
45
100
AcDbEntity
  8
0
  6
BYBLOCK
 62
     0
100
AcDbLine
 10
183.001301
 20
35.321661
 30
0.0
 11
189.584478
 21
35.321661
 31
0.0
  0
LINE
  5
46
100
AcDbEntity
  8
0
  6
BYBLOCK
 62
     0
100
AcDbLine
 10
184.238997
 20
16.809968
 30
0.0
 11
189.584478
 21
16.809968
 31
0.0
  0
LINE
  5
47
100
AcDbEntity
  8
0
  6
BYBLOCK
 62
     0
100
AcDbLine
 10
189.224478
 20
34.961661
 30
0.0
 11
189.224478
 21
26.425814
 31
0.0
  0
LINE
  5
48
100
AcDbEntity
  8
0
  6
BYBLOCK
 62
     0
100
AcDbLine
 10
189.224478
 20
17.169968
 30
0.0
 11
189.224478
 21
25.705814
 31
0.0
  0
SOLID
  5
49
100
AcDbEntity
  8
0
  6
BYBLOCK
 62
     0
100
AcDbTrace
 10
189.164478
 20
34.961661
 30
0.0
 11
189.284478
 21
34.961661
 31
0.0
 12
189.224478
 22
35.321661
 32
0.0
 13
189.224478
 23
35.321661
 33
0.0
  0
SOLID
  5
4A
100
AcDbEntity
  8
0
  6
BYBLOCK
 62
     0
100
AcDbTrace
 10
189.164478
 20
17.169968
 30
0.0
 11
189.284478
 21
17.169968
 31
0.0
 12
189.224478
 22
16.809968
 32
0.0
 13
189.224478
 23
16.809968
 33
0.0
  0
MTEXT
  5
4B
100
AcDbEntity
  8
0
  6
BYBLOCK
 62
     0
100
AcDbMText
 10
189.224478
 20
26.065814
 30
0.0
 40
0.36
 41
0.0
 71
     5
 72
     1
  1
\A1;CLEAR OPENING
  0
POINT
  5
4C
100
AcDbEntity
  8
DEFPOINTS
  6
BYBLOCK
 62
     0
100
AcDbPoint
 10
182.876301
 20
35.321661
 30
0.0
  0
POINT
  5
4D
100
AcDbEntity
  8
DEFPOINTS
  6
BYBLOCK
 62
     0
100
AcDbPoint
 10
184.113997
 20
16.809968
 30
0.0
  0
POINT
  5
4E
100
AcDbEntity
  8
DEFPOINTS
  6
BYBLOCK
 62
     0
100
AcDbPoint
 10
189.224478
 20
16.809968
 30
0.0
  0
ENDBLK
  5
50
100
AcDbEntity
  8
0
100
AcDbBlockEnd
  0
BLOCK
  5
5C
100
AcDbEntity
  8
0
100
AcDbBlockBegin
  2
*D6
 70
     1
 10
0.0
 20
0.0
 30
0.0
  3
*D6
  1

  0
LINE
  5
52
100
AcDbEntity
  8
0
  6
BYBLOCK
 62
     0
100
AcDbLine
 10
179.336579
 20
30.321766
 30
0.0
 11
172.910537
 21
30.321766
 31
0.0
  0
LINE
  5
53
100
AcDbEntity
  8
0
  6
BYBLOCK
 62
     0
100
AcDbLine
 10
179.472915
 20
21.966876
 30
0.0
 11
172.910537
 21
21.966876
 31
0.0
  0
LINE
  5
54
100
AcDbEntity
  8
0
  6
BYBLOCK
 62
     0
100
AcDbLine
 10
173.270537
 20
29.961766
 30
0.0
 11
173.270537
 21
27.404321
 31
0.0
  0
LINE
  5
55
100
AcDbEntity
  8
0
  6
BYBLOCK
 62
     0
100
AcDbLine
 10
173.270537
 20
22.326876
 30
0.0
 11
173.270537
 21
24.884321
 31
0.0
  0
SOLID
  5
56
100
AcDbEntity
  8
0
  6
BYBLOCK
 62
     0
100
AcDbTrace
 10
173.210537
 20
29.961766
 30
0.0
 11
173.330537
 21
29.961766
 31
0.0
 12
173.270537
 22
30.321766
 32
0.0
 13
173.270537
 23
30.321766
 33
0.0
  0
SOLID
  5
57
100
AcDbEntity
  8
0
  6
BYBLOCK
 62
     0
100
AcDbTrace
 10
173.210537
 20
22.326876
 30
0.0
 11
173.330537
 21
22.326876
 31
0.0
 12
173.270537
 22
21.966876
 32
0.0
 13
173.270537
 23
21.966876
 33
0.0
  0
MTEXT
  5
58
100
AcDbEntity
  8
0
  6
BYBLOCK
 62
     0
100
AcDbMText
 10
173.270537
 20
26.144321
 30
0.0
 40
0.36
 41
0.0
 71
     5
 72
     1
  1
\A1;GLASS\PCLEAR OPENING\PLESS 10 3/16\P[259mm]
  0
POINT
  5
59
100
AcDbEntity
  8
DEFPOINTS
  6
BYBLOCK
 62
     0
100
AcDbPoint
 10
179.461579
 20
30.321766
 30
0.0
  0
POINT
  5
5A
100
AcDbEntity
  8
DEFPOINTS
  6
BYBLOCK
 62
     0
100
AcDbPoint
 10
179.597915
 20
21.966876
 30
0.0
  0
POINT
  5
5B
100
AcDbEntity
  8
DEFPOINTS
  6
BYBLOCK
 62
     0
100
AcDbPoint
 10
173.270537
 20
21.966876
 30
0.0
  0
ENDBLK
  5
5D
100
AcDbEntity
  8
0
100
AcDbBlockEnd
  0
BLOCK
  5
69
100
AcDbEntity
  8
0
100
AcDbBlockBegin
  2
*D7
 70
     1
 10
0.0
 20
0.0
 30
0.0
  3
*D7
  1

  0
LINE
  5
5F
100
AcDbEntity
  8
0
  6
BYBLOCK
 62
     0
100
AcDbLine
 10
176.751301
 20
35.321661
 30
0.0
 11
172.909052
 21
35.321661
 31
0.0
  0
LINE
  5
60
100
AcDbEntity
  8
0
  6
BYBLOCK
 62
     0
100
AcDbLine
 10
179.461579
 20
30.321766
 30
0.0
 11
172.909052
 21
30.321766
 31
0.0
  0
LINE
  5
61
100
AcDbEntity
  8
0
  6
BYBLOCK
 62
     0
100
AcDbLine
 10
173.269052
 20
34.961661
 30
0.0
 11
173.269052
 21
33.481713
 31
0.0
  0
LINE
  5
62
100
AcDbEntity
  8
0
  6
BYBLOCK
 62
     0
100
AcDbLine
 10
173.269052
 20
30.681766
 30
0.0
 11
173.269052
 21
32.161713
 31
0.0
  0
SOLID
  5
63
100
AcDbEntity
  8
0
  6
BYBLOCK
 62
     0
100
AcDbTrace
 10
173.209052
 20
34.961661
 30
0.0
 11
173.329052
 21
34.961661
 31
0.0
 12
173.269052
 22
35.321661
 32
0.0
 13
173.269052
 23
35.321661
 33
0.0
  0
SOLID
  5
64
100
AcDbEntity
  8
0
  6
BYBLOCK
 62
     0
100
AcDbTrace
 10
173.209052
 20
30.681766
 30
0.0
 11
173.329052
 21
30.681766
 31
0.0
 12
173.269052
 22
30.321766
 32
0.0
 13
173.269052
 23
30.321766
 33
0.0
  0
MTEXT
  5
65
100
AcDbEntity
  8
0
  6
BYBLOCK
 62
     0
100
AcDbMText
 10
173.269052
 20
32.821713
 30
0.0
 40
0.36
 41
0.0
 71
     5
 72
     1
  1
\A1;5\P[127mm]
  0
POINT
  5
66
100
AcDbEntity
  8
DEFPOINTS
  6
BYBLOCK
 62
     0
100
AcDbPoint
 10
176.876301
 20
35.321661
 30
0.0
  0
POINT
  5
67
100
AcDbEntity
  8
DEFPOINTS
  6
BYBLOCK
 62
     0
100
AcDbPoint
 10
179.586579
 20
30.321766
 30
0.0
  0
POINT
  5
68
100
AcDbEntity
  8
DEFPOINTS
  6
BYBLOCK
 62
     0
100
AcDbPoint
 10
173.269052
 20
30.321766
 30
0.0
  0
ENDBLK
  5
6A
100
AcDbEntity
  8
0
100
AcDbBlockEnd
  0
BLOCK
  5
77
100
AcDbEntity
  8
0
100
AcDbBlockBegin
  2
*D8
 70
     1
 10
0.0
 20
0.0
 30
0.0
  3
*D8
  1

  0
LINE
  5
6C
100
AcDbEntity
  8
0
  6
BYBLOCK
 62
     0
100
AcDbLine
 10
182.276773
 20
33.571661
 30
0.0
 11
185.109252
 21
33.571661
 31
0.0
  0
LINE
  5
6D
100
AcDbEntity
  8
0
  6
BYBLOCK
 62
     0
100
AcDbLine
 10
180.847293
 20
33.321661
 30
0.0
 11
185.109252
 21
33.321661
 31
0.0
  0
LINE
  5
6E
100
AcDbEntity
  8
0
  6
BYBLOCK
 62
     0
100
AcDbLine
 10
184.749252
 20
33.931661
 30
0.0
 11
184.749252
 21
34.291661
 31
0.0
  0
LINE
  5
6F
100
AcDbEntity
  8
0
  6
BYBLOCK
 62
     0
100
AcDbLine
 10
184.749252
 20
32.961661
 30
0.0
 11
184.749252
 21
32.601661
 31
0.0
  0
LINE
  5
70
100
AcDbEntity
  8
0
  6
BYBLOCK
 62
     0
100
AcDbLine
 10
184.749252
 20
32.601661
 30
0.0
 11
184.389252
 21
32.601661
 31
0.0
  0
SOLID
  5
71
100
AcDbEntity
  8
0
  6
BYBLOCK
 62
     0
100
AcDbTrace
 10
184.689252
 20
33.931661
 30
0.0
 11
184.809252
 21
33.931661
 31
0.0
 12
184.749252
 22
33.571661
 32
0.0
 13
184.749252
 23
33.571661
 33
0.0
  0
SOLID
  5
72
100
AcDbEntity
  8
0
  6
BYBLOCK
 62
     0
100
AcDbTrace
 10
184.689252
 20
32.961661
 30
0.0
 11
184.809252
 21
32.961661
 31
0.0
 12
184.749252
 22
33.321661
 32
0.0
 13
184.749252
 23
33.321661
 33
0.0
  0
MTEXT
  5
73
100
AcDbEntity
  8
0
  6
BYBLOCK
 62
     0
100
AcDbMText
 10
183.489252
 20
32.601661
 30
0.0
 40
0.36
 41
0.0
 71
     5
 72
     1
  1
\A1;1/4\P[6mm]
  0
POINT
  5
74
100
AcDbEntity
  8
DEFPOINTS
  6
BYBLOCK
 62
     0
100
AcDbPoint
 10
182.151773
 20
33.571661
 30
0.0
  0
POINT
  5
75
100
AcDbEntity
  8
DEFPOINTS
  6
BYBLOCK
 62
     0
100
AcDbPoint
 10
180.722293
 20
33.321661
 30
0.0
  0
POINT
  5
76
100
AcDbEntity
  8
DEFPOINTS
  6
BYBLOCK
 62
     0
100
AcDbPoint
 10
184.749252
 20
33.321661
 30
0.0
  0
ENDBLK
  5
78
100
AcDbEntity
  8
0
100
AcDbBlockEnd
  0
BLOCK
  5
29B
100
AcDbEntity
  8
0
100
AcDbBlockBegin
  2
A$C6F0D54FB
 70
     0
 10
0.0
 20
0.0
 30
0.0
  3
A$C6F0D54FB
  1

  0
LINE
  5
83
100
AcDbEntity
  8
R-DOOR-DETL
100
AcDbLine
 10
14.8698
 20
16.354747
 30
0.0
 11
15.147893
 21
16.81757
 31
0.0
  0
ARC
  5
84
100
AcDbEntity
  8
R-DOOR-DETL
100
AcDbCircle
 10
14.737808
 20
16.557222
 30
0.0
 40
0.009842
100
AcDbArc
 50
270.0
 51
0.0
  0
LINE
  5
85
100
AcDbEntity
  8
R-DOOR-DETL
100
AcDbLine
 10
14.737808
 20
16.5441
 30
0.0
 11
14.737808
 21
16.5941
 31
0.0
  0
LINE
  5
86
100
AcDbEntity
  8
R-DOOR-DETL
100
AcDbLine
 10
14.040075
 20
16.354747
 30
0.0
 11
13.761983
 21
16.81757
 31
0.0
  0
ARC
  5
87
100
AcDbEntity
  8
R-DOOR-DETL
100
AcDbCircle
 10
14.172067
 20
16.557222
 30
0.0
 40
0.009842
100
AcDbArc
 50
180.0
 51
270.0
  0
LINE
  5
88
100
AcDbEntity
  8
R-DOOR-DETL
100
AcDbLine
 10
14.172067
 20
16.5441
 30
0.0
 11
14.172067
 21
16.5941
 31
0.0
  0
LINE
  5
89
100
AcDbEntity
  8
R-DOOR-DETL
100
AcDbLine
 10
14.422067
 20
16.5941
 30
0.0
 11
14.422067
 21
16.5441
 31
0.0
  0
LINE
  5
8A
100
AcDbEntity
  8
R-DOOR-DETL
100
AcDbLine
 10
14.487808
 20
16.5941
 30
0.0
 11
14.487808
 21
16.5441
 31
0.0
  0
DIMENSION
  5
8B
100
AcDbEntity
  8
0
100
AcDbDimension
  2
*D5
 10
23.79863
 20
11.437192
 30
0.0
 11
23.79863
 21
20.693038
 31
0.0
 12
-165.425848
 22
-5.372776
 32
0.0
  1
CLEAR OPENING
  3
STANDARD
100
AcDbAlignedDimension
 13
17.450453
 23
29.948885
 33
0.0
 14
18.688149
 24
11.437192
 34
0.0
 50
90.0
100
AcDbRotatedDimension
1001
ACAD
1000
DSTYLE
1002
{
1070
   270
1070
     7
1070
    40
1040
2.0
1002
}
  0
LINE
  5
8C
100
AcDbEntity
  8
BORDER
100
AcDbLine
 10
0.0
 20
38.475081
 30
0.0
 11
0.0
 21
0.0
 31
0.0
  0
LINE
  5
8D
100
AcDbEntity
  8
BORDER
100
AcDbLine
 10
28.904892
 20
0.0
 30
0.0
 11
28.904892
 21
38.475081
 31
0.0
  0
DIMENSION
  5
8E
100
AcDbEntity
  8
0
100
AcDbDimension
  2
*D4
 10
7.851916
 20
16.5941
 30
0.0
 11
7.851916
 21
14.015646
 31
0.0
 12
-165.425848
 22
-5.372776
 32
0.0
  1
<>\P[132mm]
  3
STANDARD
100
AcDbAlignedDimension
 13
11.45633
 23
11.437192
 33
0.0
 14
14.047067
 24
16.5941
 34
0.0
 50
90.0
100
AcDbRotatedDimension
1001
ACAD
1000
DSTYLE
1002
{
1070
   270
1070
     7
1070
    40
1040
2.0
1002
}
  0
LWPOLYLINE
  5
8F
100
AcDbEntity
  8
0
  6
CONTINUOUS
 62
     3
100
AcDbPolyline
 90
       70
 70
     1
 43
0.0
 10
15.222323
 20
12.980989
 10
15.15633
 20
12.980989
 42
0.414214
 10
15.14133
 20
12.965989
 10
15.14133
 20
12.795989
 42
0.414214
 10
15.15633
 20
12.780989
 10
15.222323
 20
12.780989
 42
-0.414214
 10
15.237323
 20
12.765989
 10
15.237323
 20
12.112192
 42
0.414214
 10
15.252323
 20
12.097192
 10
15.272323
 20
12.097192
 42
-0.414214
 10
15.287323
 20
12.082192
 10
15.287323
 20
11.702192
 42
0.414214
 10
15.302323
 20
11.687192
 10
15.372323
 20
11.687192
 42
0.414214
 10
15.387323
 20
11.702192
 10
15.387323
 20
17.475645
 42
0.414214
 10
15.231323
 20
17.631645
 10
14.759403
 20
17.631645
 42
0.414214
 10
14.749403
 20
17.621645
 10
14.749403
 20
17.552433
 42
0.414214
 10
14.759245
 20
17.54259
 10
14.920285
 20
17.54259
 42
-0.043661
 10
14.925494
 20
17.542134
 10
15.212532
 20
17.491522
 42
-0.36397
 10
15.237323
 20
17.461978
 10
15.237323
 20
17.043614
 42
-0.131652
 10
15.203829
 20
16.918614
 10
14.910349
 20
16.410292
 42
0.131652
 10
14.90633
 20
16.395292
 10
14.90633
 20
15.961356
 42
-0.414214
 10
14.84633
 20
15.901356
 10
14.45633
 20
15.901356
 10
14.06633
 20
15.901356
 42
-0.414214
 10
14.00633
 20
15.961356
 10
14.00633
 20
16.395292
 42
0.131652
 10
14.002311
 20
16.410292
 10
13.708831
 20
16.918614
 42
-0.131652
 10
13.675338
 20
17.043614
 10
13.675338
 20
17.461978
 42
-0.36397
 10
13.700128
 20
17.491522
 10
13.987166
 20
17.542134
 42
-0.043661
 10
13.992375
 20
17.54259
 10
14.153415
 20
17.54259
 42
0.414214
 10
14.163258
 20
17.552433
 10
14.163258
 20
17.621645
 42
0.414214
 10
14.153258
 20
17.631645
 10
13.681338
 20
17.631645
 42
0.414214
 10
13.525338
 20
17.475645
 10
13.525338
 20
11.702192
 42
0.414214
 10
13.540338
 20
11.687192
 10
13.610338
 20
11.687192
 42
0.414214
 10
13.625338
 20
11.702192
 10
13.625338
 20
12.082192
 42
-0.414214
 10
13.640338
 20
12.097192
 10
13.660338
 20
12.097192
 42
0.414214
 10
13.675338
 20
12.112192
 10
13.675338
 20
12.765989
 42
-0.414214
 10
13.690338
 20
12.780989
 10
13.75633
 20
12.780989
 42
0.414214
 10
13.77133
 20
12.795989
 10
13.77133
 20
12.965989
 42
0.414214
 10
13.75633
 20
12.980989
 10
13.690338
 20
12.980989
 42
-0.414214
 10
13.675338
 20
12.995989
 10
13.675338
 20
13.237192
 42
-0.414214
 10
13.705338
 20
13.267192
 10
14.45633
 20
13.267192
 10
15.207323
 20
13.267192
 42
-0.414214
 10
15.237323
 20
13.237192
 10
15.237323
 20
12.995989
 42
-0.414214
  0
INSERT
  5
90
100
AcDbEntity
  8
R-DOOR-ANNO
  6
CONTINUOUS
100
AcDbBlockReference
  2
A$C35F20450
 10
0.292955
 20
0.395791
 30
0.0
 41
1.125
 42
1.125
 43
1.125
  0
LINE
  5
91
100
AcDbEntity
  8
BORDER
100
AcDbLine
 10
0.0
 20
0.0
 30
0.0
 11
28.904892
 21
0.0
 31
0.0
  0
TEXT
  5
92
100
AcDbEntity
  8
R-DOOR-ANNO
  6
CONTINUOUS
100
AcDbText
 10
23.555847
 20
0.5625
 30
0.0
 40
0.703125
  1
STYLE 14
  7
ROMANS
100
AcDbText
  0
LINE
  5
93
100
AcDbEntity
  8
R-DOOR-PATT
  6
CONTINUOUS
 62
     5
100
AcDbLine
 10
12.497789
 20
9.437192
 30
0.0
 11
11.453852
 21
10.481129
 31
0.0
  0
LINE
  5
94
100
AcDbEntity
  8
R-DOOR-PATT
  6
CONTINUOUS
 62
     5
100
AcDbLine
 10
12.055848
 20
9.437192
 30
0.0
 11
11.453852
 21
10.039188
 31
0.0
  0
LINE
  5
95
100
AcDbEntity
  8
R-DOOR-PATT
  6
CONTINUOUS
 62
     5
100
AcDbLine
 10
17.359149
 20
9.437192
 30
0.0
 11
15.359149
 21
11.437192
 31
0.0
  0
LINE
  5
96
100
AcDbEntity
  8
R-DOOR-PATT
  6
CONTINUOUS
 62
     5
100
AcDbLine
 10
16.917207
 20
9.437192
 30
0.0
 11
14.917207
 21
11.437192
 31
0.0
  0
LINE
  5
97
100
AcDbEntity
  8
R-DOOR-PATT
  6
CONTINUOUS
 62
     5
100
AcDbLine
 10
16.475265
 20
9.437192
 30
0.0
 11
14.475265
 21
11.437192
 31
0.0
  0
LINE
  5
98
100
AcDbEntity
  8
R-DOOR-PATT
  6
CONTINUOUS
 62
     5
100
AcDbLine
 10
16.033323
 20
9.437192
 30
0.0
 11
14.033323
 21
11.437192
 31
0.0
  0
LINE
  5
99
100
AcDbEntity
  8
R-DOOR-PATT
  6
CONTINUOUS
 62
     5
100
AcDbLine
 10
15.591382
 20
9.437192
 30
0.0
 11
13.591382
 21
11.437192
 31
0.0
  0
LINE
  5
9A
100
AcDbEntity
  8
R-DOOR-PATT
  6
CONTINUOUS
 62
     5
100
AcDbLine
 10
15.14944
 20
9.437192
 30
0.0
 11
13.14944
 21
11.437192
 31
0.0
  0
LINE
  5
9B
100
AcDbEntity
  8
R-DOOR-PATT
  6
CONTINUOUS
 62
     5
100
AcDbLine
 10
14.707498
 20
9.437192
 30
0.0
 11
12.707498
 21
11.437192
 31
0.0
  0
LINE
  5
9C
100
AcDbEntity
  8
R-DOOR-PATT
  6
CONTINUOUS
 62
     5
100
AcDbLine
 10
14.265556
 20
9.437192
 30
0.0
 11
12.265556
 21
11.437192
 31
0.0
  0
LINE
  5
9D
100
AcDbEntity
  8
R-DOOR-PATT
  6
CONTINUOUS
 62
     5
100
AcDbLine
 10
13.823615
 20
9.437192
 30
0.0
 11
11.823615
 21
11.437192
 31
0.0
  0
LINE
  5
9E
100
AcDbEntity
  8
R-DOOR-PATT
  6
CONTINUOUS
 62
     5
100
AcDbLine
 10
13.381673
 20
9.437192
 30
0.0
 11
11.453852
 21
11.365013
 31
0.0
  0
LINE
  5
9F
100
AcDbEntity
  8
R-DOOR-PATT
  6
CONTINUOUS
 62
     5
100
AcDbLine
 10
12.939731
 20
9.437192
 30
0.0
 11
11.453852
 21
10.923071
 31
0.0
  0
TEXT
  5
A0
100
AcDbEntity
  8
R-DOOR-ANNO
  6
CONTINUOUS
100
AcDbText
 10
6.684307
 20
7.364138
 30
0.0
 40
0.46875
  1
6" SQUARE DOOR RAIL BOTTOM NON CLAD
  7
ROMANS
 72
     1
 11
14.463324
 21
7.364138
 31
0.0
100
AcDbText
  0
TEXT
  5
A1
100
AcDbEntity
  8
R-DOOR-ANNO
  6
CONTINUOUS
100
AcDbText
 10
10.398983
 20
6.50459
 30
0.0
 40
0.46875
  1
WITH NON CLAD HEADER
  7
ROMANS
 72
     1
 11
14.807465
 21
6.50459
 31
0.0
100
AcDbText
  0
TEXT
  5
A2
100
AcDbEntity
  8
R-DOOR-ANNO
  6
CONTINUOUS
100
AcDbText
 10
6.486148
 20
8.326813
 30
0.0
 40
0.46875
  1
CRL 4" SQUARE DOOR RAIL TOP NON CLAD
  7
ROMANS
 72
     1
 11
14.454898
 21
8.326813
 31
0.0
100
AcDbText
  0
LINE
  5
A3
100
AcDbEntity
  8
R-DOOR-PATT
  6
CONTINUOUS
 62
     5
100
AcDbLine
 10
11.613906
 20
9.437192
 30
0.0
 11
11.453852
 21
9.597246
 31
0.0
  0
LINE
  5
A4
100
AcDbEntity
  8
R-DOOR-DETL
100
AcDbLine
 10
14.83751
 20
13.068591
 30
0.0
 11
14.731796
 21
13.251692
 31
0.0
  0
LINE
  5
A5
100
AcDbEntity
  8
R-DOOR-DETL
100
AcDbLine
 10
15.030864
 20
13.251692
 30
0.0
 11
14.92515
 21
13.068591
 31
0.0
  0
LINE
  5
A6
100
AcDbEntity
  8
R-DOOR-DETL
100
AcDbLine
 10
15.232323
 20
13.005989
 30
0.0
 11
15.232323
 21
13.236192
 31
0.0
  0
LINE
  5
A7
100
AcDbEntity
  8
R-DOOR-DETL
100
AcDbLine
 10
15.13883
 20
12.717192
 30
0.0
 11
15.13883
 21
13.267192
 31
0.0
  0
LINE
  5
A8
100
AcDbEntity
  8
R-DOOR-DETL
100
AcDbLine
 10
14.180864
 20
13.251692
 30
0.0
 11
14.07515
 21
13.068591
 31
0.0
  0
LINE
  5
A9
100
AcDbEntity
  8
R-DOOR-DETL
100
AcDbLine
 10
13.680338
 20
13.236192
 30
0.0
 11
13.680338
 21
13.005989
 31
0.0
  0
LINE
  5
AA
100
AcDbEntity
  8
R-DOOR-DETL
100
AcDbLine
 10
13.98751
 20
13.068591
 30
0.0
 11
13.881796
 21
13.251692
 31
0.0
  0
LINE
  5
AB
100
AcDbEntity
  8
R-DOOR-DETL
100
AcDbLine
 10
13.77383
 20
12.717192
 30
0.0
 11
13.77383
 21
13.267192
 31
0.0
  0
TEXT
  5
AC
100
AcDbEntity
  8
0
100
AcDbText
 10
10.879208
 20
13.113028
 30
0.0
 40
0.36
  1
SHOE
  7
ROMANS
100
AcDbText
  0
LINE
  5
AD
100
AcDbEntity
  8
0
  6
BYBLOCK
 62
     0
100
AcDbLine
 10
15.446698
 20
11.687192
 30
0.0
 11
18.688149
 21
11.687192
 31
0.0
  0
LINE
  5
AE
100
AcDbEntity
  8
0
  6
BYBLOCK
 62
     0
100
AcDbLine
 10
17.236291
 20
11.437192
 30
0.0
 11
18.688149
 21
11.437192
 31
0.0
  0
LINE
  5
AF
100
AcDbEntity
  8
R-DOOR-PATT
  6
CONTINUOUS
 62
     5
100
AcDbLine
 10
17.453852
 20
11.110256
 30
0.0
 11
17.126916
 21
11.437192
 31
0.0
  0
LINE
  5
B0
100
AcDbEntity
  8
R-DOOR-PATT
  6
CONTINUOUS
 62
     5
100
AcDbLine
 10
17.453852
 20
10.668314
 30
0.0
 11
16.684974
 21
11.437192
 31
0.0
  0
LINE
  5
B1
100
AcDbEntity
  8
R-DOOR-PATT
  6
CONTINUOUS
 62
     5
100
AcDbLine
 10
17.453852
 20
10.226372
 30
0.0
 11
16.243032
 21
11.437192
 31
0.0
  0
LINE
  5
B2
100
AcDbEntity
  8
R-DOOR-PATT
  6
CONTINUOUS
 62
     5
100
AcDbLine
 10
17.453852
 20
9.78443
 30
0.0
 11
15.80109
 21
11.437192
 31
0.0
  0
LINE
  5
B3
100
AcDbEntity
  8
0
100
AcDbLine
 10
12.36283
 20
11.437192
 30
0.0
 11
16.54983
 21
11.437192
 31
0.0
  0
LINE
  5
B4
100
AcDbEntity
  8
0
100
AcDbLine
 10
11.45633
 20
11.437192
 30
0.0
 11
17.45633
 21
11.437192
 31
0.0
  0
POINT
  5
B5
100
AcDbEntity
  8
DEFPOINTS
  6
BYBLOCK
 62
     0
100
AcDbPoint
 10
11.45633
 20
11.437192
 30
0.0
  0
POINT
  5
B6
100
AcDbEntity
  8
DEFPOINTS
  6
BYBLOCK
 62
     0
100
AcDbPoint
 10
17.126916
 20
11.437192
 30
0.0
  0
POINT
  5
B7
100
AcDbEntity
  8
DEFPOINTS
  6
BYBLOCK
 62
     0
100
AcDbPoint
 10
15.337323
 20
11.687192
 30
0.0
  0
LINE
  5
B8
100
AcDbEntity
  8
R-DOOR-DETL
100
AcDbLine
 10
14.00214
 20
12.837649
 30
0.0
 11
14.107272
 21
12.864641
 31
0.0
  0
ARC
  5
B9
100
AcDbEntity
  8
R-DOOR-DETL
100
AcDbCircle
 10
14.03133
 20
12.942192
 30
0.0
 40
0.1005
100
AcDbArc
 50
122.506128
 51
57.493872
  0
CIRCLE
  5
BA
100
AcDbEntity
  8
R-DOOR-DETL
100
AcDbCircle
 10
14.03133
 20
12.942192
 30
0.0
 40
0.1625
  0
CIRCLE
  5
BB
100
AcDbEntity
  8
R-DOOR-DETL
100
AcDbCircle
 10
14.03133
 20
12.942192
 30
0.0
 40
0.1875
  0
LINE
  5
BC
100
AcDbEntity
  8
R-DOOR-DETL
100
AcDbLine
 10
13.955388
 20
13.019743
 30
0.0
 11
14.06052
 21
13.046735
 31
0.0
  0
LINE
  5
BD
100
AcDbEntity
  8
R-DOOR-DETL
100
AcDbLine
 10
13.77383
 20
12.717192
 30
0.0
 11
15.13883
 21
12.717192
 31
0.0
  0
LINE
  5
BE
100
AcDbEntity
  8
R-DOOR-DETL
100
AcDbLine
 10
13.79133
 20
12.691192
 30
0.0
 11
15.12133
 21
12.691192
 31
0.0
  0
ARC
  5
BF
100
AcDbEntity
  8
R-DOOR-DETL
100
AcDbCircle
 10
13.76133
 20
12.975989
 30
0.0
 40
0.015
100
AcDbArc
 50
0.0
 51
90.0
  0
LINE
  5
C0
100
AcDbEntity
  8
R-DOOR-DETL
100
AcDbLine
 10
13.695338
 20
12.990989
 30
0.0
 11
13.76133
 21
12.990989
 31
0.0
  0
ARC
  5
C1
100
AcDbEntity
  8
R-DOOR-DETL
100
AcDbCircle
 10
13.695338
 20
13.005989
 30
0.0
 40
0.015
100
AcDbArc
 50
180.0
 51
270.0
  0
LINE
  5
C2
100
AcDbEntity
  8
R-DOOR-DETL
100
AcDbLine
 10
13.926198
 20
12.9152
 30
0.0
 11
13.955388
 21
13.019743
 31
0.0
  0
LINE
  5
C3
100
AcDbEntity
  8
R-DOOR-DETL
100
AcDbLine
 10
13.926198
 20
12.9152
 30
0.0
 11
14.00214
 21
12.837649
 31
0.0
  0
ARC
  5
C4
100
AcDbEntity
  8
R-DOOR-DETL
100
AcDbCircle
 10
13.960663
 20
13.053091
 30
0.0
 40
0.031
100
AcDbArc
 50
302.506128
 51
30.0
  0
ARC
  5
C5
100
AcDbEntity
  8
R-DOOR-DETL
100
AcDbCircle
 10
13.79133
 20
12.706192
 30
0.0
 40
0.015
100
AcDbArc
 50
180.0
 51
270.0
  0
LINE
  5
C6
100
AcDbEntity
  8
R-DOOR-DETL
100
AcDbLine
 10
13.77633
 20
12.975989
 30
0.0
 11
13.77633
 21
12.706192
 31
0.0
  0
ARC
  5
C7
100
AcDbEntity
  8
R-DOOR-DETL
100
AcDbCircle
 10
14.88133
 20
12.942192
 30
0.0
 40
0.1005
100
AcDbArc
 50
122.506128
 51
57.493872
  0
LINE
  5
C8
100
AcDbEntity
  8
R-DOOR-DETL
100
AcDbLine
 10
14.870678
 20
12.834174
 30
0.0
 11
14.782458
 21
12.897408
 31
0.0
  0
LINE
  5
C9
100
AcDbEntity
  8
R-DOOR-DETL
100
AcDbLine
 10
14.980202
 20
12.986977
 30
0.0
 11
14.969551
 21
12.878959
 31
0.0
  0
CIRCLE
  5
CA
100
AcDbEntity
  8
R-DOOR-DETL
100
AcDbCircle
 10
14.88133
 20
12.942192
 30
0.0
 40
0.1625
  0
CIRCLE
  5
CB
100
AcDbEntity
  8
R-DOOR-DETL
100
AcDbCircle
 10
14.88133
 20
12.942192
 30
0.0
 40
0.1875
  0
LINE
  5
CC
100
AcDbEntity
  8
R-DOOR-DETL
100
AcDbLine
 10
14.969551
 20
12.878959
 30
0.0
 11
14.870678
 21
12.834174
 31
0.0
  0
ARC
  5
CD
100
AcDbEntity
  8
R-DOOR-DETL
100
AcDbCircle
 10
14.810663
 20
13.053091
 30
0.0
 40
0.031
100
AcDbArc
 50
302.506128
 51
30.0
  0
ARC
  5
CE
100
AcDbEntity
  8
R-DOOR-DETL
100
AcDbCircle
 10
14.951997
 20
13.053091
 30
0.0
 40
0.031
100
AcDbArc
 50
150.0
 51
237.493872
  0
ARC
  5
CF
100
AcDbEntity
  8
R-DOOR-DETL
100
AcDbCircle
 10
15.217323
 20
13.005989
 30
0.0
 40
0.015
100
AcDbArc
 50
270.0
 51
360.0
  0
LINE
  5
D0
100
AcDbEntity
  8
R-DOOR-DETL
100
AcDbLine
 10
15.15133
 20
12.990989
 30
0.0
 11
15.217323
 21
12.990989
 31
0.0
  0
ARC
  5
D1
100
AcDbEntity
  8
R-DOOR-DETL
100
AcDbCircle
 10
15.15133
 20
12.975989
 30
0.0
 40
0.015
100
AcDbArc
 50
90.0
 51
180.0
  0
LINE
  5
D2
100
AcDbEntity
  8
R-DOOR-DETL
100
AcDbLine
 10
14.891982
 20
13.05021
 30
0.0
 11
14.79311
 21
13.005426
 31
0.0
  0
LINE
  5
D3
100
AcDbEntity
  8
R-DOOR-DETL
100
AcDbLine
 10
14.79311
 20
13.005426
 30
0.0
 11
14.782458
 21
12.897408
 31
0.0
  0
LINE
  5
D4
100
AcDbEntity
  8
R-DOOR-DETL
100
AcDbLine
 10
14.980202
 20
12.986977
 30
0.0
 11
14.891982
 21
13.05021
 31
0.0
  0
ARC
  5
D5
100
AcDbEntity
  8
R-DOOR-DETL
100
AcDbCircle
 10
15.12133
 20
12.706192
 30
0.0
 40
0.015
100
AcDbArc
 50
270.0
 51
0.0
  0
LINE
  5
D6
100
AcDbEntity
  8
R-DOOR-DETL
100
AcDbLine
 10
15.13633
 20
12.706192
 30
0.0
 11
15.13633
 21
12.975989
 31
0.0
  0
CIRCLE
  5
D7
100
AcDbEntity
  8
R-DOOR-DETL
100
AcDbCircle
 10
14.45633
 20
12.942192
 30
0.0
 40
0.1875
  0
CIRCLE
  5
D8
100
AcDbEntity
  8
R-DOOR-DETL
100
AcDbCircle
 10
14.45633
 20
12.942192
 30
0.0
 40
0.1625
  0
LINE
  5
D9
100
AcDbEntity
  8
R-DOOR-DETL
100
AcDbLine
 10
14.107272
 20
12.864641
 30
0.0
 11
14.136462
 21
12.969184
 31
0.0
  0
ARC
  5
DA
100
AcDbEntity
  8
R-DOOR-DETL
100
AcDbCircle
 10
14.101997
 20
13.053091
 30
0.0
 40
0.031
100
AcDbArc
 50
150.0
 51
237.493872
  0
LINE
  5
DB
100
AcDbEntity
  8
R-DOOR-DETL
100
AcDbLine
 10
14.06052
 20
13.046735
 30
0.0
 11
14.136462
 21
12.969184
 31
0.0
  0
LINE
  5
DC
100
AcDbEntity
  8
R-DOOR-DETL
100
AcDbLine
 10
14.510601
 20
12.848192
 30
0.0
 11
14.564872
 21
12.942192
 31
0.0
  0
LINE
  5
DD
100
AcDbEntity
  8
R-DOOR-DETL
100
AcDbLine
 10
14.402059
 20
12.848192
 30
0.0
 11
14.347788
 21
12.942192
 31
0.0
  0
LINE
  5
DE
100
AcDbEntity
  8
R-DOOR-DETL
100
AcDbLine
 10
14.402059
 20
12.848192
 30
0.0
 11
14.510601
 21
12.848192
 31
0.0
  0
LINE
  5
DF
100
AcDbEntity
  8
R-DOOR-DETL
100
AcDbLine
 10
14.564872
 20
12.942192
 30
0.0
 11
14.510601
 21
13.036192
 31
0.0
  0
LINE
  5
E0
100
AcDbEntity
  8
R-DOOR-DETL
100
AcDbLine
 10
14.347788
 20
12.942192
 30
0.0
 11
14.402059
 21
13.036192
 31
0.0
  0
LINE
  5
E1
100
AcDbEntity
  8
R-DOOR-DETL
100
AcDbLine
 10
14.402059
 20
13.036192
 30
0.0
 11
14.510601
 21
13.036192
 31
0.0
  0
SOLID
  5
E2
100
AcDbEntity
  8
0
  6
BYBLOCK
 62
     0
100
AcDbTrace
 10
18.320649
 20
11.122192
 30
0.0
 11
18.425649
 21
11.122192
 31
0.0
 12
18.373149
 22
11.437192
 32
0.0
 13
18.373149
 23
11.437192
 33
0.0
  0
LINE
  5
E3
100
AcDbEntity
  8
0
  6
BYBLOCK
 62
     0
100
AcDbLine
 10
18.373149
 20
11.122192
 30
0.0
 11
18.373149
 21
10.807192
 31
0.0
  0
LINE
  5
E4
100
AcDbEntity
  8
0
  6
BYBLOCK
 62
     0
100
AcDbLine
 10
18.373149
 20
12.002192
 30
0.0
 11
18.373149
 21
12.317192
 31
0.0
  0
MTEXT
  5
E5
100
AcDbEntity
  8
0
  6
BYBLOCK
 62
     0
100
AcDbMText
 10
19.475649
 20
12.317192
 30
0.0
 40
0.315
 41
0.0
 71
     5
 72
     1
  1
\A1;1/4\P[6mm]
  0
POINT
  5
E6
100
AcDbEntity
  8
DEFPOINTS
  6
BYBLOCK
 62
     0
100
AcDbPoint
 10
18.373149
 20
11.687192
 30
0.0
  0
SOLID
  5
E7
100
AcDbEntity
  8
0
  6
BYBLOCK
 62
     0
100
AcDbTrace
 10
18.320649
 20
12.002192
 30
0.0
 11
18.425649
 21
12.002192
 31
0.0
 12
18.373149
 22
11.687192
 32
0.0
 13
18.373149
 23
11.687192
 33
0.0
  0
LINE
  5
E8
100
AcDbEntity
  8
0
  6
BYBLOCK
 62
     0
100
AcDbLine
 10
18.373149
 20
12.317192
 30
0.0
 11
18.688149
 21
12.317192
 31
0.0
  0
TEXT
  5
E9
100
AcDbEntity
  8
0
100
AcDbText
 10
16.472215
 20
15.47945
 30
0.0
 40
0.36
  1
GLASS CLAMP
  7
ROMANS
100
AcDbText
  0
LWPOLYLINE
  5
EA
100
AcDbEntity
  8
10INCHRAIL
  6
CONTINUOUS
 62
     3
100
AcDbPolyline
 90
       17
 70
     1
 43
0.0
 10
14.411432
 20
13.555555
 42
0.939516
 10
14.327221
 20
13.606134
 42
0.11093
 10
14.301586
 20
13.542374
 42
-0.367717
 10
14.271975
 20
13.517192
 10
13.737338
 20
13.517192
 42
-0.414214
 10
13.675338
 20
13.579192
 10
13.675338
 20
15.119653
 42
-0.414214
 10
13.737338
 20
15.181653
 10
14.45633
 20
15.181653
 10
15.175323
 20
15.181653
 42
-0.414214
 10
15.237323
 20
15.119653
 10
15.237323
 20
13.579192
 42
-0.414214
 10
15.175323
 20
13.517192
 10
14.640685
 20
13.517192
 42
-0.367717
 10
14.611074
 20
13.542374
 42
0.11093
 10
14.585439
 20
13.606134
 42
0.939516
 10
14.501228
 20
13.555555
 42
-2.169752
  0
LINE
  5
EB
100
AcDbEntity
  8
R-DOOR-DETL
100
AcDbLine
 10
13.77383
 20
13.267192
 30
0.0
 11
15.13883
 21
13.267192
 31
0.0
  0
LINE
  5
EC
100
AcDbEntity
  8
R-DOOR-DETL
100
AcDbLine
 10
13.77383
 20
13.142192
 30
0.0
 11
15.13883
 21
13.142192
 31
0.0
  0
INSERT
  5
ED
100
AcDbEntity
  8
R-DOOR-ANNO
  6
CONTINUOUS
100
AcDbBlockReference
  2
_DOTSMALL
 10
13.589413
 20
13.895377
 30
0.0
 41
0.18
 42
0.18
 43
0.18
 50
150.718927
1001
ACAD
1000
DSTYLE
1002
{
1070
   173
1070
     1
1070
     6
1000
_DOTSMALL
1002
}
  0
LINE
  5
EE
100
AcDbEntity
  8
R-DOOR-DETL
100
AcDbLine
 10
13.85495
 20
13.267192
 30
0.0
 11
13.711338
 21
13.267192
 31
0.0
  0
LINE
  5
EF
100
AcDbEntity
  8
R-DOOR-ANNO
  6
CONTINUOUS
100
AcDbLine
 10
12.518359
 20
13.299488
 30
0.0
 11
12.33836
 21
13.300089
 31
0.0
1001
ACAD
1000
DSTYLE
1002
{
1070
   173
1070
     1
1070
     6
1000
_DOTSMALL
1002
}
  0
ARC
  5
F0
100
AcDbEntity
  8
R-DOOR-DETL
100
AcDbCircle
 10
13.711338
 20
13.236192
 30
0.0
 40
0.031
100
AcDbArc
 50
90.0
 51
180.0
  0
ARC
  5
F1
100
AcDbEntity
  8
R-DOOR-DETL
100
AcDbCircle
 10
13.85495
 20
13.236192
 30
0.0
 40
0.031
100
AcDbArc
 50
30.0
 51
90.0
  0
LINE
  5
F2
100
AcDbEntity
  8
R-DOOR-ANNO
  6
CONTINUOUS
100
AcDbLine
 10
13.589413
 20
13.895377
 30
0.0
 11
12.518359
 21
13.299488
 31
0.0
1001
ACAD
1000
DSTYLE
1002
{
1070
   173
1070
     1
1070
     6
1000
_DOTSMALL
1002
}
  0
ARC
  5
F3
100
AcDbEntity
  8
R-DOOR-DETL
100
AcDbCircle
 10
14.70495
 20
13.236192
 30
0.0
 40
0.031
100
AcDbArc
 50
30.0
 51
90.0
  0
ARC
  5
F4
100
AcDbEntity
  8
R-DOOR-DETL
100
AcDbCircle
 10
15.057711
 20
13.236192
 30
0.0
 40
0.031
100
AcDbArc
 50
90.0
 51
150.0
  0
ARC
  5
F5
100
AcDbEntity
  8
R-DOOR-DETL
100
AcDbCircle
 10
15.201323
 20
13.236192
 30
0.0
 40
0.031
100
AcDbArc
 50
360.0
 51
90.0
  0
LINE
  5
F6
100
AcDbEntity
  8
R-DOOR-DETL
100
AcDbLine
 10
15.201323
 20
13.267192
 30
0.0
 11
15.057711
 21
13.267192
 31
0.0
  0
ARC
  5
F7
100
AcDbEntity
  8
R-DOOR-DETL
100
AcDbCircle
 10
14.207711
 20
13.236192
 30
0.0
 40
0.031
100
AcDbArc
 50
90.0
 51
150.0
  0
LINE
  5
F8
100
AcDbEntity
  8
R-DOOR-DETL
100
AcDbLine
 10
14.70495
 20
13.267192
 30
0.0
 11
14.207711
 21
13.267192
 31
0.0
  0
LWPOLYLINE
  5
F9
100
AcDbEntity
  8
0
  6
CONTINUOUS
 62
     3
100
AcDbPolyline
 90
       17
 70
     1
 43
0.0
 10
14.585439
 20
15.51715
 42
-0.106196
 10
14.610576
 20
15.456281
 42
0.362414
 10
14.640091
 20
15.431653
 10
15.004026
 20
15.431653
 42
0.414214
 10
15.129026
 20
15.556653
 10
15.129026
 20
15.626356
 42
0.414214
 10
15.004026
 20
15.751356
 10
14.45633
 20
15.751356
 10
13.908634
 20
15.751356
 42
0.414214
 10
13.783634
 20
15.626356
 10
13.783634
 20
15.556653
 42
0.414214
 10
13.908634
 20
15.431653
 10
14.272569
 20
15.431653
 42
0.362414
 10
14.302084
 20
15.456281
 42
-0.106196
 10
14.327221
 20
15.51715
 42
-0.939516
 10
14.411432
 20
15.466571
 42
2.169752
 10
14.501228
 20
15.466571
 42
-0.939516
  0
LWPOLYLINE
  5
FA
100
AcDbEntity
  8
R-DOOR-ANNO
  6
CONTINUOUS
100
AcDbPolyline
 90
        3
 70
     0
 43
0.0
 10
14.745493
 20
16.392417
 10
16.233644
 20
15.65945
 10
16.413644
 20
15.65945
1001
ACAD
1000
DSTYLE
1002
{
1070
   173
1070
     1
1070
     6
1000
_DOTSMALL
1002
}
  0
INSERT
  5
FB
100
AcDbEntity
  8
R-DOOR-ANNO
  6
CONTINUOUS
100
AcDbBlockReference
  2
_DOTSMALL
 10
14.745493
 20
16.392417
 30
0.0
 41
0.18
 42
0.18
 43
0.18
 50
153.778112
1001
ACAD
1000
DSTYLE
1002
{
1070
   173
1070
     1
1070
     6
1000
_DOTSMALL
1002
}
  0
ARC
  5
FC
100
AcDbEntity
  8
R-DOOR-DETL
100
AcDbCircle
 10
14.895515
 20
16.339295
 30
0.0
 40
0.03
100
AcDbArc
 50
149.0
 51
180.0
  0
LINE
  5
FD
100
AcDbEntity
  8
R-DOOR-DETL
100
AcDbLine
 10
14.703104
 20
16.258697
 30
0.0
 11
14.703104
 21
16.133697
 31
0.0
  0
ARC
  5
FE
100
AcDbEntity
  8
R-DOOR-DETL
100
AcDbCircle
 10
14.705515
 20
16.150379
 30
0.0
 40
0.015
100
AcDbArc
 50
270.0
 51
360.0
  0
LINE
  5
FF
100
AcDbEntity
  8
R-DOOR-DETL
100
AcDbLine
 10
14.703104
 20
16.235493
 30
0.0
 11
14.6799
 21
16.258697
 31
0.0
  0
LINE
  5
100
100
AcDbEntity
  8
R-DOOR-DETL
100
AcDbLine
 10
14.720515
 20
16.277379
 30
0.0
 11
14.720515
 21
16.150379
 31
0.0
  0
LINE
  5
101
100
AcDbEntity
  8
R-DOOR-DETL
100
AcDbLine
 10
14.865515
 20
16.084379
 30
0.0
 11
14.865515
 21
16.339295
 31
0.0
  0
ARC
  5
102
100
AcDbEntity
  8
R-DOOR-DETL
100
AcDbCircle
 10
14.31436
 20
16.277379
 30
0.0
 40
0.125
100
AcDbArc
 50
90.0
 51
180.0
  0
LINE
  5
103
100
AcDbEntity
  8
R-DOOR-DETL
100
AcDbLine
 10
14.172067
 20
16.547379
 30
0.0
 11
14.40436
 21
16.547379
 31
0.0
  0
LINE
  5
104
100
AcDbEntity
  8
R-DOOR-DETL
100
AcDbLine
 10
14.422067
 20
16.5441
 30
0.0
 11
14.172067
 21
16.5441
 31
0.0
  0
LINE
  5
105
100
AcDbEntity
  8
R-DOOR-DETL
100
AcDbLine
 10
14.207374
 20
16.133697
 30
0.0
 11
14.329104
 21
16.255427
 31
0.0
  0
LINE
  5
106
100
AcDbEntity
  8
R-DOOR-DETL
100
AcDbLine
 10
14.278085
 20
16.133697
 30
0.0
 11
14.329104
 21
16.184716
 31
0.0
  0
LINE
  5
107
100
AcDbEntity
  8
R-DOOR-DETL
100
AcDbLine
 10
14.24273
 20
16.133697
 30
0.0
 11
14.329104
 21
16.220072
 31
0.0
  0
ARC
  5
108
100
AcDbEntity
  8
R-DOOR-DETL
100
AcDbCircle
 10
14.01436
 20
16.339295
 30
0.0
 40
0.03
100
AcDbArc
 50
360.0
 51
31.0
  0
LINE
  5
109
100
AcDbEntity
  8
R-DOOR-DETL
100
AcDbLine
 10
14.203104
 20
16.164782
 30
0.0
 11
14.297019
 21
16.258697
 31
0.0
  0
LINE
  5
10A
100
AcDbEntity
  8
R-DOOR-DETL
100
AcDbLine
 10
14.203104
 20
16.200138
 30
0.0
 11
14.261664
 21
16.258697
 31
0.0
  0
LINE
  5
10B
100
AcDbEntity
  8
R-DOOR-DETL
100
AcDbLine
 10
14.203104
 20
16.235493
 30
0.0
 11
14.226308
 21
16.258697
 31
0.0
  0
LINE
  5
10C
100
AcDbEntity
  8
R-DOOR-DETL
100
AcDbLine
 10
14.203104
 20
16.258697
 30
0.0
 11
14.203104
 21
16.133697
 31
0.0
  0
ARC
  5
10D
100
AcDbEntity
  8
R-DOOR-DETL
100
AcDbCircle
 10
14.29036
 20
16.120379
 30
0.0
 40
0.015
100
AcDbArc
 50
0.0
 51
90.0
  0
LINE
  5
10E
100
AcDbEntity
  8
R-DOOR-DETL
100
AcDbLine
 10
14.20436
 20
16.135379
 30
0.0
 11
14.29036
 21
16.135379
 31
0.0
  0
ARC
  5
10F
100
AcDbEntity
  8
R-DOOR-DETL
100
AcDbCircle
 10
14.20436
 20
16.150379
 30
0.0
 40
0.015
100
AcDbArc
 50
180.0
 51
270.0
  0
LINE
  5
110
100
AcDbEntity
  8
R-DOOR-DETL
100
AcDbLine
 10
14.18936
 20
16.277379
 30
0.0
 11
14.18936
 21
16.150379
 31
0.0
  0
LINE
  5
111
100
AcDbEntity
  8
R-DOOR-DETL
100
AcDbLine
 10
14.04436
 20
16.084379
 30
0.0
 11
14.04436
 21
16.339295
 31
0.0
  0
ARC
  5
112
100
AcDbEntity
  8
R-DOOR-DETL
100
AcDbCircle
 10
14.40436
 20
16.417379
 30
0.0
 40
0.015
100
AcDbArc
 50
270.0
 51
0.0
  0
ARC
  5
113
100
AcDbEntity
  8
R-DOOR-DETL
100
AcDbCircle
 10
14.505515
 20
16.417379
 30
0.0
 40
0.015
100
AcDbArc
 50
180.0
 51
270.0
  0
LINE
  5
114
100
AcDbEntity
  8
R-DOOR-DETL
100
AcDbLine
 10
14.576669
 20
16.325339
 30
0.0
 11
14.328669
 21
16.325339
 31
0.0
  0
LINE
  5
115
100
AcDbEntity
  8
R-DOOR-DETL
100
AcDbLine
 10
14.546669
 20
16.295339
 30
0.0
 11
14.358669
 21
16.295339
 31
0.0
  0
LINE
  5
116
100
AcDbEntity
  8
R-DOOR-DETL
100
AcDbLine
 10
14.546669
 20
16.371831
 30
0.0
 11
14.358669
 21
16.371831
 31
0.0
  0
LINE
  5
117
100
AcDbEntity
  8
R-DOOR-DETL
100
AcDbLine
 10
14.546669
 20
16.355339
 30
0.0
 11
14.358669
 21
16.355339
 31
0.0
  0
ARC
  5
118
100
AcDbEntity
  8
R-DOOR-DETL
100
AcDbCircle
 10
14.358669
 20
16.341831
 30
0.0
 40
0.03
100
AcDbArc
 50
90.0
 51
180.0
  0
ARC
  5
119
100
AcDbEntity
  8
R-DOOR-DETL
100
AcDbCircle
 10
14.546669
 20
16.341831
 30
0.0
 40
0.03
100
AcDbArc
 50
0.0
 51
90.0
  0
LINE
  5
11A
100
AcDbEntity
  8
R-DOOR-DETL
100
AcDbLine
 10
14.505515
 20
16.402379
 30
0.0
 11
14.595515
 21
16.402379
 31
0.0
  0
LINE
  5
11B
100
AcDbEntity
  8
R-DOOR-DETL
100
AcDbLine
 10
14.40436
 20
16.402379
 30
0.0
 11
14.31436
 21
16.402379
 31
0.0
  0
LINE
  5
11C
100
AcDbEntity
  8
R-DOOR-DETL
100
AcDbLine
 10
14.41936
 20
16.532379
 30
0.0
 11
14.41936
 21
16.417379
 31
0.0
  0
ARC
  5
11D
100
AcDbEntity
  8
R-DOOR-DETL
100
AcDbCircle
 10
14.40436
 20
16.532379
 30
0.0
 40
0.015
100
AcDbArc
 50
0.0
 51
90.0
  0
LINE
  5
11E
100
AcDbEntity
  8
R-DOOR-DETL
100
AcDbLine
 10
14.490515
 20
16.532379
 30
0.0
 11
14.490515
 21
16.417379
 31
0.0
  0
ARC
  5
11F
100
AcDbEntity
  8
R-DOOR-DETL
100
AcDbCircle
 10
14.505515
 20
16.532379
 30
0.0
 40
0.015
100
AcDbArc
 50
90.0
 51
180.0
  0
LINE
  5
120
100
AcDbEntity
  8
R-DOOR-DETL
100
AcDbLine
 10
14.576669
 20
16.265339
 30
0.0
 11
14.328669
 21
16.265339
 31
0.0
  0
LINE
  5
121
100
AcDbEntity
  8
R-DOOR-DETL
100
AcDbLine
 10
14.576669
 20
16.205339
 30
0.0
 11
14.328669
 21
16.205339
 31
0.0
  0
LINE
  5
122
100
AcDbEntity
  8
R-DOOR-DETL
100
AcDbLine
 10
14.576669
 20
16.145339
 30
0.0
 11
14.328669
 21
16.145339
 31
0.0
  0
LINE
  5
123
100
AcDbEntity
  8
R-DOOR-DETL
100
AcDbLine
 10
14.546669
 20
16.235339
 30
0.0
 11
14.358669
 21
16.235339
 31
0.0
  0
LINE
  5
124
100
AcDbEntity
  8
R-DOOR-DETL
100
AcDbLine
 10
14.546669
 20
16.175339
 30
0.0
 11
14.358669
 21
16.175339
 31
0.0
  0
LINE
  5
125
100
AcDbEntity
  8
R-DOOR-DETL
100
AcDbLine
 10
14.576669
 20
16.085339
 30
0.0
 11
14.328669
 21
16.085339
 31
0.0
  0
LINE
  5
126
100
AcDbEntity
  8
R-DOOR-DETL
100
AcDbLine
 10
14.546669
 20
16.115339
 30
0.0
 11
14.358669
 21
16.115339
 31
0.0
  0
LINE
  5
127
100
AcDbEntity
  8
R-DOOR-DETL
100
AcDbLine
 10
14.31344
 20
16.133697
 30
0.0
 11
14.329104
 21
16.149361
 31
0.0
  0
ARC
  5
128
100
AcDbEntity
  8
R-DOOR-DETL
100
AcDbCircle
 10
14.619515
 20
16.120379
 30
0.0
 40
0.015
100
AcDbArc
 50
90.0
 51
180.0
  0
LINE
  5
129
100
AcDbEntity
  8
R-DOOR-DETL
100
AcDbLine
 10
14.628124
 20
16.133697
 30
0.0
 11
14.577104
 21
16.184716
 31
0.0
  0
LINE
  5
12A
100
AcDbEntity
  8
R-DOOR-DETL
100
AcDbLine
 10
14.592768
 20
16.133697
 30
0.0
 11
14.577104
 21
16.149361
 31
0.0
  0
LINE
  5
12B
100
AcDbEntity
  8
R-DOOR-DETL
100
AcDbLine
 10
14.703104
 20
16.133697
 30
0.0
 11
14.203104
 21
16.133697
 31
0.0
  0
LINE
  5
12C
100
AcDbEntity
  8
R-DOOR-DETL
100
AcDbLine
 10
14.703104
 20
16.258697
 30
0.0
 11
14.203104
 21
16.258697
 31
0.0
  0
ARC
  5
12D
100
AcDbEntity
  8
R-DOOR-DETL
100
AcDbCircle
 10
14.595515
 20
16.277379
 30
0.0
 40
0.125
100
AcDbArc
 50
360.0
 51
90.0
  0
LINE
  5
12E
100
AcDbEntity
  8
R-DOOR-DETL
100
AcDbLine
 10
14.737808
 20
16.547379
 30
0.0
 11
14.505515
 21
16.547379
 31
0.0
  0
LINE
  5
12F
100
AcDbEntity
  8
R-DOOR-DETL
100
AcDbLine
 10
14.487808
 20
16.5441
 30
0.0
 11
14.737808
 21
16.5441
 31
0.0
  0
LINE
  5
130
100
AcDbEntity
  8
R-DOOR-DETL
100
AcDbLine
 10
14.663479
 20
16.133697
 30
0.0
 11
14.577104
 21
16.220072
 31
0.0
  0
LINE
  5
131
100
AcDbEntity
  8
R-DOOR-DETL
100
AcDbLine
 10
14.703104
 20
16.200138
 30
0.0
 11
14.644545
 21
16.258697
 31
0.0
  0
LINE
  5
132
100
AcDbEntity
  8
R-DOOR-DETL
100
AcDbLine
 10
14.703104
 20
16.164782
 30
0.0
 11
14.60919
 21
16.258697
 31
0.0
  0
LINE
  5
133
100
AcDbEntity
  8
R-DOOR-DETL
100
AcDbLine
 10
14.698834
 20
16.133697
 30
0.0
 11
14.577104
 21
16.255427
 31
0.0
  0
LINE
  5
134
100
AcDbEntity
  8
R-DOOR-DETL
100
AcDbLine
 10
14.705515
 20
16.135379
 30
0.0
 11
14.619515
 21
16.135379
 31
0.0
  0
LINE
  5
135
100
AcDbEntity
  8
R-DOOR-DETL
100
AcDbLine
 10
14.29036
 20
15.990379
 30
0.0
 11
14.13836
 21
15.990379
 31
0.0
  0
ARC
  5
136
100
AcDbEntity
  8
R-DOOR-DETL
100
AcDbCircle
 10
14.29036
 20
16.005379
 30
0.0
 40
0.015
100
AcDbArc
 50
270.0
 51
360.0
  0
LINE
  5
137
100
AcDbEntity
  8
R-DOOR-DETL
100
AcDbLine
 10
14.576669
 20
15.965339
 30
0.0
 11
14.328669
 21
15.965339
 31
0.0
  0
LINE
  5
138
100
AcDbEntity
  8
R-DOOR-DETL
100
AcDbLine
 10
14.576669
 20
16.025339
 30
0.0
 11
14.328669
 21
16.025339
 31
0.0
  0
LINE
  5
139
100
AcDbEntity
  8
R-DOOR-DETL
100
AcDbLine
 10
14.576669
 20
15.905339
 30
0.0
 11
14.328669
 21
15.905339
 31
0.0
  0
LINE
  5
13A
100
AcDbEntity
  8
R-DOOR-DETL
100
AcDbLine
 10
14.546669
 20
15.935339
 30
0.0
 11
14.358669
 21
15.935339
 31
0.0
  0
LINE
  5
13B
100
AcDbEntity
  8
R-DOOR-DETL
100
AcDbLine
 10
14.546669
 20
15.995339
 30
0.0
 11
14.358669
 21
15.995339
 31
0.0
  0
LINE
  5
13C
100
AcDbEntity
  8
R-DOOR-DETL
100
AcDbLine
 10
14.546669
 20
16.055339
 30
0.0
 11
14.358669
 21
16.055339
 31
0.0
  0
ARC
  5
13D
100
AcDbEntity
  8
R-DOOR-DETL
100
AcDbCircle
 10
14.619515
 20
16.005379
 30
0.0
 40
0.015
100
AcDbArc
 50
180.0
 51
270.0
  0
LINE
  5
13E
100
AcDbEntity
  8
R-DOOR-DETL
100
AcDbLine
 10
14.619515
 20
15.990379
 30
0.0
 11
14.771515
 21
15.990379
 31
0.0
  0
ARC
  5
13F
100
AcDbEntity
  8
R-DOOR-DETL
100
AcDbCircle
 10
14.13836
 20
16.084379
 30
0.0
 40
0.094
100
AcDbArc
 50
180.0
 51
270.0
  0
LINE
  5
140
100
AcDbEntity
  8
R-DOOR-DETL
100
AcDbLine
 10
14.30536
 20
16.120379
 30
0.0
 11
14.30536
 21
16.005379
 31
0.0
  0
ARC
  5
141
100
AcDbEntity
  8
R-DOOR-DETL
100
AcDbCircle
 10
14.771515
 20
16.084379
 30
0.0
 40
0.094
100
AcDbArc
 50
270.0
 51
0.0
  0
LINE
  5
142
100
AcDbEntity
  8
R-DOOR-DETL
100
AcDbLine
 10
14.604515
 20
16.120379
 30
0.0
 11
14.604515
 21
16.005379
 31
0.0
  0
LINE
  5
143
100
AcDbEntity
  8
R-DOOR-PATT
  6
CONTINUOUS
 62
     5
100
AcDbLine
 10
17.450453
 20
30.717763
 30
0.0
 11
16.681575
 21
29.948885
 31
0.0
  0
LINE
  5
144
100
AcDbEntity
  8
R-DOOR-PATT
  6
CONTINUOUS
 62
     5
100
AcDbLine
 10
17.450453
 20
31.159705
 30
0.0
 11
16.239633
 21
29.948885
 31
0.0
  0
LINE
  5
145
100
AcDbEntity
  8
R-DOOR-PATT
  6
CONTINUOUS
 62
     5
100
AcDbLine
 10
17.35575
 20
31.948885
 30
0.0
 11
15.35575
 21
29.948885
 31
0.0
  0
LINE
  5
146
100
AcDbEntity
  8
R-DOOR-PATT
  6
CONTINUOUS
 62
     5
100
AcDbLine
 10
17.450453
 20
31.601646
 30
0.0
 11
15.797691
 21
29.948885
 31
0.0
  0
LINE
  5
147
100
AcDbEntity
  8
R-DOOR-PATT
  6
CONTINUOUS
 62
     5
100
AcDbLine
 10
14.704099
 20
31.948885
 30
0.0
 11
12.704099
 21
29.948885
 31
0.0
  0
LINE
  5
148
100
AcDbEntity
  8
R-DOOR-PATT
  6
CONTINUOUS
 62
     5
100
AcDbLine
 10
14.262157
 20
31.948885
 30
0.0
 11
12.262157
 21
29.948885
 31
0.0
  0
LINE
  5
149
100
AcDbEntity
  8
R-DOOR-PATT
  6
CONTINUOUS
 62
     5
100
AcDbLine
 10
13.378274
 20
31.948885
 30
0.0
 11
11.450453
 21
30.021064
 31
0.0
  0
LINE
  5
14A
100
AcDbEntity
  8
R-DOOR-PATT
  6
CONTINUOUS
 62
     5
100
AcDbLine
 10
13.820216
 20
31.948885
 30
0.0
 11
11.820216
 21
29.948885
 31
0.0
  0
LINE
  5
14B
100
AcDbEntity
  8
R-DOOR-PATT
  6
CONTINUOUS
 62
     5
100
AcDbLine
 10
16.029924
 20
31.948885
 30
0.0
 11
14.029924
 21
29.948885
 31
0.0
  0
LINE
  5
14C
100
AcDbEntity
  8
R-DOOR-PATT
  6
CONTINUOUS
 62
     5
100
AcDbLine
 10
15.587983
 20
31.948885
 30
0.0
 11
13.587983
 21
29.948885
 31
0.0
  0
LINE
  5
14D
100
AcDbEntity
  8
R-DOOR-PATT
  6
CONTINUOUS
 62
     5
100
AcDbLine
 10
15.146041
 20
31.948885
 30
0.0
 11
13.146041
 21
29.948885
 31
0.0
  0
LINE
  5
14E
100
AcDbEntity
  8
R-DOOR-PATT
  6
CONTINUOUS
 62
     5
100
AcDbLine
 10
16.471866
 20
31.948885
 30
0.0
 11
14.471866
 21
29.948885
 31
0.0
  0
LINE
  5
14F
100
AcDbEntity
  8
R-DOOR-PATT
  6
CONTINUOUS
 62
     5
100
AcDbLine
 10
16.913808
 20
31.948885
 30
0.0
 11
14.913808
 21
29.948885
 31
0.0
  0
LINE
  5
150
100
AcDbEntity
  8
R-DOOR-PATT
  6
CONTINUOUS
 62
     5
100
AcDbLine
 10
17.450453
 20
30.275821
 30
0.0
 11
17.123517
 21
29.948885
 31
0.0
  0
DIMENSION
  5
151
100
AcDbEntity
  8
0
100
AcDbDimension
  2
*D6
 10
7.84469
 20
16.5941
 30
0.0
 11
7.84469
 21
20.771545
 31
0.0
 12
-165.425848
 22
-5.372776
 32
0.0
  1
GLASS\PCLEAR OPENING\PLESS 10 3/16\P[259mm]
  3
STANDARD
100
AcDbAlignedDimension
 13
14.035731
 23
24.94899
 33
0.0
 14
14.172067
 24
16.5941
 34
0.0
 50
90.0
100
AcDbRotatedDimension
1001
ACAD
1000
DSTYLE
1002
{
1070
   270
1070
     7
1070
    40
1040
2.0
1002
}
  0
LINE
  5
152
100
AcDbEntity
  8
R-DOOR-DETL
100
AcDbLine
 10
14.265151
 20
20.876909
 30
0.0
 11
14.265151
 21
24.94899
 31
0.0
  0
LINE
  5
153
100
AcDbEntity
  8
R-DOOR-DETL
100
AcDbLine
 10
14.327651
 20
20.887988
 30
0.0
 11
14.327651
 21
24.94899
 31
0.0
  0
LINE
  5
154
100
AcDbEntity
  8
R-DOOR-DETL
100
AcDbLine
 10
14.390151
 20
20.934863
 30
0.0
 11
14.390151
 21
24.94899
 31
0.0
  0
LINE
  5
155
100
AcDbEntity
  8
R-DOOR-DETL
100
AcDbLine
 10
14.205652
 20
20.917956
 30
0.0
 11
14.205652
 21
24.94899
 31
0.0
  0
LINE
  5
156
100
AcDbEntity
  8
R-DOOR-DETL
100
AcDbLine
 10
14.515151
 20
20.877793
 30
0.0
 11
14.515151
 21
24.94899
 31
0.0
  0
LINE
  5
157
100
AcDbEntity
  8
R-DOOR-DETL
100
AcDbLine
 10
14.577651
 20
20.916524
 30
0.0
 11
14.577651
 21
24.94899
 31
0.0
  0
LINE
  5
158
100
AcDbEntity
  8
R-DOOR-DETL
  6
BYBLOCK
 62
     3
100
AcDbLine
 10
14.697651
 20
20.9231
 30
0.0
 11
14.697651
 21
24.94899
 31
0.0
  0
LINE
  5
159
100
AcDbEntity
  8
R-DOOR-DETL
100
AcDbLine
 10
14.640151
 20
20.941216
 30
0.0
 11
14.640151
 21
24.94899
 31
0.0
  0
LINE
  5
15A
100
AcDbEntity
  8
R-DOOR-DETL
100
AcDbLine
 10
14.697651
 20
20.165991
 30
0.0
 11
14.697651
 21
16.5941
 31
0.0
  0
LINE
  5
15B
100
AcDbEntity
  8
R-DOOR-DETL
100
AcDbLine
 10
14.583208
 20
20.172568
 30
0.0
 11
14.583208
 21
16.5941
 31
0.0
  0
LINE
  5
15C
100
AcDbEntity
  8
R-DOOR-DETL
100
AcDbLine
 10
14.645708
 20
20.147875
 30
0.0
 11
14.645708
 21
16.5941
 31
0.0
  0
LINE
  5
15D
100
AcDbEntity
  8
R-DOOR-DETL
100
AcDbLine
 10
14.270708
 20
20.212183
 30
0.0
 11
14.270708
 21
16.5941
 31
0.0
  0
LINE
  5
15E
100
AcDbEntity
  8
R-DOOR-DETL
100
AcDbLine
 10
14.333208
 20
20.201103
 30
0.0
 11
14.333208
 21
16.5941
 31
0.0
  0
LINE
  5
15F
100
AcDbEntity
  8
R-DOOR-DETL
100
AcDbLine
 10
14.395708
 20
20.154228
 30
0.0
 11
14.395708
 21
16.5941
 31
0.0
  0
LINE
  5
160
100
AcDbEntity
  8
R-DOOR-DETL
100
AcDbLine
 10
14.520708
 20
20.211299
 30
0.0
 11
14.520708
 21
16.5941
 31
0.0
  0
LINE
  5
161
100
AcDbEntity
  8
R-DOOR-DETL
100
AcDbLine
 10
14.212224
 20
20.174401
 30
0.0
 11
14.212224
 21
16.5941
 31
0.0
  0
ARC
  5
162
100
AcDbEntity
  8
R-DOOR-DETL
100
AcDbCircle
 10
14.737808
 20
17.409089
 30
0.0
 40
0.009842
100
AcDbArc
 50
0.0
 51
70.528779
  0
ARC
  5
163
100
AcDbEntity
  8
R-DOOR-DETL
100
AcDbCircle
 10
14.172067
 20
17.409089
 30
0.0
 40
0.009842
100
AcDbArc
 50
109.471221
 51
180.0
  0
LINE
  5
164
100
AcDbEntity
  8
R-DOOR-DETL
100
AcDbLine
 10
13.993915
 20
16.927706
 30
0.0
 11
14.016306
 21
17.418436
 31
0.0
  0
LINE
  5
165
100
AcDbEntity
  8
R-DOOR-DETL
100
AcDbLine
 10
14.91596
 20
16.927706
 30
0.0
 11
14.893569
 21
17.418436
 31
0.0
  0
LINE
  5
166
100
AcDbEntity
  8
R-DOOR-DETL
100
AcDbLine
 10
13.772246
 20
16.858736
 30
0.0
 11
13.832248
 21
16.894789
 31
0.0
  0
ARC
  5
167
100
AcDbEntity
  8
R-DOOR-DETL
100
AcDbCircle
 10
13.787698
 20
16.833021
 30
0.0
 40
0.03
100
AcDbArc
 50
121.0
 51
211.0
  0
ARC
  5
168
100
AcDbEntity
  8
R-DOOR-DETL
100
AcDbCircle
 10
13.847699
 20
16.869074
 30
0.0
 40
0.03
100
AcDbArc
 50
90.0
 51
121.0
  0
LINE
  5
169
100
AcDbEntity
  8
R-DOOR-DETL
100
AcDbLine
 10
13.847699
 20
16.899074
 30
0.0
 11
13.963946
 21
16.899074
 31
0.0
  0
ARC
  5
16A
100
AcDbEntity
  8
R-DOOR-DETL
100
AcDbCircle
 10
13.963946
 20
16.929074
 30
0.0
 40
0.03
100
AcDbArc
 50
270.0
 51
357.387498
  0
LINE
  5
16B
100
AcDbEntity
  8
R-DOOR-DETL
100
AcDbLine
 10
14.747651
 20
17.40581
 30
0.0
 11
14.697651
 21
17.40581
 31
0.0
  0
LINE
  5
16C
100
AcDbEntity
  8
R-DOOR-DETL
100
AcDbLine
 10
14.162224
 20
17.40581
 30
0.0
 11
14.212224
 21
17.40581
 31
0.0
  0
LINE
  5
16D
100
AcDbEntity
  8
R-DOOR-DETL
100
AcDbLine
 10
14.697651
 20
16.65581
 30
0.0
 11
14.747651
 21
16.65581
 31
0.0
  0
ARC
  5
16E
100
AcDbEntity
  8
R-DOOR-DETL
100
AcDbCircle
 10
14.945929
 20
16.929074
 30
0.0
 40
0.03
100
AcDbArc
 50
182.612502
 51
270.0
  0
LINE
  5
16F
100
AcDbEntity
  8
R-DOOR-DETL
100
AcDbLine
 10
15.062176
 20
16.899074
 30
0.0
 11
14.945929
 21
16.899074
 31
0.0
  0
ARC
  5
170
100
AcDbEntity
  8
R-DOOR-DETL
100
AcDbCircle
 10
15.062176
 20
16.869074
 30
0.0
 40
0.03
100
AcDbArc
 50
59.0
 51
90.0
  0
LINE
  5
171
100
AcDbEntity
  8
R-DOOR-DETL
100
AcDbLine
 10
15.137629
 20
16.858736
 30
0.0
 11
15.077627
 21
16.894789
 31
0.0
  0
ARC
  5
172
100
AcDbEntity
  8
R-DOOR-DETL
100
AcDbCircle
 10
15.122178
 20
16.833021
 30
0.0
 40
0.03
100
AcDbArc
 50
329.0
 51
59.0
  0
LINE
  5
173
100
AcDbEntity
  8
R-DOOR-DETL
100
AcDbLine
 10
14.172067
 20
16.5941
 30
0.0
 11
14.422067
 21
16.5941
 31
0.0
  0
POINT
  5
174
100
AcDbEntity
  8
DEFPOINTS
  6
BYBLOCK
 62
     0
100
AcDbPoint
 10
14.172067
 20
16.5941
 30
0.0
  0
LINE
  5
175
100
AcDbEntity
  8
R-DOOR-DETL
100
AcDbLine
 10
14.212224
 20
16.65581
 30
0.0
 11
14.162224
 21
16.65581
 31
0.0
  0
LINE
  5
176
100
AcDbEntity
  8
R-DOOR-DETL
100
AcDbLine
 10
14.737808
 20
16.5941
 30
0.0
 11
14.487808
 21
16.5941
 31
0.0
  0
LINE
  5
177
100
AcDbEntity
  8
R-DOOR-DETL
100
AcDbLine
 10
14.162224
 20
17.409089
 30
0.0
 11
14.162224
 21
16.557222
 31
0.0
  0
LINE
  5
178
100
AcDbEntity
  8
R-DOOR-DETL
100
AcDbLine
 10
14.212224
 20
17.40581
 30
0.0
 11
14.212224
 21
16.65581
 31
0.0
  0
LINE
  5
179
100
AcDbEntity
  8
R-DOOR-DETL
100
AcDbLine
 10
14.162224
 20
16.65581
 30
0.0
 11
14.162224
 21
17.40581
 31
0.0
  0
LINE
  5
17A
100
AcDbEntity
  8
R-DOOR-DETL
100
AcDbLine
 10
14.747651
 20
17.409089
 30
0.0
 11
14.747651
 21
16.557222
 31
0.0
  0
LINE
  5
17B
100
AcDbEntity
  8
R-DOOR-DETL
100
AcDbLine
 10
14.697651
 20
17.40581
 30
0.0
 11
14.697651
 21
16.65581
 31
0.0
  0
LINE
  5
17C
100
AcDbEntity
  8
R-DOOR-DETL
100
AcDbLine
 10
14.747651
 20
16.65581
 30
0.0
 11
14.747651
 21
17.40581
 31
0.0
  0
ARC
  5
17D
100
AcDbEntity
  8
R-DOOR-DETL
100
AcDbCircle
 10
14.056265
 20
17.416613
 30
0.0
 40
0.04
100
AcDbArc
 50
90.0
 51
177.387498
  0
ARC
  5
17E
100
AcDbEntity
  8
R-DOOR-DETL
100
AcDbCircle
 10
14.747651
 20
17.436928
 30
0.0
 40
0.019685
100
AcDbArc
 50
90.0
 51
250.528779
  0
LINE
  5
17F
100
AcDbEntity
  8
R-DOOR-DETL
100
AcDbLine
 10
14.85361
 20
17.456613
 30
0.0
 11
14.747651
 21
17.456613
 31
0.0
  0
ARC
  5
180
100
AcDbEntity
  8
R-DOOR-DETL
100
AcDbCircle
 10
14.85361
 20
17.416613
 30
0.0
 40
0.04
100
AcDbArc
 50
2.612502
 51
90.0
  0
ARC
  5
181
100
AcDbEntity
  8
R-DOOR-DETL
100
AcDbCircle
 10
14.162224
 20
17.436928
 30
0.0
 40
0.019685
100
AcDbArc
 50
289.471221
 51
90.0
  0
LINE
  5
182
100
AcDbEntity
  8
R-DOOR-DETL
100
AcDbLine
 10
14.056265
 20
17.456613
 30
0.0
 11
14.162224
 21
17.456613
 31
0.0
  0
LINE
  5
183
100
AcDbEntity
  8
R-DOOR-DETL
100
AcDbLine
 10
14.295161
 20
20.224507
 30
0.0
 11
14.420161
 21
20.130757
 31
0.0
  0
LINE
  5
184
100
AcDbEntity
  8
R-DOOR-DETL
100
AcDbLine
 10
14.217782
 20
20.169269
 30
0.0
 11
14.295161
 21
20.224507
 31
0.0
  0
LINE
  5
185
100
AcDbEntity
  8
R-DOOR-DETL
100
AcDbLine
 10
14.420161
 20
20.130757
 30
0.0
 11
14.545161
 21
20.224507
 31
0.0
  0
LINE
  5
186
100
AcDbEntity
  8
R-DOOR-DETL
100
AcDbLine
 10
14.545161
 20
20.224507
 30
0.0
 11
14.607661
 21
20.130757
 31
0.0
  0
LINE
  5
187
100
AcDbEntity
  8
R-DOOR-DETL
100
AcDbLine
 10
14.607661
 20
20.130757
 30
0.0
 11
14.703208
 21
20.16086
 31
0.0
  0
LINE
  5
188
100
AcDbEntity
  8
R-DOOR-DETL
100
AcDbLine
 10
14.289604
 20
20.859453
 30
0.0
 11
14.414604
 21
20.953203
 31
0.0
  0
LINE
  5
189
100
AcDbEntity
  8
R-DOOR-DETL
100
AcDbLine
 10
14.207651
 20
20.917956
 30
0.0
 11
14.289604
 21
20.859453
 31
0.0
  0
LINE
  5
18A
100
AcDbEntity
  8
R-DOOR-DETL
100
AcDbLine
 10
14.539604
 20
20.859453
 30
0.0
 11
14.602104
 21
20.953203
 31
0.0
  0
LINE
  5
18B
100
AcDbEntity
  8
R-DOOR-DETL
100
AcDbLine
 10
14.414604
 20
20.953203
 30
0.0
 11
14.539604
 21
20.859453
 31
0.0
  0
LINE
  5
18C
100
AcDbEntity
  8
R-DOOR-DETL
100
AcDbLine
 10
14.602104
 20
20.953203
 30
0.0
 11
14.697651
 21
20.9231
 31
0.0
  0
LINE
  5
18D
100
AcDbEntity
  8
R-DOOR-DETL
100
AcDbLine
 10
15.130453
 20
26.660088
 30
0.0
 11
15.130453
 21
26.929885
 31
0.0
  0
LINE
  5
18E
100
AcDbEntity
  8
R-DOOR-DETL
100
AcDbLine
 10
15.135453
 20
26.840088
 30
0.0
 11
15.135453
 21
26.670088
 31
0.0
  0
LINE
  5
18F
100
AcDbEntity
  8
R-DOOR-DETL
100
AcDbLine
 10
13.770453
 20
26.929885
 30
0.0
 11
13.770453
 21
26.660088
 31
0.0
  0
LINE
  5
190
100
AcDbEntity
  8
R-DOOR-DETL
100
AcDbLine
 10
13.765453
 20
26.670088
 30
0.0
 11
13.765453
 21
26.840088
 31
0.0
  0
DIMENSION
  5
191
100
AcDbEntity
  8
DIMN
 62
     7
100
AcDbDimension
  2
*D8
 10
19.323404
 20
27.948885
 30
0.0
 11
18.063404
 21
27.228885
 31
0.0
 12
-165.425848
 22
-5.372776
 32
0.0
  1
<>\P[6mm]
  3
STANDARD
100
AcDbAlignedDimension
 13
16.725925
 23
28.198885
 33
0.0
 14
15.296446
 24
27.948885
 34
0.0
 50
90.0
100
AcDbRotatedDimension
1001
ACAD
1000
DSTYLE
1002
{
1070
   270
1070
     7
1070
    40
1040
2.0
1002
}
  0
DIMENSION
  5
192
100
AcDbEntity
  8
0
100
AcDbDimension
  2
*D7
 10
7.843204
 20
24.94899
 30
0.0
 11
7.843204
 21
27.448937
 31
0.0
 12
-165.425848
 22
-5.372776
 32
0.0
  1
<>\P[127mm]
  3
STANDARD
100
AcDbAlignedDimension
 13
11.450453
 23
29.948885
 33
0.0
 14
14.160731
 24
24.94899
 34
0.0
 50
90.0
100
AcDbRotatedDimension
1001
ACAD
1000
DSTYLE
1002
{
1070
   270
1070
     7
1070
    40
1040
2.0
1002
}
  0
LINE
  5
193
100
AcDbEntity
  8
R-DOOR-DETL
  6
BYBLOCK
 62
     3
100
AcDbLine
 10
15.381446
 20
24.074893
 30
0.0
 11
15.381446
 21
27.933885
 31
0.0
  0
LINE
  5
194
100
AcDbEntity
  8
R-DOOR-DETL
100
AcDbLine
 10
13.519461
 20
27.933885
 30
0.0
 11
13.519461
 21
24.074893
 31
0.0
  0
CIRCLE
  5
195
100
AcDbEntity
  8
R-DOOR-DETL
  6
BYBLOCK
 62
     3
100
AcDbCircle
 10
14.450453
 20
26.693885
 30
0.0
 40
0.1625
  0
CIRCLE
  5
196
100
AcDbEntity
  8
R-DOOR-DETL
  6
BYBLOCK
 62
     3
100
AcDbCircle
 10
14.450453
 20
26.693885
 30
0.0
 40
0.1875
  0
CIRCLE
  5
197
100
AcDbEntity
  8
R-DOOR-DETL
  6
BYBLOCK
 62
     3
100
AcDbCircle
 10
14.025453
 20
26.693885
 30
0.0
 40
0.1625
  0
CIRCLE
  5
198
100
AcDbEntity
  8
R-DOOR-DETL
  6
BYBLOCK
 62
     3
100
AcDbCircle
 10
14.025453
 20
26.693885
 30
0.0
 40
0.1875
  0
LINE
  5
199
100
AcDbEntity
  8
R-DOOR-DETL
100
AcDbLine
 10
13.767953
 20
26.918885
 30
0.0
 11
13.767953
 21
26.368885
 31
0.0
  0
LINE
  5
19A
100
AcDbEntity
  8
R-DOOR-DETL
100
AcDbLine
 10
15.132953
 20
26.918885
 30
0.0
 11
15.132953
 21
26.368885
 31
0.0
  0
CIRCLE
  5
19B
100
AcDbEntity
  8
R-DOOR-DETL
  6
BYBLOCK
 62
     3
100
AcDbCircle
 10
14.875453
 20
26.693885
 30
0.0
 40
0.1625
  0
CIRCLE
  5
19C
100
AcDbEntity
  8
R-DOOR-DETL
  6
BYBLOCK
 62
     3
100
AcDbCircle
 10
14.875453
 20
26.693885
 30
0.0
 40
0.1875
  0
TEXT
  5
19D
100
AcDbEntity
  8
0
100
AcDbText
 10
16.630292
 20
24.098846
 30
0.0
 40
0.36
  1
GLASS CLAMP
  7
ROMANS
100
AcDbText
  0
ARC
  5
19E
100
AcDbEntity
  8
R-DOOR-DETL
  6
BYBLOCK
 62
     3
100
AcDbCircle
 10
14.307788
 20
25.26899
 30
0.0
 40
0.125
100
AcDbArc
 50
180.0
 51
270.0
  0
LINE
  5
19F
100
AcDbEntity
  8
R-DOOR-DETL
  6
BYBLOCK
 62
     3
100
AcDbLine
 10
14.490515
 20
25.01399
 30
0.0
 11
14.490515
 21
25.12899
 31
0.0
  0
LINE
  5
1A0
100
AcDbEntity
  8
R-DOOR-DETL
  6
BYBLOCK
 62
     3
100
AcDbLine
 10
14.412788
 20
25.01399
 30
0.0
 11
14.412788
 21
25.12899
 31
0.0
  0
ARC
  5
1A1
100
AcDbEntity
  8
R-DOOR-DETL
  6
BYBLOCK
 62
     3
100
AcDbCircle
 10
14.595515
 20
25.26899
 30
0.0
 40
0.125
100
AcDbArc
 50
270.0
 51
0.0
  0
LINE
  5
1A2
100
AcDbEntity
  8
R-DOOR-DETL
  6
BYBLOCK
 62
     3
100
AcDbLine
 10
13.702954
 20
24.631924
 30
0.0
 11
13.996434
 21
25.140246
 31
0.0
  0
LINE
  5
1A3
100
AcDbEntity
  8
R-DOOR-DETL
  6
BYBLOCK
 62
     3
100
AcDbLine
 10
14.033503
 20
25.191622
 30
0.0
 11
13.755411
 21
24.728799
 31
0.0
  0
LINE
  5
1A4
100
AcDbEntity
  8
R-DOOR-DETL
  6
BYBLOCK
 62
     3
100
AcDbLine
 10
14.8698
 20
25.191622
 30
0.0
 11
15.147893
 21
24.728799
 31
0.0
  0
LINE
  5
1A5
100
AcDbEntity
  8
R-DOOR-DETL
  6
BYBLOCK
 62
     3
100
AcDbLine
 10
14.904472
 20
25.140246
 30
0.0
 11
15.197952
 21
24.631924
 31
0.0
  0
LINE
  5
1A6
100
AcDbEntity
  8
R-DOOR-DETL
  6
BYBLOCK
 62
     3
100
AcDbLine
 10
15.231446
 20
24.506924
 30
0.0
 11
15.231446
 21
24.08856
 31
0.0
  0
LINE
  5
1A7
100
AcDbEntity
  8
R-DOOR-DETL
  6
BYBLOCK
 62
     3
100
AcDbLine
 10
14.91596
 20
24.618662
 30
0.0
 11
14.893569
 21
24.127933
 31
0.0
  0
LINE
  5
1A8
100
AcDbEntity
  8
R-DOOR-DETL
  6
BYBLOCK
 62
     3
100
AcDbLine
 10
13.987343
 20
24.618662
 30
0.0
 11
14.009734
 21
24.127933
 31
0.0
  0
LINE
  5
1A9
100
AcDbEntity
  8
R-DOOR-DETL
100
AcDbLine
 10
13.669461
 20
24.08856
 30
0.0
 11
13.669461
 21
24.506924
 31
0.0
  0
LINE
  5
1AA
100
AcDbEntity
  8
R-DOOR-DETL
  6
BYBLOCK
 62
     3
100
AcDbLine
 10
14.155652
 20
24.13728
 30
0.0
 11
14.155652
 21
24.989147
 31
0.0
  0
LINE
  5
1AB
100
AcDbEntity
  8
R-DOOR-DETL
  6
BYBLOCK
 62
     3
100
AcDbLine
 10
14.155652
 20
24.88728
 30
0.0
 11
14.155652
 21
24.13728
 31
0.0
  0
LINE
  5
1AC
100
AcDbEntity
  8
R-DOOR-DETL
  6
BYBLOCK
 62
     3
100
AcDbLine
 10
14.205652
 20
24.13728
 30
0.0
 11
14.205652
 21
24.88728
 31
0.0
  0
LINE
  5
1AD
100
AcDbEntity
  8
R-DOOR-DETL
  6
BYBLOCK
 62
     3
100
AcDbLine
 10
14.747651
 20
24.13728
 30
0.0
 11
14.747651
 21
24.989147
 31
0.0
  0
LINE
  5
1AE
100
AcDbEntity
  8
R-DOOR-DETL
  6
BYBLOCK
 62
     3
100
AcDbLine
 10
14.747651
 20
24.88728
 30
0.0
 11
14.747651
 21
24.13728
 31
0.0
  0
LINE
  5
1AF
100
AcDbEntity
  8
R-DOOR-DETL
  6
BYBLOCK
 62
     3
100
AcDbLine
 10
14.697651
 20
24.13728
 30
0.0
 11
14.697651
 21
24.88728
 31
0.0
  0
LINE
  5
1B0
100
AcDbEntity
  8
R-DOOR-DETL
  6
BYBLOCK
 62
     3
100
AcDbLine
 10
14.147538
 20
24.007948
 30
0.0
 11
13.986498
 21
24.007948
 31
0.0
  0
ARC
  5
1B1
100
AcDbEntity
  8
R-DOOR-DETL
  6
BYBLOCK
 62
     3
100
AcDbCircle
 10
14.049693
 20
24.129756
 30
0.0
 40
0.04
100
AcDbArc
 50
182.612502
 51
270.0
  0
LINE
  5
1B2
100
AcDbEntity
  8
R-DOOR-DETL
100
AcDbLine
 10
13.675461
 20
23.918893
 30
0.0
 11
14.147381
 21
23.918893
 31
0.0
  0
ARC
  5
1B3
100
AcDbEntity
  8
R-DOOR-DETL
100
AcDbCircle
 10
13.699461
 20
24.08856
 30
0.0
 40
0.03
100
AcDbArc
 50
180.0
 51
260.0
  0
LINE
  5
1B4
100
AcDbEntity
  8
R-DOOR-DETL
100
AcDbLine
 10
13.981289
 20
24.008403
 30
0.0
 11
13.694251
 21
24.059016
 31
0.0
  0
ARC
  5
1B5
100
AcDbEntity
  8
R-DOOR-DETL
  6
BYBLOCK
 62
     3
100
AcDbCircle
 10
13.986498
 20
24.037948
 30
0.0
 40
0.03
100
AcDbArc
 50
260.0
 51
270.0
  0
ARC
  5
1B6
100
AcDbEntity
  8
R-DOOR-DETL
100
AcDbCircle
 10
13.675461
 20
24.074893
 30
0.0
 40
0.156
100
AcDbArc
 50
180.0
 51
270.0
  0
ARC
  5
1B7
100
AcDbEntity
  8
R-DOOR-DETL
  6
BYBLOCK
 62
     3
100
AcDbCircle
 10
15.201446
 20
24.08856
 30
0.0
 40
0.03
100
AcDbArc
 50
280.0
 51
360.0
  0
ARC
  5
1B8
100
AcDbEntity
  8
R-DOOR-DETL
  6
BYBLOCK
 62
     3
100
AcDbCircle
 10
14.914408
 20
24.037948
 30
0.0
 40
0.03
100
AcDbArc
 50
270.0
 51
280.0
  0
ARC
  5
1B9
100
AcDbEntity
  8
R-DOOR-DETL
  6
BYBLOCK
 62
     3
100
AcDbCircle
 10
14.753368
 20
23.998105
 30
0.0
 40
0.009843
100
AcDbArc
 50
90.0
 51
180.0
  0
LINE
  5
1BA
100
AcDbEntity
  8
R-DOOR-DETL
  6
BYBLOCK
 62
     3
100
AcDbLine
 10
14.914408
 20
24.007948
 30
0.0
 11
14.753368
 21
24.007948
 31
0.0
  0
LINE
  5
1BB
100
AcDbEntity
  8
R-DOOR-DETL
  6
BYBLOCK
 62
     3
100
AcDbLine
 10
15.206655
 20
24.059016
 30
0.0
 11
14.919617
 21
24.008403
 31
0.0
  0
ARC
  5
1BC
100
AcDbEntity
  8
R-DOOR-DETL
  6
BYBLOCK
 62
     3
100
AcDbCircle
 10
14.737808
 20
24.13728
 30
0.0
 40
0.009843
100
AcDbArc
 50
289.471221
 51
0.0
  0
LINE
  5
1BD
100
AcDbEntity
  8
R-DOOR-DETL
  6
BYBLOCK
 62
     3
100
AcDbLine
 10
14.747651
 20
24.13728
 30
0.0
 11
14.697651
 21
24.13728
 31
0.0
  0
LINE
  5
1BE
100
AcDbEntity
  8
R-DOOR-DETL
  6
BYBLOCK
 62
     3
100
AcDbLine
 10
14.85361
 20
24.089756
 30
0.0
 11
14.747651
 21
24.089756
 31
0.0
  0
ARC
  5
1BF
100
AcDbEntity
  8
R-DOOR-DETL
  6
BYBLOCK
 62
     3
100
AcDbCircle
 10
14.85361
 20
24.129756
 30
0.0
 40
0.04
100
AcDbArc
 50
270.0
 51
357.387498
  0
ARC
  5
1C0
100
AcDbEntity
  8
R-DOOR-DETL
  6
BYBLOCK
 62
     3
100
AcDbCircle
 10
14.747651
 20
24.109441
 30
0.0
 40
0.019685
100
AcDbArc
 50
109.471221
 51
270.0
  0
ARC
  5
1C1
100
AcDbEntity
  8
R-DOOR-DETL
  6
BYBLOCK
 62
     3
100
AcDbCircle
 10
14.147538
 20
23.998105
 30
0.0
 40
0.009843
100
AcDbArc
 50
0.0
 51
90.0
  0
ARC
  5
1C2
100
AcDbEntity
  8
R-DOOR-DETL
  6
BYBLOCK
 62
     3
100
AcDbCircle
 10
14.165495
 20
24.13728
 30
0.0
 40
0.009843
100
AcDbArc
 50
180.0
 51
250.528779
  0
LINE
  5
1C3
100
AcDbEntity
  8
R-DOOR-DETL
  6
BYBLOCK
 62
     3
100
AcDbLine
 10
14.155652
 20
24.13728
 30
0.0
 11
14.205652
 21
24.13728
 31
0.0
  0
LINE
  5
1C4
100
AcDbEntity
  8
R-DOOR-DETL
  6
BYBLOCK
 62
     3
100
AcDbLine
 10
14.049693
 20
24.089756
 30
0.0
 11
14.155652
 21
24.089756
 31
0.0
  0
ARC
  5
1C5
100
AcDbEntity
  8
R-DOOR-DETL
  6
BYBLOCK
 62
     3
100
AcDbCircle
 10
14.155652
 20
24.109441
 30
0.0
 40
0.019685
100
AcDbArc
 50
270.0
 51
70.528779
  0
ARC
  5
1C6
100
AcDbEntity
  8
R-DOOR-DETL
  6
BYBLOCK
 62
     3
100
AcDbCircle
 10
14.753526
 20
23.928893
 30
0.0
 40
0.01
100
AcDbArc
 50
180.0
 51
270.0
  0
LINE
  5
1C7
100
AcDbEntity
  8
R-DOOR-DETL
  6
BYBLOCK
 62
     3
100
AcDbLine
 10
14.753526
 20
23.918893
 30
0.0
 11
15.225446
 21
23.918893
 31
0.0
  0
ARC
  5
1C8
100
AcDbEntity
  8
R-DOOR-DETL
  6
BYBLOCK
 62
     3
100
AcDbCircle
 10
14.147381
 20
23.928893
 30
0.0
 40
0.01
100
AcDbArc
 50
270.0
 51
360.0
  0
LINE
  5
1C9
100
AcDbEntity
  8
R-DOOR-DETL
  6
BYBLOCK
 62
     3
100
AcDbLine
 10
14.157381
 20
23.928893
 30
0.0
 11
14.157381
 21
23.998105
 31
0.0
  0
ARC
  5
1CA
100
AcDbEntity
  8
R-DOOR-DETL
  6
BYBLOCK
 62
     3
100
AcDbCircle
 10
15.225446
 20
24.074893
 30
0.0
 40
0.156
100
AcDbArc
 50
270.0
 51
360.0
  0
LINE
  5
1CB
100
AcDbEntity
  8
R-DOOR-DETL
  6
BYBLOCK
 62
     3
100
AcDbLine
 10
14.743526
 20
23.998105
 30
0.0
 11
14.743526
 21
23.928893
 31
0.0
  0
ARC
  5
1CC
100
AcDbEntity
  8
R-DOOR-DETL
100
AcDbCircle
 10
13.919461
 20
24.506924
 30
0.0
 40
0.25
100
AcDbArc
 50
150.0
 51
180.0
  0
ARC
  5
1CD
100
AcDbEntity
  8
R-DOOR-DETL
  6
BYBLOCK
 62
     3
100
AcDbCircle
 10
13.957374
 20
24.617295
 30
0.0
 40
0.03
100
AcDbArc
 50
2.612502
 51
90.0
  0
LINE
  5
1CE
100
AcDbEntity
  8
R-DOOR-DETL
  6
BYBLOCK
 62
     3
100
AcDbLine
 10
13.841127
 20
24.647295
 30
0.0
 11
13.957374
 21
24.647295
 31
0.0
  0
ARC
  5
1CF
100
AcDbEntity
  8
R-DOOR-DETL
  6
BYBLOCK
 62
     3
100
AcDbCircle
 10
13.781126
 20
24.713348
 30
0.0
 40
0.03
100
AcDbArc
 50
149.0
 51
239.0
  0
LINE
  5
1D0
100
AcDbEntity
  8
R-DOOR-DETL
  6
BYBLOCK
 62
     3
100
AcDbLine
 10
13.765674
 20
24.687633
 30
0.0
 11
13.825676
 21
24.65158
 31
0.0
  0
ARC
  5
1D1
100
AcDbEntity
  8
R-DOOR-DETL
  6
BYBLOCK
 62
     3
100
AcDbCircle
 10
13.841127
 20
24.677295
 30
0.0
 40
0.03
100
AcDbArc
 50
239.0
 51
270.0
  0
LINE
  5
1D2
100
AcDbEntity
  8
R-DOOR-DETL
  6
BYBLOCK
 62
     3
100
AcDbLine
 10
14.697651
 20
24.88728
 30
0.0
 11
14.747651
 21
24.88728
 31
0.0
  0
ARC
  5
1D3
100
AcDbEntity
  8
R-DOOR-DETL
  6
BYBLOCK
 62
     3
100
AcDbCircle
 10
14.737808
 20
24.989147
 30
0.0
 40
0.009842
100
AcDbArc
 50
0.0
 51
90.0
  0
LINE
  5
1D4
100
AcDbEntity
  8
R-DOOR-DETL
  6
BYBLOCK
 62
     3
100
AcDbLine
 10
14.737808
 20
24.99899
 30
0.0
 11
14.737808
 21
24.94899
 31
0.0
  0
INSERT
  5
1D5
100
AcDbEntity
  8
R-DOOR-ANNO
  6
CONTINUOUS
100
AcDbBlockReference
  2
_DOTSMALL
 10
14.90357
 20
25.011814
 30
0.0
 41
0.18
 42
0.18
 43
0.18
 50
90.385713
1001
ACAD
1000
DSTYLE
1002
{
1070
   173
1070
     1
1070
     6
1000
_DOTSMALL
1002
}
  0
LINE
  5
1D6
100
AcDbEntity
  8
R-DOOR-DETL
  6
BYBLOCK
 62
     3
100
AcDbLine
 10
14.165495
 20
24.99899
 30
0.0
 11
14.397788
 21
24.99899
 31
0.0
  0
LINE
  5
1D7
100
AcDbEntity
  8
R-DOOR-DETL
  6
BYBLOCK
 62
     3
100
AcDbLine
 10
14.410731
 20
24.99899
 30
0.0
 11
14.160731
 21
24.99899
 31
0.0
  0
LINE
  5
1D8
100
AcDbEntity
  8
R-DOOR-DETL
100
AcDbLine
 10
14.265151
 20
24.94899
 30
0.0
 11
14.640151
 21
24.94899
 31
0.0
  0
LINE
  5
1D9
100
AcDbEntity
  8
R-DOOR-DETL
  6
BYBLOCK
 62
     3
100
AcDbLine
 10
14.160731
 20
24.94899
 30
0.0
 11
14.410731
 21
24.94899
 31
0.0
  0
LINE
  5
1DA
100
AcDbEntity
  8
R-DOOR-DETL
  6
BYBLOCK
 62
     3
100
AcDbLine
 10
14.205652
 20
24.88728
 30
0.0
 11
14.155652
 21
24.88728
 31
0.0
  0
ARC
  5
1DB
100
AcDbEntity
  8
R-DOOR-DETL
  6
BYBLOCK
 62
     3
100
AcDbCircle
 10
14.165495
 20
24.989147
 30
0.0
 40
0.009842
100
AcDbArc
 50
90.0
 51
180.0
  0
LINE
  5
1DC
100
AcDbEntity
  8
R-DOOR-DETL
  6
BYBLOCK
 62
     3
100
AcDbLine
 10
14.160731
 20
24.99899
 30
0.0
 11
14.160731
 21
24.94899
 31
0.0
  0
ARC
  5
1DD
100
AcDbEntity
  8
R-DOOR-DETL
  6
BYBLOCK
 62
     3
100
AcDbCircle
 10
14.505515
 20
25.01399
 30
0.0
 40
0.015
100
AcDbArc
 50
180.0
 51
270.0
  0
ARC
  5
1DE
100
AcDbEntity
  8
R-DOOR-DETL
  6
BYBLOCK
 62
     3
100
AcDbCircle
 10
14.397788
 20
25.01399
 30
0.0
 40
0.015
100
AcDbArc
 50
270.0
 51
0.0
  0
LINE
  5
1DF
100
AcDbEntity
  8
R-DOOR-DETL
  6
BYBLOCK
 62
     3
100
AcDbLine
 10
14.487808
 20
24.94899
 30
0.0
 11
14.487808
 21
24.99899
 31
0.0
  0
LINE
  5
1E0
100
AcDbEntity
  8
R-DOOR-DETL
  6
BYBLOCK
 62
     3
100
AcDbLine
 10
14.410731
 20
24.94899
 30
0.0
 11
14.410731
 21
24.99899
 31
0.0
  0
LINE
  5
1E1
100
AcDbEntity
  8
R-DOOR-DETL
100
AcDbLine
 10
14.207651
 20
24.94899
 30
0.0
 11
14.697651
 21
24.94899
 31
0.0
  0
LINE
  5
1E2
100
AcDbEntity
  8
R-DOOR-DETL
  6
BYBLOCK
 62
     3
100
AcDbLine
 10
14.737808
 20
24.99899
 30
0.0
 11
14.505515
 21
24.99899
 31
0.0
  0
LINE
  5
1E3
100
AcDbEntity
  8
R-DOOR-DETL
  6
BYBLOCK
 62
     3
100
AcDbLine
 10
14.487808
 20
24.99899
 30
0.0
 11
14.737808
 21
24.99899
 31
0.0
  0
LINE
  5
1E4
100
AcDbEntity
  8
R-DOOR-DETL
  6
BYBLOCK
 62
     3
100
AcDbLine
 10
14.737808
 20
24.94899
 30
0.0
 11
14.487808
 21
24.94899
 31
0.0
  0
ARC
  5
1E5
100
AcDbEntity
  8
R-DOOR-DETL
100
AcDbCircle
 10
14.981446
 20
24.506924
 30
0.0
 40
0.25
100
AcDbArc
 50
360.0
 51
30.0
  0
ARC
  5
1E6
100
AcDbEntity
  8
0
100
AcDbCircle
 10
15.122178
 20
24.713348
 30
0.0
 40
0.03
100
AcDbArc
 50
301.0
 51
31.0
  0
ARC
  5
1E7
100
AcDbEntity
  8
R-DOOR-DETL
  6
BYBLOCK
 62
     3
100
AcDbCircle
 10
15.062176
 20
24.677295
 30
0.0
 40
0.03
100
AcDbArc
 50
270.0
 51
301.0
  0
LINE
  5
1E8
100
AcDbEntity
  8
R-DOOR-DETL
  6
BYBLOCK
 62
     3
100
AcDbLine
 10
15.062176
 20
24.647295
 30
0.0
 11
14.945929
 21
24.647295
 31
0.0
  0
ARC
  5
1E9
100
AcDbEntity
  8
R-DOOR-DETL
  6
BYBLOCK
 62
     3
100
AcDbCircle
 10
14.945929
 20
24.617295
 30
0.0
 40
0.03
100
AcDbArc
 50
90.0
 51
177.387498
  0
LINE
  5
1EA
100
AcDbEntity
  8
R-DOOR-DETL
  6
BYBLOCK
 62
     3
100
AcDbLine
 10
15.137629
 20
24.687633
 30
0.0
 11
15.077627
 21
24.65158
 31
0.0
  0
LWPOLYLINE
  5
1EB
100
AcDbEntity
  8
R-DOOR-ANNO
  6
CONTINUOUS
100
AcDbPolyline
 90
        3
 70
     0
 43
0.0
 10
14.90357
 20
25.011814
 10
16.391721
 20
24.278846
 10
16.571721
 20
24.278846
1001
ACAD
1000
DSTYLE
1002
{
1070
   173
1070
     1
1070
     6
1000
_DOTSMALL
1002
}
  0
LINE
  5
1EC
100
AcDbEntity
  8
R-DOOR-DETL
100
AcDbLine
 10
14.953742
 20
26.087885
 30
0.0
 11
14.953742
 21
25.927842
 31
0.0
  0
LINE
  5
1ED
100
AcDbEntity
  8
R-DOOR-DETL
100
AcDbLine
 10
13.947165
 20
25.927842
 30
0.0
 11
13.947165
 21
26.087885
 31
0.0
  0
LINE
  5
1EE
100
AcDbEntity
  8
R-DOOR-ANNO
  6
CONTINUOUS
100
AcDbLine
 10
13.586014
 20
26.041924
 30
0.0
 11
12.51496
 21
25.446034
 31
0.0
1001
ACAD
1000
DSTYLE
1002
{
1070
   173
1070
     1
1070
     6
1000
_DOTSMALL
1002
}
  0
LINE
  5
1EF
100
AcDbEntity
  8
R-DOOR-DETL
100
AcDbLine
 10
14.450453
 20
25.799181
 30
0.0
 11
13.905349
 21
25.799181
 31
0.0
  0
ARC
  5
1F0
100
AcDbEntity
  8
R-DOOR-DETL
  6
BYBLOCK
 62
     3
100
AcDbCircle
 10
14.060453
 20
25.589181
 30
0.0
 40
0.06
100
AcDbArc
 50
90.0
 51
180.0
  0
ARC
  5
1F1
100
AcDbEntity
  8
R-DOOR-DETL
100
AcDbCircle
 10
13.897014
 20
25.75068
 30
0.0
 40
0.049212
100
AcDbArc
 50
80.249923
 51
131.403987
  0
ARC
  5
1F2
100
AcDbEntity
  8
R-DOOR-DETL
100
AcDbCircle
 10
13.897952
 20
25.927842
 30
0.0
 40
0.049213
100
AcDbArc
 50
242.278938
 51
0.0
  0
ARC
  5
1F3
100
AcDbEntity
  8
R-DOOR-DETL
100
AcDbCircle
 10
13.836461
 20
25.839584
 30
0.0
 40
0.059055
100
AcDbArc
 50
49.185014
 51
298.310064
  0
TEXT
  5
1F4
100
AcDbEntity
  8
0
100
AcDbText
 10
10.875809
 20
25.259575
 30
0.0
 40
0.36
  1
SHOE
  7
ROMANS
100
AcDbText
  0
LINE
  5
1F5
100
AcDbEntity
  8
R-DOOR-ANNO
  6
CONTINUOUS
100
AcDbLine
 10
12.51496
 20
25.446034
 30
0.0
 11
12.334961
 21
25.446635
 31
0.0
1001
ACAD
1000
DSTYLE
1002
{
1070
   173
1070
     1
1070
     6
1000
_DOTSMALL
1002
}
  0
ARC
  5
1F6
100
AcDbEntity
  8
R-DOOR-DETL
  6
BYBLOCK
 62
     3
100
AcDbCircle
 10
13.970453
 20
25.155246
 30
0.0
 40
0.03
100
AcDbArc
 50
330.0
 51
360.0
  0
LINE
  5
1F7
100
AcDbEntity
  8
R-DOOR-DETL
  6
BYBLOCK
 62
     3
100
AcDbLine
 10
14.000453
 20
25.155246
 30
0.0
 11
14.000453
 21
25.589181
 31
0.0
  0
ARC
  5
1F8
100
AcDbEntity
  8
R-DOOR-DETL
  6
BYBLOCK
 62
     3
100
AcDbCircle
 10
15.003892
 20
25.75068
 30
0.0
 40
0.049213
100
AcDbArc
 50
48.596013
 51
99.750077
  0
ARC
  5
1F9
100
AcDbEntity
  8
R-DOOR-DETL
100
AcDbCircle
 10
15.002954
 20
25.927842
 30
0.0
 40
0.049213
100
AcDbArc
 50
180.0
 51
297.721062
  0
ARC
  5
1FA
100
AcDbEntity
  8
R-DOOR-DETL
  6
BYBLOCK
 62
     3
100
AcDbCircle
 10
15.064446
 20
25.839584
 30
0.0
 40
0.059055
100
AcDbArc
 50
241.689936
 51
130.814986
  0
LINE
  5
1FB
100
AcDbEntity
  8
R-DOOR-DETL
  6
BYBLOCK
 62
     3
100
AcDbLine
 10
14.995558
 20
25.799181
 30
0.0
 11
14.450453
 21
25.799181
 31
0.0
  0
LINE
  5
1FC
100
AcDbEntity
  8
R-DOOR-DETL
  6
BYBLOCK
 62
     3
100
AcDbLine
 10
14.865515
 20
25.46199
 30
0.0
 11
14.865515
 21
25.207073
 31
0.0
  0
LINE
  5
1FD
100
AcDbEntity
  8
R-DOOR-DETL
  6
BYBLOCK
 62
     3
100
AcDbLine
 10
14.720515
 20
25.26899
 30
0.0
 11
14.720515
 21
25.39599
 31
0.0
  0
LINE
  5
1FE
100
AcDbEntity
  8
R-DOOR-DETL
  6
BYBLOCK
 62
     3
100
AcDbLine
 10
14.705436
 20
25.275349
 30
0.0
 11
14.705436
 21
25.400349
 31
0.0
  0
ARC
  5
1FF
100
AcDbEntity
  8
R-DOOR-DETL
  6
BYBLOCK
 62
     3
100
AcDbCircle
 10
14.895515
 20
25.207073
 30
0.0
 40
0.03
100
AcDbArc
 50
180.0
 51
211.0
  0
ARC
  5
200
100
AcDbEntity
  8
R-DOOR-DETL
  6
BYBLOCK
 62
     3
100
AcDbCircle
 10
14.840453
 20
25.589181
 30
0.0
 40
0.06
100
AcDbArc
 50
360.0
 51
90.0
  0
ARC
  5
201
100
AcDbEntity
  8
R-DOOR-DETL
  6
BYBLOCK
 62
     3
100
AcDbCircle
 10
14.705515
 20
25.39599
 30
0.0
 40
0.015
100
AcDbArc
 50
0.0
 51
90.0
  0
ARC
  5
202
100
AcDbEntity
  8
R-DOOR-DETL
  6
BYBLOCK
 62
     3
100
AcDbCircle
 10
14.771515
 20
25.46199
 30
0.0
 40
0.094
100
AcDbArc
 50
0.0
 51
90.0
  0
ARC
  5
203
100
AcDbEntity
  8
R-DOOR-DETL
  6
BYBLOCK
 62
     3
100
AcDbCircle
 10
14.930453
 20
25.155246
 30
0.0
 40
0.03
100
AcDbArc
 50
180.0
 51
210.0
  0
LINE
  5
204
100
AcDbEntity
  8
R-DOOR-DETL
  6
BYBLOCK
 62
     3
100
AcDbLine
 10
14.900453
 20
25.589181
 30
0.0
 11
14.900453
 21
25.155246
 31
0.0
  0
LINE
  5
205
100
AcDbEntity
  8
R-DOOR-DETL
  6
BYBLOCK
 62
     3
100
AcDbLine
 10
14.060453
 20
25.649181
 30
0.0
 11
14.450453
 21
25.649181
 31
0.0
  0
LINE
  5
206
100
AcDbEntity
  8
R-DOOR-DETL
  6
BYBLOCK
 62
     3
100
AcDbLine
 10
14.397788
 20
25.14399
 30
0.0
 11
14.307788
 21
25.14399
 31
0.0
  0
ARC
  5
207
100
AcDbEntity
  8
R-DOOR-DETL
  6
BYBLOCK
 62
     3
100
AcDbCircle
 10
14.131788
 20
25.46199
 30
0.0
 40
0.094
100
AcDbArc
 50
90.0
 51
180.0
  0
LINE
  5
208
100
AcDbEntity
  8
R-DOOR-DETL
  6
BYBLOCK
 62
     3
100
AcDbLine
 10
14.037788
 20
25.46199
 30
0.0
 11
14.037788
 21
25.207073
 31
0.0
  0
LINE
  5
209
100
AcDbEntity
  8
R-DOOR-DETL
  6
BYBLOCK
 62
     3
100
AcDbLine
 10
14.182788
 20
25.26899
 30
0.0
 11
14.182788
 21
25.39599
 31
0.0
  0
LINE
  5
20A
100
AcDbEntity
  8
R-DOOR-DETL
  6
BYBLOCK
 62
     3
100
AcDbLine
 10
14.205436
 20
25.275349
 30
0.0
 11
14.205436
 21
25.400349
 31
0.0
  0
ARC
  5
20B
100
AcDbEntity
  8
R-DOOR-DETL
  6
BYBLOCK
 62
     3
100
AcDbCircle
 10
14.007788
 20
25.207073
 30
0.0
 40
0.03
100
AcDbArc
 50
329.0
 51
0.0
  0
LINE
  5
20C
100
AcDbEntity
  8
R-DOOR-DETL
  6
BYBLOCK
 62
     3
100
AcDbLine
 10
14.298788
 20
25.42599
 30
0.0
 11
14.298788
 21
25.54099
 31
0.0
  0
ARC
  5
20D
100
AcDbEntity
  8
R-DOOR-DETL
  6
BYBLOCK
 62
     3
100
AcDbCircle
 10
14.283788
 20
25.54099
 30
0.0
 40
0.015
100
AcDbArc
 50
0.0
 51
90.0
  0
ARC
  5
20E
100
AcDbEntity
  8
R-DOOR-DETL
  6
BYBLOCK
 62
     3
100
AcDbCircle
 10
14.283788
 20
25.42599
 30
0.0
 40
0.015
100
AcDbArc
 50
270.0
 51
0.0
  0
LINE
  5
20F
100
AcDbEntity
  8
R-DOOR-DETL
  6
BYBLOCK
 62
     3
100
AcDbLine
 10
14.283788
 20
25.55599
 30
0.0
 11
14.131788
 21
25.55599
 31
0.0
  0
LINE
  5
210
100
AcDbEntity
  8
R-DOOR-DETL
  6
BYBLOCK
 62
     3
100
AcDbLine
 10
14.197788
 20
25.41099
 30
0.0
 11
14.283788
 21
25.41099
 31
0.0
  0
ARC
  5
211
100
AcDbEntity
  8
R-DOOR-DETL
  6
BYBLOCK
 62
     3
100
AcDbCircle
 10
14.197788
 20
25.39599
 30
0.0
 40
0.015
100
AcDbArc
 50
90.0
 51
180.0
  0
LINE
  5
212
100
AcDbEntity
  8
R-DOOR-DETL
  6
BYBLOCK
 62
     3
100
AcDbLine
 10
14.331436
 20
25.275215
 30
0.0
 11
14.579436
 21
25.275215
 31
0.0
  0
LINE
  5
213
100
AcDbEntity
  8
R-DOOR-DETL
  6
BYBLOCK
 62
     3
100
AcDbLine
 10
14.361436
 20
25.305215
 30
0.0
 11
14.549436
 21
25.305215
 31
0.0
  0
LINE
  5
214
100
AcDbEntity
  8
R-DOOR-DETL
  6
BYBLOCK
 62
     3
100
AcDbLine
 10
14.361436
 20
25.245215
 30
0.0
 11
14.549436
 21
25.245215
 31
0.0
  0
LINE
  5
215
100
AcDbEntity
  8
R-DOOR-DETL
  6
BYBLOCK
 62
     3
100
AcDbLine
 10
14.331436
 20
25.635215
 30
0.0
 11
14.579436
 21
25.635215
 31
0.0
  0
LINE
  5
216
100
AcDbEntity
  8
R-DOOR-DETL
  6
BYBLOCK
 62
     3
100
AcDbLine
 10
14.331436
 20
25.575215
 30
0.0
 11
14.579436
 21
25.575215
 31
0.0
  0
LINE
  5
217
100
AcDbEntity
  8
R-DOOR-DETL
  6
BYBLOCK
 62
     3
100
AcDbLine
 10
14.361436
 20
25.605215
 30
0.0
 11
14.549436
 21
25.605215
 31
0.0
  0
LINE
  5
218
100
AcDbEntity
  8
R-DOOR-DETL
  6
BYBLOCK
 62
     3
100
AcDbLine
 10
14.361436
 20
25.545215
 30
0.0
 11
14.549436
 21
25.545215
 31
0.0
  0
LINE
  5
219
100
AcDbEntity
  8
R-DOOR-DETL
  6
BYBLOCK
 62
     3
100
AcDbLine
 10
14.331436
 20
25.395215
 30
0.0
 11
14.579436
 21
25.395215
 31
0.0
  0
LINE
  5
21A
100
AcDbEntity
  8
R-DOOR-DETL
  6
BYBLOCK
 62
     3
100
AcDbLine
 10
14.331436
 20
25.515215
 30
0.0
 11
14.579436
 21
25.515215
 31
0.0
  0
LINE
  5
21B
100
AcDbEntity
  8
R-DOOR-DETL
  6
BYBLOCK
 62
     3
100
AcDbLine
 10
14.331436
 20
25.455215
 30
0.0
 11
14.579436
 21
25.455215
 31
0.0
  0
LINE
  5
21C
100
AcDbEntity
  8
R-DOOR-DETL
  6
BYBLOCK
 62
     3
100
AcDbLine
 10
14.361436
 20
25.485215
 30
0.0
 11
14.549436
 21
25.485215
 31
0.0
  0
LINE
  5
21D
100
AcDbEntity
  8
R-DOOR-DETL
  6
BYBLOCK
 62
     3
100
AcDbLine
 10
14.361436
 20
25.425215
 30
0.0
 11
14.549436
 21
25.425215
 31
0.0
  0
LINE
  5
21E
100
AcDbEntity
  8
R-DOOR-DETL
  6
BYBLOCK
 62
     3
100
AcDbLine
 10
14.604515
 20
25.42599
 30
0.0
 11
14.604515
 21
25.54099
 31
0.0
  0
ARC
  5
21F
100
AcDbEntity
  8
R-DOOR-DETL
  6
BYBLOCK
 62
     3
100
AcDbCircle
 10
14.619515
 20
25.42599
 30
0.0
 40
0.015
100
AcDbArc
 50
180.0
 51
270.0
  0
ARC
  5
220
100
AcDbEntity
  8
R-DOOR-DETL
  6
BYBLOCK
 62
     3
100
AcDbCircle
 10
14.619515
 20
25.54099
 30
0.0
 40
0.015
100
AcDbArc
 50
90.0
 51
180.0
  0
LINE
  5
221
100
AcDbEntity
  8
R-DOOR-DETL
  6
BYBLOCK
 62
     3
100
AcDbLine
 10
14.331436
 20
25.335215
 30
0.0
 11
14.579436
 21
25.335215
 31
0.0
  0
LINE
  5
222
100
AcDbEntity
  8
R-DOOR-DETL
  6
BYBLOCK
 62
     3
100
AcDbLine
 10
14.361436
 20
25.365215
 30
0.0
 11
14.549436
 21
25.365215
 31
0.0
  0
LINE
  5
223
100
AcDbEntity
  8
R-DOOR-DETL
  6
BYBLOCK
 62
     3
100
AcDbLine
 10
14.505515
 20
25.14399
 30
0.0
 11
14.595515
 21
25.14399
 31
0.0
  0
ARC
  5
224
100
AcDbEntity
  8
R-DOOR-DETL
  6
BYBLOCK
 62
     3
100
AcDbCircle
 10
14.505515
 20
25.12899
 30
0.0
 40
0.015
100
AcDbArc
 50
90.0
 51
180.0
  0
ARC
  5
225
100
AcDbEntity
  8
R-DOOR-DETL
  6
BYBLOCK
 62
     3
100
AcDbCircle
 10
14.397788
 20
25.12899
 30
0.0
 40
0.015
100
AcDbArc
 50
0.0
 51
90.0
  0
LINE
  5
226
100
AcDbEntity
  8
R-DOOR-DETL
  6
BYBLOCK
 62
     3
100
AcDbLine
 10
14.205436
 20
25.275349
 30
0.0
 11
14.705436
 21
25.275349
 31
0.0
  0
LINE
  5
227
100
AcDbEntity
  8
R-DOOR-DETL
  6
BYBLOCK
 62
     3
100
AcDbLine
 10
14.205436
 20
25.400349
 30
0.0
 11
14.705436
 21
25.400349
 31
0.0
  0
LINE
  5
228
100
AcDbEntity
  8
R-DOOR-DETL
  6
BYBLOCK
 62
     3
100
AcDbLine
 10
14.450453
 20
25.649181
 30
0.0
 11
14.840453
 21
25.649181
 31
0.0
  0
LINE
  5
229
100
AcDbEntity
  8
R-DOOR-DETL
  6
BYBLOCK
 62
     3
100
AcDbLine
 10
14.705515
 20
25.41099
 30
0.0
 11
14.619515
 21
25.41099
 31
0.0
  0
LINE
  5
22A
100
AcDbEntity
  8
R-DOOR-DETL
  6
BYBLOCK
 62
     3
100
AcDbLine
 10
14.619515
 20
25.55599
 30
0.0
 11
14.771515
 21
25.55599
 31
0.0
  0
LINE
  5
22B
100
AcDbEntity
  8
R-DOOR-DETL
  6
BYBLOCK
 62
     3
100
AcDbLine
 10
13.926581
 20
26.6491
 30
0.0
 11
14.014802
 21
26.585867
 31
0.0
  0
ARC
  5
22C
100
AcDbEntity
  8
R-DOOR-DETL
  6
BYBLOCK
 62
     3
100
AcDbCircle
 10
14.025453
 20
26.693885
 30
0.0
 40
0.1005
100
AcDbArc
 50
302.506128
 51
237.493872
  0
LINE
  5
22D
100
AcDbEntity
  8
R-DOOR-DETL
  6
BYBLOCK
 62
     3
100
AcDbLine
 10
13.937233
 20
26.757118
 30
0.0
 11
14.036105
 21
26.801903
 31
0.0
  0
LINE
  5
22E
100
AcDbEntity
  8
R-DOOR-DETL
100
AcDbLine
 10
14.450453
 20
26.368885
 30
0.0
 11
13.699461
 21
26.368885
 31
0.0
  0
LINE
  5
22F
100
AcDbEntity
  8
R-DOOR-DETL
100
AcDbLine
 10
13.978165
 20
26.118885
 30
0.0
 11
14.266692
 21
26.118885
 31
0.0
  0
LINE
  5
230
100
AcDbEntity
  8
R-DOOR-DETL
100
AcDbLine
 10
15.132953
 20
26.493885
 30
0.0
 11
13.767953
 21
26.493885
 31
0.0
  0
LINE
  5
231
100
AcDbEntity
  8
R-DOOR-DETL
100
AcDbLine
 10
15.132953
 20
26.368885
 30
0.0
 11
13.767953
 21
26.368885
 31
0.0
  0
LINE
  5
232
100
AcDbEntity
  8
R-DOOR-DETL
100
AcDbLine
 10
13.684461
 20
26.655088
 30
0.0
 11
13.750453
 21
26.655088
 31
0.0
  0
LINE
  5
233
100
AcDbEntity
  8
R-DOOR-DETL
100
AcDbLine
 10
13.755453
 20
26.645088
 30
0.0
 11
13.689461
 21
26.645088
 31
0.0
  0
ARC
  5
234
100
AcDbEntity
  8
R-DOOR-DETL
100
AcDbCircle
 10
13.684461
 20
26.640088
 30
0.0
 40
0.015
100
AcDbArc
 50
90.0
 51
180.0
  0
ARC
  5
235
100
AcDbEntity
  8
R-DOOR-DETL
100
AcDbCircle
 10
13.689461
 20
26.630088
 30
0.0
 40
0.015
100
AcDbArc
 50
90.0
 51
180.0
  0
LINE
  5
236
100
AcDbEntity
  8
R-DOOR-DETL
  6
BYBLOCK
 62
     3
100
AcDbLine
 10
13.926581
 20
26.6491
 30
0.0
 11
13.937233
 21
26.757118
 31
0.0
  0
ARC
  5
237
100
AcDbEntity
  8
R-DOOR-DETL
100
AcDbCircle
 10
13.755453
 20
26.660088
 30
0.0
 40
0.015
100
AcDbArc
 50
270.0
 51
360.0
  0
ARC
  5
238
100
AcDbEntity
  8
R-DOOR-DETL
100
AcDbCircle
 10
13.750453
 20
26.670088
 30
0.0
 40
0.015
100
AcDbArc
 50
270.0
 51
0.0
  0
LINE
  5
239
100
AcDbEntity
  8
R-DOOR-DETL
  6
BYBLOCK
 62
     3
100
AcDbLine
 10
13.875919
 20
26.384385
 30
0.0
 11
13.981633
 21
26.567486
 31
0.0
  0
LINE
  5
23A
100
AcDbEntity
  8
R-DOOR-DETL
100
AcDbLine
 10
13.705461
 20
26.368885
 30
0.0
 11
13.849073
 21
26.368885
 31
0.0
  0
ARC
  5
23B
100
AcDbEntity
  8
R-DOOR-DETL
100
AcDbCircle
 10
13.699461
 20
26.398885
 30
0.0
 40
0.03
100
AcDbArc
 50
180.0
 51
270.0
  0
ARC
  5
23C
100
AcDbEntity
  8
R-DOOR-DETL
100
AcDbCircle
 10
13.705461
 20
26.399885
 30
0.0
 40
0.031
100
AcDbArc
 50
180.0
 51
270.0
  0
ARC
  5
23D
100
AcDbEntity
  8
R-DOOR-DETL
100
AcDbCircle
 10
13.978165
 20
26.087885
 30
0.0
 40
0.031
100
AcDbArc
 50
90.0
 51
180.0
  0
ARC
  5
23E
100
AcDbEntity
  8
R-DOOR-DETL
  6
BYBLOCK
 62
     3
100
AcDbCircle
 10
13.849073
 20
26.399885
 30
0.0
 40
0.031
100
AcDbArc
 50
270.0
 51
330.0
  0
ARC
  5
23F
100
AcDbEntity
  8
0
  6
BYBLOCK
 62
     0
100
AcDbCircle
 10
13.604272
 20
26.052109
 30
0.0
 40
0.01125
100
AcDbArc
 50
209.089746
 51
29.089746
  0
ARC
  5
240
100
AcDbEntity
  8
0
  6
BYBLOCK
 62
     0
100
AcDbCircle
 10
13.604272
 20
26.052109
 30
0.0
 40
0.01125
100
AcDbArc
 50
29.089746
 51
209.089746
  0
LINE
  5
241
100
AcDbEntity
  8
R-DOOR-DETL
100
AcDbLine
 10
13.669461
 20
26.398885
 30
0.0
 11
13.669461
 21
26.640088
 31
0.0
  0
LINE
  5
242
100
AcDbEntity
  8
R-DOOR-DETL
100
AcDbLine
 10
13.674461
 20
26.630088
 30
0.0
 11
13.674461
 21
26.399885
 31
0.0
  0
ARC
  5
243
100
AcDbEntity
  8
R-DOOR-DETL
  6
BYBLOCK
 62
     3
100
AcDbCircle
 10
13.954786
 20
26.582986
 30
0.0
 40
0.031
100
AcDbArc
 50
330.0
 51
57.493872
  0
ARC
  5
244
100
AcDbEntity
  8
R-DOOR-DETL
100
AcDbCircle
 10
15.216446
 20
26.640088
 30
0.0
 40
0.015
100
AcDbArc
 50
0.0
 51
90.0
  0
ARC
  5
245
100
AcDbEntity
  8
R-DOOR-DETL
100
AcDbCircle
 10
15.211446
 20
26.630088
 30
0.0
 40
0.015
100
AcDbArc
 50
0.0
 51
90.0
  0
ARC
  5
246
100
AcDbEntity
  8
R-DOOR-DETL
100
AcDbCircle
 10
15.150453
 20
26.670088
 30
0.0
 40
0.015
100
AcDbArc
 50
180.0
 51
270.0
  0
ARC
  5
247
100
AcDbEntity
  8
R-DOOR-DETL
100
AcDbCircle
 10
15.145453
 20
26.660088
 30
0.0
 40
0.015
100
AcDbArc
 50
180.0
 51
270.0
  0
LINE
  5
248
100
AcDbEntity
  8
R-DOOR-DETL
100
AcDbLine
 10
15.150453
 20
26.655088
 30
0.0
 11
15.216446
 21
26.655088
 31
0.0
  0
LINE
  5
249
100
AcDbEntity
  8
R-DOOR-DETL
100
AcDbLine
 10
15.211446
 20
26.645088
 30
0.0
 11
15.145453
 21
26.645088
 31
0.0
  0
LINE
  5
24A
100
AcDbEntity
  8
R-DOOR-DETL
  6
BYBLOCK
 62
     3
100
AcDbLine
 10
14.799511
 20
26.771436
 30
0.0
 11
14.770321
 21
26.666893
 31
0.0
  0
LINE
  5
24B
100
AcDbEntity
  8
R-DOOR-DETL
  6
BYBLOCK
 62
     3
100
AcDbLine
 10
14.980585
 20
26.720877
 30
0.0
 11
14.951395
 21
26.616333
 31
0.0
  0
LINE
  5
24C
100
AcDbEntity
  8
R-DOOR-DETL
  6
BYBLOCK
 62
     3
100
AcDbLine
 10
14.951395
 20
26.616333
 30
0.0
 11
14.846263
 21
26.589342
 31
0.0
  0
LINE
  5
24D
100
AcDbEntity
  8
R-DOOR-DETL
  6
BYBLOCK
 62
     3
100
AcDbLine
 10
14.846263
 20
26.589342
 30
0.0
 11
14.770321
 21
26.666893
 31
0.0
  0
LINE
  5
24E
100
AcDbEntity
  8
R-DOOR-DETL
  6
BYBLOCK
 62
     3
100
AcDbLine
 10
14.980585
 20
26.720877
 30
0.0
 11
14.904644
 21
26.798428
 31
0.0
  0
ARC
  5
24F
100
AcDbEntity
  8
R-DOOR-DETL
  6
BYBLOCK
 62
     3
100
AcDbCircle
 10
14.875453
 20
26.693885
 30
0.0
 40
0.1005
100
AcDbArc
 50
302.506128
 51
237.493872
  0
LINE
  5
250
100
AcDbEntity
  8
R-DOOR-DETL
  6
BYBLOCK
 62
     3
100
AcDbLine
 10
14.904644
 20
26.798428
 30
0.0
 11
14.799511
 21
26.771436
 31
0.0
  0
LINE
  5
251
100
AcDbEntity
  8
R-DOOR-DETL
  6
BYBLOCK
 62
     3
100
AcDbLine
 10
14.014802
 20
26.585867
 30
0.0
 11
14.113674
 21
26.630651
 31
0.0
  0
LINE
  5
252
100
AcDbEntity
  8
R-DOOR-DETL
  6
BYBLOCK
 62
     3
100
AcDbLine
 10
14.113674
 20
26.630651
 30
0.0
 11
14.124325
 21
26.738669
 31
0.0
  0
LINE
  5
253
100
AcDbEntity
  8
R-DOOR-DETL
  6
BYBLOCK
 62
     3
100
AcDbLine
 10
14.036105
 20
26.801903
 30
0.0
 11
14.124325
 21
26.738669
 31
0.0
  0
LINE
  5
254
100
AcDbEntity
  8
R-DOOR-DETL
  6
BYBLOCK
 62
     3
100
AcDbLine
 10
14.504724
 20
26.787885
 30
0.0
 11
14.396182
 21
26.787885
 31
0.0
  0
LINE
  5
255
100
AcDbEntity
  8
R-DOOR-DETL
  6
BYBLOCK
 62
     3
100
AcDbLine
 10
14.504724
 20
26.599885
 30
0.0
 11
14.396182
 21
26.599885
 31
0.0
  0
LINE
  5
256
100
AcDbEntity
  8
R-DOOR-DETL
  6
BYBLOCK
 62
     3
100
AcDbLine
 10
14.558995
 20
26.693885
 30
0.0
 11
14.504724
 21
26.599885
 31
0.0
  0
LINE
  5
257
100
AcDbEntity
  8
R-DOOR-DETL
  6
BYBLOCK
 62
     3
100
AcDbLine
 10
14.341911
 20
26.693885
 30
0.0
 11
14.396182
 21
26.599885
 31
0.0
  0
LINE
  5
258
100
AcDbEntity
  8
R-DOOR-DETL
  6
BYBLOCK
 62
     3
100
AcDbLine
 10
14.504724
 20
26.787885
 30
0.0
 11
14.558995
 21
26.693885
 31
0.0
  0
LINE
  5
259
100
AcDbEntity
  8
R-DOOR-DETL
  6
BYBLOCK
 62
     3
100
AcDbLine
 10
14.396182
 20
26.787885
 30
0.0
 11
14.341911
 21
26.693885
 31
0.0
  0
LINE
  5
25A
100
AcDbEntity
  8
R-DOOR-DETL
  6
BYBLOCK
 62
     3
100
AcDbLine
 10
14.919273
 20
26.567486
 30
0.0
 11
15.024987
 21
26.384385
 31
0.0
  0
LINE
  5
25B
100
AcDbEntity
  8
R-DOOR-DETL
  6
BYBLOCK
 62
     3
100
AcDbLine
 10
14.725919
 20
26.384385
 30
0.0
 11
14.831633
 21
26.567486
 31
0.0
  0
ARC
  5
25C
100
AcDbEntity
  8
R-DOOR-DETL
100
AcDbCircle
 10
15.201446
 20
26.398885
 30
0.0
 40
0.03
100
AcDbArc
 50
270.0
 51
0.0
  0
ARC
  5
25D
100
AcDbEntity
  8
R-DOOR-DETL
100
AcDbCircle
 10
15.195446
 20
26.399885
 30
0.0
 40
0.031
100
AcDbArc
 50
270.0
 51
0.0
  0
ARC
  5
25E
100
AcDbEntity
  8
R-DOOR-DETL
100
AcDbCircle
 10
14.922742
 20
26.087885
 30
0.0
 40
0.031
100
AcDbArc
 50
360.0
 51
90.0
  0
ARC
  5
25F
100
AcDbEntity
  8
R-DOOR-DETL
  6
BYBLOCK
 62
     3
100
AcDbCircle
 10
15.051834
 20
26.399885
 30
0.0
 40
0.031
100
AcDbArc
 50
210.0
 51
270.0
  0
ARC
  5
260
100
AcDbEntity
  8
R-DOOR-DETL
  6
BYBLOCK
 62
     3
100
AcDbCircle
 10
14.699073
 20
26.399885
 30
0.0
 40
0.031
100
AcDbArc
 50
270.0
 51
330.0
  0
LINE
  5
261
100
AcDbEntity
  8
R-DOOR-DETL
100
AcDbLine
 10
15.051834
 20
26.368885
 30
0.0
 11
15.195446
 21
26.368885
 31
0.0
  0
ARC
  5
262
100
AcDbEntity
  8
R-DOOR-DETL
100
AcDbCircle
 10
14.450453
 20
26.12233
 30
0.0
 40
0.15678
100
AcDbArc
 50
190.315077
 51
214.562525
  0
LINE
  5
263
100
AcDbEntity
  8
R-DOOR-DETL
  6
BYBLOCK
 62
     3
100
AcDbLine
 10
14.069273
 20
26.567486
 30
0.0
 11
14.174987
 21
26.384385
 31
0.0
  0
ARC
  5
264
100
AcDbEntity
  8
R-DOOR-DETL
100
AcDbCircle
 10
14.266692
 20
26.088885
 30
0.0
 40
0.03
100
AcDbArc
 50
10.315077
 51
90.0
  0
ARC
  5
265
100
AcDbEntity
  8
R-DOOR-DETL
  6
BYBLOCK
 62
     3
100
AcDbCircle
 10
14.201834
 20
26.399885
 30
0.0
 40
0.031
100
AcDbArc
 50
210.0
 51
270.0
  0
ARC
  5
266
100
AcDbEntity
  8
R-DOOR-DETL
100
AcDbCircle
 10
14.634214
 20
26.088885
 30
0.0
 40
0.03
100
AcDbArc
 50
90.0
 51
169.684923
  0
ARC
  5
267
100
AcDbEntity
  8
R-DOOR-DETL
100
AcDbCircle
 10
14.361871
 20
26.061306
 30
0.0
 40
0.049213
100
AcDbArc
 50
214.562525
 51
27.417802
  0
ARC
  5
268
100
AcDbEntity
  8
R-DOOR-DETL
100
AcDbCircle
 10
14.539036
 20
26.061306
 30
0.0
 40
0.049213
100
AcDbArc
 50
152.582198
 51
325.437475
  0
ARC
  5
269
100
AcDbEntity
  8
R-DOOR-DETL
100
AcDbCircle
 10
14.450453
 20
26.12233
 30
0.0
 40
0.15678
100
AcDbArc
 50
325.437475
 51
349.684923
  0
ARC
  5
26A
100
AcDbEntity
  8
R-DOOR-DETL
100
AcDbCircle
 10
14.450453
 20
26.12233
 30
0.0
 40
0.059055
100
AcDbArc
 50
319.488274
 51
220.511726
  0
LINE
  5
26B
100
AcDbEntity
  8
R-DOOR-DETL
  6
BYBLOCK
 62
     3
100
AcDbLine
 10
14.201834
 20
26.368885
 30
0.0
 11
14.699073
 21
26.368885
 31
0.0
  0
LINE
  5
26C
100
AcDbEntity
  8
R-DOOR-DETL
100
AcDbLine
 10
14.634214
 20
26.118885
 30
0.0
 11
14.922742
 21
26.118885
 31
0.0
  0
LINE
  5
26D
100
AcDbEntity
  8
R-DOOR-DETL
100
AcDbLine
 10
15.201446
 20
26.368885
 30
0.0
 11
14.450453
 21
26.368885
 31
0.0
  0
ARC
  5
26E
100
AcDbEntity
  8
R-DOOR-DETL
  6
BYBLOCK
 62
     3
100
AcDbCircle
 10
14.09612
 20
26.582986
 30
0.0
 40
0.031
100
AcDbArc
 50
122.506128
 51
210.0
  0
LINE
  5
26F
100
AcDbEntity
  8
R-DOOR-DETL
100
AcDbLine
 10
15.231446
 20
26.640088
 30
0.0
 11
15.231446
 21
26.398885
 31
0.0
  0
LINE
  5
270
100
AcDbEntity
  8
R-DOOR-DETL
100
AcDbLine
 10
15.226446
 20
26.399885
 30
0.0
 11
15.226446
 21
26.630088
 31
0.0
  0
ARC
  5
271
100
AcDbEntity
  8
R-DOOR-DETL
  6
BYBLOCK
 62
     3
100
AcDbCircle
 10
14.94612
 20
26.582986
 30
0.0
 40
0.031
100
AcDbArc
 50
122.506128
 51
210.0
  0
ARC
  5
272
100
AcDbEntity
  8
R-DOOR-DETL
  6
BYBLOCK
 62
     3
100
AcDbCircle
 10
14.804786
 20
26.582986
 30
0.0
 40
0.031
100
AcDbArc
 50
330.0
 51
57.493872
  0
LWPOLYLINE
  5
273
100
AcDbEntity
  8
R-DOOR-DETL
 62
     3
100
AcDbPolyline
 90
       27
 70
     0
 43
0.0
 10
16.620453
 20
28.385885
 42
-0.985813
 10
16.480482
 20
28.383885
 10
16.337953
 20
28.383885
 42
1.0
 10
16.337953
 20
28.338885
 10
16.370453
 20
28.338885
 10
16.412186
 20
28.249388
 10
16.385644
 20
28.237011
 42
0.802585
 10
16.394096
 20
28.198885
 10
16.685453
 20
28.198885
 42
0.414214
 10
16.700453
 20
28.213885
 10
16.700453
 20
29.948885
 10
12.200453
 20
29.948885
 10
12.200453
 20
28.213885
 42
0.414214
 10
12.215453
 20
28.198885
 10
12.50681
 20
28.198885
 42
0.802585
 10
12.515262
 20
28.237011
 10
12.48872
 20
28.249388
 10
12.530453
 20
28.338885
 10
12.562953
 20
28.338885
 42
1.0
 10
12.562953
 20
28.383885
 10
12.420425
 20
28.383885
 42
-0.985813
 10
12.280453
 20
28.385885
 10
12.280453
 20
29.833885
 42
-0.414214
 10
12.295453
 20
29.848885
 10
16.605453
 20
29.848885
 42
-0.414214
 10
16.620453
 20
29.833885
 10
16.620453
 20
28.383885
  0
LINE
  5
274
100
AcDbEntity
  8
R-DOOR-DETL
100
AcDbLine
 10
15.281446
 20
27.933885
 30
0.0
 11
15.281446
 21
27.553885
 31
0.0
  0
LINE
  5
275
100
AcDbEntity
  8
R-DOOR-DETL
100
AcDbLine
 10
13.619461
 20
27.553885
 30
0.0
 11
13.619461
 21
27.933885
 31
0.0
  0
LINE
  5
276
100
AcDbEntity
  8
R-DOOR-DETL
100
AcDbLine
 10
15.132953
 20
26.918885
 30
0.0
 11
13.767953
 21
26.918885
 31
0.0
  0
LINE
  5
277
100
AcDbEntity
  8
R-DOOR-DETL
100
AcDbLine
 10
15.115453
 20
26.944885
 30
0.0
 11
13.785453
 21
26.944885
 31
0.0
  0
ARC
  5
278
100
AcDbEntity
  8
R-DOOR-DETL
100
AcDbCircle
 10
13.634461
 20
27.553885
 30
0.0
 40
0.015
100
AcDbArc
 50
180.0
 51
270.0
  0
ARC
  5
279
100
AcDbEntity
  8
R-DOOR-DETL
100
AcDbCircle
 10
13.654461
 20
27.523885
 30
0.0
 40
0.015
100
AcDbArc
 50
0.0
 51
90.0
  0
LINE
  5
27A
100
AcDbEntity
  8
R-DOOR-DETL
100
AcDbLine
 10
13.654461
 20
27.538885
 30
0.0
 11
13.634461
 21
27.538885
 31
0.0
  0
LINE
  5
27B
100
AcDbEntity
  8
R-DOOR-DETL
100
AcDbLine
 10
13.750453
 20
26.855088
 30
0.0
 11
13.684461
 21
26.855088
 31
0.0
  0
ARC
  5
27C
100
AcDbEntity
  8
R-DOOR-DETL
100
AcDbCircle
 10
13.684461
 20
26.870088
 30
0.0
 40
0.015
100
AcDbArc
 50
180.0
 51
270.0
  0
ARC
  5
27D
100
AcDbEntity
  8
R-DOOR-DETL
100
AcDbCircle
 10
13.785453
 20
26.929885
 30
0.0
 40
0.015
100
AcDbArc
 50
90.0
 51
180.0
  0
ARC
  5
27E
100
AcDbEntity
  8
R-DOOR-DETL
100
AcDbCircle
 10
13.750453
 20
26.840088
 30
0.0
 40
0.015
100
AcDbArc
 50
0.0
 51
90.0
  0
LINE
  5
27F
100
AcDbEntity
  8
R-DOOR-DETL
100
AcDbLine
 10
13.669461
 20
26.870088
 30
0.0
 11
13.669461
 21
27.523885
 31
0.0
  0
ARC
  5
280
100
AcDbEntity
  8
R-DOOR-DETL
100
AcDbCircle
 10
15.266446
 20
27.553885
 30
0.0
 40
0.015
100
AcDbArc
 50
270.0
 51
0.0
  0
LINE
  5
281
100
AcDbEntity
  8
R-DOOR-DETL
100
AcDbLine
 10
15.266446
 20
27.538885
 30
0.0
 11
15.246446
 21
27.538885
 31
0.0
  0
ARC
  5
282
100
AcDbEntity
  8
R-DOOR-DETL
100
AcDbCircle
 10
15.246446
 20
27.523885
 30
0.0
 40
0.015
100
AcDbArc
 50
90.0
 51
180.0
  0
ARC
  5
283
100
AcDbEntity
  8
R-DOOR-DETL
100
AcDbCircle
 10
15.216446
 20
26.870088
 30
0.0
 40
0.015
100
AcDbArc
 50
270.0
 51
0.0
  0
ARC
  5
284
100
AcDbEntity
  8
R-DOOR-DETL
100
AcDbCircle
 10
15.150453
 20
26.840088
 30
0.0
 40
0.015
100
AcDbArc
 50
90.0
 51
180.0
  0
ARC
  5
285
100
AcDbEntity
  8
R-DOOR-DETL
100
AcDbCircle
 10
15.115453
 20
26.929885
 30
0.0
 40
0.015
100
AcDbArc
 50
360.0
 51
90.0
  0
LINE
  5
286
100
AcDbEntity
  8
R-DOOR-DETL
100
AcDbLine
 10
15.216446
 20
26.855088
 30
0.0
 11
15.150453
 21
26.855088
 31
0.0
  0
LINE
  5
287
100
AcDbEntity
  8
R-DOOR-DETL
100
AcDbLine
 10
15.231446
 20
27.523885
 30
0.0
 11
15.231446
 21
26.870088
 31
0.0
  0
LWPOLYLINE
  5
288
100
AcDbEntity
  8
R-DOOR-DETL
 62
     3
100
AcDbPolyline
 90
       82
 70
     0
 43
0.0
 10
12.524315
 20
28.20742
 10
12.543708
 20
28.226814
 42
0.668179
 10
12.536637
 20
28.243885
 10
12.518639
 20
28.243885
 42
-0.668179
 10
12.504497
 20
28.278027
 10
12.549553
 20
28.323083
 42
-0.668179
 10
12.592231
 20
28.305405
 10
12.592231
 20
28.280885
 10
13.041453
 20
28.280885
 42
0.414214
 10
13.056453
 20
28.295885
 10
13.056453
 20
28.301885
 42
-0.414214
 10
13.071453
 20
28.316885
 10
13.855453
 20
28.316885
 42
-0.414214
 10
13.870453
 20
28.301885
 10
13.870453
 20
28.295885
 42
0.414214
 10
13.885453
 20
28.280885
 10
15.015453
 20
28.280885
 42
0.414214
 10
15.030453
 20
28.295885
 10
15.030453
 20
28.301885
 42
-0.414214
 10
15.045453
 20
28.316885
 10
15.829453
 20
28.316885
 42
-0.414214
 10
15.844453
 20
28.301885
 10
15.844453
 20
28.295885
 42
0.414214
 10
15.859453
 20
28.280885
 10
16.308675
 20
28.280885
 10
16.308675
 20
28.305405
 42
-0.668179
 10
16.351353
 20
28.323083
 10
16.396409
 20
28.278027
 42
-0.668179
 10
16.382267
 20
28.243885
 10
16.364269
 20
28.243885
 42
0.668179
 10
16.357198
 20
28.226814
 10
16.376592
 20
28.20742
 42
-0.668179
 10
16.373056
 20
28.198885
 10
15.496453
 20
28.198885
 42
0.414214
 10
15.481453
 20
28.183885
 10
15.481453
 20
28.183885
 42
-0.414214
 10
15.466453
 20
28.168885
 10
15.371453
 20
28.168885
 42
-0.414214
 10
15.356453
 20
28.183885
 10
15.356453
 20
28.194885
 42
-0.414214
 10
15.371453
 20
28.209885
 10
15.392953
 20
28.209885
 42
0.414214
 10
15.407953
 20
28.224885
 10
15.407953
 20
28.239885
 42
0.414214
 10
15.392953
 20
28.254885
 10
15.132953
 20
28.254885
 42
0.414214
 10
15.117953
 20
28.239885
 10
15.117953
 20
28.224885
 42
0.414214
 10
15.132953
 20
28.209885
 10
15.154453
 20
28.209885
 42
-0.414214
 10
15.169453
 20
28.194885
 10
15.169453
 20
28.183885
 42
-0.414214
 10
15.154453
 20
28.168885
 10
15.066453
 20
28.168885
 42
-0.414214
 10
15.051453
 20
28.183885
 42
0.414214
 10
15.036453
 20
28.198885
 10
13.864453
 20
28.198885
 42
0.414214
 10
13.849453
 20
28.183885
 42
-0.414214
 10
13.834453
 20
28.168885
 10
13.746453
 20
28.168885
 42
-0.414214
 10
13.731453
 20
28.183885
 10
13.731453
 20
28.194885
 42
-0.414214
 10
13.746453
 20
28.209885
 10
13.767953
 20
28.209885
 42
0.414214
 10
13.782953
 20
28.224885
 10
13.782953
 20
28.239885
 42
0.414214
 10
13.767953
 20
28.254885
 10
13.507953
 20
28.254885
 42
0.414214
 10
13.492953
 20
28.239885
 10
13.492953
 20
28.224885
 42
0.414214
 10
13.507953
 20
28.209885
 10
13.529453
 20
28.209885
 42
-0.414214
 10
13.544453
 20
28.194885
 10
13.544453
 20
28.183885
 42
-0.414214
 10
13.529453
 20
28.168885
 10
13.434453
 20
28.168885
 42
-0.414214
 10
13.419453
 20
28.183885
 10
13.419453
 20
28.183885
 42
0.414214
 10
13.404453
 20
28.198885
 10
12.52785
 20
28.198885
 42
-0.668179
 10
12.524315
 20
28.20742
 10
12.543708
 20
28.226814
  0
ARC
  5
289
100
AcDbEntity
  8
R-DOOR-DETL
100
AcDbCircle
 10
13.604461
 20
27.933885
 30
0.0
 40
0.015
100
AcDbArc
 50
0.0
 51
90.0
  0
ARC
  5
28A
100
AcDbEntity
  8
R-DOOR-DETL
100
AcDbCircle
 10
13.534461
 20
27.933885
 30
0.0
 40
0.015
100
AcDbArc
 50
90.0
 51
180.0
  0
LINE
  5
28B
100
AcDbEntity
  8
R-DOOR-DETL
100
AcDbLine
 10
13.604461
 20
27.948885
 30
0.0
 11
13.534461
 21
27.948885
 31
0.0
  0
ARC
  5
28C
100
AcDbEntity
  8
R-DOOR-DETL
  6
BYBLOCK
 62
     3
100
AcDbCircle
 10
15.366446
 20
27.933885
 30
0.0
 40
0.015
100
AcDbArc
 50
0.0
 51
90.0
  0
LINE
  5
28D
100
AcDbEntity
  8
R-DOOR-DETL
  6
BYBLOCK
 62
     3
100
AcDbLine
 10
15.366446
 20
27.948885
 30
0.0
 11
15.296446
 21
27.948885
 31
0.0
  0
ARC
  5
28E
100
AcDbEntity
  8
R-DOOR-DETL
  6
BYBLOCK
 62
     3
100
AcDbCircle
 10
15.296446
 20
27.933885
 30
0.0
 40
0.015
100
AcDbArc
 50
90.0
 51
180.0
  0
POINT
  5
28F
100
AcDbEntity
  8
R-DOOR-DETL
  6
BYBLOCK
 62
     3
100
AcDbPoint
 10
15.331446
 20
27.948885
 30
0.0
  0
LINE
  5
290
100
AcDbEntity
  8
0
100
AcDbLine
 10
17.450453
 20
29.948885
 30
0.0
 11
11.450453
 21
29.948885
 31
0.0
  0
TEXT
  5
291
100
AcDbEntity
  8
DIMN
100
AcDbText
 10
14.553579
 20
36.907101
 30
0.0
 40
0.375
  1
IF 1/2" THRESHOLD IS USED, 
100
AcDbText
  0
LINE
  5
292
100
AcDbEntity
  8
R-DOOR-PATT
  6
CONTINUOUS
 62
     5
100
AcDbLine
 10
12.936332
 20
31.948885
 30
0.0
 11
11.450453
 21
30.463006
 31
0.0
  0
LINE
  5
293
100
AcDbEntity
  8
R-DOOR-PATT
  6
CONTINUOUS
 62
     5
100
AcDbLine
 10
12.49439
 20
31.948885
 30
0.0
 11
11.450453
 21
30.904947
 31
0.0
  0
LINE
  5
294
100
AcDbEntity
  8
R-DOOR-PATT
  6
CONTINUOUS
 62
     5
100
AcDbLine
 10
12.052449
 20
31.948885
 30
0.0
 11
11.450453
 21
31.346889
 31
0.0
  0
LINE
  5
295
100
AcDbEntity
  8
R-DOOR-PATT
  6
CONTINUOUS
 62
     5
100
AcDbLine
 10
11.610507
 20
31.948885
 30
0.0
 11
11.450453
 21
31.788831
 31
0.0
  0
TEXT
  5
296
100
AcDbEntity
  8
DIMN
100
AcDbText
 10
14.578603
 20
35.0252
 30
0.0
 40
0.375
  1
I.E. GLASS IS CLEAR OPENING LESS 10 11/16
100
AcDbText
  0
TEXT
  5
297
100
AcDbEntity
  8
DIMN
100
AcDbText
 10
14.534298
 20
36.271464
 30
0.0
 40
0.375
  1
THE DIMENSION FROM FLOOR
100
AcDbText
  0
TEXT
  5
298
100
AcDbEntity
  8
DIMN
100
AcDbText
 10
14.534298
 20
35.644984
 30
0.0
 40
0.375
  1
TO GLASS INCREASES BY 1/2"
100
AcDbText
  0
LINE
  5
299
100
AcDbEntity
  8
BORDER
100
AcDbLine
 10
28.904892
 20
38.475081
 30
0.0
 11
0.0
 21
38.475081
 31
0.0
  0
TEXT
  5
29A
100
AcDbEntity
  8
DIMN
100
AcDbText
 10
14.506477
 20
37.518699
 30
0.0
 40
0.375
  1
NOTES:
100
AcDbText
  0
ENDBLK
  5
29C
100
AcDbEntity
  8
0
100
AcDbBlockEnd
  0
BLOCK
  5
4FC
100
AcDbEntity
  8
0
100
AcDbBlockBegin
  2
*D10
 70
     1
 10
0.0
 20
0.0
 30
0.0
  3
*D10
  1

  0
LINE
  5
4FD
100
AcDbEntity
  8
0
  6
BYBLOCK
 62
     0
100
AcDbLine
 10
19.698979
 20
33.207781
 30
0.0
 11
26.282156
 21
33.207781
 31
0.0
  0
LINE
  5
4FE
100
AcDbEntity
  8
0
  6
BYBLOCK
 62
     0
100
AcDbLine
 10
20.936674
 20
14.696089
 30
0.0
 11
26.282156
 21
14.696089
 31
0.0
  0
LINE
  5
4FF
100
AcDbEntity
  8
0
  6
BYBLOCK
 62
     0
100
AcDbLine
 10
25.922156
 20
32.847781
 30
0.0
 11
25.922156
 21
24.311935
 31
0.0
  0
LINE
  5
500
100
AcDbEntity
  8
0
  6
BYBLOCK
 62
     0
100
AcDbLine
 10
25.922156
 20
15.056089
 30
0.0
 11
25.922156
 21
23.591935
 31
0.0
  0
SOLID
  5
501
100
AcDbEntity
  8
0
  6
BYBLOCK
 62
     0
100
AcDbTrace
 10
25.862156
 20
32.847781
 30
0.0
 11
25.982156
 21
32.847781
 31
0.0
 12
25.922156
 22
33.207781
 32
0.0
 13
25.922156
 23
33.207781
 33
0.0
  0
SOLID
  5
502
100
AcDbEntity
  8
0
  6
BYBLOCK
 62
     0
100
AcDbTrace
 10
25.862156
 20
15.056089
 30
0.0
 11
25.982156
 21
15.056089
 31
0.0
 12
25.922156
 22
14.696089
 32
0.0
 13
25.922156
 23
14.696089
 33
0.0
  0
MTEXT
  5
503
100
AcDbEntity
  8
0
  6
BYBLOCK
 62
     0
100
AcDbMText
 10
25.922156
 20
23.951935
 30
0.0
 40
0.36
 41
0.0
 71
     5
 72
     1
  1
\A1;CLEAR OPENING
  0
POINT
  5
504
100
AcDbEntity
  8
DEFPOINTS
  6
BYBLOCK
 62
     0
100
AcDbPoint
 10
19.573979
 20
33.207781
 30
0.0
  0
POINT
  5
505
100
AcDbEntity
  8
DEFPOINTS
  6
BYBLOCK
 62
     0
100
AcDbPoint
 10
20.811674
 20
14.696089
 30
0.0
  0
POINT
  5
506
100
AcDbEntity
  8
DEFPOINTS
  6
BYBLOCK
 62
     0
100
AcDbPoint
 10
25.922156
 20
14.696089
 30
0.0
  0
ENDBLK
  5
507
100
AcDbEntity
  8
0
100
AcDbBlockEnd
  0
BLOCK
  5
547
100
AcDbEntity
  8
0
100
AcDbBlockBegin
  2
A$C6BE867F4
 70
     0
 10
0.0
 20
0.0
 30
0.0
  3
A$C6BE867F4
  1

  0
MTEXT
  5
542
100
AcDbEntity
  8
0
 62
     4
100
AcDbMText
 10
2.434972
 20
2.319778
 30
0.0
 40
0.274008
 41
6.855394
 71
     1
 72
     5
  1
\fArial|b1|i0|c0|p34;DOOR RAIL SYSTEM
  0
LWPOLYLINE
  5
543
100
AcDbEntity
  8
0
 62
     4
100
AcDbPolyline
 90
        2
 70
     0
 43
0.030704
 10
0.137665
 20
1.940905
 10
6.158597
 20
1.940905
  0
MTEXT
  5
544
100
AcDbEntity
  8
0
 62
     4
100
AcDbMText
 10
0.152731
 20
1.682964
 30
0.0
 40
0.242751
 41
6.068763
 71
     1
 72
     5
  1
\fArial|b1|i1|c0|p34;C.R. Laurence Architectural Products
  0
MTEXT
  5
545
100
AcDbEntity
  8
0
 62
     4
100
AcDbMText
 10
0.157672
 20
1.238797
 30
0.0
 40
0.191898
 41
6.0133
 71
     1
 72
     5
  1
\fArial|b0|i1|c0|p34;Phone Orders (800) 421-6144\PFax Orders     (800) 262-3299\PWWW.CRLAURENCE.COM\PPatent Pending
  0
INSERT
  5
546
100
AcDbEntity
  8
0
 62
     4
100
AcDbBlockReference
  2
A$C2189253D
 10
0.143797
 20
2.032527
 30
0.0
 41
2.535564
 42
2.535564
 43
2.535564
  0
ENDBLK
  5
548
100
AcDbEntity
  8
0
100
AcDbBlockEnd
  0
BLOCK
  5
54B
100
AcDbEntity
  8
0
100
AcDbBlockBegin
  2
A$C0E897680
 70
     0
 10
0.0
 20
0.0
 30
0.0
  3
A$C0E897680
  1

  0
INSERT
  5
54A
100
AcDbEntity
  8
0
100
AcDbBlockReference
  2
A$C6BE867F4
 10
0.0
 20
0.0
 30
0.0
  0
ENDBLK
  5
54C
100
AcDbEntity
  8
0
100
AcDbBlockEnd
  0
BLOCK
  5
54F
100
AcDbEntity
  8
0
100
AcDbBlockBegin
  2
A$C60D73A4C
 70
     0
 10
0.0
 20
0.0
 30
0.0
  3
A$C60D73A4C
  1

  0
INSERT
  5
54E
100
AcDbEntity
  8
R-DOOR-DETL
100
AcDbBlockReference
  2
A$C0E897680
 10
0.0
 20
0.0
 30
0.0
  0
ENDBLK
  5
550
100
AcDbEntity
  8
0
100
AcDbBlockEnd
  0
BLOCK
  5
553
100
AcDbEntity
  8
0
100
AcDbBlockBegin
  2
A$C74654F65
 70
     0
 10
0.0
 20
0.0
 30
0.0
  3
A$C74654F65
  1

  0
INSERT
  5
552
100
AcDbEntity
  8
R-DOOR-ANNO
100
AcDbBlockReference
  2
A$C60D73A4C
 10
0.0
 20
0.0
 30
0.0
  0
ENDBLK
  5
554
100
AcDbEntity
  8
0
100
AcDbBlockEnd
  0
BLOCK
  5
557
100
AcDbEntity
  8
0
100
AcDbBlockBegin
  2
A$C5FA07A05
 70
     0
 10
0.0
 20
0.0
 30
0.0
  3
A$C5FA07A05
  1

  0
INSERT
  5
556
100
AcDbEntity
  8
0
100
AcDbBlockReference
  2
A$C74654F65
 10
0.0
 20
0.0
 30
0.0
  0
ENDBLK
  5
558
100
AcDbEntity
  8
0
100
AcDbBlockEnd
  0
BLOCK
  5
55B
100
AcDbEntity
  8
0
100
AcDbBlockBegin
  2
A$C46F93324
 70
     0
 10
0.0
 20
0.0
 30
0.0
  3
A$C46F93324
  1

  0
INSERT
  5
55A
100
AcDbEntity
  8
0
100
AcDbBlockReference
  2
A$C5FA07A05
 10
0.0
 20
0.0
 30
0.0
 41
1.5
 42
1.5
 43
1.5
  0
ENDBLK
  5
55C
100
AcDbEntity
  8
0
100
AcDbBlockEnd
  0
BLOCK
  5
5B8
100
AcDbEntity
  8
0
100
AcDbBlockBegin
  2
A$C4F467ADE
 70
     0
 10
0.0
 20
0.0
 30
0.0
  3
A$C4F467ADE
  1

  0
LINE
  5
5A8
100
AcDbEntity
  8
R-DOOR-DETL
 62
     2
100
AcDbLine
 10
0.69792
 20
5.994453
 30
0.0
 11
0.206
 21
5.994453
 31
0.0
  0
LINE
  5
5A9
100
AcDbEntity
  8
R-DOOR-DETL
 62
     2
100
AcDbLine
 10
0.69792
 20
5.944453
 30
0.0
 11
0.69792
 21
5.994453
 31
0.0
  0
ARC
  5
5AA
100
AcDbEntity
  8
R-DOOR-DETL
 62
     2
100
AcDbCircle
 10
0.206
 20
5.788453
 30
0.0
 40
0.206
100
AcDbArc
 50
90.0
 51
180.0
  0
ARC
  5
5AB
100
AcDbEntity
  8
R-DOOR-DETL
 62
     2
100
AcDbCircle
 10
0.206
 20
5.788453
 30
0.0
 40
0.156
100
AcDbArc
 50
90.0
 51
180.0
  0
LINE
  5
5AC
100
AcDbEntity
  8
R-DOOR-DETL
 62
     2
100
AcDbLine
 10
0.05
 20
0.0
 30
0.0
 11
0.05
 21
5.788453
 31
0.0
  0
LINE
  5
5AD
100
AcDbEntity
  8
R-DOOR-DETL
 62
     2
100
AcDbLine
 10
0.0
 20
5.788453
 30
0.0
 11
0.0
 21
0.0
 31
0.0
  0
LINE
  5
5AE
100
AcDbEntity
  8
R-DOOR-DETL
 62
     2
100
AcDbLine
 10
0.206
 20
5.944453
 30
0.0
 11
0.69792
 21
5.944453
 31
0.0
  0
LINE
  5
5AF
100
AcDbEntity
  8
R-DOOR-DETL
 62
     2
100
AcDbLine
 10
1.284065
 20
5.994453
 30
0.0
 11
1.775985
 21
5.994453
 31
0.0
  0
LINE
  5
5B0
100
AcDbEntity
  8
R-DOOR-DETL
 62
     2
100
AcDbLine
 10
1.284065
 20
5.944453
 30
0.0
 11
1.284065
 21
5.994453
 31
0.0
  0
LINE
  5
5B1
100
AcDbEntity
  8
R-DOOR-DETL
 62
     2
100
AcDbLine
 10
1.775985
 20
5.944453
 30
0.0
 11
1.284065
 21
5.944453
 31
0.0
  0
ARC
  5
5B2
100
AcDbEntity
  8
R-DOOR-DETL
 62
     2
100
AcDbCircle
 10
1.775985
 20
5.788453
 30
0.0
 40
0.206
100
AcDbArc
 50
360.0
 51
90.0
  0
ARC
  5
5B3
100
AcDbEntity
  8
R-DOOR-DETL
 62
     2
100
AcDbCircle
 10
1.775985
 20
5.788453
 30
0.0
 40
0.156
100
AcDbArc
 50
360.0
 51
90.0
  0
LINE
  5
5B4
100
AcDbEntity
  8
R-DOOR-DETL
 62
     2
100
AcDbLine
 10
1.931985
 20
0.0
 30
0.0
 11
1.931985
 21
5.788453
 31
0.0
  0
LINE
  5
5B5
100
AcDbEntity
  8
R-DOOR-DETL
 62
     2
100
AcDbLine
 10
1.981985
 20
5.788453
 30
0.0
 11
1.981985
 21
0.0
 31
0.0
  0
LINE
  5
5B6
100
AcDbEntity
  8
R-DOOR-DETL
 62
     2
100
AcDbLine
 10
0.0
 20
0.0
 30
0.0
 11
0.05
 21
0.0
 31
0.0
  0
LINE
  5
5B7
100
AcDbEntity
  8
R-DOOR-DETL
 62
     2
100
AcDbLine
 10
1.981985
 20
0.0
 30
0.0
 11
1.931985
 21
0.0
 31
0.0
  0
ENDBLK
  5
5B9
100
AcDbEntity
  8
0
100
AcDbBlockEnd
  0
BLOCK
  5
5E1
100
AcDbEntity
  8
0
100
AcDbBlockBegin
  2
A$C216638AD
 70
     0
 10
0.0
 20
0.0
 30
0.0
  3
A$C216638AD
  1

  0
LWPOLYLINE
  5
5E0
100
AcDbEntity
  8
0
 62
     3
100
AcDbPolyline
 90
       20
 70
     1
 43
0.0
 10
1.963805
 20
0.0
 10
0.029202
 20
0.0
 42
-0.668179
 10
0.025666
 20
0.008536
 10
0.04506
 20
0.027929
 42
0.668179
 10
0.037989
 20
0.045
 10
0.019991
 20
0.045
 42
-0.668179
 10
0.005849
 20
0.079142
 10
0.050905
 20
0.124198
 42
-0.668179
 10
0.093583
 20
0.106521
 10
0.093583
 20
0.082
 10
1.963805
 20
0.082
 10
3.834027
 20
0.082
 10
3.834027
 20
0.106521
 42
-0.668179
 10
3.876705
 20
0.124198
 10
3.921761
 20
0.079142
 42
-0.668179
 10
3.907619
 20
0.045
 10
3.889621
 20
0.045
 42
0.668179
 10
3.88255
 20
0.027929
 10
3.901943
 20
0.008536
 42
-0.668179
 10
3.898408
 20
0.0
  0
ENDBLK
  5
5E2
100
AcDbEntity
  8
0
100
AcDbBlockEnd
  0
BLOCK
  5
619
100
AcDbEntity
  8
0
100
AcDbBlockBegin
  2
A$C433421F4
 70
     0
 10
0.0
 20
0.0
 30
0.0
  3
A$C433421F4
  1

  0
LINE
  5
60F
100
AcDbEntity
  8
R-DOOR-ANNO
100
AcDbLine
 10
3.154888
 20
0.993017
 30
0.0
 11
3.112969
 21
0.897275
 31
0.0
  0
LINE
  5
610
100
AcDbEntity
  8
R-DOOR-ANNO
100
AcDbLine
 10
3.095004
 20
0.993017
 30
0.0
 11
3.053086
 21
0.897275
 31
0.0
  0
TEXT
  5
611
100
AcDbEntity
  8
R-DOOR-ANNO
 62
     0
100
AcDbText
 10
0.690214
 20
0.669488
 30
0.0
 40
0.315
  1
LESS 
100
AcDbText
  0
TEXT
  5
612
100
AcDbEntity
  8
R-DOOR-ANNO
100
AcDbText
 10
2.175729
 20
0.710621
 30
0.0
 40
0.3
  1
6
100
AcDbText
  0
TEXT
  5
613
100
AcDbEntity
  8
R-DOOR-ANNO
 62
     0
100
AcDbText
 10
1.05
 20
0.0
 30
0.0
 40
0.315
  1
[165mm]
100
AcDbText
  0
LINE
  5
614
100
AcDbEntity
  8
R-DOOR-ANNO
100
AcDbLine
 10
2.544988
 20
0.848675
 30
0.0
 11
2.884447
 21
0.848675
 31
0.0
  0
TEXT
  5
615
100
AcDbEntity
  8
R-DOOR-ANNO
100
AcDbText
 10
2.64173
 20
0.496296
 30
0.0
 40
0.27
  1
2
100
AcDbText
  0
TEXT
  5
616
100
AcDbEntity
  8
R-DOOR-ANNO
 62
     0
100
AcDbText
 10
0.0
 20
1.338976
 30
0.0
 40
0.315
  1
CLEAR OPENING
100
AcDbText
  0
TEXT
  5
617
100
AcDbEntity
  8
R-DOOR-ANNO
 62
     0
100
AcDbText
 10
1.2075
 20
1.863976
 30
0.0
 40
0.315
  1
GLASS 
100
AcDbText
  0
TEXT
  5
618
100
AcDbEntity
  8
R-DOOR-ANNO
100
AcDbText
 10
2.688322
 20
0.946296
 30
0.0
 40
0.27
  1
1
100
AcDbText
  0
ENDBLK
  5
61A
100
AcDbEntity
  8
0
100
AcDbBlockEnd
  0
BLOCK
  5
62B
100
AcDbEntity
  8
0
100
AcDbBlockBegin
  2
*D24
 70
     1
 10
0.0
 20
0.0
 30
0.0
  3
*D24
  1

  0
LINE
  5
62C
100
AcDbEntity
  8
0
  6
BYBLOCK
 62
     0
100
AcDbLine
 10
14.035732
 20
24.94899
 30
0.0
 11
7.476006
 21
24.94899
 31
0.0
  0
LINE
  5
62D
100
AcDbEntity
  8
0
  6
BYBLOCK
 62
     0
100
AcDbLine
 10
11.325454
 20
29.948885
 30
0.0
 11
7.476006
 21
29.948885
 31
0.0
  0
LINE
  5
62E
100
AcDbEntity
  8
0
  6
BYBLOCK
 62
     0
100
AcDbLine
 10
7.836006
 20
25.30899
 30
0.0
 11
7.836006
 21
27.208098
 31
0.0
  0
LINE
  5
62F
100
AcDbEntity
  8
0
  6
BYBLOCK
 62
     0
100
AcDbLine
 10
7.836006
 20
29.588885
 30
0.0
 11
7.836006
 21
27.928098
 31
0.0
  0
SOLID
  5
630
100
AcDbEntity
  8
0
  6
BYBLOCK
 62
     0
100
AcDbTrace
 10
7.776006
 20
25.30899
 30
0.0
 11
7.896006
 21
25.30899
 31
0.0
 12
7.836006
 22
24.94899
 32
0.0
 13
7.836006
 23
24.94899
 33
0.0
  0
SOLID
  5
631
100
AcDbEntity
  8
0
  6
BYBLOCK
 62
     0
100
AcDbTrace
 10
7.776006
 20
29.588885
 30
0.0
 11
7.896006
 21
29.588885
 31
0.0
 12
7.836006
 22
29.948885
 32
0.0
 13
7.836006
 23
29.948885
 33
0.0
  0
MTEXT
  5
632
100
AcDbEntity
  8
0
  6
BYBLOCK
 62
     0
100
AcDbMText
 10
7.836006
 20
27.568098
 30
0.0
 40
0.36
 41
0.0
 71
     5
 72
     1
  1
\A1;5" [127mm]
  0
POINT
  5
633
100
AcDbEntity
  8
DEFPOINTS
  6
BYBLOCK
 62
     0
100
AcDbPoint
 10
14.160732
 20
24.94899
 30
0.0
  0
POINT
  5
634
100
AcDbEntity
  8
DEFPOINTS
  6
BYBLOCK
 62
     0
100
AcDbPoint
 10
11.450454
 20
29.948885
 30
0.0
  0
POINT
  5
635
100
AcDbEntity
  8
DEFPOINTS
  6
BYBLOCK
 62
     0
100
AcDbPoint
 10
7.836006
 20
29.948885
 30
0.0
  0
ENDBLK
  5
636
100
AcDbEntity
  8
0
100
AcDbBlockEnd
  0
BLOCK
  5
639
100
AcDbEntity
  8
0
100
AcDbBlockBegin
  2
*D25
 70
     1
 10
0.0
 20
0.0
 30
0.0
  3
*D25
  1

  0
LINE
  5
63A
100
AcDbEntity
  8
0
  6
BYBLOCK
 62
     0
100
AcDbLine
 10
15.456446
 20
27.948885
 30
0.0
 11
20.578078
 21
27.948885
 31
0.0
  0
LINE
  5
63B
100
AcDbEntity
  8
0
  6
BYBLOCK
 62
     0
100
AcDbLine
 10
16.810454
 20
28.198885
 30
0.0
 11
20.578078
 21
28.198885
 31
0.0
  0
LINE
  5
63C
100
AcDbEntity
  8
0
  6
BYBLOCK
 62
     0
100
AcDbLine
 10
20.218078
 20
28.558885
 30
0.0
 11
20.218078
 21
28.918885
 31
0.0
  0
LINE
  5
63D
100
AcDbEntity
  8
0
  6
BYBLOCK
 62
     0
100
AcDbLine
 10
20.218078
 20
27.588885
 30
0.0
 11
20.218078
 21
26.991869
 31
0.0
  0
LINE
  5
63E
100
AcDbEntity
  8
0
  6
BYBLOCK
 62
     0
100
AcDbLine
 10
20.218078
 20
26.991869
 30
0.0
 11
19.858078
 21
26.991869
 31
0.0
  0
SOLID
  5
63F
100
AcDbEntity
  8
0
  6
BYBLOCK
 62
     0
100
AcDbTrace
 10
20.158078
 20
28.558885
 30
0.0
 11
20.278078
 21
28.558885
 31
0.0
 12
20.218078
 22
28.198885
 32
0.0
 13
20.218078
 23
28.198885
 33
0.0
  0
SOLID
  5
640
100
AcDbEntity
  8
0
  6
BYBLOCK
 62
     0
100
AcDbTrace
 10
20.158078
 20
27.588885
 30
0.0
 11
20.278078
 21
27.588885
 31
0.0
 12
20.218078
 22
27.948885
 32
0.0
 13
20.218078
 23
27.948885
 33
0.0
  0
MTEXT
  5
641
100
AcDbEntity
  8
0
  6
BYBLOCK
 62
     0
100
AcDbMText
 10
18.478078
 20
26.991869
 30
0.0
 40
0.36
 41
0.0
 71
     5
 72
     1
  1
\A1;{\H1.000000x;\S1/4;}" [6mm]
  0
POINT
  5
642
100
AcDbEntity
  8
DEFPOINTS
  6
BYBLOCK
 62
     0
100
AcDbPoint
 10
15.331446
 20
27.948885
 30
0.0
  0
POINT
  5
643
100
AcDbEntity
  8
DEFPOINTS
  6
BYBLOCK
 62
     0
100
AcDbPoint
 10
16.685454
 20
28.198885
 30
0.0
  0
POINT
  5
644
100
AcDbEntity
  8
DEFPOINTS
  6
BYBLOCK
 62
     0
100
AcDbPoint
 10
20.218078
 20
28.198885
 30
0.0
  0
ENDBLK
  5
645
100
AcDbEntity
  8
0
100
AcDbBlockEnd
  0
BLOCK
  5
656
100
AcDbEntity
  8
0
100
AcDbBlockBegin
  2
*D27
 70
     1
 10
0.0
 20
0.0
 30
0.0
  3
*D27
  1

  0
LINE
  5
657
100
AcDbEntity
  8
0
  6
BYBLOCK
 62
     0
100
AcDbLine
 10
14.006439
 20
16.621127
 30
0.0
 11
7.487258
 21
16.621127
 31
0.0
  0
LINE
  5
658
100
AcDbEntity
  8
0
  6
BYBLOCK
 62
     0
100
AcDbLine
 10
11.33133
 20
11.437192
 30
0.0
 11
7.487258
 21
11.437192
 31
0.0
  0
LINE
  5
659
100
AcDbEntity
  8
0
  6
BYBLOCK
 62
     0
100
AcDbLine
 10
7.847258
 20
16.261127
 30
0.0
 11
7.847258
 21
14.865766
 31
0.0
  0
LINE
  5
65A
100
AcDbEntity
  8
0
  6
BYBLOCK
 62
     0
100
AcDbLine
 10
7.847258
 20
11.797192
 30
0.0
 11
7.847258
 21
13.665766
 31
0.0
  0
SOLID
  5
65B
100
AcDbEntity
  8
0
  6
BYBLOCK
 62
     0
100
AcDbTrace
 10
7.787258
 20
16.261127
 30
0.0
 11
7.907258
 21
16.261127
 31
0.0
 12
7.847258
 22
16.621127
 32
0.0
 13
7.847258
 23
16.621127
 33
0.0
  0
SOLID
  5
65C
100
AcDbEntity
  8
0
  6
BYBLOCK
 62
     0
100
AcDbTrace
 10
7.787258
 20
11.797192
 30
0.0
 11
7.907258
 21
11.797192
 31
0.0
 12
7.847258
 22
11.437192
 32
0.0
 13
7.847258
 23
11.437192
 33
0.0
  0
MTEXT
  5
65D
100
AcDbEntity
  8
0
  6
BYBLOCK
 62
     0
100
AcDbMText
 10
7.847258
 20
14.265766
 30
0.0
 40
0.36
 41
0.0
 71
     5
 72
     1
  1
\A1;5{\H1.000000x;\S3/16;}" [132mm]
  0
POINT
  5
65E
100
AcDbEntity
  8
DEFPOINTS
  6
BYBLOCK
 62
     0
100
AcDbPoint
 10
14.131439
 20
16.621127
 30
0.0
  0
POINT
  5
65F
100
AcDbEntity
  8
DEFPOINTS
  6
BYBLOCK
 62
     0
100
AcDbPoint
 10
11.45633
 20
11.437192
 30
0.0
  0
POINT
  5
660
100
AcDbEntity
  8
DEFPOINTS
  6
BYBLOCK
 62
     0
100
AcDbPoint
 10
7.847258
 20
11.437192
 30
0.0
  0
ENDBLK
  5
661
100
AcDbEntity
  8
0
100
AcDbBlockEnd
  0
BLOCK
  5
664
100
AcDbEntity
  8
0
100
AcDbBlockBegin
  2
*D28
 70
     1
 10
0.0
 20
0.0
 30
0.0
  3
*D28
  1

  0
LINE
  5
665
100
AcDbEntity
  8
0
  6
BYBLOCK
 62
     0
100
AcDbLine
 10
15.572323
 20
11.687192
 30
0.0
 11
19.837351
 21
11.687192
 31
0.0
  0
LINE
  5
666
100
AcDbEntity
  8
0
  6
BYBLOCK
 62
     0
100
AcDbLine
 10
16.368032
 20
11.437192
 30
0.0
 11
19.837351
 21
11.437192
 31
0.0
  0
LINE
  5
667
100
AcDbEntity
  8
0
  6
BYBLOCK
 62
     0
100
AcDbLine
 10
19.477351
 20
11.077192
 30
0.0
 11
19.477351
 21
10.717192
 31
0.0
  0
LINE
  5
668
100
AcDbEntity
  8
0
  6
BYBLOCK
 62
     0
100
AcDbLine
 10
19.477351
 20
12.047192
 30
0.0
 11
19.477351
 21
12.885346
 31
0.0
  0
LINE
  5
669
100
AcDbEntity
  8
0
  6
BYBLOCK
 62
     0
100
AcDbLine
 10
19.477351
 20
12.885346
 30
0.0
 11
19.837351
 21
12.885346
 31
0.0
  0
SOLID
  5
66A
100
AcDbEntity
  8
0
  6
BYBLOCK
 62
     0
100
AcDbTrace
 10
19.417351
 20
11.077192
 30
0.0
 11
19.537351
 21
11.077192
 31
0.0
 12
19.477351
 22
11.437192
 32
0.0
 13
19.477351
 23
11.437192
 33
0.0
  0
SOLID
  5
66B
100
AcDbEntity
  8
0
  6
BYBLOCK
 62
     0
100
AcDbTrace
 10
19.417351
 20
12.047192
 30
0.0
 11
19.537351
 21
12.047192
 31
0.0
 12
19.477351
 22
11.687192
 32
0.0
 13
19.477351
 23
11.687192
 33
0.0
  0
MTEXT
  5
66C
100
AcDbEntity
  8
0
  6
BYBLOCK
 62
     0
100
AcDbMText
 10
21.217351
 20
12.885346
 30
0.0
 40
0.36
 41
0.0
 71
     5
 72
     1
  1
\A1;{\H1.000000x;\S1/4;}" [6mm]
  0
POINT
  5
66D
100
AcDbEntity
  8
DEFPOINTS
  6
BYBLOCK
 62
     0
100
AcDbPoint
 10
15.447323
 20
11.687192
 30
0.0
  0
POINT
  5
66E
100
AcDbEntity
  8
DEFPOINTS
  6
BYBLOCK
 62
     0
100
AcDbPoint
 10
16.243032
 20
11.437192
 30
0.0
  0
POINT
  5
66F
100
AcDbEntity
  8
DEFPOINTS
  6
BYBLOCK
 62
     0
100
AcDbPoint
 10
19.477351
 20
11.437192
 30
0.0
  0
ENDBLK
  5
670
100
AcDbEntity
  8
0
100
AcDbBlockEnd
  0
ENDSEC
  0
SECTION
  2
ENTITIES
  0
LINE
  5
2A2
100
AcDbEntity
  8
R-DOOR-DETL
100
AcDbLine
 10
14.869801
 20
16.354747
 30
0.0
 11
15.147893
 21
16.81757
 31
0.0
  0
ARC
  5
2A3
100
AcDbEntity
  8
R-DOOR-DETL
100
AcDbCircle
 10
14.737809
 20
16.557222
 30
0.0
 40
0.009842
100
AcDbArc
 50
270.0
 51
0.0
  0
LINE
  5
2A4
100
AcDbEntity
  8
R-DOOR-DETL
100
AcDbLine
 10
14.737809
 20
16.5441
 30
0.0
 11
14.737809
 21
16.5941
 31
0.0
  0
LINE
  5
2A5
100
AcDbEntity
  8
R-DOOR-DETL
100
AcDbLine
 10
14.040075
 20
16.354747
 30
0.0
 11
13.761983
 21
16.81757
 31
0.0
  0
ARC
  5
2A6
100
AcDbEntity
  8
R-DOOR-DETL
100
AcDbCircle
 10
14.172067
 20
16.557222
 30
0.0
 40
0.009842
100
AcDbArc
 50
180.0
 51
270.0
  0
LINE
  5
2A7
100
AcDbEntity
  8
R-DOOR-DETL
100
AcDbLine
 10
14.172067
 20
16.5441
 30
0.0
 11
14.172067
 21
16.5941
 31
0.0
  0
LINE
  5
2A8
100
AcDbEntity
  8
R-DOOR-DETL
100
AcDbLine
 10
14.422067
 20
16.5941
 30
0.0
 11
14.422067
 21
16.5441
 31
0.0
  0
LINE
  5
2A9
100
AcDbEntity
  8
R-DOOR-DETL
100
AcDbLine
 10
14.487809
 20
16.5941
 30
0.0
 11
14.487809
 21
16.5441
 31
0.0
  0
DIMENSION
  5
2AA
100
AcDbEntity
  8
0
100
AcDbDimension
  2
*D10
 10
23.79863
 20
11.437192
 30
0.0
 11
23.79863
 21
20.693038
 31
0.0
 12
-2.123525
 22
-3.258897
 32
0.0
 70
    32
  1
CLEAR OPENING
  3
STANDARD
100
AcDbAlignedDimension
 13
17.450454
 23
29.948885
 33
0.0
 14
18.688149
 24
11.437192
 34
0.0
 50
90.0
100
AcDbRotatedDimension
1001
ACAD
1000
DSTYLE
1002
{
1070
   270
1070
     7
1070
    40
1040
2.0
1002
}
  0
LINE
  5
2AB
100
AcDbEntity
  8
BORDER
 62
     7
100
AcDbLine
 39
15.0
 10
0.0
 20
38.475081
 30
0.0
 11
0.0
 21
0.0
 31
0.0
  0
LINE
  5
2AC
100
AcDbEntity
  8
BORDER
 62
     7
100
AcDbLine
 39
15.0
 10
28.904892
 20
0.0
 30
0.0
 11
28.904892
 21
38.475081
 31
0.0
  0
LWPOLYLINE
  5
2AE
100
AcDbEntity
  8
R-DOOR-DETL
100
AcDbPolyline
 90
       70
 70
     1
 43
0.0
 10
15.222323
 20
12.980989
 10
15.15633
 20
12.980989
 42
0.414214
 10
15.14133
 20
12.965989
 10
15.14133
 20
12.795989
 42
0.414214
 10
15.15633
 20
12.780989
 10
15.222323
 20
12.780989
 42
-0.414214
 10
15.237323
 20
12.765989
 10
15.237323
 20
12.112192
 42
0.414214
 10
15.252323
 20
12.097192
 10
15.272323
 20
12.097192
 42
-0.414214
 10
15.287323
 20
12.082192
 10
15.287323
 20
11.702192
 42
0.414214
 10
15.302323
 20
11.687192
 10
15.372323
 20
11.687192
 42
0.414214
 10
15.387323
 20
11.702192
 10
15.387323
 20
17.475645
 42
0.414214
 10
15.231323
 20
17.631645
 10
14.759403
 20
17.631645
 42
0.414214
 10
14.749403
 20
17.621645
 10
14.749403
 20
17.552433
 42
0.414214
 10
14.759245
 20
17.54259
 10
14.920285
 20
17.54259
 42
-0.043661
 10
14.925495
 20
17.542134
 10
15.212532
 20
17.491522
 42
-0.36397
 10
15.237323
 20
17.461978
 10
15.237323
 20
17.043614
 42
-0.131652
 10
15.203829
 20
16.918614
 10
14.91035
 20
16.410292
 42
0.131652
 10
14.90633
 20
16.395292
 10
14.90633
 20
15.961356
 42
-0.414214
 10
14.84633
 20
15.901356
 10
14.45633
 20
15.901356
 10
14.06633
 20
15.901356
 42
-0.414214
 10
14.00633
 20
15.961356
 10
14.00633
 20
16.395292
 42
0.131652
 10
14.002311
 20
16.410292
 10
13.708832
 20
16.918614
 42
-0.131652
 10
13.675338
 20
17.043614
 10
13.675338
 20
17.461978
 42
-0.36397
 10
13.700128
 20
17.491522
 10
13.987166
 20
17.542134
 42
-0.043661
 10
13.992376
 20
17.54259
 10
14.153415
 20
17.54259
 42
0.414214
 10
14.163258
 20
17.552433
 10
14.163258
 20
17.621645
 42
0.414214
 10
14.153258
 20
17.631645
 10
13.681338
 20
17.631645
 42
0.414214
 10
13.525338
 20
17.475645
 10
13.525338
 20
11.702192
 42
0.414214
 10
13.540338
 20
11.687192
 10
13.610338
 20
11.687192
 42
0.414214
 10
13.625338
 20
11.702192
 10
13.625338
 20
12.082192
 42
-0.414214
 10
13.640338
 20
12.097192
 10
13.660338
 20
12.097192
 42
0.414214
 10
13.675338
 20
12.112192
 10
13.675338
 20
12.765989
 42
-0.414214
 10
13.690338
 20
12.780989
 10
13.75633
 20
12.780989
 42
0.414214
 10
13.77133
 20
12.795989
 10
13.77133
 20
12.965989
 42
0.414214
 10
13.75633
 20
12.980989
 10
13.690338
 20
12.980989
 42
-0.414214
 10
13.675338
 20
12.995989
 10
13.675338
 20
13.237192
 42
-0.414214
 10
13.705338
 20
13.267192
 10
14.45633
 20
13.267192
 10
15.207323
 20
13.267192
 42
-0.414214
 10
15.237323
 20
13.237192
 10
15.237323
 20
12.995989
 42
-0.414214
  0
LINE
  5
2B0
100
AcDbEntity
  8
BORDER
 62
     7
100
AcDbLine
 39
15.0
 10
0.0
 20
0.0
 30
0.0
 11
28.904892
 21
0.0
 31
0.0
  0
TEXT
  5
2B1
100
AcDbEntity
  8
R-DOOR-ANNO
  6
CONTINUOUS
100
AcDbText
 10
23.555847
 20
0.5625
 30
0.0
 40
0.703125
  1
STYLE 14
  7
ROMANS
100
AcDbText
  0
LINE
  5
2B2
100
AcDbEntity
  8
R-DOOR-PATT
  6
CONTINUOUS
 62
     5
100
AcDbLine
 10
12.49779
 20
9.437192
 30
0.0
 11
11.453853
 21
10.481129
 31
0.0
  0
LINE
  5
2B3
100
AcDbEntity
  8
R-DOOR-PATT
  6
CONTINUOUS
 62
     5
100
AcDbLine
 10
12.055848
 20
9.437192
 30
0.0
 11
11.453853
 21
10.039188
 31
0.0
  0
LINE
  5
2B4
100
AcDbEntity
  8
R-DOOR-PATT
  6
CONTINUOUS
 62
     5
100
AcDbLine
 10
17.359149
 20
9.437192
 30
0.0
 11
15.359149
 21
11.437192
 31
0.0
  0
LINE
  5
2B5
100
AcDbEntity
  8
R-DOOR-PATT
  6
CONTINUOUS
 62
     5
100
AcDbLine
 10
16.917207
 20
9.437192
 30
0.0
 11
14.917207
 21
11.437192
 31
0.0
  0
LINE
  5
2B6
100
AcDbEntity
  8
R-DOOR-PATT
  6
CONTINUOUS
 62
     5
100
AcDbLine
 10
16.475265
 20
9.437192
 30
0.0
 11
14.475265
 21
11.437192
 31
0.0
  0
LINE
  5
2B7
100
AcDbEntity
  8
R-DOOR-PATT
  6
CONTINUOUS
 62
     5
100
AcDbLine
 10
16.033324
 20
9.437192
 30
0.0
 11
14.033324
 21
11.437192
 31
0.0
  0
LINE
  5
2B8
100
AcDbEntity
  8
R-DOOR-PATT
  6
CONTINUOUS
 62
     5
100
AcDbLine
 10
15.591382
 20
9.437192
 30
0.0
 11
13.591382
 21
11.437192
 31
0.0
  0
LINE
  5
2B9
100
AcDbEntity
  8
R-DOOR-PATT
  6
CONTINUOUS
 62
     5
100
AcDbLine
 10
15.14944
 20
9.437192
 30
0.0
 11
13.14944
 21
11.437192
 31
0.0
  0
LINE
  5
2BA
100
AcDbEntity
  8
R-DOOR-PATT
  6
CONTINUOUS
 62
     5
100
AcDbLine
 10
14.707499
 20
9.437192
 30
0.0
 11
12.707499
 21
11.437192
 31
0.0
  0
LINE
  5
2BB
100
AcDbEntity
  8
R-DOOR-PATT
  6
CONTINUOUS
 62
     5
100
AcDbLine
 10
14.265557
 20
9.437192
 30
0.0
 11
12.265557
 21
11.437192
 31
0.0
  0
LINE
  5
2BC
100
AcDbEntity
  8
R-DOOR-PATT
  6
CONTINUOUS
 62
     5
100
AcDbLine
 10
13.823615
 20
9.437192
 30
0.0
 11
11.823615
 21
11.437192
 31
0.0
  0
LINE
  5
2BD
100
AcDbEntity
  8
R-DOOR-PATT
  6
CONTINUOUS
 62
     5
100
AcDbLine
 10
13.381673
 20
9.437192
 30
0.0
 11
11.453853
 21
11.365013
 31
0.0
  0
LINE
  5
2BE
100
AcDbEntity
  8
R-DOOR-PATT
  6
CONTINUOUS
 62
     5
100
AcDbLine
 10
12.939732
 20
9.437192
 30
0.0
 11
11.453853
 21
10.923071
 31
0.0
  0
TEXT
  5
2BF
100
AcDbEntity
  8
R-DOOR-ANNO
  6
CONTINUOUS
100
AcDbText
 10
7.509986
 20
7.166735
 30
0.0
 40
0.46875
  1
6" SQUARE DOOR RAIL BOTTOM CLAD ONLY
  7
ROMANS
 72
     1
 11
15.456415
 21
7.166735
 31
0.0
100
AcDbText
  0
TEXT
  5
2C0
100
AcDbEntity
  8
R-DOOR-ANNO
  6
CONTINUOUS
100
AcDbText
 10
11.2257
 20
6.307187
 30
0.0
 40
0.46875
  1
WITH NON CLAD HEADER
  7
ROMANS
 72
     1
 11
15.634182
 21
6.307187
 31
0.0
100
AcDbText
  0
TEXT
  5
2C1
100
AcDbEntity
  8
R-DOOR-ANNO
  6
CONTINUOUS
100
AcDbText
 10
7.971661
 20
8.326813
 30
0.0
 40
0.46875
  1
4" SQUARE DOOR RAIL TOP NON CLAD
  7
ROMANS
 72
     1
 11
15.047554
 21
8.326813
 31
0.0
100
AcDbText
  0
LINE
  5
2C2
100
AcDbEntity
  8
R-DOOR-PATT
  6
CONTINUOUS
 62
     5
100
AcDbLine
 10
11.613906
 20
9.437192
 30
0.0
 11
11.453853
 21
9.597246
 31
0.0
  0
LINE
  5
2C3
100
AcDbEntity
  8
R-DOOR-DETL
100
AcDbLine
 10
14.83751
 20
13.068591
 30
0.0
 11
14.731797
 21
13.251692
 31
0.0
  0
LINE
  5
2C4
100
AcDbEntity
  8
R-DOOR-DETL
100
AcDbLine
 10
15.030864
 20
13.251692
 30
0.0
 11
14.92515
 21
13.068591
 31
0.0
  0
LINE
  5
2C5
100
AcDbEntity
  8
R-DOOR-DETL
100
AcDbLine
 10
15.232323
 20
13.005989
 30
0.0
 11
15.232323
 21
13.236192
 31
0.0
  0
LINE
  5
2C6
100
AcDbEntity
  8
R-DOOR-DETL
100
AcDbLine
 10
15.13883
 20
12.717192
 30
0.0
 11
15.13883
 21
13.267192
 31
0.0
  0
LINE
  5
2C7
100
AcDbEntity
  8
R-DOOR-DETL
100
AcDbLine
 10
14.180864
 20
13.251692
 30
0.0
 11
14.07515
 21
13.068591
 31
0.0
  0
LINE
  5
2C8
100
AcDbEntity
  8
R-DOOR-DETL
100
AcDbLine
 10
13.680338
 20
13.236192
 30
0.0
 11
13.680338
 21
13.005989
 31
0.0
  0
LINE
  5
2C9
100
AcDbEntity
  8
R-DOOR-DETL
100
AcDbLine
 10
13.98751
 20
13.068591
 30
0.0
 11
13.881797
 21
13.251692
 31
0.0
  0
LINE
  5
2CA
100
AcDbEntity
  8
R-DOOR-DETL
100
AcDbLine
 10
13.77383
 20
12.717192
 30
0.0
 11
13.77383
 21
13.267192
 31
0.0
  0
TEXT
  5
2CB
100
AcDbEntity
  8
0
100
AcDbText
 10
10.879208
 20
13.113028
 30
0.0
 40
0.36
  1
SHOE
  7
ROMANS
100
AcDbText
  0
LINE
  5
2CD
100
AcDbEntity
  8
0
  6
BYBLOCK
 62
     0
100
AcDbLine
 10
17.236291
 20
11.437192
 30
0.0
 11
18.688149
 21
11.437192
 31
0.0
  0
LINE
  5
2CE
100
AcDbEntity
  8
R-DOOR-PATT
  6
CONTINUOUS
 62
     5
100
AcDbLine
 10
17.453853
 20
11.110256
 30
0.0
 11
17.126916
 21
11.437192
 31
0.0
  0
LINE
  5
2CF
100
AcDbEntity
  8
R-DOOR-PATT
  6
CONTINUOUS
 62
     5
100
AcDbLine
 10
17.453853
 20
10.668314
 30
0.0
 11
16.684974
 21
11.437192
 31
0.0
  0
LINE
  5
2D0
100
AcDbEntity
  8
R-DOOR-PATT
  6
CONTINUOUS
 62
     5
100
AcDbLine
 10
17.453853
 20
10.226372
 30
0.0
 11
16.243032
 21
11.437192
 31
0.0
  0
LINE
  5
2D1
100
AcDbEntity
  8
R-DOOR-PATT
  6
CONTINUOUS
 62
     5
100
AcDbLine
 10
17.453853
 20
9.78443
 30
0.0
 11
15.801091
 21
11.437192
 31
0.0
  0
LINE
  5
2D2
100
AcDbEntity
  8
0
100
AcDbLine
 10
12.36283
 20
11.437192
 30
0.0
 11
16.54983
 21
11.437192
 31
0.0
  0
LINE
  5
2D3
100
AcDbEntity
  8
0
100
AcDbLine
 10
11.45633
 20
11.437192
 30
0.0
 11
17.45633
 21
11.437192
 31
0.0
  0
POINT
  5
2D4
100
AcDbEntity
  8
DEFPOINTS
  6
BYBLOCK
 62
     0
100
AcDbPoint
 10
11.45633
 20
11.437192
 30
0.0
  0
POINT
  5
2D5
100
AcDbEntity
  8
DEFPOINTS
  6
BYBLOCK
 62
     0
100
AcDbPoint
 10
17.126916
 20
11.437192
 30
0.0
  0
POINT
  5
2D6
100
AcDbEntity
  8
R-DOOR-DETL
100
AcDbPoint
 10
15.337323
 20
11.687192
 30
0.0
  0
LINE
  5
2D7
100
AcDbEntity
  8
R-DOOR-DETL
100
AcDbLine
 10
14.00214
 20
12.837649
 30
0.0
 11
14.107272
 21
12.864641
 31
0.0
  0
ARC
  5
2D8
100
AcDbEntity
  8
R-DOOR-DETL
100
AcDbCircle
 10
14.03133
 20
12.942192
 30
0.0
 40
0.1005
100
AcDbArc
 50
122.506128
 51
57.493872
  0
CIRCLE
  5
2D9
100
AcDbEntity
  8
R-DOOR-DETL
100
AcDbCircle
 10
14.03133
 20
12.942192
 30
0.0
 40
0.1625
  0
CIRCLE
  5
2DA
100
AcDbEntity
  8
R-DOOR-DETL
100
AcDbCircle
 10
14.03133
 20
12.942192
 30
0.0
 40
0.1875
  0
LINE
  5
2DB
100
AcDbEntity
  8
R-DOOR-DETL
100
AcDbLine
 10
13.955389
 20
13.019743
 30
0.0
 11
14.060521
 21
13.046735
 31
0.0
  0
LINE
  5
2DC
100
AcDbEntity
  8
R-DOOR-DETL
100
AcDbLine
 10
13.77383
 20
12.717192
 30
0.0
 11
15.13883
 21
12.717192
 31
0.0
  0
LINE
  5
2DD
100
AcDbEntity
  8
R-DOOR-DETL
100
AcDbLine
 10
13.79133
 20
12.691192
 30
0.0
 11
15.12133
 21
12.691192
 31
0.0
  0
ARC
  5
2DE
100
AcDbEntity
  8
R-DOOR-DETL
100
AcDbCircle
 10
13.76133
 20
12.975989
 30
0.0
 40
0.015
100
AcDbArc
 50
0.0
 51
90.0
  0
LINE
  5
2DF
100
AcDbEntity
  8
R-DOOR-DETL
100
AcDbLine
 10
13.695338
 20
12.990989
 30
0.0
 11
13.76133
 21
12.990989
 31
0.0
  0
ARC
  5
2E0
100
AcDbEntity
  8
R-DOOR-DETL
100
AcDbCircle
 10
13.695338
 20
13.005989
 30
0.0
 40
0.015
100
AcDbArc
 50
180.0
 51
270.0
  0
LINE
  5
2E1
100
AcDbEntity
  8
R-DOOR-DETL
100
AcDbLine
 10
13.926198
 20
12.9152
 30
0.0
 11
13.955389
 21
13.019743
 31
0.0
  0
LINE
  5
2E2
100
AcDbEntity
  8
R-DOOR-DETL
100
AcDbLine
 10
13.926198
 20
12.9152
 30
0.0
 11
14.00214
 21
12.837649
 31
0.0
  0
ARC
  5
2E3
100
AcDbEntity
  8
R-DOOR-DETL
100
AcDbCircle
 10
13.960664
 20
13.053091
 30
0.0
 40
0.031
100
AcDbArc
 50
302.506128
 51
30.0
  0
ARC
  5
2E4
100
AcDbEntity
  8
R-DOOR-DETL
100
AcDbCircle
 10
13.79133
 20
12.706192
 30
0.0
 40
0.015
100
AcDbArc
 50
180.0
 51
270.0
  0
LINE
  5
2E5
100
AcDbEntity
  8
R-DOOR-DETL
100
AcDbLine
 10
13.77633
 20
12.975989
 30
0.0
 11
13.77633
 21
12.706192
 31
0.0
  0
ARC
  5
2E6
100
AcDbEntity
  8
R-DOOR-DETL
100
AcDbCircle
 10
14.88133
 20
12.942192
 30
0.0
 40
0.1005
100
AcDbArc
 50
122.506128
 51
57.493872
  0
LINE
  5
2E7
100
AcDbEntity
  8
R-DOOR-DETL
100
AcDbLine
 10
14.870679
 20
12.834174
 30
0.0
 11
14.782458
 21
12.897408
 31
0.0
  0
LINE
  5
2E8
100
AcDbEntity
  8
R-DOOR-DETL
100
AcDbLine
 10
14.980203
 20
12.986977
 30
0.0
 11
14.969551
 21
12.878959
 31
0.0
  0
CIRCLE
  5
2E9
100
AcDbEntity
  8
R-DOOR-DETL
100
AcDbCircle
 10
14.88133
 20
12.942192
 30
0.0
 40
0.1625
  0
CIRCLE
  5
2EA
100
AcDbEntity
  8
R-DOOR-DETL
100
AcDbCircle
 10
14.88133
 20
12.942192
 30
0.0
 40
0.1875
  0
LINE
  5
2EB
100
AcDbEntity
  8
R-DOOR-DETL
100
AcDbLine
 10
14.969551
 20
12.878959
 30
0.0
 11
14.870679
 21
12.834174
 31
0.0
  0
ARC
  5
2EC
100
AcDbEntity
  8
R-DOOR-DETL
100
AcDbCircle
 10
14.810664
 20
13.053091
 30
0.0
 40
0.031
100
AcDbArc
 50
302.506128
 51
30.0
  0
ARC
  5
2ED
100
AcDbEntity
  8
R-DOOR-DETL
100
AcDbCircle
 10
14.951997
 20
13.053091
 30
0.0
 40
0.031
100
AcDbArc
 50
150.0
 51
237.493872
  0
ARC
  5
2EE
100
AcDbEntity
  8
R-DOOR-DETL
100
AcDbCircle
 10
15.217323
 20
13.005989
 30
0.0
 40
0.015
100
AcDbArc
 50
270.0
 51
360.0
  0
LINE
  5
2EF
100
AcDbEntity
  8
R-DOOR-DETL
100
AcDbLine
 10
15.15133
 20
12.990989
 30
0.0
 11
15.217323
 21
12.990989
 31
0.0
  0
ARC
  5
2F0
100
AcDbEntity
  8
R-DOOR-DETL
100
AcDbCircle
 10
15.15133
 20
12.975989
 30
0.0
 40
0.015
100
AcDbArc
 50
90.0
 51
180.0
  0
LINE
  5
2F1
100
AcDbEntity
  8
R-DOOR-DETL
100
AcDbLine
 10
14.891982
 20
13.05021
 30
0.0
 11
14.79311
 21
13.005426
 31
0.0
  0
LINE
  5
2F2
100
AcDbEntity
  8
R-DOOR-DETL
100
AcDbLine
 10
14.79311
 20
13.005426
 30
0.0
 11
14.782458
 21
12.897408
 31
0.0
  0
LINE
  5
2F3
100
AcDbEntity
  8
R-DOOR-DETL
100
AcDbLine
 10
14.980203
 20
12.986977
 30
0.0
 11
14.891982
 21
13.05021
 31
0.0
  0
ARC
  5
2F4
100
AcDbEntity
  8
R-DOOR-DETL
100
AcDbCircle
 10
15.12133
 20
12.706192
 30
0.0
 40
0.015
100
AcDbArc
 50
270.0
 51
0.0
  0
LINE
  5
2F5
100
AcDbEntity
  8
R-DOOR-DETL
100
AcDbLine
 10
15.13633
 20
12.706192
 30
0.0
 11
15.13633
 21
12.975989
 31
0.0
  0
CIRCLE
  5
2F6
100
AcDbEntity
  8
R-DOOR-DETL
100
AcDbCircle
 10
14.45633
 20
12.942192
 30
0.0
 40
0.1875
  0
CIRCLE
  5
2F7
100
AcDbEntity
  8
R-DOOR-DETL
100
AcDbCircle
 10
14.45633
 20
12.942192
 30
0.0
 40
0.1625
  0
LINE
  5
2F8
100
AcDbEntity
  8
R-DOOR-DETL
100
AcDbLine
 10
14.107272
 20
12.864641
 30
0.0
 11
14.136463
 21
12.969184
 31
0.0
  0
ARC
  5
2F9
100
AcDbEntity
  8
R-DOOR-DETL
100
AcDbCircle
 10
14.101997
 20
13.053091
 30
0.0
 40
0.031
100
AcDbArc
 50
150.0
 51
237.493872
  0
LINE
  5
2FA
100
AcDbEntity
  8
R-DOOR-DETL
100
AcDbLine
 10
14.060521
 20
13.046735
 30
0.0
 11
14.136463
 21
12.969184
 31
0.0
  0
LINE
  5
2FB
100
AcDbEntity
  8
R-DOOR-DETL
100
AcDbLine
 10
14.510601
 20
12.848192
 30
0.0
 11
14.564872
 21
12.942192
 31
0.0
  0
LINE
  5
2FC
100
AcDbEntity
  8
R-DOOR-DETL
100
AcDbLine
 10
14.40206
 20
12.848192
 30
0.0
 11
14.347789
 21
12.942192
 31
0.0
  0
LINE
  5
2FD
100
AcDbEntity
  8
R-DOOR-DETL
100
AcDbLine
 10
14.40206
 20
12.848192
 30
0.0
 11
14.510601
 21
12.848192
 31
0.0
  0
LINE
  5
2FE
100
AcDbEntity
  8
R-DOOR-DETL
100
AcDbLine
 10
14.564872
 20
12.942192
 30
0.0
 11
14.510601
 21
13.036192
 31
0.0
  0
LINE
  5
2FF
100
AcDbEntity
  8
R-DOOR-DETL
100
AcDbLine
 10
14.347789
 20
12.942192
 30
0.0
 11
14.40206
 21
13.036192
 31
0.0
  0
LINE
  5
300
100
AcDbEntity
  8
R-DOOR-DETL
100
AcDbLine
 10
14.40206
 20
13.036192
 30
0.0
 11
14.510601
 21
13.036192
 31
0.0
  0
TEXT
  5
308
100
AcDbEntity
  8
0
100
AcDbText
 10
16.472216
 20
15.47945
 30
0.0
 40
0.36
  1
GLASS CLAMP
  7
ROMANS
100
AcDbText
  0
LWPOLYLINE
  5
309
100
AcDbEntity
  8
10INCHRAIL
  6
CONTINUOUS
 62
     3
100
AcDbPolyline
 90
       17
 70
     1
 43
0.0
 10
14.411433
 20
13.555555
 42
0.939516
 10
14.327221
 20
13.606134
 42
0.11093
 10
14.301586
 20
13.542374
 42
-0.367717
 10
14.271976
 20
13.517192
 10
13.737338
 20
13.517192
 42
-0.414214
 10
13.675338
 20
13.579192
 10
13.675338
 20
15.119653
 42
-0.414214
 10
13.737338
 20
15.181653
 10
14.45633
 20
15.181653
 10
15.175323
 20
15.181653
 42
-0.414214
 10
15.237323
 20
15.119653
 10
15.237323
 20
13.579192
 42
-0.414214
 10
15.175323
 20
13.517192
 10
14.640685
 20
13.517192
 42
-0.367717
 10
14.611075
 20
13.542374
 42
0.11093
 10
14.58544
 20
13.606134
 42
0.939516
 10
14.501228
 20
13.555555
 42
-2.169752
  0
LINE
  5
30A
100
AcDbEntity
  8
R-DOOR-DETL
100
AcDbLine
 10
13.77383
 20
13.267192
 30
0.0
 11
15.13883
 21
13.267192
 31
0.0
  0
LINE
  5
30B
100
AcDbEntity
  8
R-DOOR-DETL
100
AcDbLine
 10
13.77383
 20
13.142192
 30
0.0
 11
15.13883
 21
13.142192
 31
0.0
  0
INSERT
  5
30C
100
AcDbEntity
  8
R-DOOR-ANNO
  6
CONTINUOUS
100
AcDbBlockReference
  2
_DOTSMALL
 10
13.589413
 20
13.895377
 30
0.0
 41
0.18
 42
0.18
 43
0.18
 50
150.718927
1001
ACAD
1000
DSTYLE
1002
{
1070
   173
1070
     1
1070
     6
1000
_DOTSMALL
1002
}
  0
LINE
  5
30D
100
AcDbEntity
  8
R-DOOR-DETL
100
AcDbLine
 10
13.85495
 20
13.267192
 30
0.0
 11
13.711338
 21
13.267192
 31
0.0
  0
LINE
  5
30E
100
AcDbEntity
  8
R-DOOR-ANNO
  6
CONTINUOUS
100
AcDbLine
 10
12.518359
 20
13.299488
 30
0.0
 11
12.33836
 21
13.300089
 31
0.0
1001
ACAD
1000
DSTYLE
1002
{
1070
   173
1070
     1
1070
     6
1000
_DOTSMALL
1002
}
  0
ARC
  5
30F
100
AcDbEntity
  8
R-DOOR-DETL
100
AcDbCircle
 10
13.711338
 20
13.236192
 30
0.0
 40
0.031
100
AcDbArc
 50
90.0
 51
180.0
  0
ARC
  5
310
100
AcDbEntity
  8
R-DOOR-DETL
100
AcDbCircle
 10
13.85495
 20
13.236192
 30
0.0
 40
0.031
100
AcDbArc
 50
30.0
 51
90.0
  0
LINE
  5
311
100
AcDbEntity
  8
R-DOOR-ANNO
  6
CONTINUOUS
100
AcDbLine
 10
13.589413
 20
13.895377
 30
0.0
 11
12.518359
 21
13.299488
 31
0.0
1001
ACAD
1000
DSTYLE
1002
{
1070
   173
1070
     1
1070
     6
1000
_DOTSMALL
1002
}
  0
ARC
  5
312
100
AcDbEntity
  8
R-DOOR-DETL
100
AcDbCircle
 10
14.70495
 20
13.236192
 30
0.0
 40
0.031
100
AcDbArc
 50
30.0
 51
90.0
  0
ARC
  5
313
100
AcDbEntity
  8
R-DOOR-DETL
100
AcDbCircle
 10
15.057711
 20
13.236192
 30
0.0
 40
0.031
100
AcDbArc
 50
90.0
 51
150.0
  0
ARC
  5
314
100
AcDbEntity
  8
R-DOOR-DETL
100
AcDbCircle
 10
15.201323
 20
13.236192
 30
0.0
 40
0.031
100
AcDbArc
 50
360.0
 51
90.0
  0
LINE
  5
315
100
AcDbEntity
  8
R-DOOR-DETL
100
AcDbLine
 10
15.201323
 20
13.267192
 30
0.0
 11
15.057711
 21
13.267192
 31
0.0
  0
ARC
  5
316
100
AcDbEntity
  8
R-DOOR-DETL
100
AcDbCircle
 10
14.207711
 20
13.236192
 30
0.0
 40
0.031
100
AcDbArc
 50
90.0
 51
150.0
  0
LINE
  5
317
100
AcDbEntity
  8
R-DOOR-DETL
100
AcDbLine
 10
14.70495
 20
13.267192
 30
0.0
 11
14.207711
 21
13.267192
 31
0.0
  0
LWPOLYLINE
  5
318
100
AcDbEntity
  8
0
  6
CONTINUOUS
 62
     3
100
AcDbPolyline
 90
       17
 70
     1
 43
0.0
 10
14.58544
 20
15.51715
 42
-0.106196
 10
14.610576
 20
15.456281
 42
0.362414
 10
14.640092
 20
15.431653
 10
15.004027
 20
15.431653
 42
0.414214
 10
15.129027
 20
15.556653
 10
15.129027
 20
15.626356
 42
0.414214
 10
15.004027
 20
15.751356
 10
14.45633
 20
15.751356
 10
13.908634
 20
15.751356
 42
0.414214
 10
13.783634
 20
15.626356
 10
13.783634
 20
15.556653
 42
0.414214
 10
13.908634
 20
15.431653
 10
14.272569
 20
15.431653
 42
0.362414
 10
14.302085
 20
15.456281
 42
-0.106196
 10
14.327221
 20
15.51715
 42
-0.939516
 10
14.411433
 20
15.466571
 42
2.169752
 10
14.501228
 20
15.466571
 42
-0.939516
  0
LWPOLYLINE
  5
319
100
AcDbEntity
  8
R-DOOR-ANNO
  6
CONTINUOUS
100
AcDbPolyline
 90
        3
 70
     0
 43
0.0
 10
14.745493
 20
16.392417
 10
16.233644
 20
15.65945
 10
16.413644
 20
15.65945
1001
ACAD
1000
DSTYLE
1002
{
1070
   173
1070
     1
1070
     6
1000
_DOTSMALL
1002
}
  0
INSERT
  5
31A
100
AcDbEntity
  8
R-DOOR-ANNO
  6
CONTINUOUS
100
AcDbBlockReference
  2
_DOTSMALL
 10
14.745493
 20
16.392417
 30
0.0
 41
0.18
 42
0.18
 43
0.18
 50
153.778112
1001
ACAD
1000
DSTYLE
1002
{
1070
   173
1070
     1
1070
     6
1000
_DOTSMALL
1002
}
  0
ARC
  5
31B
100
AcDbEntity
  8
R-DOOR-DETL
100
AcDbCircle
 10
14.895516
 20
16.339295
 30
0.0
 40
0.03
100
AcDbArc
 50
149.0
 51
180.0
  0
LINE
  5
31C
100
AcDbEntity
  8
R-DOOR-DETL
100
AcDbLine
 10
14.703105
 20
16.258697
 30
0.0
 11
14.703105
 21
16.133697
 31
0.0
  0
ARC
  5
31D
100
AcDbEntity
  8
R-DOOR-DETL
100
AcDbCircle
 10
14.705516
 20
16.150379
 30
0.0
 40
0.015
100
AcDbArc
 50
270.0
 51
360.0
  0
LINE
  5
31E
100
AcDbEntity
  8
R-DOOR-DETL
100
AcDbLine
 10
14.703105
 20
16.235493
 30
0.0
 11
14.679901
 21
16.258697
 31
0.0
  0
LINE
  5
31F
100
AcDbEntity
  8
R-DOOR-DETL
100
AcDbLine
 10
14.720516
 20
16.277379
 30
0.0
 11
14.720516
 21
16.150379
 31
0.0
  0
LINE
  5
320
100
AcDbEntity
  8
R-DOOR-DETL
100
AcDbLine
 10
14.865516
 20
16.084379
 30
0.0
 11
14.865516
 21
16.339295
 31
0.0
  0
ARC
  5
321
100
AcDbEntity
  8
R-DOOR-DETL
100
AcDbCircle
 10
14.31436
 20
16.277379
 30
0.0
 40
0.125
100
AcDbArc
 50
90.0
 51
180.0
  0
LINE
  5
322
100
AcDbEntity
  8
R-DOOR-DETL
100
AcDbLine
 10
14.172067
 20
16.547379
 30
0.0
 11
14.40436
 21
16.547379
 31
0.0
  0
LINE
  5
323
100
AcDbEntity
  8
R-DOOR-DETL
100
AcDbLine
 10
14.422067
 20
16.5441
 30
0.0
 11
14.172067
 21
16.5441
 31
0.0
  0
LINE
  5
324
100
AcDbEntity
  8
R-DOOR-DETL
100
AcDbLine
 10
14.207375
 20
16.133697
 30
0.0
 11
14.329105
 21
16.255427
 31
0.0
  0
LINE
  5
325
100
AcDbEntity
  8
R-DOOR-DETL
100
AcDbLine
 10
14.278085
 20
16.133697
 30
0.0
 11
14.329105
 21
16.184716
 31
0.0
  0
LINE
  5
326
100
AcDbEntity
  8
R-DOOR-DETL
100
AcDbLine
 10
14.24273
 20
16.133697
 30
0.0
 11
14.329105
 21
16.220072
 31
0.0
  0
ARC
  5
327
100
AcDbEntity
  8
R-DOOR-DETL
100
AcDbCircle
 10
14.01436
 20
16.339295
 30
0.0
 40
0.03
100
AcDbArc
 50
360.0
 51
31.0
  0
LINE
  5
328
100
AcDbEntity
  8
R-DOOR-DETL
100
AcDbLine
 10
14.203105
 20
16.164782
 30
0.0
 11
14.297019
 21
16.258697
 31
0.0
  0
LINE
  5
329
100
AcDbEntity
  8
R-DOOR-DETL
100
AcDbLine
 10
14.203105
 20
16.200138
 30
0.0
 11
14.261664
 21
16.258697
 31
0.0
  0
LINE
  5
32A
100
AcDbEntity
  8
R-DOOR-DETL
100
AcDbLine
 10
14.203105
 20
16.235493
 30
0.0
 11
14.226309
 21
16.258697
 31
0.0
  0
LINE
  5
32B
100
AcDbEntity
  8
R-DOOR-DETL
100
AcDbLine
 10
14.203105
 20
16.258697
 30
0.0
 11
14.203105
 21
16.133697
 31
0.0
  0
ARC
  5
32C
100
AcDbEntity
  8
R-DOOR-DETL
100
AcDbCircle
 10
14.29036
 20
16.120379
 30
0.0
 40
0.015
100
AcDbArc
 50
0.0
 51
90.0
  0
LINE
  5
32D
100
AcDbEntity
  8
R-DOOR-DETL
100
AcDbLine
 10
14.20436
 20
16.135379
 30
0.0
 11
14.29036
 21
16.135379
 31
0.0
  0
ARC
  5
32E
100
AcDbEntity
  8
R-DOOR-DETL
100
AcDbCircle
 10
14.20436
 20
16.150379
 30
0.0
 40
0.015
100
AcDbArc
 50
180.0
 51
270.0
  0
LINE
  5
32F
100
AcDbEntity
  8
R-DOOR-DETL
100
AcDbLine
 10
14.18936
 20
16.277379
 30
0.0
 11
14.18936
 21
16.150379
 31
0.0
  0
LINE
  5
330
100
AcDbEntity
  8
R-DOOR-DETL
100
AcDbLine
 10
14.04436
 20
16.084379
 30
0.0
 11
14.04436
 21
16.339295
 31
0.0
  0
ARC
  5
331
100
AcDbEntity
  8
R-DOOR-DETL
100
AcDbCircle
 10
14.40436
 20
16.417379
 30
0.0
 40
0.015
100
AcDbArc
 50
270.0
 51
0.0
  0
ARC
  5
332
100
AcDbEntity
  8
R-DOOR-DETL
100
AcDbCircle
 10
14.505516
 20
16.417379
 30
0.0
 40
0.015
100
AcDbArc
 50
180.0
 51
270.0
  0
LINE
  5
333
100
AcDbEntity
  8
R-DOOR-DETL
100
AcDbLine
 10
14.576669
 20
16.325339
 30
0.0
 11
14.328669
 21
16.325339
 31
0.0
  0
LINE
  5
334
100
AcDbEntity
  8
R-DOOR-DETL
100
AcDbLine
 10
14.546669
 20
16.295339
 30
0.0
 11
14.358669
 21
16.295339
 31
0.0
  0
LINE
  5
335
100
AcDbEntity
  8
R-DOOR-DETL
100
AcDbLine
 10
14.546669
 20
16.371831
 30
0.0
 11
14.358669
 21
16.371831
 31
0.0
  0
LINE
  5
336
100
AcDbEntity
  8
R-DOOR-DETL
100
AcDbLine
 10
14.546669
 20
16.355339
 30
0.0
 11
14.358669
 21
16.355339
 31
0.0
  0
ARC
  5
337
100
AcDbEntity
  8
R-DOOR-DETL
100
AcDbCircle
 10
14.358669
 20
16.341831
 30
0.0
 40
0.03
100
AcDbArc
 50
90.0
 51
180.0
  0
ARC
  5
338
100
AcDbEntity
  8
R-DOOR-DETL
100
AcDbCircle
 10
14.546669
 20
16.341831
 30
0.0
 40
0.03
100
AcDbArc
 50
0.0
 51
90.0
  0
LINE
  5
339
100
AcDbEntity
  8
R-DOOR-DETL
100
AcDbLine
 10
14.505516
 20
16.402379
 30
0.0
 11
14.595516
 21
16.402379
 31
0.0
  0
LINE
  5
33A
100
AcDbEntity
  8
R-DOOR-DETL
100
AcDbLine
 10
14.40436
 20
16.402379
 30
0.0
 11
14.31436
 21
16.402379
 31
0.0
  0
LINE
  5
33B
100
AcDbEntity
  8
R-DOOR-DETL
100
AcDbLine
 10
14.41936
 20
16.532379
 30
0.0
 11
14.41936
 21
16.417379
 31
0.0
  0
ARC
  5
33C
100
AcDbEntity
  8
R-DOOR-DETL
100
AcDbCircle
 10
14.40436
 20
16.532379
 30
0.0
 40
0.015
100
AcDbArc
 50
0.0
 51
90.0
  0
LINE
  5
33D
100
AcDbEntity
  8
R-DOOR-DETL
100
AcDbLine
 10
14.490516
 20
16.532379
 30
0.0
 11
14.490516
 21
16.417379
 31
0.0
  0
ARC
  5
33E
100
AcDbEntity
  8
R-DOOR-DETL
100
AcDbCircle
 10
14.505516
 20
16.532379
 30
0.0
 40
0.015
100
AcDbArc
 50
90.0
 51
180.0
  0
LINE
  5
33F
100
AcDbEntity
  8
R-DOOR-DETL
100
AcDbLine
 10
14.576669
 20
16.265339
 30
0.0
 11
14.328669
 21
16.265339
 31
0.0
  0
LINE
  5
340
100
AcDbEntity
  8
R-DOOR-DETL
100
AcDbLine
 10
14.576669
 20
16.205339
 30
0.0
 11
14.328669
 21
16.205339
 31
0.0
  0
LINE
  5
341
100
AcDbEntity
  8
R-DOOR-DETL
100
AcDbLine
 10
14.576669
 20
16.145339
 30
0.0
 11
14.328669
 21
16.145339
 31
0.0
  0
LINE
  5
342
100
AcDbEntity
  8
R-DOOR-DETL
100
AcDbLine
 10
14.546669
 20
16.235339
 30
0.0
 11
14.358669
 21
16.235339
 31
0.0
  0
LINE
  5
343
100
AcDbEntity
  8
R-DOOR-DETL
100
AcDbLine
 10
14.546669
 20
16.175339
 30
0.0
 11
14.358669
 21
16.175339
 31
0.0
  0
LINE
  5
344
100
AcDbEntity
  8
R-DOOR-DETL
100
AcDbLine
 10
14.576669
 20
16.085339
 30
0.0
 11
14.328669
 21
16.085339
 31
0.0
  0
LINE
  5
345
100
AcDbEntity
  8
R-DOOR-DETL
100
AcDbLine
 10
14.546669
 20
16.115339
 30
0.0
 11
14.358669
 21
16.115339
 31
0.0
  0
LINE
  5
346
100
AcDbEntity
  8
R-DOOR-DETL
100
AcDbLine
 10
14.313441
 20
16.133697
 30
0.0
 11
14.329105
 21
16.149361
 31
0.0
  0
ARC
  5
347
100
AcDbEntity
  8
R-DOOR-DETL
100
AcDbCircle
 10
14.619516
 20
16.120379
 30
0.0
 40
0.015
100
AcDbArc
 50
90.0
 51
180.0
  0
LINE
  5
348
100
AcDbEntity
  8
R-DOOR-DETL
100
AcDbLine
 10
14.628124
 20
16.133697
 30
0.0
 11
14.577105
 21
16.184716
 31
0.0
  0
LINE
  5
349
100
AcDbEntity
  8
R-DOOR-DETL
100
AcDbLine
 10
14.592769
 20
16.133697
 30
0.0
 11
14.577105
 21
16.149361
 31
0.0
  0
LINE
  5
34A
100
AcDbEntity
  8
R-DOOR-DETL
100
AcDbLine
 10
14.703105
 20
16.133697
 30
0.0
 11
14.203105
 21
16.133697
 31
0.0
  0
LINE
  5
34B
100
AcDbEntity
  8
R-DOOR-DETL
100
AcDbLine
 10
14.703105
 20
16.258697
 30
0.0
 11
14.203105
 21
16.258697
 31
0.0
  0
ARC
  5
34C
100
AcDbEntity
  8
R-DOOR-DETL
100
AcDbCircle
 10
14.595516
 20
16.277379
 30
0.0
 40
0.125
100
AcDbArc
 50
360.0
 51
90.0
  0
LINE
  5
34D
100
AcDbEntity
  8
R-DOOR-DETL
100
AcDbLine
 10
14.737809
 20
16.547379
 30
0.0
 11
14.505516
 21
16.547379
 31
0.0
  0
LINE
  5
34E
100
AcDbEntity
  8
R-DOOR-DETL
100
AcDbLine
 10
14.487809
 20
16.5441
 30
0.0
 11
14.737809
 21
16.5441
 31
0.0
  0
LINE
  5
34F
100
AcDbEntity
  8
R-DOOR-DETL
100
AcDbLine
 10
14.663479
 20
16.133697
 30
0.0
 11
14.577105
 21
16.220072
 31
0.0
  0
LINE
  5
350
100
AcDbEntity
  8
R-DOOR-DETL
100
AcDbLine
 10
14.703105
 20
16.200138
 30
0.0
 11
14.644545
 21
16.258697
 31
0.0
  0
LINE
  5
351
100
AcDbEntity
  8
R-DOOR-DETL
100
AcDbLine
 10
14.703105
 20
16.164782
 30
0.0
 11
14.60919
 21
16.258697
 31
0.0
  0
LINE
  5
352
100
AcDbEntity
  8
R-DOOR-DETL
100
AcDbLine
 10
14.698835
 20
16.133697
 30
0.0
 11
14.577105
 21
16.255427
 31
0.0
  0
LINE
  5
353
100
AcDbEntity
  8
R-DOOR-DETL
100
AcDbLine
 10
14.705516
 20
16.135379
 30
0.0
 11
14.619516
 21
16.135379
 31
0.0
  0
LINE
  5
354
100
AcDbEntity
  8
R-DOOR-DETL
100
AcDbLine
 10
14.29036
 20
15.990379
 30
0.0
 11
14.13836
 21
15.990379
 31
0.0
  0
ARC
  5
355
100
AcDbEntity
  8
R-DOOR-DETL
100
AcDbCircle
 10
14.29036
 20
16.005379
 30
0.0
 40
0.015
100
AcDbArc
 50
270.0
 51
360.0
  0
LINE
  5
356
100
AcDbEntity
  8
R-DOOR-DETL
100
AcDbLine
 10
14.576669
 20
15.965339
 30
0.0
 11
14.328669
 21
15.965339
 31
0.0
  0
LINE
  5
357
100
AcDbEntity
  8
R-DOOR-DETL
100
AcDbLine
 10
14.576669
 20
16.025339
 30
0.0
 11
14.328669
 21
16.025339
 31
0.0
  0
LINE
  5
358
100
AcDbEntity
  8
R-DOOR-DETL
100
AcDbLine
 10
14.576669
 20
15.905339
 30
0.0
 11
14.328669
 21
15.905339
 31
0.0
  0
LINE
  5
359
100
AcDbEntity
  8
R-DOOR-DETL
100
AcDbLine
 10
14.546669
 20
15.935339
 30
0.0
 11
14.358669
 21
15.935339
 31
0.0
  0
LINE
  5
35A
100
AcDbEntity
  8
R-DOOR-DETL
100
AcDbLine
 10
14.546669
 20
15.995339
 30
0.0
 11
14.358669
 21
15.995339
 31
0.0
  0
LINE
  5
35B
100
AcDbEntity
  8
R-DOOR-DETL
100
AcDbLine
 10
14.546669
 20
16.055339
 30
0.0
 11
14.358669
 21
16.055339
 31
0.0
  0
ARC
  5
35C
100
AcDbEntity
  8
R-DOOR-DETL
100
AcDbCircle
 10
14.619516
 20
16.005379
 30
0.0
 40
0.015
100
AcDbArc
 50
180.0
 51
270.0
  0
LINE
  5
35D
100
AcDbEntity
  8
R-DOOR-DETL
100
AcDbLine
 10
14.619516
 20
15.990379
 30
0.0
 11
14.771516
 21
15.990379
 31
0.0
  0
ARC
  5
35E
100
AcDbEntity
  8
R-DOOR-DETL
100
AcDbCircle
 10
14.13836
 20
16.084379
 30
0.0
 40
0.094
100
AcDbArc
 50
180.0
 51
270.0
  0
LINE
  5
35F
100
AcDbEntity
  8
R-DOOR-DETL
100
AcDbLine
 10
14.30536
 20
16.120379
 30
0.0
 11
14.30536
 21
16.005379
 31
0.0
  0
ARC
  5
360
100
AcDbEntity
  8
R-DOOR-DETL
100
AcDbCircle
 10
14.771516
 20
16.084379
 30
0.0
 40
0.094
100
AcDbArc
 50
270.0
 51
0.0
  0
LINE
  5
361
100
AcDbEntity
  8
R-DOOR-DETL
100
AcDbLine
 10
14.604516
 20
16.120379
 30
0.0
 11
14.604516
 21
16.005379
 31
0.0
  0
LINE
  5
362
100
AcDbEntity
  8
R-DOOR-PATT
  6
CONTINUOUS
 62
     5
100
AcDbLine
 10
17.450454
 20
30.717763
 30
0.0
 11
16.681575
 21
29.948885
 31
0.0
  0
LINE
  5
363
100
AcDbEntity
  8
R-DOOR-PATT
  6
CONTINUOUS
 62
     5
100
AcDbLine
 10
17.450454
 20
31.159705
 30
0.0
 11
16.239633
 21
29.948885
 31
0.0
  0
LINE
  5
364
100
AcDbEntity
  8
R-DOOR-PATT
  6
CONTINUOUS
 62
     5
100
AcDbLine
 10
17.35575
 20
31.948885
 30
0.0
 11
15.35575
 21
29.948885
 31
0.0
  0
LINE
  5
365
100
AcDbEntity
  8
R-DOOR-PATT
  6
CONTINUOUS
 62
     5
100
AcDbLine
 10
17.450454
 20
31.601646
 30
0.0
 11
15.797692
 21
29.948885
 31
0.0
  0
LINE
  5
366
100
AcDbEntity
  8
R-DOOR-PATT
  6
CONTINUOUS
 62
     5
100
AcDbLine
 10
14.7041
 20
31.948885
 30
0.0
 11
12.7041
 21
29.948885
 31
0.0
  0
LINE
  5
367
100
AcDbEntity
  8
R-DOOR-PATT
  6
CONTINUOUS
 62
     5
100
AcDbLine
 10
14.262158
 20
31.948885
 30
0.0
 11
12.262158
 21
29.948885
 31
0.0
  0
LINE
  5
368
100
AcDbEntity
  8
R-DOOR-PATT
  6
CONTINUOUS
 62
     5
100
AcDbLine
 10
13.378274
 20
31.948885
 30
0.0
 11
11.450454
 21
30.021064
 31
0.0
  0
LINE
  5
369
100
AcDbEntity
  8
R-DOOR-PATT
  6
CONTINUOUS
 62
     5
100
AcDbLine
 10
13.820216
 20
31.948885
 30
0.0
 11
11.820216
 21
29.948885
 31
0.0
  0
LINE
  5
36A
100
AcDbEntity
  8
R-DOOR-PATT
  6
CONTINUOUS
 62
     5
100
AcDbLine
 10
16.029925
 20
31.948885
 30
0.0
 11
14.029925
 21
29.948885
 31
0.0
  0
LINE
  5
36B
100
AcDbEntity
  8
R-DOOR-PATT
  6
CONTINUOUS
 62
     5
100
AcDbLine
 10
15.587983
 20
31.948885
 30
0.0
 11
13.587983
 21
29.948885
 31
0.0
  0
LINE
  5
36C
100
AcDbEntity
  8
R-DOOR-PATT
  6
CONTINUOUS
 62
     5
100
AcDbLine
 10
15.146041
 20
31.948885
 30
0.0
 11
13.146041
 21
29.948885
 31
0.0
  0
LINE
  5
36D
100
AcDbEntity
  8
R-DOOR-PATT
  6
CONTINUOUS
 62
     5
100
AcDbLine
 10
16.471866
 20
31.948885
 30
0.0
 11
14.471866
 21
29.948885
 31
0.0
  0
LINE
  5
36E
100
AcDbEntity
  8
R-DOOR-PATT
  6
CONTINUOUS
 62
     5
100
AcDbLine
 10
16.913808
 20
31.948885
 30
0.0
 11
14.913808
 21
29.948885
 31
0.0
  0
LINE
  5
36F
100
AcDbEntity
  8
R-DOOR-PATT
  6
CONTINUOUS
 62
     5
100
AcDbLine
 10
17.450454
 20
30.275821
 30
0.0
 11
17.123517
 21
29.948885
 31
0.0
  0
LINE
  5
371
100
AcDbEntity
  8
R-DOOR-DETL
100
AcDbLine
 10
14.265151
 20
20.876909
 30
0.0
 11
14.265151
 21
24.94899
 31
0.0
  0
LINE
  5
372
100
AcDbEntity
  8
R-DOOR-DETL
100
AcDbLine
 10
14.327651
 20
20.887988
 30
0.0
 11
14.327651
 21
24.94899
 31
0.0
  0
LINE
  5
373
100
AcDbEntity
  8
R-DOOR-DETL
100
AcDbLine
 10
14.390151
 20
20.934863
 30
0.0
 11
14.390151
 21
24.94899
 31
0.0
  0
LINE
  5
374
100
AcDbEntity
  8
R-DOOR-DETL
100
AcDbLine
 10
14.205653
 20
20.917956
 30
0.0
 11
14.205653
 21
24.94899
 31
0.0
  0
LINE
  5
375
100
AcDbEntity
  8
R-DOOR-DETL
100
AcDbLine
 10
14.515151
 20
20.877793
 30
0.0
 11
14.515151
 21
24.94899
 31
0.0
  0
LINE
  5
376
100
AcDbEntity
  8
R-DOOR-DETL
100
AcDbLine
 10
14.577651
 20
20.916524
 30
0.0
 11
14.577651
 21
24.94899
 31
0.0
  0
LINE
  5
377
100
AcDbEntity
  8
R-DOOR-DETL
  6
BYBLOCK
 62
     3
100
AcDbLine
 10
14.697651
 20
20.9231
 30
0.0
 11
14.697651
 21
24.94899
 31
0.0
  0
LINE
  5
378
100
AcDbEntity
  8
R-DOOR-DETL
100
AcDbLine
 10
14.640151
 20
20.941216
 30
0.0
 11
14.640151
 21
24.94899
 31
0.0
  0
LINE
  5
379
100
AcDbEntity
  8
R-DOOR-DETL
100
AcDbLine
 10
14.697651
 20
20.165991
 30
0.0
 11
14.697651
 21
16.5941
 31
0.0
  0
LINE
  5
37A
100
AcDbEntity
  8
R-DOOR-DETL
100
AcDbLine
 10
14.583208
 20
20.172568
 30
0.0
 11
14.583208
 21
16.5941
 31
0.0
  0
LINE
  5
37B
100
AcDbEntity
  8
R-DOOR-DETL
100
AcDbLine
 10
14.645708
 20
20.147875
 30
0.0
 11
14.645708
 21
16.5941
 31
0.0
  0
LINE
  5
37C
100
AcDbEntity
  8
R-DOOR-DETL
100
AcDbLine
 10
14.270708
 20
20.212183
 30
0.0
 11
14.270708
 21
16.5941
 31
0.0
  0
LINE
  5
37D
100
AcDbEntity
  8
R-DOOR-DETL
100
AcDbLine
 10
14.333208
 20
20.201103
 30
0.0
 11
14.333208
 21
16.5941
 31
0.0
  0
LINE
  5
37E
100
AcDbEntity
  8
R-DOOR-DETL
100
AcDbLine
 10
14.395708
 20
20.154228
 30
0.0
 11
14.395708
 21
16.5941
 31
0.0
  0
LINE
  5
37F
100
AcDbEntity
  8
R-DOOR-DETL
100
AcDbLine
 10
14.520708
 20
20.211299
 30
0.0
 11
14.520708
 21
16.5941
 31
0.0
  0
LINE
  5
380
100
AcDbEntity
  8
R-DOOR-DETL
100
AcDbLine
 10
14.212225
 20
20.174401
 30
0.0
 11
14.212225
 21
16.5941
 31
0.0
  0
ARC
  5
381
100
AcDbEntity
  8
R-DOOR-DETL
100
AcDbCircle
 10
14.737809
 20
17.409089
 30
0.0
 40
0.009842
100
AcDbArc
 50
0.0
 51
70.528779
  0
ARC
  5
382
100
AcDbEntity
  8
R-DOOR-DETL
100
AcDbCircle
 10
14.172067
 20
17.409089
 30
0.0
 40
0.009842
100
AcDbArc
 50
109.471221
 51
180.0
  0
LINE
  5
383
100
AcDbEntity
  8
R-DOOR-DETL
100
AcDbLine
 10
13.993916
 20
16.927706
 30
0.0
 11
14.016307
 21
17.418436
 31
0.0
  0
LINE
  5
384
100
AcDbEntity
  8
R-DOOR-DETL
100
AcDbLine
 10
14.91596
 20
16.927706
 30
0.0
 11
14.893569
 21
17.418436
 31
0.0
  0
LINE
  5
385
100
AcDbEntity
  8
R-DOOR-DETL
100
AcDbLine
 10
13.772247
 20
16.858736
 30
0.0
 11
13.832249
 21
16.894789
 31
0.0
  0
ARC
  5
386
100
AcDbEntity
  8
R-DOOR-DETL
100
AcDbCircle
 10
13.787698
 20
16.833021
 30
0.0
 40
0.03
100
AcDbArc
 50
121.0
 51
211.0
  0
ARC
  5
387
100
AcDbEntity
  8
R-DOOR-DETL
100
AcDbCircle
 10
13.8477
 20
16.869074
 30
0.0
 40
0.03
100
AcDbArc
 50
90.0
 51
121.0
  0
LINE
  5
388
100
AcDbEntity
  8
R-DOOR-DETL
100
AcDbLine
 10
13.8477
 20
16.899074
 30
0.0
 11
13.963947
 21
16.899074
 31
0.0
  0
ARC
  5
389
100
AcDbEntity
  8
R-DOOR-DETL
100
AcDbCircle
 10
13.963947
 20
16.929074
 30
0.0
 40
0.03
100
AcDbArc
 50
270.0
 51
357.387498
  0
LINE
  5
38A
100
AcDbEntity
  8
R-DOOR-DETL
100
AcDbLine
 10
14.747651
 20
17.40581
 30
0.0
 11
14.697651
 21
17.40581
 31
0.0
  0
LINE
  5
38B
100
AcDbEntity
  8
R-DOOR-DETL
100
AcDbLine
 10
14.162225
 20
17.40581
 30
0.0
 11
14.212225
 21
17.40581
 31
0.0
  0
LINE
  5
38C
100
AcDbEntity
  8
R-DOOR-DETL
100
AcDbLine
 10
14.697651
 20
16.65581
 30
0.0
 11
14.747651
 21
16.65581
 31
0.0
  0
ARC
  5
38D
100
AcDbEntity
  8
R-DOOR-DETL
100
AcDbCircle
 10
14.945929
 20
16.929074
 30
0.0
 40
0.03
100
AcDbArc
 50
182.612502
 51
270.0
  0
LINE
  5
38E
100
AcDbEntity
  8
R-DOOR-DETL
100
AcDbLine
 10
15.062176
 20
16.899074
 30
0.0
 11
14.945929
 21
16.899074
 31
0.0
  0
ARC
  5
38F
100
AcDbEntity
  8
R-DOOR-DETL
100
AcDbCircle
 10
15.062176
 20
16.869074
 30
0.0
 40
0.03
100
AcDbArc
 50
59.0
 51
90.0
  0
LINE
  5
390
100
AcDbEntity
  8
R-DOOR-DETL
100
AcDbLine
 10
15.137629
 20
16.858736
 30
0.0
 11
15.077627
 21
16.894789
 31
0.0
  0
ARC
  5
391
100
AcDbEntity
  8
R-DOOR-DETL
100
AcDbCircle
 10
15.122178
 20
16.833021
 30
0.0
 40
0.03
100
AcDbArc
 50
329.0
 51
59.0
  0
LINE
  5
392
100
AcDbEntity
  8
R-DOOR-DETL
100
AcDbLine
 10
14.172067
 20
16.5941
 30
0.0
 11
14.422067
 21
16.5941
 31
0.0
  0
POINT
  5
393
100
AcDbEntity
  8
DEFPOINTS
  6
BYBLOCK
 62
     0
100
AcDbPoint
 10
14.172067
 20
16.5941
 30
0.0
  0
LINE
  5
394
100
AcDbEntity
  8
R-DOOR-DETL
100
AcDbLine
 10
14.212225
 20
16.65581
 30
0.0
 11
14.162225
 21
16.65581
 31
0.0
  0
LINE
  5
395
100
AcDbEntity
  8
R-DOOR-DETL
100
AcDbLine
 10
14.737809
 20
16.5941
 30
0.0
 11
14.487809
 21
16.5941
 31
0.0
  0
LINE
  5
396
100
AcDbEntity
  8
R-DOOR-DETL
100
AcDbLine
 10
14.162225
 20
17.409089
 30
0.0
 11
14.162225
 21
16.557222
 31
0.0
  0
LINE
  5
397
100
AcDbEntity
  8
R-DOOR-DETL
100
AcDbLine
 10
14.212225
 20
17.40581
 30
0.0
 11
14.212225
 21
16.65581
 31
0.0
  0
LINE
  5
398
100
AcDbEntity
  8
R-DOOR-DETL
100
AcDbLine
 10
14.162225
 20
16.65581
 30
0.0
 11
14.162225
 21
17.40581
 31
0.0
  0
LINE
  5
399
100
AcDbEntity
  8
R-DOOR-DETL
100
AcDbLine
 10
14.747651
 20
17.409089
 30
0.0
 11
14.747651
 21
16.557222
 31
0.0
  0
LINE
  5
39A
100
AcDbEntity
  8
R-DOOR-DETL
100
AcDbLine
 10
14.697651
 20
17.40581
 30
0.0
 11
14.697651
 21
16.65581
 31
0.0
  0
LINE
  5
39B
100
AcDbEntity
  8
R-DOOR-DETL
100
AcDbLine
 10
14.747651
 20
16.65581
 30
0.0
 11
14.747651
 21
17.40581
 31
0.0
  0
ARC
  5
39C
100
AcDbEntity
  8
R-DOOR-DETL
100
AcDbCircle
 10
14.056265
 20
17.416613
 30
0.0
 40
0.04
100
AcDbArc
 50
90.0
 51
177.387498
  0
ARC
  5
39D
100
AcDbEntity
  8
R-DOOR-DETL
100
AcDbCircle
 10
14.747651
 20
17.436928
 30
0.0
 40
0.019685
100
AcDbArc
 50
90.0
 51
250.528779
  0
LINE
  5
39E
100
AcDbEntity
  8
R-DOOR-DETL
100
AcDbLine
 10
14.853611
 20
17.456613
 30
0.0
 11
14.747651
 21
17.456613
 31
0.0
  0
ARC
  5
39F
100
AcDbEntity
  8
R-DOOR-DETL
100
AcDbCircle
 10
14.853611
 20
17.416613
 30
0.0
 40
0.04
100
AcDbArc
 50
2.612502
 51
90.0
  0
ARC
  5
3A0
100
AcDbEntity
  8
R-DOOR-DETL
100
AcDbCircle
 10
14.162225
 20
17.436928
 30
0.0
 40
0.019685
100
AcDbArc
 50
289.471221
 51
90.0
  0
LINE
  5
3A1
100
AcDbEntity
  8
R-DOOR-DETL
100
AcDbLine
 10
14.056265
 20
17.456613
 30
0.0
 11
14.162225
 21
17.456613
 31
0.0
  0
LINE
  5
3A2
100
AcDbEntity
  8
R-DOOR-DETL
100
AcDbLine
 10
14.295161
 20
20.224507
 30
0.0
 11
14.420161
 21
20.130757
 31
0.0
  0
LINE
  5
3A3
100
AcDbEntity
  8
R-DOOR-DETL
100
AcDbLine
 10
14.217782
 20
20.169269
 30
0.0
 11
14.295161
 21
20.224507
 31
0.0
  0
LINE
  5
3A4
100
AcDbEntity
  8
R-DOOR-DETL
100
AcDbLine
 10
14.420161
 20
20.130757
 30
0.0
 11
14.545161
 21
20.224507
 31
0.0
  0
LINE
  5
3A5
100
AcDbEntity
  8
R-DOOR-DETL
100
AcDbLine
 10
14.545161
 20
20.224507
 30
0.0
 11
14.607661
 21
20.130757
 31
0.0
  0
LINE
  5
3A6
100
AcDbEntity
  8
R-DOOR-DETL
100
AcDbLine
 10
14.607661
 20
20.130757
 30
0.0
 11
14.703208
 21
20.16086
 31
0.0
  0
LINE
  5
3A7
100
AcDbEntity
  8
R-DOOR-DETL
100
AcDbLine
 10
14.289604
 20
20.859453
 30
0.0
 11
14.414604
 21
20.953203
 31
0.0
  0
LINE
  5
3A8
100
AcDbEntity
  8
R-DOOR-DETL
100
AcDbLine
 10
14.207651
 20
20.917956
 30
0.0
 11
14.289604
 21
20.859453
 31
0.0
  0
LINE
  5
3A9
100
AcDbEntity
  8
R-DOOR-DETL
100
AcDbLine
 10
14.539604
 20
20.859453
 30
0.0
 11
14.602104
 21
20.953203
 31
0.0
  0
LINE
  5
3AA
100
AcDbEntity
  8
R-DOOR-DETL
100
AcDbLine
 10
14.414604
 20
20.953203
 30
0.0
 11
14.539604
 21
20.859453
 31
0.0
  0
LINE
  5
3AB
100
AcDbEntity
  8
R-DOOR-DETL
100
AcDbLine
 10
14.602104
 20
20.953203
 30
0.0
 11
14.697651
 21
20.9231
 31
0.0
  0
LINE
  5
3AC
100
AcDbEntity
  8
R-DOOR-DETL
100
AcDbLine
 10
15.130454
 20
26.660088
 30
0.0
 11
15.130454
 21
26.929885
 31
0.0
  0
LINE
  5
3AD
100
AcDbEntity
  8
R-DOOR-DETL
100
AcDbLine
 10
15.135454
 20
26.840088
 30
0.0
 11
15.135454
 21
26.670088
 31
0.0
  0
LINE
  5
3AE
100
AcDbEntity
  8
R-DOOR-DETL
100
AcDbLine
 10
13.770454
 20
26.929885
 30
0.0
 11
13.770454
 21
26.660088
 31
0.0
  0
LINE
  5
3AF
100
AcDbEntity
  8
R-DOOR-DETL
100
AcDbLine
 10
13.765454
 20
26.670088
 30
0.0
 11
13.765454
 21
26.840088
 31
0.0
  0
LINE
  5
3B2
100
AcDbEntity
  8
R-DOOR-DETL
  6
BYBLOCK
 62
     3
100
AcDbLine
 10
15.381446
 20
24.074893
 30
0.0
 11
15.381446
 21
27.933885
 31
0.0
  0
LINE
  5
3B3
100
AcDbEntity
  8
R-DOOR-DETL
100
AcDbLine
 10
13.519461
 20
27.933885
 30
0.0
 11
13.519461
 21
24.074893
 31
0.0
  0
CIRCLE
  5
3B4
100
AcDbEntity
  8
R-DOOR-DETL
  6
BYBLOCK
 62
     3
100
AcDbCircle
 10
14.450454
 20
26.693885
 30
0.0
 40
0.1625
  0
CIRCLE
  5
3B5
100
AcDbEntity
  8
R-DOOR-DETL
  6
BYBLOCK
 62
     3
100
AcDbCircle
 10
14.450454
 20
26.693885
 30
0.0
 40
0.1875
  0
CIRCLE
  5
3B6
100
AcDbEntity
  8
R-DOOR-DETL
  6
BYBLOCK
 62
     3
100
AcDbCircle
 10
14.025454
 20
26.693885
 30
0.0
 40
0.1625
  0
CIRCLE
  5
3B7
100
AcDbEntity
  8
R-DOOR-DETL
  6
BYBLOCK
 62
     3
100
AcDbCircle
 10
14.025454
 20
26.693885
 30
0.0
 40
0.1875
  0
LINE
  5
3B8
100
AcDbEntity
  8
R-DOOR-DETL
100
AcDbLine
 10
13.767954
 20
26.918885
 30
0.0
 11
13.767954
 21
26.368885
 31
0.0
  0
LINE
  5
3B9
100
AcDbEntity
  8
R-DOOR-DETL
100
AcDbLine
 10
15.132954
 20
26.918885
 30
0.0
 11
15.132954
 21
26.368885
 31
0.0
  0
CIRCLE
  5
3BA
100
AcDbEntity
  8
R-DOOR-DETL
  6
BYBLOCK
 62
     3
100
AcDbCircle
 10
14.875454
 20
26.693885
 30
0.0
 40
0.1625
  0
CIRCLE
  5
3BB
100
AcDbEntity
  8
R-DOOR-DETL
  6
BYBLOCK
 62
     3
100
AcDbCircle
 10
14.875454
 20
26.693885
 30
0.0
 40
0.1875
  0
TEXT
  5
3BC
100
AcDbEntity
  8
0
100
AcDbText
 10
16.630293
 20
24.098846
 30
0.0
 40
0.36
  1
GLASS CLAMP
  7
ROMANS
100
AcDbText
  0
ARC
  5
3BD
100
AcDbEntity
  8
R-DOOR-DETL
  6
BYBLOCK
 62
     3
100
AcDbCircle
 10
14.307788
 20
25.26899
 30
0.0
 40
0.125
100
AcDbArc
 50
180.0
 51
270.0
  0
LINE
  5
3BE
100
AcDbEntity
  8
R-DOOR-DETL
  6
BYBLOCK
 62
     3
100
AcDbLine
 10
14.490516
 20
25.01399
 30
0.0
 11
14.490516
 21
25.12899
 31
0.0
  0
LINE
  5
3BF
100
AcDbEntity
  8
R-DOOR-DETL
  6
BYBLOCK
 62
     3
100
AcDbLine
 10
14.412788
 20
25.01399
 30
0.0
 11
14.412788
 21
25.12899
 31
0.0
  0
ARC
  5
3C0
100
AcDbEntity
  8
R-DOOR-DETL
  6
BYBLOCK
 62
     3
100
AcDbCircle
 10
14.595516
 20
25.26899
 30
0.0
 40
0.125
100
AcDbArc
 50
270.0
 51
0.0
  0
LINE
  5
3C1
100
AcDbEntity
  8
R-DOOR-DETL
  6
BYBLOCK
 62
     3
100
AcDbLine
 10
13.702955
 20
24.631924
 30
0.0
 11
13.996434
 21
25.140246
 31
0.0
  0
LINE
  5
3C2
100
AcDbEntity
  8
R-DOOR-DETL
  6
BYBLOCK
 62
     3
100
AcDbLine
 10
14.033503
 20
25.191622
 30
0.0
 11
13.755411
 21
24.728799
 31
0.0
  0
LINE
  5
3C3
100
AcDbEntity
  8
R-DOOR-DETL
  6
BYBLOCK
 62
     3
100
AcDbLine
 10
14.869801
 20
25.191622
 30
0.0
 11
15.147893
 21
24.728799
 31
0.0
  0
LINE
  5
3C4
100
AcDbEntity
  8
R-DOOR-DETL
  6
BYBLOCK
 62
     3
100
AcDbLine
 10
14.904473
 20
25.140246
 30
0.0
 11
15.197952
 21
24.631924
 31
0.0
  0
LINE
  5
3C5
100
AcDbEntity
  8
R-DOOR-DETL
  6
BYBLOCK
 62
     3
100
AcDbLine
 10
15.231446
 20
24.506924
 30
0.0
 11
15.231446
 21
24.08856
 31
0.0
  0
LINE
  5
3C6
100
AcDbEntity
  8
R-DOOR-DETL
  6
BYBLOCK
 62
     3
100
AcDbLine
 10
14.91596
 20
24.618662
 30
0.0
 11
14.893569
 21
24.127933
 31
0.0
  0
LINE
  5
3C7
100
AcDbEntity
  8
R-DOOR-DETL
  6
BYBLOCK
 62
     3
100
AcDbLine
 10
13.987344
 20
24.618662
 30
0.0
 11
14.009735
 21
24.127933
 31
0.0
  0
LINE
  5
3C8
100
AcDbEntity
  8
R-DOOR-DETL
100
AcDbLine
 10
13.669461
 20
24.08856
 30
0.0
 11
13.669461
 21
24.506924
 31
0.0
  0
LINE
  5
3C9
100
AcDbEntity
  8
R-DOOR-DETL
  6
BYBLOCK
 62
     3
100
AcDbLine
 10
14.155653
 20
24.13728
 30
0.0
 11
14.155653
 21
24.989147
 31
0.0
  0
LINE
  5
3CA
100
AcDbEntity
  8
R-DOOR-DETL
  6
BYBLOCK
 62
     3
100
AcDbLine
 10
14.155653
 20
24.88728
 30
0.0
 11
14.155653
 21
24.13728
 31
0.0
  0
LINE
  5
3CB
100
AcDbEntity
  8
R-DOOR-DETL
  6
BYBLOCK
 62
     3
100
AcDbLine
 10
14.205653
 20
24.13728
 30
0.0
 11
14.205653
 21
24.88728
 31
0.0
  0
LINE
  5
3CC
100
AcDbEntity
  8
R-DOOR-DETL
  6
BYBLOCK
 62
     3
100
AcDbLine
 10
14.747651
 20
24.13728
 30
0.0
 11
14.747651
 21
24.989147
 31
0.0
  0
LINE
  5
3CD
100
AcDbEntity
  8
R-DOOR-DETL
  6
BYBLOCK
 62
     3
100
AcDbLine
 10
14.747651
 20
24.88728
 30
0.0
 11
14.747651
 21
24.13728
 31
0.0
  0
LINE
  5
3CE
100
AcDbEntity
  8
R-DOOR-DETL
  6
BYBLOCK
 62
     3
100
AcDbLine
 10
14.697651
 20
24.13728
 30
0.0
 11
14.697651
 21
24.88728
 31
0.0
  0
LINE
  5
3CF
100
AcDbEntity
  8
R-DOOR-DETL
  6
BYBLOCK
 62
     3
100
AcDbLine
 10
14.147539
 20
24.007948
 30
0.0
 11
13.986499
 21
24.007948
 31
0.0
  0
ARC
  5
3D0
100
AcDbEntity
  8
R-DOOR-DETL
  6
BYBLOCK
 62
     3
100
AcDbCircle
 10
14.049693
 20
24.129756
 30
0.0
 40
0.04
100
AcDbArc
 50
182.612502
 51
270.0
  0
LINE
  5
3D1
100
AcDbEntity
  8
R-DOOR-DETL
100
AcDbLine
 10
13.675461
 20
23.918893
 30
0.0
 11
14.147381
 21
23.918893
 31
0.0
  0
ARC
  5
3D2
100
AcDbEntity
  8
R-DOOR-DETL
100
AcDbCircle
 10
13.699461
 20
24.08856
 30
0.0
 40
0.03
100
AcDbArc
 50
180.0
 51
260.0
  0
LINE
  5
3D3
100
AcDbEntity
  8
R-DOOR-DETL
100
AcDbLine
 10
13.981289
 20
24.008403
 30
0.0
 11
13.694252
 21
24.059016
 31
0.0
  0
ARC
  5
3D4
100
AcDbEntity
  8
R-DOOR-DETL
  6
BYBLOCK
 62
     3
100
AcDbCircle
 10
13.986499
 20
24.037948
 30
0.0
 40
0.03
100
AcDbArc
 50
260.0
 51
270.0
  0
ARC
  5
3D5
100
AcDbEntity
  8
R-DOOR-DETL
100
AcDbCircle
 10
13.675461
 20
24.074893
 30
0.0
 40
0.156
100
AcDbArc
 50
180.0
 51
270.0
  0
ARC
  5
3D6
100
AcDbEntity
  8
R-DOOR-DETL
  6
BYBLOCK
 62
     3
100
AcDbCircle
 10
15.201446
 20
24.08856
 30
0.0
 40
0.03
100
AcDbArc
 50
280.0
 51
360.0
  0
ARC
  5
3D7
100
AcDbEntity
  8
R-DOOR-DETL
  6
BYBLOCK
 62
     3
100
AcDbCircle
 10
14.914408
 20
24.037948
 30
0.0
 40
0.03
100
AcDbArc
 50
270.0
 51
280.0
  0
ARC
  5
3D8
100
AcDbEntity
  8
R-DOOR-DETL
  6
BYBLOCK
 62
     3
100
AcDbCircle
 10
14.753369
 20
23.998105
 30
0.0
 40
0.009843
100
AcDbArc
 50
90.0
 51
180.0
  0
LINE
  5
3D9
100
AcDbEntity
  8
R-DOOR-DETL
  6
BYBLOCK
 62
     3
100
AcDbLine
 10
14.914408
 20
24.007948
 30
0.0
 11
14.753369
 21
24.007948
 31
0.0
  0
LINE
  5
3DA
100
AcDbEntity
  8
R-DOOR-DETL
  6
BYBLOCK
 62
     3
100
AcDbLine
 10
15.206656
 20
24.059016
 30
0.0
 11
14.919618
 21
24.008403
 31
0.0
  0
ARC
  5
3DB
100
AcDbEntity
  8
R-DOOR-DETL
  6
BYBLOCK
 62
     3
100
AcDbCircle
 10
14.737809
 20
24.13728
 30
0.0
 40
0.009843
100
AcDbArc
 50
289.471221
 51
0.0
  0
LINE
  5
3DC
100
AcDbEntity
  8
R-DOOR-DETL
  6
BYBLOCK
 62
     3
100
AcDbLine
 10
14.747651
 20
24.13728
 30
0.0
 11
14.697651
 21
24.13728
 31
0.0
  0
LINE
  5
3DD
100
AcDbEntity
  8
R-DOOR-DETL
  6
BYBLOCK
 62
     3
100
AcDbLine
 10
14.853611
 20
24.089756
 30
0.0
 11
14.747651
 21
24.089756
 31
0.0
  0
ARC
  5
3DE
100
AcDbEntity
  8
R-DOOR-DETL
  6
BYBLOCK
 62
     3
100
AcDbCircle
 10
14.853611
 20
24.129756
 30
0.0
 40
0.04
100
AcDbArc
 50
270.0
 51
357.387498
  0
ARC
  5
3DF
100
AcDbEntity
  8
R-DOOR-DETL
  6
BYBLOCK
 62
     3
100
AcDbCircle
 10
14.747651
 20
24.109441
 30
0.0
 40
0.019685
100
AcDbArc
 50
109.471221
 51
270.0
  0
ARC
  5
3E0
100
AcDbEntity
  8
R-DOOR-DETL
  6
BYBLOCK
 62
     3
100
AcDbCircle
 10
14.147539
 20
23.998105
 30
0.0
 40
0.009843
100
AcDbArc
 50
0.0
 51
90.0
  0
ARC
  5
3E1
100
AcDbEntity
  8
R-DOOR-DETL
  6
BYBLOCK
 62
     3
100
AcDbCircle
 10
14.165495
 20
24.13728
 30
0.0
 40
0.009843
100
AcDbArc
 50
180.0
 51
250.528779
  0
LINE
  5
3E2
100
AcDbEntity
  8
R-DOOR-DETL
  6
BYBLOCK
 62
     3
100
AcDbLine
 10
14.155653
 20
24.13728
 30
0.0
 11
14.205653
 21
24.13728
 31
0.0
  0
LINE
  5
3E3
100
AcDbEntity
  8
R-DOOR-DETL
  6
BYBLOCK
 62
     3
100
AcDbLine
 10
14.049693
 20
24.089756
 30
0.0
 11
14.155653
 21
24.089756
 31
0.0
  0
ARC
  5
3E4
100
AcDbEntity
  8
R-DOOR-DETL
  6
BYBLOCK
 62
     3
100
AcDbCircle
 10
14.155653
 20
24.109441
 30
0.0
 40
0.019685
100
AcDbArc
 50
270.0
 51
70.528779
  0
ARC
  5
3E5
100
AcDbEntity
  8
R-DOOR-DETL
  6
BYBLOCK
 62
     3
100
AcDbCircle
 10
14.753526
 20
23.928893
 30
0.0
 40
0.01
100
AcDbArc
 50
180.0
 51
270.0
  0
LINE
  5
3E6
100
AcDbEntity
  8
R-DOOR-DETL
  6
BYBLOCK
 62
     3
100
AcDbLine
 10
14.753526
 20
23.918893
 30
0.0
 11
15.225446
 21
23.918893
 31
0.0
  0
ARC
  5
3E7
100
AcDbEntity
  8
R-DOOR-DETL
  6
BYBLOCK
 62
     3
100
AcDbCircle
 10
14.147381
 20
23.928893
 30
0.0
 40
0.01
100
AcDbArc
 50
270.0
 51
360.0
  0
LINE
  5
3E8
100
AcDbEntity
  8
R-DOOR-DETL
  6
BYBLOCK
 62
     3
100
AcDbLine
 10
14.157381
 20
23.928893
 30
0.0
 11
14.157381
 21
23.998105
 31
0.0
  0
ARC
  5
3E9
100
AcDbEntity
  8
R-DOOR-DETL
  6
BYBLOCK
 62
     3
100
AcDbCircle
 10
15.225446
 20
24.074893
 30
0.0
 40
0.156
100
AcDbArc
 50
270.0
 51
360.0
  0
LINE
  5
3EA
100
AcDbEntity
  8
R-DOOR-DETL
  6
BYBLOCK
 62
     3
100
AcDbLine
 10
14.743526
 20
23.998105
 30
0.0
 11
14.743526
 21
23.928893
 31
0.0
  0
ARC
  5
3EB
100
AcDbEntity
  8
R-DOOR-DETL
100
AcDbCircle
 10
13.919461
 20
24.506924
 30
0.0
 40
0.25
100
AcDbArc
 50
150.0
 51
180.0
  0
ARC
  5
3EC
100
AcDbEntity
  8
R-DOOR-DETL
  6
BYBLOCK
 62
     3
100
AcDbCircle
 10
13.957375
 20
24.617295
 30
0.0
 40
0.03
100
AcDbArc
 50
2.612502
 51
90.0
  0
LINE
  5
3ED
100
AcDbEntity
  8
R-DOOR-DETL
  6
BYBLOCK
 62
     3
100
AcDbLine
 10
13.841128
 20
24.647295
 30
0.0
 11
13.957375
 21
24.647295
 31
0.0
  0
ARC
  5
3EE
100
AcDbEntity
  8
R-DOOR-DETL
  6
BYBLOCK
 62
     3
100
AcDbCircle
 10
13.781126
 20
24.713348
 30
0.0
 40
0.03
100
AcDbArc
 50
149.0
 51
239.0
  0
LINE
  5
3EF
100
AcDbEntity
  8
R-DOOR-DETL
  6
BYBLOCK
 62
     3
100
AcDbLine
 10
13.765675
 20
24.687633
 30
0.0
 11
13.825677
 21
24.65158
 31
0.0
  0
ARC
  5
3F0
100
AcDbEntity
  8
R-DOOR-DETL
  6
BYBLOCK
 62
     3
100
AcDbCircle
 10
13.841128
 20
24.677295
 30
0.0
 40
0.03
100
AcDbArc
 50
239.0
 51
270.0
  0
LINE
  5
3F1
100
AcDbEntity
  8
R-DOOR-DETL
  6
BYBLOCK
 62
     3
100
AcDbLine
 10
14.697651
 20
24.88728
 30
0.0
 11
14.747651
 21
24.88728
 31
0.0
  0
ARC
  5
3F2
100
AcDbEntity
  8
R-DOOR-DETL
  6
BYBLOCK
 62
     3
100
AcDbCircle
 10
14.737809
 20
24.989147
 30
0.0
 40
0.009842
100
AcDbArc
 50
0.0
 51
90.0
  0
LINE
  5
3F3
100
AcDbEntity
  8
R-DOOR-DETL
  6
BYBLOCK
 62
     3
100
AcDbLine
 10
14.737809
 20
24.99899
 30
0.0
 11
14.737809
 21
24.94899
 31
0.0
  0
INSERT
  5
3F4
100
AcDbEntity
  8
R-DOOR-ANNO
  6
CONTINUOUS
100
AcDbBlockReference
  2
_DOTSMALL
 10
14.903571
 20
25.011814
 30
0.0
 41
0.18
 42
0.18
 43
0.18
 50
90.385713
1001
ACAD
1000
DSTYLE
1002
{
1070
   173
1070
     1
1070
     6
1000
_DOTSMALL
1002
}
  0
LINE
  5
3F5
100
AcDbEntity
  8
R-DOOR-DETL
  6
BYBLOCK
 62
     3
100
AcDbLine
 10
14.165495
 20
24.99899
 30
0.0
 11
14.397788
 21
24.99899
 31
0.0
  0
LINE
  5
3F6
100
AcDbEntity
  8
R-DOOR-DETL
  6
BYBLOCK
 62
     3
100
AcDbLine
 10
14.410732
 20
24.99899
 30
0.0
 11
14.160732
 21
24.99899
 31
0.0
  0
LINE
  5
3F7
100
AcDbEntity
  8
R-DOOR-DETL
100
AcDbLine
 10
14.265151
 20
24.94899
 30
0.0
 11
14.640151
 21
24.94899
 31
0.0
  0
LINE
  5
3F8
100
AcDbEntity
  8
R-DOOR-DETL
  6
BYBLOCK
 62
     3
100
AcDbLine
 10
14.160732
 20
24.94899
 30
0.0
 11
14.410732
 21
24.94899
 31
0.0
  0
LINE
  5
3F9
100
AcDbEntity
  8
R-DOOR-DETL
  6
BYBLOCK
 62
     3
100
AcDbLine
 10
14.205653
 20
24.88728
 30
0.0
 11
14.155653
 21
24.88728
 31
0.0
  0
ARC
  5
3FA
100
AcDbEntity
  8
R-DOOR-DETL
  6
BYBLOCK
 62
     3
100
AcDbCircle
 10
14.165495
 20
24.989147
 30
0.0
 40
0.009842
100
AcDbArc
 50
90.0
 51
180.0
  0
LINE
  5
3FB
100
AcDbEntity
  8
R-DOOR-DETL
  6
BYBLOCK
 62
     3
100
AcDbLine
 10
14.160732
 20
24.99899
 30
0.0
 11
14.160732
 21
24.94899
 31
0.0
  0
ARC
  5
3FC
100
AcDbEntity
  8
R-DOOR-DETL
  6
BYBLOCK
 62
     3
100
AcDbCircle
 10
14.505516
 20
25.01399
 30
0.0
 40
0.015
100
AcDbArc
 50
180.0
 51
270.0
  0
ARC
  5
3FD
100
AcDbEntity
  8
R-DOOR-DETL
  6
BYBLOCK
 62
     3
100
AcDbCircle
 10
14.397788
 20
25.01399
 30
0.0
 40
0.015
100
AcDbArc
 50
270.0
 51
0.0
  0
LINE
  5
3FE
100
AcDbEntity
  8
R-DOOR-DETL
  6
BYBLOCK
 62
     3
100
AcDbLine
 10
14.487809
 20
24.94899
 30
0.0
 11
14.487809
 21
24.99899
 31
0.0
  0
LINE
  5
3FF
100
AcDbEntity
  8
R-DOOR-DETL
  6
BYBLOCK
 62
     3
100
AcDbLine
 10
14.410732
 20
24.94899
 30
0.0
 11
14.410732
 21
24.99899
 31
0.0
  0
LINE
  5
400
100
AcDbEntity
  8
R-DOOR-DETL
100
AcDbLine
 10
14.207651
 20
24.94899
 30
0.0
 11
14.697651
 21
24.94899
 31
0.0
  0
LINE
  5
401
100
AcDbEntity
  8
R-DOOR-DETL
  6
BYBLOCK
 62
     3
100
AcDbLine
 10
14.737809
 20
24.99899
 30
0.0
 11
14.505516
 21
24.99899
 31
0.0
  0
LINE
  5
402
100
AcDbEntity
  8
R-DOOR-DETL
  6
BYBLOCK
 62
     3
100
AcDbLine
 10
14.487809
 20
24.99899
 30
0.0
 11
14.737809
 21
24.99899
 31
0.0
  0
LINE
  5
403
100
AcDbEntity
  8
R-DOOR-DETL
  6
BYBLOCK
 62
     3
100
AcDbLine
 10
14.737809
 20
24.94899
 30
0.0
 11
14.487809
 21
24.94899
 31
0.0
  0
ARC
  5
404
100
AcDbEntity
  8
R-DOOR-DETL
100
AcDbCircle
 10
14.981446
 20
24.506924
 30
0.0
 40
0.25
100
AcDbArc
 50
360.0
 51
30.0
  0
ARC
  5
405
100
AcDbEntity
  8
0
100
AcDbCircle
 10
15.122178
 20
24.713348
 30
0.0
 40
0.03
100
AcDbArc
 50
301.0
 51
31.0
  0
ARC
  5
406
100
AcDbEntity
  8
R-DOOR-DETL
  6
BYBLOCK
 62
     3
100
AcDbCircle
 10
15.062176
 20
24.677295
 30
0.0
 40
0.03
100
AcDbArc
 50
270.0
 51
301.0
  0
LINE
  5
407
100
AcDbEntity
  8
R-DOOR-DETL
  6
BYBLOCK
 62
     3
100
AcDbLine
 10
15.062176
 20
24.647295
 30
0.0
 11
14.945929
 21
24.647295
 31
0.0
  0
ARC
  5
408
100
AcDbEntity
  8
R-DOOR-DETL
  6
BYBLOCK
 62
     3
100
AcDbCircle
 10
14.945929
 20
24.617295
 30
0.0
 40
0.03
100
AcDbArc
 50
90.0
 51
177.387498
  0
LINE
  5
409
100
AcDbEntity
  8
R-DOOR-DETL
  6
BYBLOCK
 62
     3
100
AcDbLine
 10
15.137629
 20
24.687633
 30
0.0
 11
15.077627
 21
24.65158
 31
0.0
  0
LWPOLYLINE
  5
40A
100
AcDbEntity
  8
R-DOOR-ANNO
  6
CONTINUOUS
100
AcDbPolyline
 90
        3
 70
     0
 43
0.0
 10
14.903571
 20
25.011814
 10
16.391721
 20
24.278846
 10
16.571721
 20
24.278846
1001
ACAD
1000
DSTYLE
1002
{
1070
   173
1070
     1
1070
     6
1000
_DOTSMALL
1002
}
  0
LINE
  5
40B
100
AcDbEntity
  8
R-DOOR-DETL
100
AcDbLine
 10
14.953742
 20
26.087885
 30
0.0
 11
14.953742
 21
25.927842
 31
0.0
  0
LINE
  5
40C
100
AcDbEntity
  8
R-DOOR-DETL
100
AcDbLine
 10
13.947165
 20
25.927842
 30
0.0
 11
13.947165
 21
26.087885
 31
0.0
  0
LINE
  5
40D
100
AcDbEntity
  8
R-DOOR-ANNO
  6
CONTINUOUS
100
AcDbLine
 10
13.586014
 20
26.041924
 30
0.0
 11
12.51496
 21
25.446034
 31
0.0
1001
ACAD
1000
DSTYLE
1002
{
1070
   173
1070
     1
1070
     6
1000
_DOTSMALL
1002
}
  0
LINE
  5
40E
100
AcDbEntity
  8
R-DOOR-DETL
100
AcDbLine
 10
14.450454
 20
25.799181
 30
0.0
 11
13.905349
 21
25.799181
 31
0.0
  0
ARC
  5
40F
100
AcDbEntity
  8
R-DOOR-DETL
  6
BYBLOCK
 62
     3
100
AcDbCircle
 10
14.060454
 20
25.589181
 30
0.0
 40
0.06
100
AcDbArc
 50
90.0
 51
180.0
  0
ARC
  5
410
100
AcDbEntity
  8
R-DOOR-DETL
100
AcDbCircle
 10
13.897015
 20
25.75068
 30
0.0
 40
0.049212
100
AcDbArc
 50
80.249923
 51
131.403987
  0
ARC
  5
411
100
AcDbEntity
  8
R-DOOR-DETL
100
AcDbCircle
 10
13.897953
 20
25.927842
 30
0.0
 40
0.049213
100
AcDbArc
 50
242.278938
 51
0.0
  0
ARC
  5
412
100
AcDbEntity
  8
R-DOOR-DETL
100
AcDbCircle
 10
13.836461
 20
25.839584
 30
0.0
 40
0.059055
100
AcDbArc
 50
49.185014
 51
298.310064
  0
TEXT
  5
413
100
AcDbEntity
  8
0
100
AcDbText
 10
10.875809
 20
25.259575
 30
0.0
 40
0.36
  1
SHOE
  7
ROMANS
100
AcDbText
  0
LINE
  5
414
100
AcDbEntity
  8
R-DOOR-ANNO
  6
CONTINUOUS
100
AcDbLine
 10
12.51496
 20
25.446034
 30
0.0
 11
12.334961
 21
25.446635
 31
0.0
1001
ACAD
1000
DSTYLE
1002
{
1070
   173
1070
     1
1070
     6
1000
_DOTSMALL
1002
}
  0
ARC
  5
415
100
AcDbEntity
  8
R-DOOR-DETL
  6
BYBLOCK
 62
     3
100
AcDbCircle
 10
13.970454
 20
25.155246
 30
0.0
 40
0.03
100
AcDbArc
 50
330.0
 51
360.0
  0
LINE
  5
416
100
AcDbEntity
  8
R-DOOR-DETL
  6
BYBLOCK
 62
     3
100
AcDbLine
 10
14.000454
 20
25.155246
 30
0.0
 11
14.000454
 21
25.589181
 31
0.0
  0
ARC
  5
417
100
AcDbEntity
  8
R-DOOR-DETL
  6
BYBLOCK
 62
     3
100
AcDbCircle
 10
15.003892
 20
25.75068
 30
0.0
 40
0.049213
100
AcDbArc
 50
48.596013
 51
99.750077
  0
ARC
  5
418
100
AcDbEntity
  8
R-DOOR-DETL
100
AcDbCircle
 10
15.002955
 20
25.927842
 30
0.0
 40
0.049213
100
AcDbArc
 50
180.0
 51
297.721062
  0
ARC
  5
419
100
AcDbEntity
  8
R-DOOR-DETL
  6
BYBLOCK
 62
     3
100
AcDbCircle
 10
15.064446
 20
25.839584
 30
0.0
 40
0.059055
100
AcDbArc
 50
241.689936
 51
130.814986
  0
LINE
  5
41A
100
AcDbEntity
  8
R-DOOR-DETL
  6
BYBLOCK
 62
     3
100
AcDbLine
 10
14.995558
 20
25.799181
 30
0.0
 11
14.450454
 21
25.799181
 31
0.0
  0
LINE
  5
41B
100
AcDbEntity
  8
R-DOOR-DETL
  6
BYBLOCK
 62
     3
100
AcDbLine
 10
14.865516
 20
25.46199
 30
0.0
 11
14.865516
 21
25.207073
 31
0.0
  0
LINE
  5
41C
100
AcDbEntity
  8
R-DOOR-DETL
  6
BYBLOCK
 62
     3
100
AcDbLine
 10
14.720516
 20
25.26899
 30
0.0
 11
14.720516
 21
25.39599
 31
0.0
  0
LINE
  5
41D
100
AcDbEntity
  8
R-DOOR-DETL
  6
BYBLOCK
 62
     3
100
AcDbLine
 10
14.705436
 20
25.275349
 30
0.0
 11
14.705436
 21
25.400349
 31
0.0
  0
ARC
  5
41E
100
AcDbEntity
  8
R-DOOR-DETL
  6
BYBLOCK
 62
     3
100
AcDbCircle
 10
14.895516
 20
25.207073
 30
0.0
 40
0.03
100
AcDbArc
 50
180.0
 51
211.0
  0
ARC
  5
41F
100
AcDbEntity
  8
R-DOOR-DETL
  6
BYBLOCK
 62
     3
100
AcDbCircle
 10
14.840454
 20
25.589181
 30
0.0
 40
0.06
100
AcDbArc
 50
360.0
 51
90.0
  0
ARC
  5
420
100
AcDbEntity
  8
R-DOOR-DETL
  6
BYBLOCK
 62
     3
100
AcDbCircle
 10
14.705516
 20
25.39599
 30
0.0
 40
0.015
100
AcDbArc
 50
0.0
 51
90.0
  0
ARC
  5
421
100
AcDbEntity
  8
R-DOOR-DETL
  6
BYBLOCK
 62
     3
100
AcDbCircle
 10
14.771516
 20
25.46199
 30
0.0
 40
0.094
100
AcDbArc
 50
0.0
 51
90.0
  0
ARC
  5
422
100
AcDbEntity
  8
R-DOOR-DETL
  6
BYBLOCK
 62
     3
100
AcDbCircle
 10
14.930454
 20
25.155246
 30
0.0
 40
0.03
100
AcDbArc
 50
180.0
 51
210.0
  0
LINE
  5
423
100
AcDbEntity
  8
R-DOOR-DETL
  6
BYBLOCK
 62
     3
100
AcDbLine
 10
14.900454
 20
25.589181
 30
0.0
 11
14.900454
 21
25.155246
 31
0.0
  0
LINE
  5
424
100
AcDbEntity
  8
R-DOOR-DETL
  6
BYBLOCK
 62
     3
100
AcDbLine
 10
14.060454
 20
25.649181
 30
0.0
 11
14.450454
 21
25.649181
 31
0.0
  0
LINE
  5
425
100
AcDbEntity
  8
R-DOOR-DETL
  6
BYBLOCK
 62
     3
100
AcDbLine
 10
14.397788
 20
25.14399
 30
0.0
 11
14.307788
 21
25.14399
 31
0.0
  0
ARC
  5
426
100
AcDbEntity
  8
R-DOOR-DETL
  6
BYBLOCK
 62
     3
100
AcDbCircle
 10
14.131788
 20
25.46199
 30
0.0
 40
0.094
100
AcDbArc
 50
90.0
 51
180.0
  0
LINE
  5
427
100
AcDbEntity
  8
R-DOOR-DETL
  6
BYBLOCK
 62
     3
100
AcDbLine
 10
14.037788
 20
25.46199
 30
0.0
 11
14.037788
 21
25.207073
 31
0.0
  0
LINE
  5
428
100
AcDbEntity
  8
R-DOOR-DETL
  6
BYBLOCK
 62
     3
100
AcDbLine
 10
14.182788
 20
25.26899
 30
0.0
 11
14.182788
 21
25.39599
 31
0.0
  0
LINE
  5
429
100
AcDbEntity
  8
R-DOOR-DETL
  6
BYBLOCK
 62
     3
100
AcDbLine
 10
14.205436
 20
25.275349
 30
0.0
 11
14.205436
 21
25.400349
 31
0.0
  0
ARC
  5
42A
100
AcDbEntity
  8
R-DOOR-DETL
  6
BYBLOCK
 62
     3
100
AcDbCircle
 10
14.007788
 20
25.207073
 30
0.0
 40
0.03
100
AcDbArc
 50
329.0
 51
0.0
  0
LINE
  5
42B
100
AcDbEntity
  8
R-DOOR-DETL
  6
BYBLOCK
 62
     3
100
AcDbLine
 10
14.298788
 20
25.42599
 30
0.0
 11
14.298788
 21
25.54099
 31
0.0
  0
ARC
  5
42C
100
AcDbEntity
  8
R-DOOR-DETL
  6
BYBLOCK
 62
     3
100
AcDbCircle
 10
14.283788
 20
25.54099
 30
0.0
 40
0.015
100
AcDbArc
 50
0.0
 51
90.0
  0
ARC
  5
42D
100
AcDbEntity
  8
R-DOOR-DETL
  6
BYBLOCK
 62
     3
100
AcDbCircle
 10
14.283788
 20
25.42599
 30
0.0
 40
0.015
100
AcDbArc
 50
270.0
 51
0.0
  0
LINE
  5
42E
100
AcDbEntity
  8
R-DOOR-DETL
  6
BYBLOCK
 62
     3
100
AcDbLine
 10
14.283788
 20
25.55599
 30
0.0
 11
14.131788
 21
25.55599
 31
0.0
  0
LINE
  5
42F
100
AcDbEntity
  8
R-DOOR-DETL
  6
BYBLOCK
 62
     3
100
AcDbLine
 10
14.197788
 20
25.41099
 30
0.0
 11
14.283788
 21
25.41099
 31
0.0
  0
ARC
  5
430
100
AcDbEntity
  8
R-DOOR-DETL
  6
BYBLOCK
 62
     3
100
AcDbCircle
 10
14.197788
 20
25.39599
 30
0.0
 40
0.015
100
AcDbArc
 50
90.0
 51
180.0
  0
LINE
  5
431
100
AcDbEntity
  8
R-DOOR-DETL
  6
BYBLOCK
 62
     3
100
AcDbLine
 10
14.331436
 20
25.275215
 30
0.0
 11
14.579436
 21
25.275215
 31
0.0
  0
LINE
  5
432
100
AcDbEntity
  8
R-DOOR-DETL
  6
BYBLOCK
 62
     3
100
AcDbLine
 10
14.361436
 20
25.305215
 30
0.0
 11
14.549436
 21
25.305215
 31
0.0
  0
LINE
  5
433
100
AcDbEntity
  8
R-DOOR-DETL
  6
BYBLOCK
 62
     3
100
AcDbLine
 10
14.361436
 20
25.245215
 30
0.0
 11
14.549436
 21
25.245215
 31
0.0
  0
LINE
  5
434
100
AcDbEntity
  8
R-DOOR-DETL
  6
BYBLOCK
 62
     3
100
AcDbLine
 10
14.331436
 20
25.635215
 30
0.0
 11
14.579436
 21
25.635215
 31
0.0
  0
LINE
  5
435
100
AcDbEntity
  8
R-DOOR-DETL
  6
BYBLOCK
 62
     3
100
AcDbLine
 10
14.331436
 20
25.575215
 30
0.0
 11
14.579436
 21
25.575215
 31
0.0
  0
LINE
  5
436
100
AcDbEntity
  8
R-DOOR-DETL
  6
BYBLOCK
 62
     3
100
AcDbLine
 10
14.361436
 20
25.605215
 30
0.0
 11
14.549436
 21
25.605215
 31
0.0
  0
LINE
  5
437
100
AcDbEntity
  8
R-DOOR-DETL
  6
BYBLOCK
 62
     3
100
AcDbLine
 10
14.361436
 20
25.545215
 30
0.0
 11
14.549436
 21
25.545215
 31
0.0
  0
LINE
  5
438
100
AcDbEntity
  8
R-DOOR-DETL
  6
BYBLOCK
 62
     3
100
AcDbLine
 10
14.331436
 20
25.395215
 30
0.0
 11
14.579436
 21
25.395215
 31
0.0
  0
LINE
  5
439
100
AcDbEntity
  8
R-DOOR-DETL
  6
BYBLOCK
 62
     3
100
AcDbLine
 10
14.331436
 20
25.515215
 30
0.0
 11
14.579436
 21
25.515215
 31
0.0
  0
LINE
  5
43A
100
AcDbEntity
  8
R-DOOR-DETL
  6
BYBLOCK
 62
     3
100
AcDbLine
 10
14.331436
 20
25.455215
 30
0.0
 11
14.579436
 21
25.455215
 31
0.0
  0
LINE
  5
43B
100
AcDbEntity
  8
R-DOOR-DETL
  6
BYBLOCK
 62
     3
100
AcDbLine
 10
14.361436
 20
25.485215
 30
0.0
 11
14.549436
 21
25.485215
 31
0.0
  0
LINE
  5
43C
100
AcDbEntity
  8
R-DOOR-DETL
  6
BYBLOCK
 62
     3
100
AcDbLine
 10
14.361436
 20
25.425215
 30
0.0
 11
14.549436
 21
25.425215
 31
0.0
  0
LINE
  5
43D
100
AcDbEntity
  8
R-DOOR-DETL
  6
BYBLOCK
 62
     3
100
AcDbLine
 10
14.604516
 20
25.42599
 30
0.0
 11
14.604516
 21
25.54099
 31
0.0
  0
ARC
  5
43E
100
AcDbEntity
  8
R-DOOR-DETL
  6
BYBLOCK
 62
     3
100
AcDbCircle
 10
14.619516
 20
25.42599
 30
0.0
 40
0.015
100
AcDbArc
 50
180.0
 51
270.0
  0
ARC
  5
43F
100
AcDbEntity
  8
R-DOOR-DETL
  6
BYBLOCK
 62
     3
100
AcDbCircle
 10
14.619516
 20
25.54099
 30
0.0
 40
0.015
100
AcDbArc
 50
90.0
 51
180.0
  0
LINE
  5
440
100
AcDbEntity
  8
R-DOOR-DETL
  6
BYBLOCK
 62
     3
100
AcDbLine
 10
14.331436
 20
25.335215
 30
0.0
 11
14.579436
 21
25.335215
 31
0.0
  0
LINE
  5
441
100
AcDbEntity
  8
R-DOOR-DETL
  6
BYBLOCK
 62
     3
100
AcDbLine
 10
14.361436
 20
25.365215
 30
0.0
 11
14.549436
 21
25.365215
 31
0.0
  0
LINE
  5
442
100
AcDbEntity
  8
R-DOOR-DETL
  6
BYBLOCK
 62
     3
100
AcDbLine
 10
14.505516
 20
25.14399
 30
0.0
 11
14.595516
 21
25.14399
 31
0.0
  0
ARC
  5
443
100
AcDbEntity
  8
R-DOOR-DETL
  6
BYBLOCK
 62
     3
100
AcDbCircle
 10
14.505516
 20
25.12899
 30
0.0
 40
0.015
100
AcDbArc
 50
90.0
 51
180.0
  0
ARC
  5
444
100
AcDbEntity
  8
R-DOOR-DETL
  6
BYBLOCK
 62
     3
100
AcDbCircle
 10
14.397788
 20
25.12899
 30
0.0
 40
0.015
100
AcDbArc
 50
0.0
 51
90.0
  0
LINE
  5
445
100
AcDbEntity
  8
R-DOOR-DETL
  6
BYBLOCK
 62
     3
100
AcDbLine
 10
14.205436
 20
25.275349
 30
0.0
 11
14.705436
 21
25.275349
 31
0.0
  0
LINE
  5
446
100
AcDbEntity
  8
R-DOOR-DETL
  6
BYBLOCK
 62
     3
100
AcDbLine
 10
14.205436
 20
25.400349
 30
0.0
 11
14.705436
 21
25.400349
 31
0.0
  0
LINE
  5
447
100
AcDbEntity
  8
R-DOOR-DETL
  6
BYBLOCK
 62
     3
100
AcDbLine
 10
14.450454
 20
25.649181
 30
0.0
 11
14.840454
 21
25.649181
 31
0.0
  0
LINE
  5
448
100
AcDbEntity
  8
R-DOOR-DETL
  6
BYBLOCK
 62
     3
100
AcDbLine
 10
14.705516
 20
25.41099
 30
0.0
 11
14.619516
 21
25.41099
 31
0.0
  0
LINE
  5
449
100
AcDbEntity
  8
R-DOOR-DETL
  6
BYBLOCK
 62
     3
100
AcDbLine
 10
14.619516
 20
25.55599
 30
0.0
 11
14.771516
 21
25.55599
 31
0.0
  0
LINE
  5
44A
100
AcDbEntity
  8
R-DOOR-DETL
  6
BYBLOCK
 62
     3
100
AcDbLine
 10
13.926581
 20
26.6491
 30
0.0
 11
14.014802
 21
26.585867
 31
0.0
  0
ARC
  5
44B
100
AcDbEntity
  8
R-DOOR-DETL
  6
BYBLOCK
 62
     3
100
AcDbCircle
 10
14.025454
 20
26.693885
 30
0.0
 40
0.1005
100
AcDbArc
 50
302.506128
 51
237.493872
  0
LINE
  5
44C
100
AcDbEntity
  8
R-DOOR-DETL
  6
BYBLOCK
 62
     3
100
AcDbLine
 10
13.937233
 20
26.757118
 30
0.0
 11
14.036105
 21
26.801903
 31
0.0
  0
LINE
  5
44D
100
AcDbEntity
  8
R-DOOR-DETL
100
AcDbLine
 10
14.450454
 20
26.368885
 30
0.0
 11
13.699461
 21
26.368885
 31
0.0
  0
LINE
  5
44E
100
AcDbEntity
  8
R-DOOR-DETL
100
AcDbLine
 10
13.978165
 20
26.118885
 30
0.0
 11
14.266692
 21
26.118885
 31
0.0
  0
LINE
  5
44F
100
AcDbEntity
  8
R-DOOR-DETL
100
AcDbLine
 10
15.132954
 20
26.493885
 30
0.0
 11
13.767954
 21
26.493885
 31
0.0
  0
LINE
  5
450
100
AcDbEntity
  8
R-DOOR-DETL
100
AcDbLine
 10
15.132954
 20
26.368885
 30
0.0
 11
13.767954
 21
26.368885
 31
0.0
  0
LINE
  5
451
100
AcDbEntity
  8
R-DOOR-DETL
100
AcDbLine
 10
13.684461
 20
26.655088
 30
0.0
 11
13.750454
 21
26.655088
 31
0.0
  0
LINE
  5
452
100
AcDbEntity
  8
R-DOOR-DETL
100
AcDbLine
 10
13.755454
 20
26.645088
 30
0.0
 11
13.689461
 21
26.645088
 31
0.0
  0
ARC
  5
453
100
AcDbEntity
  8
R-DOOR-DETL
100
AcDbCircle
 10
13.684461
 20
26.640088
 30
0.0
 40
0.015
100
AcDbArc
 50
90.0
 51
180.0
  0
ARC
  5
454
100
AcDbEntity
  8
R-DOOR-DETL
100
AcDbCircle
 10
13.689461
 20
26.630088
 30
0.0
 40
0.015
100
AcDbArc
 50
90.0
 51
180.0
  0
LINE
  5
455
100
AcDbEntity
  8
R-DOOR-DETL
  6
BYBLOCK
 62
     3
100
AcDbLine
 10
13.926581
 20
26.6491
 30
0.0
 11
13.937233
 21
26.757118
 31
0.0
  0
ARC
  5
456
100
AcDbEntity
  8
R-DOOR-DETL
100
AcDbCircle
 10
13.755454
 20
26.660088
 30
0.0
 40
0.015
100
AcDbArc
 50
270.0
 51
360.0
  0
ARC
  5
457
100
AcDbEntity
  8
R-DOOR-DETL
100
AcDbCircle
 10
13.750454
 20
26.670088
 30
0.0
 40
0.015
100
AcDbArc
 50
270.0
 51
0.0
  0
LINE
  5
458
100
AcDbEntity
  8
R-DOOR-DETL
  6
BYBLOCK
 62
     3
100
AcDbLine
 10
13.87592
 20
26.384385
 30
0.0
 11
13.981634
 21
26.567486
 31
0.0
  0
LINE
  5
459
100
AcDbEntity
  8
R-DOOR-DETL
100
AcDbLine
 10
13.705461
 20
26.368885
 30
0.0
 11
13.849073
 21
26.368885
 31
0.0
  0
ARC
  5
45A
100
AcDbEntity
  8
R-DOOR-DETL
100
AcDbCircle
 10
13.699461
 20
26.398885
 30
0.0
 40
0.03
100
AcDbArc
 50
180.0
 51
270.0
  0
ARC
  5
45B
100
AcDbEntity
  8
R-DOOR-DETL
100
AcDbCircle
 10
13.705461
 20
26.399885
 30
0.0
 40
0.031
100
AcDbArc
 50
180.0
 51
270.0
  0
ARC
  5
45C
100
AcDbEntity
  8
R-DOOR-DETL
100
AcDbCircle
 10
13.978165
 20
26.087885
 30
0.0
 40
0.031
100
AcDbArc
 50
90.0
 51
180.0
  0
ARC
  5
45D
100
AcDbEntity
  8
R-DOOR-DETL
  6
BYBLOCK
 62
     3
100
AcDbCircle
 10
13.849073
 20
26.399885
 30
0.0
 40
0.031
100
AcDbArc
 50
270.0
 51
330.0
  0
ARC
  5
45E
100
AcDbEntity
  8
0
  6
BYBLOCK
 62
     0
100
AcDbCircle
 10
13.604272
 20
26.052109
 30
0.0
 40
0.01125
100
AcDbArc
 50
209.089746
 51
29.089746
  0
ARC
  5
45F
100
AcDbEntity
  8
0
  6
BYBLOCK
 62
     0
100
AcDbCircle
 10
13.604272
 20
26.052109
 30
0.0
 40
0.01125
100
AcDbArc
 50
29.089746
 51
209.089746
  0
LINE
  5
460
100
AcDbEntity
  8
R-DOOR-DETL
100
AcDbLine
 10
13.669461
 20
26.398885
 30
0.0
 11
13.669461
 21
26.640088
 31
0.0
  0
LINE
  5
461
100
AcDbEntity
  8
R-DOOR-DETL
100
AcDbLine
 10
13.674461
 20
26.630088
 30
0.0
 11
13.674461
 21
26.399885
 31
0.0
  0
ARC
  5
462
100
AcDbEntity
  8
R-DOOR-DETL
  6
BYBLOCK
 62
     3
100
AcDbCircle
 10
13.954787
 20
26.582986
 30
0.0
 40
0.031
100
AcDbArc
 50
330.0
 51
57.493872
  0
ARC
  5
463
100
AcDbEntity
  8
R-DOOR-DETL
100
AcDbCircle
 10
15.216446
 20
26.640088
 30
0.0
 40
0.015
100
AcDbArc
 50
0.0
 51
90.0
  0
ARC
  5
464
100
AcDbEntity
  8
R-DOOR-DETL
100
AcDbCircle
 10
15.211446
 20
26.630088
 30
0.0
 40
0.015
100
AcDbArc
 50
0.0
 51
90.0
  0
ARC
  5
465
100
AcDbEntity
  8
R-DOOR-DETL
100
AcDbCircle
 10
15.150454
 20
26.670088
 30
0.0
 40
0.015
100
AcDbArc
 50
180.0
 51
270.0
  0
ARC
  5
466
100
AcDbEntity
  8
R-DOOR-DETL
100
AcDbCircle
 10
15.145454
 20
26.660088
 30
0.0
 40
0.015
100
AcDbArc
 50
180.0
 51
270.0
  0
LINE
  5
467
100
AcDbEntity
  8
R-DOOR-DETL
100
AcDbLine
 10
15.150454
 20
26.655088
 30
0.0
 11
15.216446
 21
26.655088
 31
0.0
  0
LINE
  5
468
100
AcDbEntity
  8
R-DOOR-DETL
100
AcDbLine
 10
15.211446
 20
26.645088
 30
0.0
 11
15.145454
 21
26.645088
 31
0.0
  0
LINE
  5
469
100
AcDbEntity
  8
R-DOOR-DETL
  6
BYBLOCK
 62
     3
100
AcDbLine
 10
14.799512
 20
26.771436
 30
0.0
 11
14.770321
 21
26.666893
 31
0.0
  0
LINE
  5
46A
100
AcDbEntity
  8
R-DOOR-DETL
  6
BYBLOCK
 62
     3
100
AcDbLine
 10
14.980586
 20
26.720877
 30
0.0
 11
14.951395
 21
26.616333
 31
0.0
  0
LINE
  5
46B
100
AcDbEntity
  8
R-DOOR-DETL
  6
BYBLOCK
 62
     3
100
AcDbLine
 10
14.951395
 20
26.616333
 30
0.0
 11
14.846263
 21
26.589342
 31
0.0
  0
LINE
  5
46C
100
AcDbEntity
  8
R-DOOR-DETL
  6
BYBLOCK
 62
     3
100
AcDbLine
 10
14.846263
 20
26.589342
 30
0.0
 11
14.770321
 21
26.666893
 31
0.0
  0
LINE
  5
46D
100
AcDbEntity
  8
R-DOOR-DETL
  6
BYBLOCK
 62
     3
100
AcDbLine
 10
14.980586
 20
26.720877
 30
0.0
 11
14.904644
 21
26.798428
 31
0.0
  0
ARC
  5
46E
100
AcDbEntity
  8
R-DOOR-DETL
  6
BYBLOCK
 62
     3
100
AcDbCircle
 10
14.875454
 20
26.693885
 30
0.0
 40
0.1005
100
AcDbArc
 50
302.506128
 51
237.493872
  0
LINE
  5
46F
100
AcDbEntity
  8
R-DOOR-DETL
  6
BYBLOCK
 62
     3
100
AcDbLine
 10
14.904644
 20
26.798428
 30
0.0
 11
14.799512
 21
26.771436
 31
0.0
  0
LINE
  5
470
100
AcDbEntity
  8
R-DOOR-DETL
  6
BYBLOCK
 62
     3
100
AcDbLine
 10
14.014802
 20
26.585867
 30
0.0
 11
14.113674
 21
26.630651
 31
0.0
  0
LINE
  5
471
100
AcDbEntity
  8
R-DOOR-DETL
  6
BYBLOCK
 62
     3
100
AcDbLine
 10
14.113674
 20
26.630651
 30
0.0
 11
14.124326
 21
26.738669
 31
0.0
  0
LINE
  5
472
100
AcDbEntity
  8
R-DOOR-DETL
  6
BYBLOCK
 62
     3
100
AcDbLine
 10
14.036105
 20
26.801903
 30
0.0
 11
14.124326
 21
26.738669
 31
0.0
  0
LINE
  5
473
100
AcDbEntity
  8
R-DOOR-DETL
  6
BYBLOCK
 62
     3
100
AcDbLine
 10
14.504724
 20
26.787885
 30
0.0
 11
14.396183
 21
26.787885
 31
0.0
  0
LINE
  5
474
100
AcDbEntity
  8
R-DOOR-DETL
  6
BYBLOCK
 62
     3
100
AcDbLine
 10
14.504724
 20
26.599885
 30
0.0
 11
14.396183
 21
26.599885
 31
0.0
  0
LINE
  5
475
100
AcDbEntity
  8
R-DOOR-DETL
  6
BYBLOCK
 62
     3
100
AcDbLine
 10
14.558995
 20
26.693885
 30
0.0
 11
14.504724
 21
26.599885
 31
0.0
  0
LINE
  5
476
100
AcDbEntity
  8
R-DOOR-DETL
  6
BYBLOCK
 62
     3
100
AcDbLine
 10
14.341912
 20
26.693885
 30
0.0
 11
14.396183
 21
26.599885
 31
0.0
  0
LINE
  5
477
100
AcDbEntity
  8
R-DOOR-DETL
  6
BYBLOCK
 62
     3
100
AcDbLine
 10
14.504724
 20
26.787885
 30
0.0
 11
14.558995
 21
26.693885
 31
0.0
  0
LINE
  5
478
100
AcDbEntity
  8
R-DOOR-DETL
  6
BYBLOCK
 62
     3
100
AcDbLine
 10
14.396183
 20
26.787885
 30
0.0
 11
14.341912
 21
26.693885
 31
0.0
  0
LINE
  5
479
100
AcDbEntity
  8
R-DOOR-DETL
  6
BYBLOCK
 62
     3
100
AcDbLine
 10
14.919274
 20
26.567486
 30
0.0
 11
15.024987
 21
26.384385
 31
0.0
  0
LINE
  5
47A
100
AcDbEntity
  8
R-DOOR-DETL
  6
BYBLOCK
 62
     3
100
AcDbLine
 10
14.72592
 20
26.384385
 30
0.0
 11
14.831634
 21
26.567486
 31
0.0
  0
ARC
  5
47B
100
AcDbEntity
  8
R-DOOR-DETL
100
AcDbCircle
 10
15.201446
 20
26.398885
 30
0.0
 40
0.03
100
AcDbArc
 50
270.0
 51
0.0
  0
ARC
  5
47C
100
AcDbEntity
  8
R-DOOR-DETL
100
AcDbCircle
 10
15.195446
 20
26.399885
 30
0.0
 40
0.031
100
AcDbArc
 50
270.0
 51
0.0
  0
ARC
  5
47D
100
AcDbEntity
  8
R-DOOR-DETL
100
AcDbCircle
 10
14.922742
 20
26.087885
 30
0.0
 40
0.031
100
AcDbArc
 50
360.0
 51
90.0
  0
ARC
  5
47E
100
AcDbEntity
  8
R-DOOR-DETL
  6
BYBLOCK
 62
     3
100
AcDbCircle
 10
15.051834
 20
26.399885
 30
0.0
 40
0.031
100
AcDbArc
 50
210.0
 51
270.0
  0
ARC
  5
47F
100
AcDbEntity
  8
R-DOOR-DETL
  6
BYBLOCK
 62
     3
100
AcDbCircle
 10
14.699073
 20
26.399885
 30
0.0
 40
0.031
100
AcDbArc
 50
270.0
 51
330.0
  0
LINE
  5
480
100
AcDbEntity
  8
R-DOOR-DETL
100
AcDbLine
 10
15.051834
 20
26.368885
 30
0.0
 11
15.195446
 21
26.368885
 31
0.0
  0
ARC
  5
481
100
AcDbEntity
  8
R-DOOR-DETL
100
AcDbCircle
 10
14.450454
 20
26.12233
 30
0.0
 40
0.15678
100
AcDbArc
 50
190.315077
 51
214.562525
  0
LINE
  5
482
100
AcDbEntity
  8
R-DOOR-DETL
  6
BYBLOCK
 62
     3
100
AcDbLine
 10
14.069274
 20
26.567486
 30
0.0
 11
14.174987
 21
26.384385
 31
0.0
  0
ARC
  5
483
100
AcDbEntity
  8
R-DOOR-DETL
100
AcDbCircle
 10
14.266692
 20
26.088885
 30
0.0
 40
0.03
100
AcDbArc
 50
10.315077
 51
90.0
  0
ARC
  5
484
100
AcDbEntity
  8
R-DOOR-DETL
  6
BYBLOCK
 62
     3
100
AcDbCircle
 10
14.201834
 20
26.399885
 30
0.0
 40
0.031
100
AcDbArc
 50
210.0
 51
270.0
  0
ARC
  5
485
100
AcDbEntity
  8
R-DOOR-DETL
100
AcDbCircle
 10
14.634215
 20
26.088885
 30
0.0
 40
0.03
100
AcDbArc
 50
90.0
 51
169.684923
  0
ARC
  5
486
100
AcDbEntity
  8
R-DOOR-DETL
100
AcDbCircle
 10
14.361871
 20
26.061306
 30
0.0
 40
0.049213
100
AcDbArc
 50
214.562525
 51
27.417802
  0
ARC
  5
487
100
AcDbEntity
  8
R-DOOR-DETL
100
AcDbCircle
 10
14.539036
 20
26.061306
 30
0.0
 40
0.049213
100
AcDbArc
 50
152.582198
 51
325.437475
  0
ARC
  5
488
100
AcDbEntity
  8
R-DOOR-DETL
100
AcDbCircle
 10
14.450454
 20
26.12233
 30
0.0
 40
0.15678
100
AcDbArc
 50
325.437475
 51
349.684923
  0
ARC
  5
489
100
AcDbEntity
  8
R-DOOR-DETL
100
AcDbCircle
 10
14.450454
 20
26.12233
 30
0.0
 40
0.059055
100
AcDbArc
 50
319.488274
 51
220.511726
  0
LINE
  5
48A
100
AcDbEntity
  8
R-DOOR-DETL
  6
BYBLOCK
 62
     3
100
AcDbLine
 10
14.201834
 20
26.368885
 30
0.0
 11
14.699073
 21
26.368885
 31
0.0
  0
LINE
  5
48B
100
AcDbEntity
  8
R-DOOR-DETL
100
AcDbLine
 10
14.634215
 20
26.118885
 30
0.0
 11
14.922742
 21
26.118885
 31
0.0
  0
LINE
  5
48C
100
AcDbEntity
  8
R-DOOR-DETL
100
AcDbLine
 10
15.201446
 20
26.368885
 30
0.0
 11
14.450454
 21
26.368885
 31
0.0
  0
ARC
  5
48D
100
AcDbEntity
  8
R-DOOR-DETL
  6
BYBLOCK
 62
     3
100
AcDbCircle
 10
14.09612
 20
26.582986
 30
0.0
 40
0.031
100
AcDbArc
 50
122.506128
 51
210.0
  0
LINE
  5
48E
100
AcDbEntity
  8
R-DOOR-DETL
100
AcDbLine
 10
15.231446
 20
26.640088
 30
0.0
 11
15.231446
 21
26.398885
 31
0.0
  0
LINE
  5
48F
100
AcDbEntity
  8
R-DOOR-DETL
100
AcDbLine
 10
15.226446
 20
26.399885
 30
0.0
 11
15.226446
 21
26.630088
 31
0.0
  0
ARC
  5
490
100
AcDbEntity
  8
R-DOOR-DETL
  6
BYBLOCK
 62
     3
100
AcDbCircle
 10
14.94612
 20
26.582986
 30
0.0
 40
0.031
100
AcDbArc
 50
122.506128
 51
210.0
  0
ARC
  5
491
100
AcDbEntity
  8
R-DOOR-DETL
  6
BYBLOCK
 62
     3
100
AcDbCircle
 10
14.804787
 20
26.582986
 30
0.0
 40
0.031
100
AcDbArc
 50
330.0
 51
57.493872
  0
LWPOLYLINE
  5
492
100
AcDbEntity
  8
R-DOOR-DETL
 62
     3
100
AcDbPolyline
 90
       27
 70
     0
 43
0.0
 10
16.620454
 20
28.385885
 42
-0.985813
 10
16.480482
 20
28.383885
 10
16.337954
 20
28.383885
 42
1.0
 10
16.337954
 20
28.338885
 10
16.370454
 20
28.338885
 10
16.412187
 20
28.249388
 10
16.385644
 20
28.237011
 42
0.802585
 10
16.394097
 20
28.198885
 10
16.685454
 20
28.198885
 42
0.414214
 10
16.700454
 20
28.213885
 10
16.700454
 20
29.948885
 10
12.200454
 20
29.948885
 10
12.200454
 20
28.213885
 42
0.414214
 10
12.215454
 20
28.198885
 10
12.50681
 20
28.198885
 42
0.802585
 10
12.515263
 20
28.237011
 10
12.48872
 20
28.249388
 10
12.530454
 20
28.338885
 10
12.562954
 20
28.338885
 42
1.0
 10
12.562954
 20
28.383885
 10
12.420425
 20
28.383885
 42
-0.985813
 10
12.280454
 20
28.385885
 10
12.280454
 20
29.833885
 42
-0.414214
 10
12.295454
 20
29.848885
 10
16.605454
 20
29.848885
 42
-0.414214
 10
16.620454
 20
29.833885
 10
16.620454
 20
28.383885
  0
LINE
  5
493
100
AcDbEntity
  8
R-DOOR-DETL
100
AcDbLine
 10
15.281446
 20
27.933885
 30
0.0
 11
15.281446
 21
27.553885
 31
0.0
  0
LINE
  5
494
100
AcDbEntity
  8
R-DOOR-DETL
100
AcDbLine
 10
13.619461
 20
27.553885
 30
0.0
 11
13.619461
 21
27.933885
 31
0.0
  0
LINE
  5
495
100
AcDbEntity
  8
R-DOOR-DETL
100
AcDbLine
 10
15.132954
 20
26.918885
 30
0.0
 11
13.767954
 21
26.918885
 31
0.0
  0
LINE
  5
496
100
AcDbEntity
  8
R-DOOR-DETL
100
AcDbLine
 10
15.115454
 20
26.944885
 30
0.0
 11
13.785454
 21
26.944885
 31
0.0
  0
ARC
  5
497
100
AcDbEntity
  8
R-DOOR-DETL
100
AcDbCircle
 10
13.634461
 20
27.553885
 30
0.0
 40
0.015
100
AcDbArc
 50
180.0
 51
270.0
  0
ARC
  5
498
100
AcDbEntity
  8
R-DOOR-DETL
100
AcDbCircle
 10
13.654461
 20
27.523885
 30
0.0
 40
0.015
100
AcDbArc
 50
0.0
 51
90.0
  0
LINE
  5
499
100
AcDbEntity
  8
R-DOOR-DETL
100
AcDbLine
 10
13.654461
 20
27.538885
 30
0.0
 11
13.634461
 21
27.538885
 31
0.0
  0
LINE
  5
49A
100
AcDbEntity
  8
R-DOOR-DETL
100
AcDbLine
 10
13.750454
 20
26.855088
 30
0.0
 11
13.684461
 21
26.855088
 31
0.0
  0
ARC
  5
49B
100
AcDbEntity
  8
R-DOOR-DETL
100
AcDbCircle
 10
13.684461
 20
26.870088
 30
0.0
 40
0.015
100
AcDbArc
 50
180.0
 51
270.0
  0
ARC
  5
49C
100
AcDbEntity
  8
R-DOOR-DETL
100
AcDbCircle
 10
13.785454
 20
26.929885
 30
0.0
 40
0.015
100
AcDbArc
 50
90.0
 51
180.0
  0
ARC
  5
49D
100
AcDbEntity
  8
R-DOOR-DETL
100
AcDbCircle
 10
13.750454
 20
26.840088
 30
0.0
 40
0.015
100
AcDbArc
 50
0.0
 51
90.0
  0
LINE
  5
49E
100
AcDbEntity
  8
R-DOOR-DETL
100
AcDbLine
 10
13.669461
 20
26.870088
 30
0.0
 11
13.669461
 21
27.523885
 31
0.0
  0
ARC
  5
49F
100
AcDbEntity
  8
R-DOOR-DETL
100
AcDbCircle
 10
15.266446
 20
27.553885
 30
0.0
 40
0.015
100
AcDbArc
 50
270.0
 51
0.0
  0
LINE
  5
4A0
100
AcDbEntity
  8
R-DOOR-DETL
100
AcDbLine
 10
15.266446
 20
27.538885
 30
0.0
 11
15.246446
 21
27.538885
 31
0.0
  0
ARC
  5
4A1
100
AcDbEntity
  8
R-DOOR-DETL
100
AcDbCircle
 10
15.246446
 20
27.523885
 30
0.0
 40
0.015
100
AcDbArc
 50
90.0
 51
180.0
  0
ARC
  5
4A2
100
AcDbEntity
  8
R-DOOR-DETL
100
AcDbCircle
 10
15.216446
 20
26.870088
 30
0.0
 40
0.015
100
AcDbArc
 50
270.0
 51
0.0
  0
ARC
  5
4A3
100
AcDbEntity
  8
R-DOOR-DETL
100
AcDbCircle
 10
15.150454
 20
26.840088
 30
0.0
 40
0.015
100
AcDbArc
 50
90.0
 51
180.0
  0
ARC
  5
4A4
100
AcDbEntity
  8
R-DOOR-DETL
100
AcDbCircle
 10
15.115454
 20
26.929885
 30
0.0
 40
0.015
100
AcDbArc
 50
360.0
 51
90.0
  0
LINE
  5
4A5
100
AcDbEntity
  8
R-DOOR-DETL
100
AcDbLine
 10
15.216446
 20
26.855088
 30
0.0
 11
15.150454
 21
26.855088
 31
0.0
  0
LINE
  5
4A6
100
AcDbEntity
  8
R-DOOR-DETL
100
AcDbLine
 10
15.231446
 20
27.523885
 30
0.0
 11
15.231446
 21
26.870088
 31
0.0
  0
ARC
  5
4A8
100
AcDbEntity
  8
R-DOOR-DETL
100
AcDbCircle
 10
13.604461
 20
27.933885
 30
0.0
 40
0.015
100
AcDbArc
 50
0.0
 51
90.0
  0
ARC
  5
4A9
100
AcDbEntity
  8
R-DOOR-DETL
100
AcDbCircle
 10
13.534461
 20
27.933885
 30
0.0
 40
0.015
100
AcDbArc
 50
90.0
 51
180.0
  0
LINE
  5
4AA
100
AcDbEntity
  8
R-DOOR-DETL
100
AcDbLine
 10
13.604461
 20
27.948885
 30
0.0
 11
13.534461
 21
27.948885
 31
0.0
  0
ARC
  5
4AB
100
AcDbEntity
  8
R-DOOR-DETL
  6
BYBLOCK
 62
     3
100
AcDbCircle
 10
15.366446
 20
27.933885
 30
0.0
 40
0.015
100
AcDbArc
 50
0.0
 51
90.0
  0
LINE
  5
4AC
100
AcDbEntity
  8
R-DOOR-DETL
  6
BYBLOCK
 62
     3
100
AcDbLine
 10
15.366446
 20
27.948885
 30
0.0
 11
15.296446
 21
27.948885
 31
0.0
  0
ARC
  5
4AD
100
AcDbEntity
  8
R-DOOR-DETL
  6
BYBLOCK
 62
     3
100
AcDbCircle
 10
15.296446
 20
27.933885
 30
0.0
 40
0.015
100
AcDbArc
 50
90.0
 51
180.0
  0
POINT
  5
4AE
100
AcDbEntity
  8
R-DOOR-DETL
  6
BYBLOCK
 62
     3
100
AcDbPoint
 10
15.331446
 20
27.948885
 30
0.0
  0
LINE
  5
4AF
100
AcDbEntity
  8
0
100
AcDbLine
 10
17.450454
 20
29.948885
 30
0.0
 11
11.450454
 21
29.948885
 31
0.0
  0
TEXT
  5
4B0
100
AcDbEntity
  8
DIMN
100
AcDbText
 10
14.55358
 20
36.907101
 30
0.0
 40
0.375
  1
IF 1/2"[13mm] THRESHOLD IS USED, 
100
AcDbText
  0
LINE
  5
4B1
100
AcDbEntity
  8
R-DOOR-PATT
  6
CONTINUOUS
 62
     5
100
AcDbLine
 10
12.936333
 20
31.948885
 30
0.0
 11
11.450454
 21
30.463006
 31
0.0
  0
LINE
  5
4B2
100
AcDbEntity
  8
R-DOOR-PATT
  6
CONTINUOUS
 62
     5
100
AcDbLine
 10
12.494391
 20
31.948885
 30
0.0
 11
11.450454
 21
30.904947
 31
0.0
  0
LINE
  5
4B3
100
AcDbEntity
  8
R-DOOR-PATT
  6
CONTINUOUS
 62
     5
100
AcDbLine
 10
12.052449
 20
31.948885
 30
0.0
 11
11.450454
 21
31.346889
 31
0.0
  0
LINE
  5
4B4
100
AcDbEntity
  8
R-DOOR-PATT
  6
CONTINUOUS
 62
     5
100
AcDbLine
 10
11.610507
 20
31.948885
 30
0.0
 11
11.450454
 21
31.788831
 31
0.0
  0
TEXT
  5
4B5
100
AcDbEntity
  8
DIMN
100
AcDbText
 10
14.578603
 20
35.0252
 30
0.0
 40
0.375
  1
IS CLEAR OPENING LESS 10-11/16"[272mm]
100
AcDbText
  0
TEXT
  5
4B6
100
AcDbEntity
  8
DIMN
100
AcDbText
 10
14.534299
 20
36.271464
 30
0.0
 40
0.375
  1
THE DIMENSION FROM FLOOR TO GLASS
100
AcDbText
  0
TEXT
  5
4B7
100
AcDbEntity
  8
DIMN
100
AcDbText
 10
14.534299
 20
35.644984
 30
0.0
 40
0.375
  1
INCREASES BY 1/2"[13mm] I.E.  GLASS
100
AcDbText
  0
LINE
  5
4B8
100
AcDbEntity
  8
BORDER
 62
     7
100
AcDbLine
 39
15.0
 10
28.904892
 20
38.475081
 30
0.0
 11
0.0
 21
38.475081
 31
0.0
  0
TEXT
  5
4B9
100
AcDbEntity
  8
DIMN
100
AcDbText
 10
14.506477
 20
37.518699
 30
0.0
 40
0.375
  1
NOTES:
100
AcDbText
  0
INSERT
  5
55D
100
AcDbEntity
  8
0
100
AcDbBlockReference
  2
A$C46F93324
 10
0.084034
 20
0.244364
 30
0.0
  0
LINE
  5
5BD
100
AcDbEntity
  8
R-DOOR-DETL
100
AcDbLine
 10
14.163258
 20
17.681645
 30
0.0
 11
13.671338
 21
17.681645
 31
0.0
  0
LINE
  5
5BE
100
AcDbEntity
  8
R-DOOR-DETL
100
AcDbLine
 10
14.163258
 20
17.631645
 30
0.0
 11
14.163258
 21
17.681645
 31
0.0
  0
ARC
  5
5BF
100
AcDbEntity
  8
R-DOOR-DETL
100
AcDbCircle
 10
13.671338
 20
17.475645
 30
0.0
 40
0.206
100
AcDbArc
 50
90.0
 51
180.0
  0
ARC
  5
5C0
100
AcDbEntity
  8
R-DOOR-DETL
100
AcDbCircle
 10
13.671338
 20
17.475645
 30
0.0
 40
0.156
100
AcDbArc
 50
90.0
 51
180.0
  0
LINE
  5
5C1
100
AcDbEntity
  8
R-DOOR-DETL
100
AcDbLine
 10
13.515338
 20
11.687192
 30
0.0
 11
13.515338
 21
17.475645
 31
0.0
  0
LINE
  5
5C2
100
AcDbEntity
  8
R-DOOR-DETL
100
AcDbLine
 10
13.465338
 20
17.475645
 30
0.0
 11
13.465338
 21
11.687192
 31
0.0
  0
LINE
  5
5C3
100
AcDbEntity
  8
R-DOOR-DETL
100
AcDbLine
 10
13.671338
 20
17.631645
 30
0.0
 11
14.163258
 21
17.631645
 31
0.0
  0
LINE
  5
5C4
100
AcDbEntity
  8
R-DOOR-DETL
100
AcDbLine
 10
14.749403
 20
17.681645
 30
0.0
 11
15.241323
 21
17.681645
 31
0.0
  0
LINE
  5
5C5
100
AcDbEntity
  8
R-DOOR-DETL
100
AcDbLine
 10
14.749403
 20
17.631645
 30
0.0
 11
14.749403
 21
17.681645
 31
0.0
  0
LINE
  5
5C6
100
AcDbEntity
  8
R-DOOR-DETL
100
AcDbLine
 10
15.241323
 20
17.631645
 30
0.0
 11
14.749403
 21
17.631645
 31
0.0
  0
ARC
  5
5C7
100
AcDbEntity
  8
R-DOOR-DETL
100
AcDbCircle
 10
15.241323
 20
17.475645
 30
0.0
 40
0.206
100
AcDbArc
 50
360.0
 51
90.0
  0
ARC
  5
5C8
100
AcDbEntity
  8
R-DOOR-DETL
100
AcDbCircle
 10
15.241323
 20
17.475645
 30
0.0
 40
0.156
100
AcDbArc
 50
360.0
 51
90.0
  0
LINE
  5
5C9
100
AcDbEntity
  8
R-DOOR-DETL
100
AcDbLine
 10
15.397323
 20
11.687192
 30
0.0
 11
15.397323
 21
17.475645
 31
0.0
  0
LINE
  5
5CA
100
AcDbEntity
  8
R-DOOR-DETL
100
AcDbLine
 10
15.447323
 20
17.475645
 30
0.0
 11
15.447323
 21
11.687192
 31
0.0
  0
LINE
  5
5CB
100
AcDbEntity
  8
R-DOOR-DETL
100
AcDbLine
 10
13.465338
 20
11.687192
 30
0.0
 11
13.515338
 21
11.687192
 31
0.0
  0
LINE
  5
5CC
100
AcDbEntity
  8
R-DOOR-DETL
100
AcDbLine
 10
15.447323
 20
11.687192
 30
0.0
 11
15.397323
 21
11.687192
 31
0.0
  0
INSERT
  5
5E3
100
AcDbEntity
  8
R-DOOR-DETL
100
AcDbBlockReference
  2
A$C216638AD
 10
12.486649
 20
28.198885
 30
0.0
  0
LINE
  5
61C
100
AcDbEntity
  8
R-DOOR-ANNO
100
AcDbLine
 10
9.29332
 20
20.601472
 30
0.0
 11
9.246162
 21
20.493763
 31
0.0
  0
LINE
  5
61D
100
AcDbEntity
  8
R-DOOR-ANNO
100
AcDbLine
 10
9.225951
 20
20.601472
 30
0.0
 11
9.178793
 21
20.493763
 31
0.0
  0
TEXT
  5
61E
100
AcDbEntity
  8
R-DOOR-ANNO
 62
     0
100
AcDbText
 10
6.438431
 20
20.237502
 30
0.0
 40
0.354375
  1
LESS 
100
AcDbText
  0
TEXT
  5
61F
100
AcDbEntity
  8
R-DOOR-ANNO
100
AcDbText
 10
8.109636
 20
20.283777
 30
0.0
 40
0.3375
  1
10
100
AcDbText
  0
TEXT
  5
620
100
AcDbEntity
  8
R-DOOR-ANNO
 62
     0
100
AcDbText
 10
6.84319
 20
19.484328
 30
0.0
 40
0.354375
  1
[259mm]
100
AcDbText
  0
LINE
  5
621
100
AcDbEntity
  8
R-DOOR-ANNO
100
AcDbLine
 10
8.681847
 20
20.439087
 30
0.0
 11
9.063738
 21
20.439087
 31
0.0
  0
TEXT
  5
622
100
AcDbEntity
  8
R-DOOR-ANNO
100
AcDbText
 10
8.716018
 20
20.042661
 30
0.0
 40
0.30375
  1
16
100
AcDbText
  0
TEXT
  5
623
100
AcDbEntity
  8
R-DOOR-ANNO
 62
     0
100
AcDbText
 10
5.66194
 20
20.990676
 30
0.0
 40
0.354375
  1
CLEAR OPENING
100
AcDbText
  0
TEXT
  5
624
100
AcDbEntity
  8
R-DOOR-ANNO
 62
     0
100
AcDbText
 10
7.020378
 20
21.581301
 30
0.0
 40
0.354375
  1
GLASS 
100
AcDbText
  0
TEXT
  5
625
100
AcDbEntity
  8
R-DOOR-ANNO
100
AcDbText
 10
8.768434
 20
20.548911
 30
0.0
 40
0.30375
  1
3
100
AcDbText
  0
LEADER
  5
628
100
AcDbEntity
  8
R-DOOR-ANNO
100
AcDbLeader
  3
STANDARD
 76
     2
 10
7.843204
 20
24.94899
 30
0.0
 10
7.843204
 20
22.241034
 30
0.0
 77
   256
1001
ACAD
1000
DSTYLE
1002
{
1070
   288
1070
     1
1070
   270
1070
     4
1070
    40
1040
2.0
1070
     4
1000
mm
1070
   274
1070
     0
1070
   171
1070
     0
1070
   170
1070
     1
1002
}
  0
LEADER
  5
629
100
AcDbEntity
  8
R-DOOR-ANNO
100
AcDbLeader
  3
STANDARD
 76
     2
 10
7.851916
 20
16.5941
 30
0.0
 10
7.851916
 20
19.150351
 30
0.0
 77
   256
1001
ACAD
1000
DSTYLE
1002
{
1070
   288
1070
     1
1070
   270
1070
     4
1070
    40
1040
2.0
1070
     4
1000
mm
1070
   274
1070
     0
1070
   171
1070
     0
1070
   170
1070
     1
1002
}
  0
DIMENSION
  5
637
100
AcDbEntity
  8
R-DOOR-ANNO
100
AcDbDimension
  2
*D24
 10
7.836006
 20
29.948885
 30
0.0
 11
7.836006
 21
27.568098
 31
0.0
 70
   160
  3
STANDARD
100
AcDbAlignedDimension
 13
14.160732
 23
24.94899
 33
0.0
 14
11.450454
 24
29.948885
 34
0.0
 50
90.0
100
AcDbRotatedDimension
1001
ACAD
1000
DSTYLE
1002
{
1070
   288
1070
     1
1070
   270
1070
     4
1070
    40
1040
2.0
1070
     4
1000
mm
1070
   274
1070
     0
1070
   171
1070
     0
1070
   170
1070
     1
1002
}
  0
DIMENSION
  5
646
100
AcDbEntity
  8
R-DOOR-ANNO
100
AcDbDimension
  2
*D25
 10
20.218078
 20
28.198885
 30
0.0
 11
18.478078
 21
26.991869
 31
0.0
 70
   160
  3
STANDARD
100
AcDbAlignedDimension
 13
15.331446
 23
27.948885
 33
0.0
 14
16.685454
 24
28.198885
 34
0.0
 50
90.0
100
AcDbRotatedDimension
1001
ACAD
1000
DSTYLE
1002
{
1070
   288
1070
     1
1070
   270
1070
     4
1070
    40
1040
2.0
1070
     4
1000
mm
1070
   274
1070
     0
1070
   171
1070
     0
1070
   170
1070
     1
1002
}
  0
DIMENSION
  5
662
100
AcDbEntity
  8
R-DOOR-ANNO
100
AcDbDimension
  2
*D27
 10
7.847258
 20
11.437192
 30
0.0
 11
7.847258
 21
14.265766
 31
0.0
 70
   160
  3
STANDARD
100
AcDbAlignedDimension
 13
14.131439
 23
16.621127
 33
0.0
 14
11.45633
 24
11.437192
 34
0.0
 50
90.0
100
AcDbRotatedDimension
1001
ACAD
1000
DSTYLE
1002
{
1070
   288
1070
     1
1070
   270
1070
     4
1070
    40
1040
2.0
1070
     4
1000
mm
1070
   274
1070
     0
1070
   171
1070
     0
1070
   170
1070
     1
1002
}
  0
DIMENSION
  5
671
100
AcDbEntity
  8
R-DOOR-ANNO
100
AcDbDimension
  2
*D28
 10
19.477351
 20
11.437192
 30
0.0
 11
21.217351
 21
12.885346
 31
0.0
 70
   160
  3
STANDARD
100
AcDbAlignedDimension
 13
15.447323
 23
11.687192
 33
0.0
 14
16.243032
 24
11.437192
 34
0.0
 50
90.0
100
AcDbRotatedDimension
1001
ACAD
1000
DSTYLE
1002
{
1070
   288
1070
     1
1070
   270
1070
     4
1070
    40
1040
2.0
1070
     4
1000
mm
1070
   274
1070
     0
1070
   171
1070
     0
1070
   170
1070
     1
1002
}
  0
ENDSEC
  0
SECTION
  2
OBJECTS
  0
DICTIONARY
  5
C
100
AcDbDictionary
  3
ACAD_GROUP
350
D
  3
ACAD_MLINESTYLE
350
1B
  0
DICTIONARY
  5
D
102
{ACAD_REACTORS
330
C
102
}
100
AcDbDictionary
  0
DICTIONARY
  5
1B
102
{ACAD_REACTORS
330
C
102
}
100
AcDbDictionary
  3
STANDARD
350
1C
  0
MLINESTYLE
  5
1C
102
{ACAD_REACTORS
330
1B
102
}
100
AcDbMlineStyle
  2
STANDARD
 70
     0
  3

 62
   256
 51
90.0
 52
90.0
 71
     2
 49
0.5
 62
   256
  6
BYLAYER
 49
-0.5
 62
   256
  6
BYLAYER
  0
ENDSEC
  0
EOF
