  0
SECTION
  2
HEADER
  9
$ACADVER
  1
AC1014
  9
$ACADMAINTVER
 70
     9
  9
$DWGCODEPAGE
  3
ANSI_1252
  9
$INSBASE
 10
0.0
 20
0.0
 30
0.0
  9
$EXTMIN
 10
-0.054933
 20
-0.054933
 30
0.0
  9
$EXTMAX
 10
16.113206
 20
21.429978
 30
1.0
  9
$LIMMIN
 10
0.0
 20
0.0
  9
$LIMMAX
 10
16.058274
 20
21.375045
  9
$ORTHOMODE
 70
     1
  9
$REGENMODE
 70
     1
  9
$FILLMODE
 70
     1
  9
$QTEXTMODE
 70
     0
  9
$MIRRTEXT
 70
     1
  9
$DRAGMODE
 70
     2
  9
$LTSCALE
 40
1.0
  9
$OSMODE
 70
     1
  9
$ATTMODE
 70
     1
  9
$TEXTSIZE
 40
0.2
  9
$TRACEWID
 40
0.05
  9
$TEXTSTYLE
  7
STANDARD
  9
$CLAYER
  8
0
  9
$CELTYPE
  6
BYLAYER
  9
$CECOLOR
 62
   256
  9
$CELTSCALE
 40
1.0
  9
$DELOBJ
 70
     1
  9
$DISPSILH
 70
     0
  9
$DIMSCALE
 40
2.0
  9
$DIMASZ
 40
0.18
  9
$DIMEXO
 40
0.0625
  9
$DIMDLI
 40
0.38
  9
$DIMRND
 40
0.0
  9
$DIMDLE
 40
0.0
  9
$DIMEXE
 40
0.18
  9
$DIMTP
 40
0.0
  9
$DIMTM
 40
0.0
  9
$DIMTXT
 40
0.18
  9
$DIMCEN
 40
0.09
  9
$DIMTSZ
 40
0.0
  9
$DIMTOL
 70
     0
  9
$DIMLIM
 70
     0
  9
$DIMTIH
 70
     1
  9
$DIMTOH
 70
     1
  9
$DIMSE1
 70
     0
  9
$DIMSE2
 70
     0
  9
$DIMTAD
 70
     0
  9
$DIMZIN
 70
     0
  9
$DIMBLK
  1

  9
$DIMASO
 70
     1
  9
$DIMSHO
 70
     1
  9
$DIMPOST
  1

  9
$DIMAPOST
  1
mm
  9
$DIMALT
 70
     1
  9
$DIMALTD
 70
     0
  9
$DIMALTF
 40
25.4
  9
$DIMLFAC
 40
1.0
  9
$DIMTOFL
 70
     0
  9
$DIMTVP
 40
0.0
  9
$DIMTIX
 70
     0
  9
$DIMSOXD
 70
     0
  9
$DIMSAH
 70
     0
  9
$DIMBLK1
  1

  9
$DIMBLK2
  1

  9
$DIMSTYLE
  2
STANDARD
  9
$DIMCLRD
 70
     0
  9
$DIMCLRE
 70
     0
  9
$DIMCLRT
 70
     0
  9
$DIMTFAC
 40
1.0
  9
$DIMGAP
 40
0.09
  9
$DIMJUST
 70
     0
  9
$DIMSD1
 70
     0
  9
$DIMSD2
 70
     0
  9
$DIMTOLJ
 70
     1
  9
$DIMTZIN
 70
     0
  9
$DIMALTZ
 70
     0
  9
$DIMALTTZ
 70
     0
  9
$DIMFIT
 70
     3
  9
$DIMUPT
 70
     0
  9
$DIMUNIT
 70
     4
  9
$DIMDEC
 70
     4
  9
$DIMTDEC
 70
     4
  9
$DIMALTU
 70
     2
  9
$DIMALTTD
 70
     0
  9
$DIMTXSTY
  7
ROMANS
  9
$DIMAUNIT
 70
     0
  9
$LUNITS
 70
     2
  9
$LUPREC
 70
     4
  9
$SKETCHINC
 40
0.1
  9
$FILLETRAD
 40
0.5
  9
$AUNITS
 70
     0
  9
$AUPREC
 70
     0
  9
$MENU
  1
.
  9
$ELEVATION
 40
0.0
  9
$PELEVATION
 40
0.0
  9
$THICKNESS
 40
0.0
  9
$LIMCHECK
 70
     0
  9
$BLIPMODE
 70
     0
  9
$CHAMFERA
 40
0.5
  9
$CHAMFERB
 40
0.5
  9
$CHAMFERC
 40
1.0
  9
$CHAMFERD
 40
0.0
  9
$SKPOLY
 70
     0
  9
$TDCREATE
 40
2451961.609040498
  9
$TDUPDATE
 40
2452103.445950682
  9
$TDINDWG
 40
0.0269724537
  9
$TDUSRTIMER
 40
0.0269724537
  9
$USRTIMER
 70
     1
  9
$ANGBASE
 50
0.0
  9
$ANGDIR
 70
     0
  9
$PDMODE
 70
     0
  9
$PDSIZE
 40
0.0
  9
$PLINEWID
 40
0.0
  9
$COORDS
 70
     1
  9
$SPLFRAME
 70
     0
  9
$SPLINETYPE
 70
     6
  9
$SPLINESEGS
 70
     8
  9
$ATTDIA
 70
     0
  9
$ATTREQ
 70
     1
  9
$HANDLING
 70
     1
  9
$HANDSEED
  5
9EE
  9
$SURFTAB1
 70
     6
  9
$SURFTAB2
 70
     6
  9
$SURFTYPE
 70
     6
  9
$SURFU
 70
     6
  9
$SURFV
 70
     6
  9
$UCSNAME
  2
SM-TEMP
  9
$UCSORG
 10
0.0
 20
0.0
 30
0.0
  9
$UCSXDIR
 10
1.0
 20
0.0
 30
0.0
  9
$UCSYDIR
 10
0.0
 20
1.0
 30
0.0
  9
$PUCSNAME
  2

  9
$PUCSORG
 10
0.0
 20
0.0
 30
0.0
  9
$PUCSXDIR
 10
1.0
 20
0.0
 30
0.0
  9
$PUCSYDIR
 10
0.0
 20
1.0
 30
0.0
  9
$USERI1
 70
     0
  9
$USERI2
 70
     0
  9
$USERI3
 70
     0
  9
$USERI4
 70
     0
  9
$USERI5
 70
     0
  9
$USERR1
 40
0.0
  9
$USERR2
 40
0.0
  9
$USERR3
 40
0.0
  9
$USERR4
 40
0.0
  9
$USERR5
 40
0.0
  9
$WORLDVIEW
 70
     1
  9
$SHADEDGE
 70
     3
  9
$SHADEDIF
 70
    70
  9
$TILEMODE
 70
     1
  9
$MAXACTVP
 70
    48
  9
$PINSBASE
 10
0.0
 20
0.0
 30
0.0
  9
$PLIMCHECK
 70
     0
  9
$PEXTMIN
 10
1.000000E+20
 20
1.000000E+20
 30
1.000000E+20
  9
$PEXTMAX
 10
-1.000000E+20
 20
-1.000000E+20
 30
-1.000000E+20
  9
$PLIMMIN
 10
0.0
 20
0.0
  9
$PLIMMAX
 10
12.0
 20
9.0
  9
$UNITMODE
 70
     0
  9
$VISRETAIN
 70
     1
  9
$PLINEGEN
 70
     0
  9
$PSLTSCALE
 70
     1
  9
$TREEDEPTH
 70
  3020
  9
$PICKSTYLE
 70
     1
  9
$CMLSTYLE
  2
STANDARD
  9
$CMLJUST
 70
     0
  9
$CMLSCALE
 40
1.0
  9
$PROXYGRAPHICS
 70
     1
  9
$MEASUREMENT
 70
     0
  0
ENDSEC
  0
SECTION
  2
CLASSES
  0
CLASS
  1
HATCH
  2
AcDbHatch
  3
"ACAD_SEDONA"
 90
        0
280
     0
281
     1
  0
CLASS
  1
LWPOLYLINE
  2
AcDbPolyline
  3
"AutoCAD"
 90
        0
280
     0
281
     1
  0
ENDSEC
  0
SECTION
  2
TABLES
  0
TABLE
  2
VPORT
  5
8
100
AcDbSymbolTable
 70
     1
  0
VPORT
  5
9E6
100
AcDbSymbolTableRecord
100
AcDbViewportTableRecord
  2
*ACTIVE
 70
     0
 10
0.0
 20
0.0
 11
1.0
 21
1.0
 12
8.054756
 22
10.687523
 13
0.0
 23
0.0
 14
0.5
 24
0.5
 15
0.5
 25
0.5
 16
0.0
 26
0.0
 36
1.0
 17
0.0
 27
0.0
 37
0.0
 40
21.720617
 41
1.74735
 42
50.0
 43
0.0
 44
0.0
 50
0.0
 51
0.0
 71
     0
 72
 10000
 73
     1
 74
     1
 75
     0
 76
     0
 77
     0
 78
     0
  0
ENDTAB
  0
TABLE
  2
LTYPE
  5
5
100
AcDbSymbolTable
 70
     2
  0
LTYPE
  5
12
100
AcDbSymbolTableRecord
100
AcDbLinetypeTableRecord
  2
BYBLOCK
 70
     0
  3

 72
    65
 73
     0
 40
0.0
  0
LTYPE
  5
13
100
AcDbSymbolTableRecord
100
AcDbLinetypeTableRecord
  2
BYLAYER
 70
     0
  3

 72
    65
 73
     0
 40
0.0
  0
LTYPE
  5
14
100
AcDbSymbolTableRecord
100
AcDbLinetypeTableRecord
  2
CONTINUOUS
 70
     0
  3
Solid line
 72
    65
 73
     0
 40
0.0
  0
LTYPE
  5
883
100
AcDbSymbolTableRecord
100
AcDbLinetypeTableRecord
  2
HIDDEN
 70
     0
  3
Hidden __ __ __ __ __ __ __ __ __ __ __ __ __ _
 72
    65
 73
     2
 40
0.375
 49
0.25
 74
     0
 49
-0.125
 74
     0
  0
ENDTAB
  0
TABLE
  2
LAYER
  5
2
100
AcDbSymbolTable
 70
    12
  0
LAYER
  5
E
100
AcDbSymbolTableRecord
100
AcDbLayerTableRecord
  2
0
 70
     0
 62
     7
  6
CONTINUOUS
  0
LAYER
  5
B1
100
AcDbSymbolTableRecord
100
AcDbLayerTableRecord
  2
DEFPOINTS
 70
     0
 62
     7
  6
CONTINUOUS
  0
LAYER
  5
B2
100
AcDbSymbolTableRecord
100
AcDbLayerTableRecord
  2
DIMN
 70
     0
 62
     4
  6
CONTINUOUS
  0
LAYER
  5
B3
100
AcDbSymbolTableRecord
100
AcDbLayerTableRecord
  2
BORDER
 70
     0
 62
     4
  6
CONTINUOUS
  0
LAYER
  5
B4
100
AcDbSymbolTableRecord
100
AcDbLayerTableRecord
  2
BOARDER
 70
     0
 62
     7
  6
CONTINUOUS
  0
LAYER
  5
B5
100
AcDbSymbolTableRecord
100
AcDbLayerTableRecord
  2
R-DOOR-ANNO
 70
     0
 62
     7
  6
CONTINUOUS
  0
LAYER
  5
B6
100
AcDbSymbolTableRecord
100
AcDbLayerTableRecord
  2
R-DOOR-PATT
 70
     0
 62
     5
  6
CONTINUOUS
  0
LAYER
  5
B7
100
AcDbSymbolTableRecord
100
AcDbLayerTableRecord
  2
R-DOOR-DETL
 70
     0
 62
     3
  6
CONTINUOUS
  0
LAYER
  5
45A
100
AcDbSymbolTableRecord
100
AcDbLayerTableRecord
  2
10INCHRAIL
 70
     0
 62
     3
  6
CONTINUOUS
  0
LAYER
  5
884
100
AcDbSymbolTableRecord
100
AcDbLayerTableRecord
  2
1
 70
     0
 62
     1
  6
CONTINUOUS
  0
LAYER
  5
885
100
AcDbSymbolTableRecord
100
AcDbLayerTableRecord
  2
2
 70
     0
 62
     2
  6
HIDDEN
  0
LAYER
  5
886
100
AcDbSymbolTableRecord
100
AcDbLayerTableRecord
  2
GREEN
 70
     0
 62
     3
  6
CONTINUOUS
  0
ENDTAB
  0
TABLE
  2
STYLE
  5
3
100
AcDbSymbolTable
 70
     2
  0
STYLE
  5
F
100
AcDbSymbolTableRecord
100
AcDbTextStyleTableRecord
  2
STANDARD
 70
     0
 40
0.0
 41
1.0
 50
0.0
 71
     0
 42
0.2
  3
txt
  4

  0
STYLE
  5
B8
100
AcDbSymbolTableRecord
100
AcDbTextStyleTableRecord
  2
ROMANS
 70
     0
 40
0.0
 41
1.0
 50
0.0
 71
     0
 42
0.5
  3
romans
  4

  0
ENDTAB
  0
TABLE
  2
VIEW
  5
6
100
AcDbSymbolTable
 70
     0
  0
ENDTAB
  0
TABLE
  2
UCS
  5
7
100
AcDbSymbolTable
 70
     0
  0
ENDTAB
  0
TABLE
  2
APPID
  5
9
100
AcDbSymbolTable
 70
     1
  0
APPID
  5
10
100
AcDbSymbolTableRecord
100
AcDbRegAppTableRecord
  2
ACAD
 70
     0
  0
ENDTAB
  0
TABLE
  2
DIMSTYLE
  5
A
100
AcDbSymbolTable
 70
     2
  0
DIMSTYLE
105
1D
102
{ACAD_REACTORS
330
5FB
330
9D5
330
9E3
102
}
100
AcDbSymbolTableRecord
100
AcDbDimStyleTableRecord
  2
STANDARD
 70
     0
  3

  4

  5

  6

  7

 40
2.0
 41
0.18
 42
0.0625
 43
0.38
 44
0.18
 45
0.0
 46
0.0
 47
0.0
 48
0.0
140
0.18
141
0.09
142
0.0
143
25.4
144
1.0
145
0.0
146
1.0
147
0.09
 71
     0
 72
     0
 73
     1
 74
     1
 75
     0
 76
     0
 77
     0
 78
     0
170
     0
171
     2
172
     0
173
     0
174
     0
175
     0
176
     0
177
     0
178
     0
270
     7
271
     4
272
     4
273
     2
274
     2
340
B8
275
     0
280
     0
281
     0
282
     0
283
     1
284
     0
285
     0
286
     0
287
     3
288
     0
  0
DIMSTYLE
105
B9
100
AcDbSymbolTableRecord
100
AcDbDimStyleTableRecord
  2
ROMANS
 70
     0
  3

  4

  5

  6

  7

 40
2.0
 41
0.18
 42
0.0625
 43
0.38
 44
0.18
 45
0.0
 46
0.0
 47
0.0
 48
0.0
140
0.18
141
0.09
142
0.0
143
25.4
144
1.0
145
0.0
146
1.0
147
0.09
 71
     0
 72
     0
 73
     1
 74
     1
 75
     0
 76
     0
 77
     0
 78
     0
170
     0
171
     2
172
     0
173
     0
174
     0
175
     0
176
     0
177
     0
178
     0
270
     7
271
     4
272
     0
273
     2
274
     2
340
B8
275
     0
280
     0
281
     0
282
     0
283
     1
284
     0
285
     0
286
     0
287
     3
288
     0
  0
ENDTAB
  0
TABLE
  2
BLOCK_RECORD
  5
1
100
AcDbSymbolTable
 70
    36
  0
BLOCK_RECORD
  5
18
100
AcDbSymbolTableRecord
100
AcDbBlockTableRecord
  2
*MODEL_SPACE
  0
BLOCK_RECORD
  5
15
100
AcDbSymbolTableRecord
100
AcDbBlockTableRecord
  2
*PAPER_SPACE
  0
BLOCK_RECORD
  5
29
100
AcDbSymbolTableRecord
100
AcDbBlockTableRecord
  2
A$C2189253D
  0
BLOCK_RECORD
  5
2D
100
AcDbSymbolTableRecord
100
AcDbBlockTableRecord
  2
A$C21405640
  0
BLOCK_RECORD
  5
35
100
AcDbSymbolTableRecord
100
AcDbBlockTableRecord
  2
A$C35F20450
  0
BLOCK_RECORD
  5
39
100
AcDbSymbolTableRecord
100
AcDbBlockTableRecord
  2
_DOTSMALL
  0
BLOCK_RECORD
  5
40
100
AcDbSymbolTableRecord
100
AcDbBlockTableRecord
  2
A$C108A264A
  0
BLOCK_RECORD
  5
44
100
AcDbSymbolTableRecord
100
AcDbBlockTableRecord
  2
A$C262D5DC0
  0
BLOCK_RECORD
  5
48
100
AcDbSymbolTableRecord
100
AcDbBlockTableRecord
  2
UHEADER
  0
BLOCK_RECORD
  5
50
100
AcDbSymbolTableRecord
100
AcDbBlockTableRecord
  2
CRLINFO
  0
BLOCK_RECORD
  5
54
100
AcDbSymbolTableRecord
100
AcDbBlockTableRecord
  2
*D8
  0
BLOCK_RECORD
  5
61
100
AcDbSymbolTableRecord
100
AcDbBlockTableRecord
  2
*D9
  0
BLOCK_RECORD
  5
6E
100
AcDbSymbolTableRecord
100
AcDbBlockTableRecord
  2
*D10
  0
BLOCK_RECORD
  5
7C
100
AcDbSymbolTableRecord
100
AcDbBlockTableRecord
  2
*D11
  0
BLOCK_RECORD
  5
8A
100
AcDbSymbolTableRecord
100
AcDbBlockTableRecord
  2
*D12
  0
BLOCK_RECORD
  5
97
100
AcDbSymbolTableRecord
100
AcDbBlockTableRecord
  2
*D13
  0
BLOCK_RECORD
  5
A4
100
AcDbSymbolTableRecord
100
AcDbBlockTableRecord
  2
*D14
  0
BLOCK_RECORD
  5
BA
100
AcDbSymbolTableRecord
100
AcDbBlockTableRecord
  2
A$C65534D62
  0
BLOCK_RECORD
  5
3F7
100
AcDbSymbolTableRecord
100
AcDbBlockTableRecord
  2
A$C4AD64EA0
  0
BLOCK_RECORD
  5
3FD
100
AcDbSymbolTableRecord
100
AcDbBlockTableRecord
  2
*D17
  0
BLOCK_RECORD
  5
40B
100
AcDbSymbolTableRecord
100
AcDbBlockTableRecord
  2
*D18
  0
BLOCK_RECORD
  5
418
100
AcDbSymbolTableRecord
100
AcDbBlockTableRecord
  2
*D19
  0
BLOCK_RECORD
  5
425
100
AcDbSymbolTableRecord
100
AcDbBlockTableRecord
  2
*D20
  0
BLOCK_RECORD
  5
433
100
AcDbSymbolTableRecord
100
AcDbBlockTableRecord
  2
*D21
  0
BLOCK_RECORD
  5
440
100
AcDbSymbolTableRecord
100
AcDbBlockTableRecord
  2
*D22
  0
BLOCK_RECORD
  5
44D
100
AcDbSymbolTableRecord
100
AcDbBlockTableRecord
  2
*D23
  0
BLOCK_RECORD
  5
45B
100
AcDbSymbolTableRecord
100
AcDbBlockTableRecord
  2
A$C09E33746
  0
BLOCK_RECORD
  5
6A7
100
AcDbSymbolTableRecord
100
AcDbBlockTableRecord
  2
*D26
  0
BLOCK_RECORD
  5
847
100
AcDbSymbolTableRecord
100
AcDbBlockTableRecord
  2
A$C6BE867F4
  0
BLOCK_RECORD
  5
84F
100
AcDbSymbolTableRecord
100
AcDbBlockTableRecord
  2
A$C0E897680
  0
BLOCK_RECORD
  5
853
100
AcDbSymbolTableRecord
100
AcDbBlockTableRecord
  2
A$C60D73A4C
  0
BLOCK_RECORD
  5
857
100
AcDbSymbolTableRecord
100
AcDbBlockTableRecord
  2
A$C74654F65
  0
BLOCK_RECORD
  5
85B
100
AcDbSymbolTableRecord
100
AcDbBlockTableRecord
  2
A$C5C3203C0
  0
BLOCK_RECORD
  5
887
100
AcDbSymbolTableRecord
100
AcDbBlockTableRecord
  2
A$C4C9F0BC8
  0
BLOCK_RECORD
  5
9C8
100
AcDbSymbolTableRecord
100
AcDbBlockTableRecord
  2
*D34
  0
BLOCK_RECORD
  5
9D6
100
AcDbSymbolTableRecord
100
AcDbBlockTableRecord
  2
*D35
  0
ENDTAB
  0
ENDSEC
  0
SECTION
  2
BLOCKS
  0
BLOCK
  5
19
100
AcDbEntity
  8
0
100
AcDbBlockBegin
  2
*MODEL_SPACE
 70
     0
 10
0.0
 20
0.0
 30
0.0
  3
*MODEL_SPACE
  1

  0
ENDBLK
  5
1A
100
AcDbEntity
  8
0
100
AcDbBlockEnd
  0
BLOCK
  5
16
100
AcDbEntity
 67
     1
  8
0
100
AcDbBlockBegin
  2
*PAPER_SPACE
 70
     0
 10
0.0
 20
0.0
 30
0.0
  3
*PAPER_SPACE
  1

  0
ENDBLK
  5
17
100
AcDbEntity
 67
     1
  8
0
100
AcDbBlockEnd
  0
BLOCK
  5
2B
100
AcDbEntity
  8
0
100
AcDbBlockBegin
  2
A$C2189253D
 70
     0
 10
0.0
 20
0.0
 30
0.0
  3
A$C2189253D
  1

  0
HATCH
  5
2A
100
AcDbEntity
  8
BOARDER
  6
CONTINUOUS
 62
     4
100
AcDbHatch
 10
0.0
 20
0.0
 30
0.0
210
0.0
220
0.0
230
1.0
  2
ANSI31
 70
     0
 71
     0
 91
        3
 92
        7
 72
     1
 73
     1
 93
        8
 10
0.1273646403742585
 20
0.2547293417921961
 42
1.0
 10
0.1273646403742585
 20
0.0000000027943585
 42
0.0
 10
0.2547293098731842
 20
0.000000002794359
 42
0.0
 10
0.2547293098731842
 20
0.1198050709874456
 42
0.0
 10
0.1273646403742585
 20
0.1198050709874452
 42
-1.0
 10
0.1273646403742585
 20
0.1349242735991094
 42
0.0
 10
0.2547293098731842
 20
0.1349242735991099
 42
0.0
 10
0.2547293098731842
 20
0.2547293417921961
 42
0.0
 97
        0
 92
        7
 72
     1
 73
     1
 93
       12
 10
0.2729453093314724
 20
0.2547293417921956
 42
0.0
 10
0.2729453093314742
 20
0.0000000027943585
 42
0.0
 10
0.3927503775245586
 20
0.0000000027943585
 42
0.0
 10
0.3927503775245586
 20
0.1273646722932775
 42
-1.0
 10
0.4078695801362234
 20
0.1273646722932775
 42
0.0
 10
0.4078695801362234
 20
0.0000000027943581
 42
0.0
 10
0.5276746483293114
 20
0.0000000027943576
 42
0.0
 10
0.5276746483293114
 20
0.1106172266293384
 42
0.4142135623730797
 10
0.5109272026653731
 20
0.1273646722932775
 42
0.4142135623730875
 10
0.5276746483293114
 20
0.1441121179572162
 42
0.0
 10
0.5276746483293114
 20
0.2379818961282574
 42
0.4142135623731106
 10
0.5109272026653713
 20
0.2547293417921961
 42
0.0
 97
        0
 92
        7
 72
     0
 73
     1
 93
        6
 10
0.5458906477876049
 20
0.2547293417921961
 10
0.5458906477876031
 20
0.0000000027943576
 10
0.8006199867854384
 20
0.0000000027943581
 10
0.8006199867854402
 20
0.127364672293278
 10
0.6732553172865199
 20
0.1273646722932771
 10
0.6732553172865181
 20
0.2547293417921961
 97
        0
 75
     0
 76
     1
 52
0.0
 41
0.040373
 77
     0
 78
     1
 53
45.0
 43
-7.406223
 44
-1.968858
 45
-0.0035684948455219
 46
0.0035684948455219
 79
     0
 47
0.0009
 98
        3
 10
0.137804
 20
0.196439
 10
0.137804
 20
0.196439
 10
0.137804
 20
0.196439
  0
ENDBLK
  5
2C
100
AcDbEntity
  8
0
100
AcDbBlockEnd
  0
BLOCK
  5
33
100
AcDbEntity
  8
0
100
AcDbBlockBegin
  2
A$C21405640
 70
     0
 10
0.0
 20
0.0
 30
0.0
  3
A$C21405640
  1

  0
MTEXT
  5
2E
100
AcDbEntity
  8
0
100
AcDbMText
 10
0.504549
 20
2.99683
 30
0.0
 40
0.614073
 41
19.242589
 71
     1
 72
     5
  1
\fArial|b0|i1|c0|p34;Phone Orders (800) 421-6144\PFax Orders     (800) 262-3299\PWWW.CRLAURENCE.COM
  0
MTEXT
  5
2F
100
AcDbEntity
  8
0
100
AcDbMText
 10
7.702431
 20
6.455969
 30
0.0
 40
0.876824
 41
21.937261
 71
     1
 72
     5
  1
\fArial|b1|i0|c0|p34;DOOR RAIL SYSTEM
  0
LWPOLYLINE
  5
30
100
AcDbEntity
  8
0
100
AcDbPolyline
 90
        2
 70
     0
 43
0.098252
 10
0.440527
 20
5.243578
 10
19.707511
 20
5.243578
  0
MTEXT
  5
31
100
AcDbEntity
  8
0
100
AcDbMText
 10
0.488738
 20
4.418164
 30
0.0
 40
0.776802
 41
19.420041
 71
     1
 72
     5
  1
\fArial|b1|i1|c0|p34;C.R. Laurence Architectural Products
  0
INSERT
  5
32
100
AcDbEntity
  8
0
 62
     7
100
AcDbBlockReference
  2
A$C2189253D
 10
0.460151
 20
5.536767
 30
0.0
 41
8.113806
 42
8.113806
 43
8.113806
  0
ENDBLK
  5
34
100
AcDbEntity
  8
0
100
AcDbBlockEnd
  0
BLOCK
  5
37
100
AcDbEntity
  8
0
 62
     3
100
AcDbBlockBegin
  2
A$C35F20450
 70
     0
 10
0.0
 20
0.0
 30
0.0
  3
A$C35F20450
  1

  0
INSERT
  5
36
100
AcDbEntity
  8
DIMN
100
AcDbBlockReference
  2
A$C21405640
 10
0.0
 20
0.0
 30
0.0
 41
0.5
 42
0.5
 43
0.5
  0
ENDBLK
  5
38
100
AcDbEntity
  8
0
 62
     3
100
AcDbBlockEnd
  0
BLOCK
  5
3E
100
AcDbEntity
  8
0
100
AcDbBlockBegin
  2
_DOTSMALL
 70
     0
 10
0.0
 20
0.0
 30
0.0
  3
_DOTSMALL
  1

  0
POLYLINE
  5
3A
100
AcDbEntity
  8
0
  6
BYBLOCK
 62
     0
100
AcDb2dPolyline
 66
     1
 10
0.0
 20
0.0
 30
0.0
 70
     1
 40
0.5
 41
0.5
  0
VERTEX
  5
3B
100
AcDbEntity
  8
0
  6
BYBLOCK
 62
     0
100
AcDbVertex
100
AcDb2dVertex
 10
-0.0625
 20
0.0
 30
0.0
 42
1.0
  0
VERTEX
  5
3C
100
AcDbEntity
  8
0
  6
BYBLOCK
 62
     0
100
AcDbVertex
100
AcDb2dVertex
 10
0.0625
 20
0.0
 30
0.0
 42
1.0
  0
SEQEND
  5
3D
100
AcDbEntity
  8
0
  6
BYBLOCK
 62
     0
  0
ENDBLK
  5
3F
100
AcDbEntity
  8
0
100
AcDbBlockEnd
  0
BLOCK
  5
42
100
AcDbEntity
  8
0
100
AcDbBlockBegin
  2
A$C108A264A
 70
     0
 10
0.0
 20
0.0
 30
0.0
  3
A$C108A264A
  1

  0
LWPOLYLINE
  5
41
100
AcDbEntity
  8
0
 62
     3
100
AcDbPolyline
 90
       82
 70
     0
 43
0.0
 10
0.025676
 20
0.038536
 10
0.045069
 20
0.057929
 42
0.668179
 10
0.037998
 20
0.075
 10
0.02
 20
0.075
 42
-0.668179
 10
0.005858
 20
0.109142
 10
0.050914
 20
0.154198
 42
-0.668179
 10
0.093592
 20
0.136521
 10
0.093592
 20
0.112
 10
0.542814
 20
0.112
 42
0.414214
 10
0.557814
 20
0.127
 10
0.557814
 20
0.133
 42
-0.414214
 10
0.572814
 20
0.148
 10
1.356814
 20
0.148
 42
-0.414214
 10
1.371814
 20
0.133
 10
1.371814
 20
0.127
 42
0.414214
 10
1.386814
 20
0.112
 10
2.516814
 20
0.112
 42
0.414214
 10
2.531814
 20
0.127
 10
2.531814
 20
0.133
 42
-0.414214
 10
2.546814
 20
0.148
 10
3.330814
 20
0.148
 42
-0.414214
 10
3.345814
 20
0.133
 10
3.345814
 20
0.127
 42
0.414214
 10
3.360814
 20
0.112
 10
3.810036
 20
0.112
 10
3.810036
 20
0.136521
 42
-0.668179
 10
3.852714
 20
0.154198
 10
3.89777
 20
0.109142
 42
-0.668179
 10
3.883628
 20
0.075
 10
3.86563
 20
0.075
 42
0.668179
 10
3.858559
 20
0.057929
 10
3.877952
 20
0.038536
 42
-0.668179
 10
3.874417
 20
0.03
 10
2.997814
 20
0.03
 42
0.414214
 10
2.982814
 20
0.015
 10
2.982814
 20
0.015
 42
-0.414214
 10
2.967814
 20
0.0
 10
2.872814
 20
0.0
 42
-0.414214
 10
2.857814
 20
0.015
 10
2.857814
 20
0.026
 42
-0.414214
 10
2.872814
 20
0.041
 10
2.894314
 20
0.041
 42
0.414214
 10
2.909314
 20
0.056
 10
2.909314
 20
0.071
 42
0.414214
 10
2.894314
 20
0.086
 10
2.634314
 20
0.086
 42
0.414214
 10
2.619314
 20
0.071
 10
2.619314
 20
0.056
 42
0.414214
 10
2.634314
 20
0.041
 10
2.655814
 20
0.041
 42
-0.414214
 10
2.670814
 20
0.026
 10
2.670814
 20
0.015
 42
-0.414214
 10
2.655814
 20
0.0
 10
2.567814
 20
0.0
 42
-0.414214
 10
2.552814
 20
0.015
 42
0.414214
 10
2.537814
 20
0.03
 10
1.365814
 20
0.03
 42
0.414214
 10
1.350814
 20
0.015
 42
-0.414214
 10
1.335814
 20
0.0
 10
1.247814
 20
0.0
 42
-0.414214
 10
1.232814
 20
0.015
 10
1.232814
 20
0.026
 42
-0.414214
 10
1.247814
 20
0.041
 10
1.269314
 20
0.041
 42
0.414214
 10
1.284314
 20
0.056
 10
1.284314
 20
0.071
 42
0.414214
 10
1.269314
 20
0.086
 10
1.009314
 20
0.086
 42
0.414214
 10
0.994314
 20
0.071
 10
0.994314
 20
0.056
 42
0.414214
 10
1.009314
 20
0.041
 10
1.030814
 20
0.041
 42
-0.414214
 10
1.045814
 20
0.026
 10
1.045814
 20
0.015
 42
-0.414214
 10
1.030814
 20
0.0
 10
0.935814
 20
0.0
 42
-0.414214
 10
0.920814
 20
0.015
 10
0.920814
 20
0.015
 42
0.414214
 10
0.905814
 20
0.03
 10
0.029211
 20
0.03
 42
-0.668179
 10
0.025676
 20
0.038536
 10
0.045069
 20
0.057929
  0
ENDBLK
  5
43
100
AcDbEntity
  8
0
100
AcDbBlockEnd
  0
BLOCK
  5
46
100
AcDbEntity
  8
0
100
AcDbBlockBegin
  2
A$C262D5DC0
 70
     0
 10
0.0
 20
0.0
 30
0.0
  3
A$C262D5DC0
  1

  0
LWPOLYLINE
  5
45
100
AcDbEntity
  8
0
 62
     3
100
AcDbPolyline
 90
       27
 70
     0
 43
0.0
 10
4.42
 20
0.187
 42
-0.985813
 10
4.280029
 20
0.185
 10
4.1375
 20
0.185
 42
1.0
 10
4.1375
 20
0.14
 10
4.17
 20
0.14
 10
4.211733
 20
0.050503
 10
4.185191
 20
0.038126
 42
0.802585
 10
4.193643
 20
0.0
 10
4.485
 20
0.0
 42
0.414214
 10
4.5
 20
0.015
 10
4.5
 20
1.75
 10
0.0
 20
1.75
 10
0.0
 20
0.015
 42
0.414214
 10
0.015
 20
0.0
 10
0.306357
 20
0.0
 42
0.802585
 10
0.314809
 20
0.038126
 10
0.288267
 20
0.050503
 10
0.33
 20
0.14
 10
0.3625
 20
0.14
 42
1.0
 10
0.3625
 20
0.185
 10
0.219971
 20
0.185
 42
-0.985813
 10
0.08
 20
0.187
 10
0.08
 20
1.635
 42
-0.414214
 10
0.095
 20
1.65
 10
4.405
 20
1.65
 42
-0.414214
 10
4.42
 20
1.635
 10
4.42
 20
0.185
  0
ENDBLK
  5
47
100
AcDbEntity
  8
0
100
AcDbBlockEnd
  0
BLOCK
  5
4E
100
AcDbEntity
  8
0
100
AcDbBlockBegin
  2
UHEADER
 70
     0
 10
0.0
 20
0.0
 30
0.0
  3
UHEADER
  1

  0
LINE
  5
49
100
AcDbEntity
  8
R-DOOR-DETL
  6
CONTINUOUS
 62
     3
100
AcDbLine
 10
-0.5118
 20
0.0
 30
0.0
 11
0.5118
 21
0.0
 31
0.0
  0
LINE
  5
4A
100
AcDbEntity
  8
R-DOOR-DETL
 62
     3
100
AcDbLine
 10
-3.0
 20
1.75
 30
0.0
 11
3.0
 21
1.75
 31
0.0
  0
INSERT
  5
4B
100
AcDbEntity
  8
R-DOOR-DETL
 62
     3
100
AcDbBlockReference
  2
A$C108A264A
 10
-1.951814
 20
-0.03
 30
0.0
  0
INSERT
  5
4C
100
AcDbEntity
  8
R-DOOR-DETL
 62
     3
100
AcDbBlockReference
  2
A$C262D5DC0
 10
-2.25
 20
0.0
 30
0.0
  0
HATCH
  5
4D
100
AcDbEntity
  8
R-DOOR-PATT
  6
CONTINUOUS
 62
     5
100
AcDbHatch
 10
0.0
 20
0.0
 30
0.0
210
0.0
220
0.0
230
1.0
  2
ANSI31
 70
     0
 71
     0
 91
        1
 92
        7
 72
     0
 73
     1
 93
        4
 10
-2.999999999999978
 20
1.750000000000014
 10
3.000000000000021
 20
1.750000000000014
 10
3.000000000000021
 20
3.750000000000014
 10
-2.999999999999978
 20
3.750000000000014
 97
        0
 75
     0
 76
     1
 52
180.0
 41
2.5
 77
     0
 78
     1
 53
225.0
 43
-15.849497
 44
-27.379162
 45
0.2209708691207961
 46
-0.2209708691207961
 79
     0
 47
0.011976
 98
        1
 10
0.272801
 20
2.559093
  0
ENDBLK
  5
4F
100
AcDbEntity
  8
0
100
AcDbBlockEnd
  0
BLOCK
  5
52
100
AcDbEntity
  8
0
100
AcDbBlockBegin
  2
CRLINFO
 70
     0
 10
0.0
 20
0.0
 30
0.0
  3
CRLINFO
  1

  0
INSERT
  5
51
100
AcDbEntity
  8
R-DOOR-ANNO
  6
CONTINUOUS
100
AcDbBlockReference
  2
A$C35F20450
 10
0.260404
 20
0.351814
 30
0.0
  0
ENDBLK
  5
53
100
AcDbEntity
  8
0
100
AcDbBlockEnd
  0
BLOCK
  5
5F
100
AcDbEntity
  8
0
100
AcDbBlockBegin
  2
*D8
 70
     1
 10
0.0
 20
0.0
 30
0.0
  3
*D8
  1

  0
LINE
  5
55
100
AcDbEntity
  8
0
  6
BYBLOCK
 62
     0
100
AcDbLine
 10
-32.363086
 20
-154.499437
 30
0.0
 11
-36.00266
 21
-154.499437
 31
0.0
  0
LINE
  5
56
100
AcDbEntity
  8
0
  6
BYBLOCK
 62
     0
100
AcDbLine
 10
-29.64703
 20
-150.752137
 30
0.0
 11
-36.00266
 21
-150.752137
 31
0.0
  0
LINE
  5
57
100
AcDbEntity
  8
0
  6
BYBLOCK
 62
     0
100
AcDbLine
 10
-35.64266
 20
-154.139437
 30
0.0
 11
-35.64266
 21
-153.414359
 31
0.0
  0
LINE
  5
58
100
AcDbEntity
  8
0
  6
BYBLOCK
 62
     0
100
AcDbLine
 10
-35.64266
 20
-151.112137
 30
0.0
 11
-35.64266
 21
-151.837216
 31
0.0
  0
SOLID
  5
59
100
AcDbEntity
  8
0
  6
BYBLOCK
 62
     0
100
AcDbTrace
 10
-35.70266
 20
-154.139437
 30
0.0
 11
-35.58266
 21
-154.139437
 31
0.0
 12
-35.64266
 22
-154.499437
 32
0.0
 13
-35.64266
 23
-154.499437
 33
0.0
  0
SOLID
  5
5A
100
AcDbEntity
  8
0
  6
BYBLOCK
 62
     0
100
AcDbTrace
 10
-35.70266
 20
-151.112137
 30
0.0
 11
-35.58266
 21
-151.112137
 31
0.0
 12
-35.64266
 22
-150.752137
 32
0.0
 13
-35.64266
 23
-150.752137
 33
0.0
  0
MTEXT
  5
5B
100
AcDbEntity
  8
0
  6
BYBLOCK
 62
     0
100
AcDbMText
 10
-35.64266
 20
-152.625787
 30
0.0
 40
0.36
 41
0.0
 71
     5
 72
     1
  1
\A1;3 3/4\P(95mm)
  7
ROMANS
  0
POINT
  5
5C
100
AcDbEntity
  8
DEFPOINTS
  6
BYBLOCK
 62
     0
100
AcDbPoint
 10
-32.238086
 20
-154.499437
 30
0.0
  0
POINT
  5
5D
100
AcDbEntity
  8
DEFPOINTS
  6
BYBLOCK
 62
     0
100
AcDbPoint
 10
-29.52203
 20
-150.752137
 30
0.0
  0
POINT
  5
5E
100
AcDbEntity
  8
DEFPOINTS
  6
BYBLOCK
 62
     0
100
AcDbPoint
 10
-35.64266
 20
-150.752137
 30
0.0
  0
ENDBLK
  5
60
100
AcDbEntity
  8
0
100
AcDbBlockEnd
  0
BLOCK
  5
6C
100
AcDbEntity
  8
0
100
AcDbBlockBegin
  2
*D9
 70
     1
 10
0.0
 20
0.0
 30
0.0
  3
*D9
  1

  0
LINE
  5
62
100
AcDbEntity
  8
0
  6
BYBLOCK
 62
     0
100
AcDbLine
 10
-26.113086
 20
-133.298223
 30
0.0
 11
-21.948118
 21
-133.298223
 31
0.0
  0
LINE
  5
63
100
AcDbEntity
  8
0
  6
BYBLOCK
 62
     0
100
AcDbLine
 10
-26.113086
 20
-154.499437
 30
0.0
 11
-21.948118
 21
-154.499437
 31
0.0
  0
LINE
  5
64
100
AcDbEntity
  8
0
  6
BYBLOCK
 62
     0
100
AcDbLine
 10
-22.308118
 20
-133.658223
 30
0.0
 11
-22.308118
 21
-143.23883
 31
0.0
  0
LINE
  5
65
100
AcDbEntity
  8
0
  6
BYBLOCK
 62
     0
100
AcDbLine
 10
-22.308118
 20
-154.139437
 30
0.0
 11
-22.308118
 21
-144.55883
 31
0.0
  0
SOLID
  5
66
100
AcDbEntity
  8
0
  6
BYBLOCK
 62
     0
100
AcDbTrace
 10
-22.368118
 20
-133.658223
 30
0.0
 11
-22.248118
 21
-133.658223
 31
0.0
 12
-22.308118
 22
-133.298223
 32
0.0
 13
-22.308118
 23
-133.298223
 33
0.0
  0
SOLID
  5
67
100
AcDbEntity
  8
0
  6
BYBLOCK
 62
     0
100
AcDbTrace
 10
-22.368118
 20
-154.139437
 30
0.0
 11
-22.248118
 21
-154.139437
 31
0.0
 12
-22.308118
 22
-154.499437
 32
0.0
 13
-22.308118
 23
-154.499437
 33
0.0
  0
MTEXT
  5
68
100
AcDbEntity
  8
0
  6
BYBLOCK
 62
     0
100
AcDbMText
 10
-22.308118
 20
-143.89883
 30
0.0
 40
0.36
 41
0.0
 71
     5
 72
     1
  1
\A1;CLEAR \POPENING
  7
ROMANS
  0
POINT
  5
69
100
AcDbEntity
  8
DEFPOINTS
  6
BYBLOCK
 62
     0
100
AcDbPoint
 10
-26.238086
 20
-133.298223
 30
0.0
  0
POINT
  5
6A
100
AcDbEntity
  8
DEFPOINTS
  6
BYBLOCK
 62
     0
100
AcDbPoint
 10
-26.238086
 20
-154.499437
 30
0.0
  0
POINT
  5
6B
100
AcDbEntity
  8
DEFPOINTS
  6
BYBLOCK
 62
     0
100
AcDbPoint
 10
-22.308118
 20
-154.499437
 30
0.0
  0
ENDBLK
  5
6D
100
AcDbEntity
  8
0
100
AcDbBlockEnd
  0
BLOCK
  5
7A
100
AcDbEntity
  8
0
100
AcDbBlockBegin
  2
*D10
 70
     1
 10
0.0
 20
0.0
 30
0.0
  3
*D10
  1

  0
LINE
  5
6F
100
AcDbEntity
  8
0
  6
BYBLOCK
 62
     0
100
AcDbLine
 10
-28.232094
 20
-153.749437
 30
0.0
 11
-23.258891
 21
-153.749437
 31
0.0
  0
LINE
  5
70
100
AcDbEntity
  8
0
  6
BYBLOCK
 62
     0
100
AcDbLine
 10
-27.019586
 20
-153.999437
 30
0.0
 11
-23.258891
 21
-153.999437
 31
0.0
  0
LINE
  5
71
100
AcDbEntity
  8
0
  6
BYBLOCK
 62
     0
100
AcDbLine
 10
-23.618891
 20
-153.389437
 30
0.0
 11
-23.618891
 21
-153.029437
 31
0.0
  0
LINE
  5
72
100
AcDbEntity
  8
0
  6
BYBLOCK
 62
     0
100
AcDbLine
 10
-23.618891
 20
-154.359437
 30
0.0
 11
-23.618891
 21
-155.707277
 31
0.0
  0
LINE
  5
73
100
AcDbEntity
  8
0
  6
BYBLOCK
 62
     0
100
AcDbLine
 10
-23.618891
 20
-155.707277
 30
0.0
 11
-23.978891
 21
-155.707277
 31
0.0
  0
SOLID
  5
74
100
AcDbEntity
  8
0
  6
BYBLOCK
 62
     0
100
AcDbTrace
 10
-23.678891
 20
-153.389437
 30
0.0
 11
-23.558891
 21
-153.389437
 31
0.0
 12
-23.618891
 22
-153.749437
 32
0.0
 13
-23.618891
 23
-153.749437
 33
0.0
  0
SOLID
  5
75
100
AcDbEntity
  8
0
  6
BYBLOCK
 62
     0
100
AcDbTrace
 10
-23.678891
 20
-154.359437
 30
0.0
 11
-23.558891
 21
-154.359437
 31
0.0
 12
-23.618891
 22
-153.999437
 32
0.0
 13
-23.618891
 23
-153.999437
 33
0.0
  0
MTEXT
  5
76
100
AcDbEntity
  8
0
  6
BYBLOCK
 62
     0
100
AcDbMText
 10
-25.016034
 20
-155.707277
 30
0.0
 40
0.36
 41
0.0
 71
     5
 72
     1
  1
\A1;1/4\P(6mm)
  7
ROMANS
  0
POINT
  5
77
100
AcDbEntity
  8
DEFPOINTS
  6
BYBLOCK
 62
     0
100
AcDbPoint
 10
-28.357094
 20
-153.749437
 30
0.0
  0
POINT
  5
78
100
AcDbEntity
  8
DEFPOINTS
  6
BYBLOCK
 62
     0
100
AcDbPoint
 10
-27.144586
 20
-153.999437
 30
0.0
  0
POINT
  5
79
100
AcDbEntity
  8
DEFPOINTS
  6
BYBLOCK
 62
     0
100
AcDbPoint
 10
-23.618891
 20
-153.999437
 30
0.0
  0
ENDBLK
  5
7B
100
AcDbEntity
  8
0
100
AcDbBlockEnd
  0
BLOCK
  5
88
100
AcDbEntity
  8
0
100
AcDbBlockBegin
  2
*D11
 70
     1
 10
0.0
 20
0.0
 30
0.0
  3
*D11
  1

  0
LINE
  5
7D
100
AcDbEntity
  8
0
  6
BYBLOCK
 62
     0
100
AcDbLine
 10
-26.863086
 20
-135.033223
 30
0.0
 11
-23.258891
 21
-135.033223
 31
0.0
  0
LINE
  5
7E
100
AcDbEntity
  8
0
  6
BYBLOCK
 62
     0
100
AcDbLine
 10
-28.182094
 20
-135.313223
 30
0.0
 11
-23.258891
 21
-135.313223
 31
0.0
  0
LINE
  5
7F
100
AcDbEntity
  8
0
  6
BYBLOCK
 62
     0
100
AcDbLine
 10
-23.618891
 20
-134.673223
 30
0.0
 11
-23.618891
 21
-134.313223
 31
0.0
  0
LINE
  5
80
100
AcDbEntity
  8
0
  6
BYBLOCK
 62
     0
100
AcDbLine
 10
-23.618891
 20
-135.673223
 30
0.0
 11
-23.618891
 21
-136.249173
 31
0.0
  0
LINE
  5
81
100
AcDbEntity
  8
0
  6
BYBLOCK
 62
     0
100
AcDbLine
 10
-23.618891
 20
-136.249173
 30
0.0
 11
-23.978891
 21
-136.249173
 31
0.0
  0
SOLID
  5
82
100
AcDbEntity
  8
0
  6
BYBLOCK
 62
     0
100
AcDbTrace
 10
-23.678891
 20
-134.673223
 30
0.0
 11
-23.558891
 21
-134.673223
 31
0.0
 12
-23.618891
 22
-135.033223
 32
0.0
 13
-23.618891
 23
-135.033223
 33
0.0
  0
SOLID
  5
83
100
AcDbEntity
  8
0
  6
BYBLOCK
 62
     0
100
AcDbTrace
 10
-23.678891
 20
-135.673223
 30
0.0
 11
-23.558891
 21
-135.673223
 31
0.0
 12
-23.618891
 22
-135.313223
 32
0.0
 13
-23.618891
 23
-135.313223
 33
0.0
  0
MTEXT
  5
84
100
AcDbEntity
  8
0
  6
BYBLOCK
 62
     0
100
AcDbMText
 10
-25.016034
 20
-136.249173
 30
0.0
 40
0.36
 41
0.0
 71
     5
 72
     1
  1
\A1;1/4\P(6mm)
  7
ROMANS
  0
POINT
  5
85
100
AcDbEntity
  8
DEFPOINTS
  6
BYBLOCK
 62
     0
100
AcDbPoint
 10
-26.988086
 20
-135.033223
 30
0.0
  0
POINT
  5
86
100
AcDbEntity
  8
DEFPOINTS
  6
BYBLOCK
 62
     0
100
AcDbPoint
 10
-28.307094
 20
-135.313223
 30
0.0
  0
POINT
  5
87
100
AcDbEntity
  8
DEFPOINTS
  6
BYBLOCK
 62
     0
100
AcDbPoint
 10
-23.618891
 20
-135.313223
 30
0.0
  0
ENDBLK
  5
89
100
AcDbEntity
  8
0
100
AcDbBlockEnd
  0
BLOCK
  5
95
100
AcDbEntity
  8
0
100
AcDbBlockBegin
  2
*D12
 70
     1
 10
0.0
 20
0.0
 30
0.0
  3
*D12
  1

  0
LINE
  5
8B
100
AcDbEntity
  8
0
  6
BYBLOCK
 62
     0
100
AcDbLine
 10
-29.613086
 20
-138.298223
 30
0.0
 11
-36.012774
 21
-138.298223
 31
0.0
  0
LINE
  5
8C
100
AcDbEntity
  8
0
  6
BYBLOCK
 62
     0
100
AcDbLine
 10
-32.363086
 20
-133.298223
 30
0.0
 11
-36.012774
 21
-133.298223
 31
0.0
  0
LINE
  5
8D
100
AcDbEntity
  8
0
  6
BYBLOCK
 62
     0
100
AcDbLine
 10
-35.652774
 20
-137.938223
 30
0.0
 11
-35.652774
 21
-136.552508
 31
0.0
  0
LINE
  5
8E
100
AcDbEntity
  8
0
  6
BYBLOCK
 62
     0
100
AcDbLine
 10
-35.652774
 20
-133.658223
 30
0.0
 11
-35.652774
 21
-135.043937
 31
0.0
  0
SOLID
  5
8F
100
AcDbEntity
  8
0
  6
BYBLOCK
 62
     0
100
AcDbTrace
 10
-35.712774
 20
-137.938223
 30
0.0
 11
-35.592774
 21
-137.938223
 31
0.0
 12
-35.652774
 22
-138.298223
 32
0.0
 13
-35.652774
 23
-138.298223
 33
0.0
  0
SOLID
  5
90
100
AcDbEntity
  8
0
  6
BYBLOCK
 62
     0
100
AcDbTrace
 10
-35.712774
 20
-133.658223
 30
0.0
 11
-35.592774
 21
-133.658223
 31
0.0
 12
-35.652774
 22
-133.298223
 32
0.0
 13
-35.652774
 23
-133.298223
 33
0.0
  0
MTEXT
  5
91
100
AcDbEntity
  8
0
  6
BYBLOCK
 62
     0
100
AcDbMText
 10
-35.652774
 20
-135.798223
 30
0.0
 40
0.36
 41
0.0
 71
     5
 72
     1
  1
\A1;5\P(127mm)
  7
ROMANS
  0
POINT
  5
92
100
AcDbEntity
  8
DEFPOINTS
  6
BYBLOCK
 62
     0
100
AcDbPoint
 10
-29.488086
 20
-138.298223
 30
0.0
  0
POINT
  5
93
100
AcDbEntity
  8
DEFPOINTS
  6
BYBLOCK
 62
     0
100
AcDbPoint
 10
-32.238086
 20
-133.298223
 30
0.0
  0
POINT
  5
94
100
AcDbEntity
  8
DEFPOINTS
  6
BYBLOCK
 62
     0
100
AcDbPoint
 10
-35.652774
 20
-133.298223
 30
0.0
  0
ENDBLK
  5
96
100
AcDbEntity
  8
0
100
AcDbBlockEnd
  0
BLOCK
  5
A2
100
AcDbEntity
  8
0
100
AcDbBlockBegin
  2
*D13
 70
     1
 10
0.0
 20
0.0
 30
0.0
  3
*D13
  1

  0
LINE
  5
98
100
AcDbEntity
  8
0
  6
BYBLOCK
 62
     0
100
AcDbLine
 10
-29.738086
 20
-138.298223
 30
0.0
 11
-36.00266
 21
-138.298223
 31
0.0
  0
LINE
  5
99
100
AcDbEntity
  8
0
  6
BYBLOCK
 62
     0
100
AcDbLine
 10
-29.64703
 20
-150.752137
 30
0.0
 11
-36.00266
 21
-150.752137
 31
0.0
  0
LINE
  5
9A
100
AcDbEntity
  8
0
  6
BYBLOCK
 62
     0
100
AcDbLine
 10
-35.64266
 20
-138.658223
 30
0.0
 11
-35.64266
 21
-143.136609
 31
0.0
  0
LINE
  5
9B
100
AcDbEntity
  8
0
  6
BYBLOCK
 62
     0
100
AcDbLine
 10
-35.64266
 20
-150.392137
 30
0.0
 11
-35.64266
 21
-145.913751
 31
0.0
  0
SOLID
  5
9C
100
AcDbEntity
  8
0
  6
BYBLOCK
 62
     0
100
AcDbTrace
 10
-35.70266
 20
-138.658223
 30
0.0
 11
-35.58266
 21
-138.658223
 31
0.0
 12
-35.64266
 22
-138.298223
 32
0.0
 13
-35.64266
 23
-138.298223
 33
0.0
  0
SOLID
  5
9D
100
AcDbEntity
  8
0
  6
BYBLOCK
 62
     0
100
AcDbTrace
 10
-35.70266
 20
-150.392137
 30
0.0
 11
-35.58266
 21
-150.392137
 31
0.0
 12
-35.64266
 22
-150.752137
 32
0.0
 13
-35.64266
 23
-150.752137
 33
0.0
  0
MTEXT
  5
9E
100
AcDbEntity
  8
0
  6
BYBLOCK
 62
     0
100
AcDbMText
 10
-35.64266
 20
-144.52518
 30
0.0
 40
0.36
 41
0.0
 71
     5
 72
     1
  1
\A1;GLASS\PCLEAR OPENING\PLESS 8 3/4\P(222mm)
  7
ROMANS
  0
POINT
  5
9F
100
AcDbEntity
  8
DEFPOINTS
  6
BYBLOCK
 62
     0
100
AcDbPoint
 10
-29.613086
 20
-138.298223
 30
0.0
  0
POINT
  5
A0
100
AcDbEntity
  8
DEFPOINTS
  6
BYBLOCK
 62
     0
100
AcDbPoint
 10
-29.52203
 20
-150.752137
 30
0.0
  0
POINT
  5
A1
100
AcDbEntity
  8
DEFPOINTS
  6
BYBLOCK
 62
     0
100
AcDbPoint
 10
-35.64266
 20
-150.752137
 30
0.0
  0
ENDBLK
  5
A3
100
AcDbEntity
  8
0
100
AcDbBlockEnd
  0
BLOCK
  5
AF
100
AcDbEntity
  8
0
100
AcDbBlockBegin
  2
*D14
 70
     1
 10
0.0
 20
0.0
 30
0.0
  3
*D14
  1

  0
LINE
  5
A5
100
AcDbEntity
  8
0
  6
BYBLOCK
 62
     0
100
AcDbLine
 10
-30.169079
 20
-150.411003
 30
0.0
 11
-30.169079
 21
-148.3062
 31
0.0
  0
LINE
  5
A6
100
AcDbEntity
  8
0
  6
BYBLOCK
 62
     0
100
AcDbLine
 10
-28.307094
 20
-150.411003
 30
0.0
 11
-28.307094
 21
-148.3062
 31
0.0
  0
LINE
  5
A7
100
AcDbEntity
  8
0
  6
BYBLOCK
 62
     0
100
AcDbLine
 10
-29.809079
 20
-148.6662
 30
0.0
 11
-28.667094
 21
-148.6662
 31
0.0
  0
LINE
  5
A8
100
AcDbEntity
  8
0
  6
BYBLOCK
 62
     0
100
AcDbLine
 10
-28.307094
 20
-148.6662
 30
0.0
 11
-27.947094
 21
-148.6662
 31
0.0
  0
SOLID
  5
A9
100
AcDbEntity
  8
0
  6
BYBLOCK
 62
     0
100
AcDbTrace
 10
-29.809079
 20
-148.6062
 30
0.0
 11
-29.809079
 21
-148.7262
 31
0.0
 12
-30.169079
 22
-148.6662
 32
0.0
 13
-30.169079
 23
-148.6662
 33
0.0
  0
SOLID
  5
AA
100
AcDbEntity
  8
0
  6
BYBLOCK
 62
     0
100
AcDbTrace
 10
-28.667094
 20
-148.6062
 30
0.0
 11
-28.667094
 21
-148.7262
 31
0.0
 12
-28.307094
 22
-148.6662
 32
0.0
 13
-28.307094
 23
-148.6662
 33
0.0
  0
MTEXT
  5
AB
100
AcDbEntity
  8
0
  6
BYBLOCK
 62
     0
100
AcDbMText
 10
-26.738522
 20
-148.6662
 30
0.0
 40
0.36
 41
0.0
 71
     5
 72
     1
  1
\A1;1 7/8\P(48mm)
  7
ROMANS
  0
POINT
  5
AC
100
AcDbEntity
  8
DEFPOINTS
  6
BYBLOCK
 62
     0
100
AcDbPoint
 10
-30.169079
 20
-150.536003
 30
0.0
  0
POINT
  5
AD
100
AcDbEntity
  8
DEFPOINTS
  6
BYBLOCK
 62
     0
100
AcDbPoint
 10
-28.307094
 20
-150.536003
 30
0.0
  0
POINT
  5
AE
100
AcDbEntity
  8
DEFPOINTS
  6
BYBLOCK
 62
     0
100
AcDbPoint
 10
-28.307094
 20
-148.6662
 30
0.0
  0
ENDBLK
  5
B0
100
AcDbEntity
  8
0
100
AcDbBlockEnd
  0
BLOCK
  5
197
100
AcDbEntity
  8
0
100
AcDbBlockBegin
  2
A$C65534D62
 70
     0
 10
0.0
 20
0.0
 30
0.0
  3
A$C65534D62
  1

  0
MTEXT
  5
BB
102
{ACAD_REACTORS
330
D2
102
}
100
AcDbEntity
  8
R-DOOR-ANNO
  6
CONTINUOUS
100
AcDbMText
 10
16.367299
 20
12.676613
 30
0.0
 40
0.36
 41
0.0
 71
     4
 72
     1
  1
GLASS CLAMP
  7
ROMANS
  0
TEXT
  5
BC
100
AcDbEntity
  8
R-DOOR-ANNO
  6
CONTINUOUS
100
AcDbText
 10
6.238469
 20
5.320364
 30
0.0
 40
0.625
  1
TOP, BOTTOM WITH THRESHOLD
  7
ROMANS
 72
     1
 11
13.693826
 21
5.320364
 31
0.0
100
AcDbText
  0
TEXT
  5
BD
100
AcDbEntity
  8
R-DOOR-ANNO
  6
CONTINUOUS
100
AcDbText
 10
5.300969
 20
6.149979
 30
0.0
 40
0.625
  1
CRL 4" TAPER DOOR RAIL UNCLAD
  7
ROMANS
 72
     1
 11
13.693826
 21
6.149979
 31
0.0
100
AcDbText
  0
LWPOLYLINE
  5
BE
100
AcDbEntity
  8
BORDER
100
AcDbPolyline
 90
        4
 70
     1
 43
0.175785
 10
25.78113
 20
34.287965
 10
0.087893
 20
34.287965
 10
0.087893
 20
0.087892
 10
25.78113
 20
0.087892
  0
DIMENSION
  5
BF
100
AcDbEntity
  8
R-DOOR-ANNO
100
AcDbDimension
  2
*D9
 10
20.63736
 20
9.579703
 30
0.0
 11
20.63736
 21
20.180311
 31
0.0
 12
42.945478
 22
164.079141
 32
0.0
  1
CLEAR \POPENING
  3
STANDARD
100
AcDbAlignedDimension
 13
16.707392
 23
30.780918
 33
0.0
 14
16.707392
 24
9.579703
 34
0.0
 50
90.0
100
AcDbRotatedDimension
1001
ACAD
1000
DSTYLE
1002
{
1070
   173
1070
     0
1070
     6
1000

1002
}
  0
LINE
  5
C0
100
AcDbEntity
  8
R-DOOR-PATT
  6
CONTINUOUS
100
AcDbLine
 10
14.000464
 20
14.349695
 30
0.0
 11
14.000464
 21
14.374695
 31
0.0
  0
LINE
  5
C1
100
AcDbEntity
  8
R-DOOR-DETL
100
AcDbLine
 10
13.712491
 20
16.75986
 30
0.0
 11
13.712491
 21
13.329598
 31
0.0
  0
LINE
  5
C2
100
AcDbEntity
  8
R-DOOR-DETL
100
AcDbLine
 10
13.896106
 20
16.447681
 30
0.0
 11
13.896106
 21
13.329598
 31
0.0
  0
LINE
  5
C3
100
AcDbEntity
  8
R-DOOR-DETL
100
AcDbLine
 10
13.833606
 20
16.436601
 30
0.0
 11
13.833606
 21
13.329598
 31
0.0
  0
LINE
  5
C4
100
AcDbEntity
  8
R-DOOR-DETL
100
AcDbLine
 10
13.771106
 20
16.389726
 30
0.0
 11
13.771106
 21
13.329598
 31
0.0
  0
LINE
  5
C5
100
AcDbEntity
  8
R-DOOR-DETL
100
AcDbLine
 10
13.646106
 20
16.446797
 30
0.0
 11
13.646106
 21
13.329598
 31
0.0
  0
LINE
  5
C6
100
AcDbEntity
  8
R-DOOR-DETL
100
AcDbLine
 10
13.583606
 20
16.408066
 30
0.0
 11
13.583606
 21
13.329598
 31
0.0
  0
LINE
  5
C7
100
AcDbEntity
  8
R-DOOR-DETL
100
AcDbLine
 10
13.521106
 20
16.383374
 30
0.0
 11
13.521106
 21
13.329598
 31
0.0
  0
LINE
  5
C8
100
AcDbEntity
  8
R-DOOR-DETL
100
AcDbLine
 10
13.954589
 20
16.409899
 30
0.0
 11
13.954589
 21
13.329598
 31
0.0
  0
LINE
  5
C9
100
AcDbEntity
  8
R-DOOR-DETL
100
AcDbLine
 10
13.462591
 20
16.40149
 30
0.0
 11
13.462591
 21
13.329598
 31
0.0
  0
DIMENSION
  5
CA
100
AcDbEntity
  8
R-DOOR-ANNO
100
AcDbDimension
  2
*D14
 10
14.638384
 20
15.41294
 30
0.0
 11
16.206955
 21
15.41294
 31
0.0
 12
42.945478
 22
164.079141
 32
0.0
  1
1 7/8\P(48mm)
  3
STANDARD
100
AcDbAlignedDimension
 13
12.776399
 23
13.543138
 33
0.0
 14
14.638384
 24
13.543138
 34
0.0
100
AcDbRotatedDimension
1001
ACAD
1000
DSTYLE
1002
{
1070
   173
1070
     0
1070
     6
1000

1002
}
  0
DIMENSION
  5
CB
100
AcDbEntity
  8
R-DOOR-ANNO
100
AcDbDimension
  2
*D13
 10
7.302817
 20
13.327003
 30
0.0
 11
7.302817
 21
19.553961
 31
0.0
 12
42.945478
 22
164.079141
 32
0.0
  1
GLASS\PCLEAR OPENING\PLESS 8 3/4\P(222mm)
  3
STANDARD
100
AcDbAlignedDimension
 13
13.332392
 23
25.780918
 33
0.0
 14
13.423448
 24
13.327003
 34
0.0
 50
90.0
100
AcDbRotatedDimension
1001
ACAD
1000
DSTYLE
1002
{
1070
   173
1070
     0
1070
     6
1000

1002
}
  0
LWPOLYLINE
  5
CC
100
AcDbEntity
  8
R-DOOR-DETL
100
AcDbPolyline
 90
       72
 70
     0
 43
0.0
 10
13.253372
 20
13.138342
 42
-0.131652
 10
13.257392
 20
13.123342
 10
13.257392
 20
12.689407
 42
0.414214
 10
13.317392
 20
12.629407
 10
13.707392
 20
12.629407
 10
14.097392
 20
12.629407
 42
0.414214
 10
14.157392
 20
12.689407
 10
14.157392
 20
13.123342
 42
-0.131652
 10
14.161411
 20
13.138342
 10
14.447026
 20
13.633043
 42
0.240079
 10
14.448927
 20
13.669312
 10
14.191764
 20
14.24691
 42
0.296213
 10
14.155222
 20
14.27064
 10
14.010307
 20
14.27064
 42
-0.414214
 10
14.000464
 20
14.280483
 10
14.000464
 20
14.349695
 42
-0.414214
 10
14.010464
 20
14.359695
 10
14.176223
 20
14.359695
 42
-0.282029
 10
14.259977
 20
14.308371
 10
14.628139
 20
13.585813
 42
-0.118358
 10
14.638384
 20
13.543138
 10
14.638384
 20
10.344703
 42
-0.414214
 10
14.623384
 20
10.329703
 10
14.553384
 20
10.329703
 42
-0.414214
 10
14.538384
 20
10.344703
 10
14.538384
 20
10.724703
 42
0.414214
 10
14.523384
 20
10.739703
 10
14.503384
 20
10.739703
 42
-0.414214
 10
14.488384
 20
10.754703
 10
14.488384
 20
11.4085
 42
0.414214
 10
14.473384
 20
11.4235
 10
14.407392
 20
11.4235
 42
-0.414214
 10
14.392392
 20
11.4385
 10
14.392392
 20
11.6085
 42
-0.414214
 10
14.407392
 20
11.6235
 10
14.473384
 20
11.6235
 42
0.414214
 10
14.488384
 20
11.6385
 10
14.488384
 20
11.879703
 42
0.414214
 10
14.458384
 20
11.909703
 10
13.707392
 20
11.909703
 10
12.956399
 20
11.909703
 42
0.414214
 10
12.926399
 20
11.879703
 10
12.926399
 20
11.6385
 42
0.414214
 10
12.941399
 20
11.6235
 10
13.007392
 20
11.6235
 42
-0.414214
 10
13.022392
 20
11.6085
 10
13.022392
 20
11.4385
 42
-0.414214
 10
13.007392
 20
11.4235
 10
12.941399
 20
11.4235
 42
0.414214
 10
12.926399
 20
11.4085
 10
12.926399
 20
10.754703
 42
-0.414214
 10
12.911399
 20
10.739703
 10
12.891399
 20
10.739703
 42
0.414214
 10
12.876399
 20
10.724703
 10
12.876399
 20
10.344703
 42
-0.414214
 10
12.861399
 20
10.329703
 10
12.791399
 20
10.329703
 42
-0.414214
 10
12.776399
 20
10.344703
 10
12.776399
 20
13.543138
 42
-0.118358
 10
12.786644
 20
13.585813
 10
13.154806
 20
14.308371
 42
-0.282029
 10
13.238561
 20
14.359695
 10
13.404319
 20
14.359695
 42
-0.414214
 10
13.414319
 20
14.349695
 10
13.414319
 20
14.280483
 42
-0.414214
 10
13.404477
 20
14.27064
 10
13.259561
 20
14.27064
 42
0.296213
 10
13.223019
 20
14.24691
 10
12.965856
 20
13.669312
 42
0.240079
 10
12.967757
 20
13.633043
 10
13.253372
 20
13.138342
 10
13.257392
 20
13.131381
  0
INSERT
  5
CD
100
AcDbEntity
  8
R-DOOR-ANNO
  6
CONTINUOUS
100
AcDbBlockReference
  2
CRLINFO
 10
0.087893
 20
0.087892
 30
0.0
  0
LEADER
  5
CE
100
AcDbEntity
  8
R-DOOR-ANNO
100
AcDbLeader
  3
STANDARD
 76
     3
 10
11.282223
 20
9.790166
 30
0.0
 10
9.348408
 20
8.394725
 30
0.0
 10
8.958536
 20
8.394725
 30
0.0
 77
   256
1001
ACAD
1000
DSTYLE
1002
{
1070
   173
1070
     0
1070
     6
1000

1002
}
  0
TEXT
  5
CF
100
AcDbEntity
  8
R-DOOR-ANNO
  6
CONTINUOUS
100
AcDbText
 10
8.604541
 20
4.408033
 30
0.0
 40
0.625
  1
AND UNCLAD HEADER
  7
ROMANS
 72
     1
 11
13.693826
 21
4.408033
 31
0.0
100
AcDbText
  0
DIMENSION
  5
D0
100
AcDbEntity
  8
R-DOOR-ANNO
100
AcDbDimension
  2
*D8
 10
7.302817
 20
13.327003
 30
0.0
 11
7.302817
 21
11.453353
 31
0.0
 12
42.945478
 22
164.079141
 32
0.0
  1
3 3/4\P(95mm)
  3
STANDARD
100
AcDbAlignedDimension
 13
10.707392
 23
9.579703
 33
0.0
 14
13.423448
 24
13.327003
 34
0.0
 50
90.0
100
AcDbRotatedDimension
1001
ACAD
1000
DSTYLE
1002
{
1070
   173
1070
     0
1070
     6
1000

1002
}
  0
TEXT
  5
D1
100
AcDbEntity
  8
R-DOOR-ANNO
100
AcDbText
 10
3.795911
 20
8.230302
 30
0.0
 40
0.4
  1
1/2 THRESHOLD
  7
ROMANS
100
AcDbText
  0
LEADER
  5
D2
100
AcDbEntity
  8
R-DOOR-ANNO
  6
CONTINUOUS
100
AcDbLeader
  3
STANDARD
 73
     0
 74
     0
 75
     1
 40
0.36
 41
3.634286
 76
     3
 10
14.427672
 20
13.489113
 30
0.0
 10
16.077299
 20
12.676613
 30
0.0
 10
16.257299
 20
12.676613
 30
0.0
 77
   256
340
BB
213
-0.0199999999999996
223
0.0
233
0.0
1001
ACAD
1000
DSTYLE
1002
{
1070
   173
1070
     1
1070
     6
1000
_DOTSMALL
1002
}
  0
MTEXT
  5
D3
102
{ACAD_REACTORS
330
D4
102
}
100
AcDbEntity
  8
R-DOOR-ANNO
  6
CONTINUOUS
100
AcDbMText
 10
16.327739
 20
11.441751
 30
0.0
 40
0.36
 41
0.0
 71
     4
 72
     1
  1
SHOE
  7
ROMANS
  0
LEADER
  5
D4
100
AcDbEntity
  8
R-DOOR-ANNO
  6
CONTINUOUS
100
AcDbLeader
  3
STANDARD
 73
     0
 74
     0
 75
     1
 40
0.36
 41
1.337143
 76
     3
 10
14.596545
 20
12.129251
 30
0.0
 10
16.077299
 20
11.441751
 30
0.0
 10
16.257299
 20
11.441751
 30
0.0
 77
   256
340
D3
213
0.0195604220820558
223
0.0
233
0.0
1001
ACAD
1000
DSTYLE
1002
{
1070
   173
1070
     1
1070
     6
1000
_DOTSMALL
1002
}
  0
LINE
  5
D5
100
AcDbEntity
  8
0
100
AcDbLine
 10
14.1983
 20
10.079703
 30
0.0
 11
15.841366
 21
10.079703
 31
0.0
  0
LINE
  5
D6
100
AcDbEntity
  8
0
100
AcDbLine
 10
11.613892
 20
9.579703
 30
0.0
 11
15.800892
 21
9.579703
 31
0.0
  0
HATCH
  5
D7
100
AcDbEntity
  8
R-DOOR-PATT
  6
CONTINUOUS
 62
     5
100
AcDbHatch
 10
0.0
 20
0.0
 30
0.0
210
0.0
220
0.0
230
1.0
  2
ANSI31
 70
     0
 71
     0
 91
        1
 92
        7
 72
     0
 73
     1
 93
        4
 10
10.70739153734908
 20
9.579703476992619
 10
16.70739153734908
 20
9.579703476992619
 10
16.70739153734908
 20
7.579703476992619
 10
10.70739153734908
 20
7.579703476992619
 97
        0
 75
     0
 76
     1
 52
180.0
 41
2.5
 77
     0
 78
     1
 53
135.0
 43
-115.707858
 44
40.080992
 45
0.2209708691207961
 46
0.2209708691207961
 79
     0
 47
0.011976
 98
        1
 10
13.980193
 20
8.77061
  0
LINE
  5
D8
100
AcDbEntity
  8
0
100
AcDbLine
 10
10.707392
 20
9.579703
 30
0.0
 11
16.707392
 21
9.579703
 31
0.0
  0
HATCH
  5
D9
100
AcDbEntity
  8
R-DOOR-PATT
  6
CONTINUOUS
 62
     5
100
AcDbHatch
 10
0.0
 20
0.0
 30
0.0
210
0.0
220
0.0
230
1.0
  2
ANSI31
 70
     0
 71
     0
 91
        2
 92
        7
 72
     0
 73
     1
 93
        8
 10
12.75279975965523
 20
9.579703476992619
 10
12.75279975965523
 20
9.61770347699263
 10
12.88414260058638
 20
9.617703476992602
 10
12.88414260058638
 20
9.817703476992619
 10
13.21629975965518
 20
9.817703476992619
 10
13.21629975965518
 20
10.07970347699262
 10
11.5734169411335
 20
10.07970347699262
 10
10.70739153734908
 20
9.579703476992619
 97
        0
 92
        7
 72
     0
 73
     1
 93
        9
 10
15.80089153734908
 20
9.579703476992619
 10
16.70739153734908
 20
9.579703476992619
 10
15.84136613356466
 20
10.07970347699262
 10
14.19829975965527
 20
10.07970347699262
 10
14.19829975965527
 20
9.817703476992619
 10
14.52598829899969
 20
9.817703476992619
 10
14.52598829899969
 20
9.61770347699263
 10
14.66198331504293
 20
9.61770347699263
 10
14.66198331504293
 20
9.579703476992619
 97
        0
 75
     0
 76
     1
 52
0.0
 41
1.0
 77
     0
 78
     1
 53
45.0
 43
-154.297652
 44
-6.421585
 45
-0.0883883476483184
 46
0.0883883476483185
 79
     0
 47
0.013117
 98
        2
 10
12.491757
 20
9.726611
 10
15.28842
 20
9.687261
  0
DIMENSION
  5
DA
100
AcDbEntity
  8
R-DOOR-ANNO
100
AcDbDimension
  2
*D10
 10
19.326587
 20
10.079703
 30
0.0
 11
17.929444
 21
8.371863
 31
0.0
 12
42.945478
 22
164.079141
 32
0.0
 70
   128
  1
<>\P(6mm)
  3
STANDARD
100
AcDbAlignedDimension
 13
14.588384
 23
10.329703
 33
0.0
 14
15.800892
 24
10.079703
 34
0.0
 50
90.0
100
AcDbRotatedDimension
1001
ACAD
1000
DSTYLE
1002
{
1070
   173
1070
     0
1070
     6
1000

1002
}
  0
LWPOLYLINE
  5
DB
100
AcDbEntity
  8
R-DOOR-DETL
100
AcDbPolyline
 90
       29
 70
     1
 43
0.0
 10
13.855896
 20
12.850003
 10
13.855896
 20
12.735003
 42
0.414214
 10
13.870896
 20
12.720003
 10
14.022896
 20
12.720003
 42
0.414214
 10
14.116896
 20
12.814003
 10
14.116896
 20
13.06892
 42
-0.136094
 10
14.121181
 20
13.084371
 10
14.399274
 20
13.547194
 42
0.414214
 10
14.38901
 20
13.58836
 10
14.329008
 20
13.624413
 42
0.136094
 10
14.313557
 20
13.628698
 10
14.19731
 20
13.628698
 42
-0.400921
 10
14.167341
 20
13.657331
 10
14.14495
 20
14.14806
 42
0.400921
 10
14.104992
 20
14.186237
 10
13.999032
 20
14.186237
 42
0.843039
 10
13.99247
 20
14.147993
 42
-0.317837
 10
13.999032
 20
14.138713
 10
13.999032
 20
13.286846
 42
-0.414214
 10
13.989189
 20
13.277003
 10
13.756896
 20
13.277003
 42
0.414214
 10
13.741896
 20
13.262003
 10
13.741896
 20
13.147003
 42
0.414214
 10
13.756896
 20
13.132003
 10
13.846896
 20
13.132003
 42
-0.414214
 10
13.971896
 20
13.007003
 10
13.971896
 20
12.880003
 42
-0.414214
 10
13.956896
 20
12.865003
 10
13.870896
 20
12.865003
 42
0.414214
  0
LWPOLYLINE
  5
DC
100
AcDbEntity
  8
R-DOOR-DETL
100
AcDbPolyline
 90
        4
 70
     1
 43
0.0
 10
13.999032
 20
13.388713
 10
13.999032
 20
14.138713
 10
13.949032
 20
14.138713
 10
13.949032
 20
13.388713
  0
LINE
  5
DD
100
AcDbEntity
  8
R-DOOR-DETL
100
AcDbLine
 10
13.954485
 20
12.871732
 30
0.0
 11
13.454485
 21
12.871732
 31
0.0
  0
LINE
  5
DE
100
AcDbEntity
  8
R-DOOR-DETL
100
AcDbLine
 10
13.954485
 20
12.996732
 30
0.0
 11
13.454485
 21
12.996732
 31
0.0
  0
LINE
  5
DF
100
AcDbEntity
  8
R-DOOR-DETL
100
AcDbLine
 10
13.454485
 20
12.996732
 30
0.0
 11
13.454485
 21
12.871732
 31
0.0
  0
LINE
  5
E0
100
AcDbEntity
  8
R-DOOR-DETL
100
AcDbLine
 10
13.82805
 20
12.883374
 30
0.0
 11
13.58005
 21
12.883374
 31
0.0
  0
LINE
  5
E1
100
AcDbEntity
  8
R-DOOR-DETL
100
AcDbLine
 10
13.82805
 20
12.643374
 30
0.0
 11
13.58005
 21
12.643374
 31
0.0
  0
LINE
  5
E2
100
AcDbEntity
  8
R-DOOR-DETL
100
AcDbLine
 10
13.82805
 20
12.763374
 30
0.0
 11
13.58005
 21
12.763374
 31
0.0
  0
LINE
  5
E3
100
AcDbEntity
  8
R-DOOR-DETL
100
AcDbLine
 10
13.82805
 20
12.703374
 30
0.0
 11
13.58005
 21
12.703374
 31
0.0
  0
LINE
  5
E4
100
AcDbEntity
  8
R-DOOR-DETL
100
AcDbLine
 10
13.82805
 20
12.823374
 30
0.0
 11
13.58005
 21
12.823374
 31
0.0
  0
LINE
  5
E5
100
AcDbEntity
  8
R-DOOR-DETL
100
AcDbLine
 10
13.79805
 20
12.793374
 30
0.0
 11
13.61005
 21
12.793374
 31
0.0
  0
LINE
  5
E6
100
AcDbEntity
  8
R-DOOR-DETL
100
AcDbLine
 10
13.79805
 20
12.673374
 30
0.0
 11
13.61005
 21
12.673374
 31
0.0
  0
LINE
  5
E7
100
AcDbEntity
  8
R-DOOR-DETL
100
AcDbLine
 10
13.79805
 20
12.733374
 30
0.0
 11
13.61005
 21
12.733374
 31
0.0
  0
LINE
  5
E8
100
AcDbEntity
  8
R-DOOR-DETL
100
AcDbLine
 10
13.79805
 20
12.853374
 30
0.0
 11
13.61005
 21
12.853374
 31
0.0
  0
LINE
  5
E9
100
AcDbEntity
  8
R-DOOR-DETL
100
AcDbLine
 10
13.82805
 20
12.943374
 30
0.0
 11
13.58005
 21
12.943374
 31
0.0
  0
LINE
  5
EA
100
AcDbEntity
  8
R-DOOR-DETL
100
AcDbLine
 10
13.82805
 20
13.003374
 30
0.0
 11
13.58005
 21
13.003374
 31
0.0
  0
LINE
  5
EB
100
AcDbEntity
  8
R-DOOR-DETL
100
AcDbLine
 10
13.79805
 20
12.913374
 30
0.0
 11
13.61005
 21
12.913374
 31
0.0
  0
LINE
  5
EC
100
AcDbEntity
  8
R-DOOR-DETL
100
AcDbLine
 10
13.79805
 20
12.973374
 30
0.0
 11
13.61005
 21
12.973374
 31
0.0
  0
LINE
  5
ED
100
AcDbEntity
  8
R-DOOR-DETL
100
AcDbLine
 10
13.79805
 20
13.033374
 30
0.0
 11
13.61005
 21
13.033374
 31
0.0
  0
LINE
  5
EE
100
AcDbEntity
  8
R-DOOR-DETL
100
AcDbLine
 10
13.954485
 20
12.996732
 30
0.0
 11
13.954485
 21
12.871732
 31
0.0
  0
LWPOLYLINE
  5
EF
100
AcDbEntity
  8
R-DOOR-DETL
100
AcDbPolyline
 90
        4
 70
     1
 43
0.0
 10
13.739189
 20
13.277003
 10
13.989189
 20
13.277003
 10
13.989189
 20
13.327003
 10
13.739189
 20
13.327003
  0
LWPOLYLINE
  5
F0
100
AcDbEntity
  8
R-DOOR-DETL
100
AcDbPolyline
 90
        4
 70
     1
 43
0.0
 10
13.673448
 20
13.277003
 10
13.423448
 20
13.277003
 10
13.423448
 20
13.327003
 10
13.673448
 20
13.327003
  0
LWPOLYLINE
  5
F1
100
AcDbEntity
  8
R-DOOR-DETL
100
AcDbPolyline
 90
       29
 70
     1
 43
0.0
 10
13.556741
 20
12.850003
 10
13.556741
 20
12.735003
 42
-0.414214
 10
13.541741
 20
12.720003
 10
13.389741
 20
12.720003
 42
-0.414214
 10
13.295741
 20
12.814003
 10
13.295741
 20
13.06892
 42
0.136094
 10
13.291456
 20
13.084371
 10
13.013364
 20
13.547194
 42
-0.414214
 10
13.023628
 20
13.58836
 10
13.083629
 20
13.624413
 42
-0.136094
 10
13.09908
 20
13.628698
 10
13.215328
 20
13.628698
 42
0.400921
 10
13.245296
 20
13.657331
 10
13.267688
 20
14.14806
 42
-0.400921
 10
13.307646
 20
14.186237
 10
13.413606
 20
14.186237
 42
-0.843039
 10
13.420167
 20
14.147993
 42
0.317837
 10
13.413606
 20
14.138713
 10
13.413606
 20
13.286846
 42
0.414214
 10
13.423448
 20
13.277003
 10
13.655741
 20
13.277003
 42
-0.414214
 10
13.670741
 20
13.262003
 10
13.670741
 20
13.147003
 42
-0.414214
 10
13.655741
 20
13.132003
 10
13.565741
 20
13.132003
 42
0.414214
 10
13.440741
 20
13.007003
 10
13.440741
 20
12.880003
 42
0.414214
 10
13.455741
 20
12.865003
 10
13.541741
 20
12.865003
 42
-0.414214
  0
LWPOLYLINE
  5
F2
100
AcDbEntity
  8
R-DOOR-DETL
100
AcDbPolyline
 90
        4
 70
     1
 43
0.0
 10
13.413606
 20
13.388713
 10
13.413606
 20
14.138713
 10
13.463606
 20
14.138713
 10
13.463606
 20
13.388713
  0
LINE
  5
F3
100
AcDbEntity
  8
R-DOOR-DETL
100
AcDbLine
 10
13.024892
 20
11.909703
 30
0.0
 11
14.389892
 21
11.909703
 31
0.0
  0
LINE
  5
F4
100
AcDbEntity
  8
R-DOOR-DETL
100
AcDbLine
 10
14.1983
 20
10.472186
 30
0.0
 11
14.1983
 21
9.817703
 31
0.0
  0
LINE
  5
F5
100
AcDbEntity
  8
R-DOOR-DETL
100
AcDbLine
 10
14.1323
 20
11.079703
 30
0.0
 11
14.1323
 21
10.472186
 31
0.0
  0
LINE
  5
F6
100
AcDbEntity
  8
R-DOOR-DETL
100
AcDbLine
 10
14.076793
 20
11.079703
 30
0.0
 11
14.076793
 21
10.472186
 31
0.0
  0
LINE
  5
F7
100
AcDbEntity
  8
R-DOOR-DETL
100
AcDbLine
 10
13.761662
 20
11.490703
 30
0.0
 11
13.815933
 21
11.584703
 31
0.0
  0
LINE
  5
F8
100
AcDbEntity
  8
R-DOOR-DETL
100
AcDbLine
 10
13.653121
 20
11.490703
 30
0.0
 11
13.59885
 21
11.584703
 31
0.0
  0
CIRCLE
  5
F9
100
AcDbEntity
  8
R-DOOR-DETL
100
AcDbCircle
 10
13.707392
 20
11.584703
 30
0.0
 40
0.1625
  0
CIRCLE
  5
FA
100
AcDbEntity
  8
R-DOOR-DETL
100
AcDbCircle
 10
13.707392
 20
11.584703
 30
0.0
 40
0.1875
  0
LINE
  5
FB
100
AcDbEntity
  8
R-DOOR-DETL
100
AcDbLine
 10
13.653121
 20
11.490703
 30
0.0
 11
13.761662
 21
11.490703
 31
0.0
  0
LINE
  5
FC
100
AcDbEntity
  8
R-DOOR-DETL
100
AcDbLine
 10
13.815933
 20
11.584703
 30
0.0
 11
13.761662
 21
11.678703
 31
0.0
  0
LINE
  5
FD
100
AcDbEntity
  8
R-DOOR-DETL
100
AcDbLine
 10
13.59885
 20
11.584703
 30
0.0
 11
13.653121
 21
11.678703
 31
0.0
  0
LINE
  5
FE
100
AcDbEntity
  8
R-DOOR-DETL
100
AcDbLine
 10
13.653121
 20
11.678703
 30
0.0
 11
13.761662
 21
11.678703
 31
0.0
  0
LINE
  5
FF
100
AcDbEntity
  8
R-DOOR-DETL
100
AcDbLine
 10
14.12174
 20
11.476686
 30
0.0
 11
14.033519
 21
11.539919
 31
0.0
  0
CIRCLE
  5
100
100
AcDbEntity
  8
R-DOOR-DETL
100
AcDbCircle
 10
14.132392
 20
11.584703
 30
0.0
 40
0.1625
  0
LINE
  5
101
100
AcDbEntity
  8
R-DOOR-DETL
100
AcDbLine
 10
14.220612
 20
11.52147
 30
0.0
 11
14.12174
 21
11.476686
 31
0.0
  0
CIRCLE
  5
102
100
AcDbEntity
  8
R-DOOR-DETL
100
AcDbCircle
 10
14.132392
 20
11.584703
 30
0.0
 40
0.1875
  0
LINE
  5
103
100
AcDbEntity
  8
R-DOOR-DETL
100
AcDbLine
 10
14.231264
 20
11.629488
 30
0.0
 11
14.220612
 21
11.52147
 31
0.0
  0
LINE
  5
104
100
AcDbEntity
  8
R-DOOR-DETL
100
AcDbLine
 10
14.231264
 20
11.629488
 30
0.0
 11
14.143043
 21
11.692721
 31
0.0
  0
LINE
  5
105
100
AcDbEntity
  8
R-DOOR-DETL
100
AcDbLine
 10
14.044171
 20
11.647937
 30
0.0
 11
14.033519
 21
11.539919
 31
0.0
  0
LINE
  5
106
100
AcDbEntity
  8
R-DOOR-DETL
100
AcDbLine
 10
14.143043
 20
11.692721
 30
0.0
 11
14.044171
 21
11.647937
 31
0.0
  0
LINE
  5
107
100
AcDbEntity
  8
R-DOOR-DETL
100
AcDbLine
 10
13.2163
 20
10.472186
 30
0.0
 11
13.2163
 21
9.817703
 31
0.0
  0
LINE
  5
108
100
AcDbEntity
  8
R-DOOR-DETL
100
AcDbLine
 10
13.2823
 20
11.079703
 30
0.0
 11
13.2823
 21
10.472186
 31
0.0
  0
LINE
  5
109
100
AcDbEntity
  8
R-DOOR-DETL
100
AcDbLine
 10
13.337807
 20
11.079703
 30
0.0
 11
13.337807
 21
10.472186
 31
0.0
  0
LINE
  5
10A
100
AcDbEntity
  8
R-DOOR-DETL
100
AcDbLine
 10
13.253201
 20
11.48016
 30
0.0
 11
13.358333
 21
11.507152
 31
0.0
  0
LINE
  5
10B
100
AcDbEntity
  8
R-DOOR-DETL
100
AcDbLine
 10
13.177259
 20
11.557712
 30
0.0
 11
13.253201
 21
11.48016
 31
0.0
  0
LINE
  5
10C
100
AcDbEntity
  8
R-DOOR-DETL
100
AcDbLine
 10
13.311582
 20
11.689247
 30
0.0
 11
13.387524
 21
11.611695
 31
0.0
  0
LINE
  5
10D
100
AcDbEntity
  8
R-DOOR-DETL
100
AcDbLine
 10
13.358333
 20
11.507152
 30
0.0
 11
13.387524
 21
11.611695
 31
0.0
  0
LINE
  5
10E
100
AcDbEntity
  8
R-DOOR-DETL
100
AcDbLine
 10
13.177259
 20
11.557712
 30
0.0
 11
13.20645
 21
11.662255
 31
0.0
  0
LINE
  5
10F
100
AcDbEntity
  8
R-DOOR-DETL
100
AcDbLine
 10
13.20645
 20
11.662255
 30
0.0
 11
13.311582
 21
11.689247
 31
0.0
  0
LWPOLYLINE
  5
110
100
AcDbEntity
  8
R-DOOR-DETL
100
AcDbPolyline
 90
        8
 70
     1
 43
0.0
 10
14.085492
 20
10.491703
 42
0.414214
 10
14.210492
 20
10.616703
 10
14.210492
 20
11.208703
 42
0.414214
 10
14.085492
 20
11.333703
 10
13.329292
 20
11.333703
 42
0.414214
 10
13.204292
 20
11.208703
 10
13.204292
 20
10.616703
 42
0.414214
 10
13.329292
 20
10.491703
  0
LINE
  5
111
100
AcDbEntity
  8
R-DOOR-DETL
100
AcDbLine
 10
14.1323
 20
11.079703
 30
0.0
 11
13.2823
 21
11.079703
 31
0.0
  0
LINE
  5
112
100
AcDbEntity
  8
R-DOOR-DETL
100
AcDbLine
 10
14.1983
 20
10.472186
 30
0.0
 11
13.2163
 21
10.472186
 31
0.0
  0
LINE
  5
113
100
AcDbEntity
  8
R-DOOR-DETL
100
AcDbLine
 10
13.024892
 20
11.359703
 30
0.0
 11
14.389892
 21
11.359703
 31
0.0
  0
LINE
  5
114
100
AcDbEntity
  8
R-DOOR-DETL
100
AcDbLine
 10
13.024892
 20
11.784703
 30
0.0
 11
14.389892
 21
11.784703
 31
0.0
  0
CIRCLE
  5
115
100
AcDbEntity
  8
R-DOOR-DETL
100
AcDbCircle
 10
13.282392
 20
11.584703
 30
0.0
 40
0.1625
  0
CIRCLE
  5
116
100
AcDbEntity
  8
R-DOOR-DETL
100
AcDbCircle
 10
13.282392
 20
11.584703
 30
0.0
 40
0.1875
  0
LWPOLYLINE
  5
117
100
AcDbEntity
  8
R-DOOR-DETL
100
AcDbPolyline
 90
       32
 70
     1
 43
0.0
 10
14.387392
 20
11.348703
 10
14.387392
 20
11.6185
 42
-0.414214
 10
14.402392
 20
11.6335
 10
14.468384
 20
11.6335
 42
0.414214
 10
14.483384
 20
11.6485
 10
14.483384
 20
11.878703
 42
0.414214
 10
14.452384
 20
11.909703
 10
14.308772
 20
11.909703
 42
0.267949
 10
14.281925
 20
11.894203
 10
14.176212
 20
11.711102
 42
0.40146
 10
14.186399
 20
11.669459
 42
-3.430162
 10
14.078384
 20
11.669459
 42
0.40146
 10
14.088572
 20
11.711102
 10
13.982858
 20
11.894203
 42
0.267949
 10
13.956011
 20
11.909703
 10
13.458772
 20
11.909703
 42
0.267949
 10
13.431925
 20
11.894203
 10
13.326212
 20
11.711102
 42
0.40146
 10
13.336399
 20
11.669459
 42
-3.430162
 10
13.228384
 20
11.669459
 42
0.40146
 10
13.238572
 20
11.711102
 10
13.132858
 20
11.894203
 42
0.267949
 10
13.106011
 20
11.909703
 10
12.962399
 20
11.909703
 42
0.414214
 10
12.931399
 20
11.878703
 10
12.931399
 20
11.6485
 42
0.414214
 10
12.946399
 20
11.6335
 10
13.012392
 20
11.6335
 42
-0.414214
 10
13.027392
 20
11.6185
 10
13.027392
 20
11.348703
 42
0.414214
 10
13.042392
 20
11.333703
 10
14.372392
 20
11.333703
 42
0.414214
  0
LINE
  5
118
100
AcDbEntity
  8
R-DOOR-DETL
100
AcDbLine
 10
13.024892
 20
11.359703
 30
0.0
 11
13.024892
 21
11.909703
 31
0.0
  0
LINE
  5
119
100
AcDbEntity
  8
R-DOOR-DETL
100
AcDbLine
 10
14.389892
 20
11.359703
 30
0.0
 11
14.389892
 21
11.909703
 31
0.0
  0
LINE
  5
11A
100
AcDbEntity
  8
0
  6
CONTINUOUS
100
AcDbLine
 10
10.707392
 20
9.579703
 30
0.0
 11
11.573417
 21
10.079703
 31
0.0
  0
LINE
  5
11B
100
AcDbEntity
  8
0
100
AcDbLine
 10
11.573417
 20
10.079703
 30
0.0
 11
13.2163
 21
10.079703
 31
0.0
  0
LWPOLYLINE
  5
11C
100
AcDbEntity
  8
R-DOOR-DETL
100
AcDbPolyline
 90
        2
 70
     0
 43
0.0
 10
12.7528
 20
9.617703
 10
14.661983
 20
9.617703
  0
LWPOLYLINE
  5
11D
100
AcDbEntity
  8
R-DOOR-DETL
100
AcDbPolyline
 90
        9
 70
     0
 43
0.0
 10
12.7528
 20
9.579703
 10
14.661983
 20
9.579703
 10
14.661983
 20
9.617703
 10
14.525988
 20
9.617703
 10
14.525988
 20
9.817703
 10
12.884143
 20
9.817703
 10
12.884143
 20
9.617703
 10
12.7528
 20
9.617703
 10
12.7528
 20
9.579703
  0
LWPOLYLINE
  5
11E
100
AcDbEntity
  8
R-DOOR-DETL
100
AcDbPolyline
 90
       21
 70
     1
 43
0.0
 10
13.836501
 20
12.2452
 42
0.939516
 10
13.752289
 20
12.194621
 42
-2.169752
 10
13.662494
 20
12.194621
 42
0.939516
 10
13.578282
 20
12.2452
 42
0.106196
 10
13.553146
 20
12.184332
 42
-0.362414
 10
13.52363
 20
12.159703
 10
13.235103
 20
12.159703
 42
-0.414214
 10
13.204103
 20
12.190703
 10
13.204103
 20
12.350746
 42
0.564167
 10
13.131998
 20
12.39431
 42
-1.903207
 10
13.121405
 20
12.490996
 42
0.226984
 10
13.162287
 20
12.479407
 10
13.707392
 20
12.479407
 10
14.252496
 20
12.479407
 42
0.226984
 10
14.293378
 20
12.490996
 42
-1.903207
 10
14.282785
 20
12.39431
 42
0.564167
 10
14.21068
 20
12.350746
 10
14.21068
 20
12.190703
 42
-0.414214
 10
14.17968
 20
12.159703
 10
13.891153
 20
12.159703
 42
-0.362414
 10
13.861637
 20
12.184332
 42
0.106196
  0
LINE
  5
11F
100
AcDbEntity
  8
0
  6
CONTINUOUS
100
AcDbLine
 10
16.707392
 20
9.579703
 30
0.0
 11
15.841366
 21
10.079703
 31
0.0
  0
INSERT
  5
120
100
AcDbEntity
  8
R-DOOR-ANNO
  6
CONTINUOUS
100
AcDbBlockReference
  2
UHEADER
 10
13.707392
 20
29.030918
 30
0.0
  0
DIMENSION
  5
121
100
AcDbEntity
  8
R-DOOR-ANNO
100
AcDbDimension
  2
*D12
 10
7.292704
 20
30.780918
 30
0.0
 11
7.292704
 21
28.280918
 31
0.0
 12
42.945478
 22
164.079141
 32
0.0
  1
<>\P(127mm)
  3
STANDARD
100
AcDbAlignedDimension
 13
13.457392
 23
25.780918
 33
0.0
 14
10.707392
 24
30.780918
 34
0.0
 50
90.0
100
AcDbRotatedDimension
1001
ACAD
1000
DSTYLE
1002
{
1070
   173
1070
     0
1070
     6
1000

1002
}
  0
LINE
  5
122
100
AcDbEntity
  8
R-DOOR-DETL
100
AcDbLine
 10
13.462591
 20
22.709132
 30
0.0
 11
13.462591
 21
25.781023
 31
0.0
  0
LINE
  5
123
100
AcDbEntity
  8
R-DOOR-DETL
100
AcDbLine
 10
13.954589
 20
22.700722
 30
0.0
 11
13.954589
 21
25.781023
 31
0.0
  0
LINE
  5
124
100
AcDbEntity
  8
R-DOOR-DETL
100
AcDbLine
 10
13.521106
 20
22.727248
 30
0.0
 11
13.521106
 21
25.781023
 31
0.0
  0
LINE
  5
125
100
AcDbEntity
  8
R-DOOR-DETL
100
AcDbLine
 10
13.583606
 20
22.702555
 30
0.0
 11
13.583606
 21
25.781023
 31
0.0
  0
LINE
  5
126
100
AcDbEntity
  8
R-DOOR-DETL
100
AcDbLine
 10
13.646106
 20
22.663824
 30
0.0
 11
13.646106
 21
25.781023
 31
0.0
  0
LINE
  5
127
100
AcDbEntity
  8
R-DOOR-DETL
100
AcDbLine
 10
13.771106
 20
22.720895
 30
0.0
 11
13.771106
 21
25.781023
 31
0.0
  0
LINE
  5
128
100
AcDbEntity
  8
R-DOOR-DETL
100
AcDbLine
 10
13.833606
 20
22.67402
 30
0.0
 11
13.833606
 21
25.781023
 31
0.0
  0
LINE
  5
129
100
AcDbEntity
  8
R-DOOR-DETL
100
AcDbLine
 10
13.896106
 20
22.66294
 30
0.0
 11
13.896106
 21
25.781023
 31
0.0
  0
LINE
  5
12A
100
AcDbEntity
  8
R-DOOR-DETL
100
AcDbLine
 10
13.712491
 20
22.350761
 30
0.0
 11
13.712491
 21
25.781023
 31
0.0
  0
LINE
  5
12B
100
AcDbEntity
  8
R-DOOR-DETL
100
AcDbLine
 10
13.746653
 20
22.739235
 30
0.0
 11
13.621653
 21
22.645485
 31
0.0
  0
LINE
  5
12C
100
AcDbEntity
  8
R-DOOR-DETL
100
AcDbLine
 10
13.621653
 20
22.645485
 30
0.0
 11
13.559153
 21
22.739235
 31
0.0
  0
LINE
  5
12D
100
AcDbEntity
  8
R-DOOR-DETL
100
AcDbLine
 10
13.949032
 20
22.700722
 30
0.0
 11
13.871653
 21
22.645485
 31
0.0
  0
LINE
  5
12E
100
AcDbEntity
  8
R-DOOR-DETL
100
AcDbLine
 10
13.871653
 20
22.645485
 30
0.0
 11
13.746653
 21
22.739235
 31
0.0
  0
LINE
  5
12F
100
AcDbEntity
  8
R-DOOR-DETL
100
AcDbLine
 10
13.559153
 20
22.739235
 30
0.0
 11
13.463606
 21
22.709132
 31
0.0
  0
LINE
  5
130
100
AcDbEntity
  8
R-DOOR-DETL
100
AcDbLine
 10
13.559153
 20
16.371387
 30
0.0
 11
13.463606
 21
16.40149
 31
0.0
  0
LINE
  5
131
100
AcDbEntity
  8
R-DOOR-DETL
100
AcDbLine
 10
13.871653
 20
16.465137
 30
0.0
 11
13.746653
 21
16.371387
 31
0.0
  0
LINE
  5
132
100
AcDbEntity
  8
R-DOOR-DETL
100
AcDbLine
 10
13.949032
 20
16.409899
 30
0.0
 11
13.871653
 21
16.465137
 31
0.0
  0
LINE
  5
133
100
AcDbEntity
  8
R-DOOR-DETL
100
AcDbLine
 10
13.621653
 20
16.465137
 30
0.0
 11
13.559153
 21
16.371387
 31
0.0
  0
LINE
  5
134
100
AcDbEntity
  8
R-DOOR-DETL
100
AcDbLine
 10
13.746653
 20
16.371387
 30
0.0
 11
13.621653
 21
16.465137
 31
0.0
  0
MTEXT
  5
135
102
{ACAD_REACTORS
330
136
102
}
100
AcDbEntity
  8
R-DOOR-ANNO
  6
CONTINUOUS
100
AcDbMText
 10
15.963242
 20
26.306652
 30
0.0
 40
0.36
 41
0.0
 71
     4
 72
     1
  1
SHOE
  7
ROMANS
  0
LEADER
  5
136
100
AcDbEntity
  8
R-DOOR-ANNO
  6
CONTINUOUS
100
AcDbLeader
  3
STANDARD
 73
     0
 74
     0
 75
     1
 40
0.36
 41
1.337143
 76
     3
 10
14.447183
 20
26.994152
 30
0.0
 10
15.673242
 20
26.306652
 30
0.0
 10
15.853242
 20
26.306652
 30
0.0
 77
   256
340
135
213
-0.0199999999999996
223
0.0
233
0.0
1001
ACAD
1000
DSTYLE
1002
{
1070
   173
1070
     1
1070
     6
1000
_DOTSMALL
1002
}
  0
MTEXT
  5
137
102
{ACAD_REACTORS
330
138
102
}
100
AcDbEntity
  8
R-DOOR-ANNO
  6
CONTINUOUS
100
AcDbMText
 10
15.971286
 20
25.145924
 30
0.0
 40
0.36
 41
0.0
 71
     4
 72
     1
  1
GLASS CLAMP
  7
ROMANS
  0
LEADER
  5
138
100
AcDbEntity
  8
R-DOOR-ANNO
  6
CONTINUOUS
100
AcDbLeader
  3
STANDARD
 73
     0
 74
     0
 75
     1
 40
0.36
 41
3.634286
 76
     3
 10
14.031659
 20
25.958424
 30
0.0
 10
15.681286
 20
25.145924
 30
0.0
 10
15.861286
 20
25.145924
 30
0.0
 77
   256
340
137
213
-0.0199999999999996
223
0.0
233
0.0
1001
ACAD
1000
DSTYLE
1002
{
1070
   173
1070
     1
1070
     6
1000
_DOTSMALL
1002
}
  0
DIMENSION
  5
139
100
AcDbEntity
  8
R-DOOR-ANNO
100
AcDbDimension
  2
*D11
 10
19.326587
 20
28.765918
 30
0.0
 11
17.929444
 21
27.829968
 31
0.0
 12
42.945478
 22
164.079141
 32
0.0
 70
   128
  1
<>\P(6mm)
  3
STANDARD
100
AcDbAlignedDimension
 13
15.957392
 23
29.045918
 33
0.0
 14
14.638384
 24
28.765918
 34
0.0
 50
90.0
100
AcDbRotatedDimension
1001
ACAD
1000
DSTYLE
1002
{
1070
   173
1070
     0
1070
     6
1000

1002
}
  0
LINE
  5
13A
100
AcDbEntity
  8
R-DOOR-DETL
100
AcDbLine
 10
14.219192
 20
28.915918
 30
0.0
 11
14.219192
 21
29.030918
 31
0.0
  0
LINE
  5
13B
100
AcDbEntity
  8
R-DOOR-DETL
100
AcDbLine
 10
13.807392
 20
28.993535
 30
0.0
 11
13.607392
 21
28.993535
 31
0.0
  0
POINT
  5
13C
100
AcDbEntity
  8
R-DOOR-DETL
100
AcDbPoint
 10
13.589392
 20
28.965918
 30
0.0
  0
POINT
  5
13D
100
AcDbEntity
  8
R-DOOR-DETL
100
AcDbPoint
 10
13.589392
 20
28.965918
 30
0.0
  0
LINE
  5
13E
100
AcDbEntity
  8
R-DOOR-DETL
100
AcDbLine
 10
13.607392
 20
29.030918
 30
0.0
 11
13.607392
 21
28.993535
 31
0.0
  0
LINE
  5
13F
100
AcDbEntity
  8
R-DOOR-DETL
100
AcDbLine
 10
13.589392
 20
29.030918
 30
0.0
 11
13.589392
 21
28.965918
 31
0.0
  0
POINT
  5
140
100
AcDbEntity
  8
R-DOOR-DETL
100
AcDbPoint
 10
13.539392
 20
28.915918
 30
0.0
  0
LINE
  5
141
100
AcDbEntity
  8
R-DOOR-DETL
100
AcDbLine
 10
13.607392
 20
28.993535
 30
0.0
 11
13.514892
 21
28.915918
 31
0.0
  0
LINE
  5
142
100
AcDbEntity
  8
R-DOOR-DETL
100
AcDbLine
 10
13.539392
 20
28.915918
 30
0.0
 11
13.589392
 21
28.965918
 31
0.0
  0
LINE
  5
143
100
AcDbEntity
  8
R-DOOR-DETL
100
AcDbLine
 10
13.875392
 20
28.915918
 30
0.0
 11
13.825392
 21
28.965918
 31
0.0
  0
LINE
  5
144
100
AcDbEntity
  8
R-DOOR-DETL
100
AcDbLine
 10
13.807392
 20
28.993535
 30
0.0
 11
13.899892
 21
28.915918
 31
0.0
  0
LINE
  5
145
100
AcDbEntity
  8
R-DOOR-DETL
100
AcDbLine
 10
13.807392
 20
29.030918
 30
0.0
 11
13.807392
 21
28.993535
 31
0.0
  0
LINE
  5
146
100
AcDbEntity
  8
R-DOOR-DETL
100
AcDbLine
 10
13.825392
 20
29.030918
 30
0.0
 11
13.825392
 21
28.965918
 31
0.0
  0
LINE
  5
147
100
AcDbEntity
  8
R-DOOR-DETL
100
AcDbLine
 10
13.421346
 20
28.915918
 30
0.0
 11
13.993437
 21
28.915918
 31
0.0
  0
LINE
  5
148
100
AcDbEntity
  8
R-DOOR-DETL
100
AcDbLine
 10
13.195592
 20
28.915918
 30
0.0
 11
13.195592
 21
29.030918
 31
0.0
  0
LINE
  5
149
100
AcDbEntity
  8
R-DOOR-DETL
100
AcDbLine
 10
13.195592
 20
28.915918
 30
0.0
 11
14.219192
 21
28.915918
 31
0.0
  0
LINE
  5
14A
100
AcDbEntity
  8
R-DOOR-DETL
100
AcDbLine
 10
13.195592
 20
29.030918
 30
0.0
 11
14.219192
 21
29.030918
 31
0.0
  0
LINE
  5
14B
100
AcDbEntity
  8
R-DOOR-DETL
100
AcDbLine
 10
13.431802
 20
28.073418
 30
0.0
 11
13.982982
 21
28.073418
 31
0.0
  0
ARC
  5
14C
100
AcDbEntity
  8
R-DOOR-DETL
100
AcDbCircle
 10
14.21679
 20
28.618728
 30
0.0
 40
0.0625
100
AcDbArc
 50
2.0
 51
90.0
  0
LINE
  5
14D
100
AcDbEntity
  8
R-DOOR-DETL
100
AcDbLine
 10
14.207392
 20
28.681228
 30
0.0
 11
14.207392
 21
28.776918
 31
0.0
  0
ARC
  5
14E
100
AcDbEntity
  8
R-DOOR-DETL
100
AcDbCircle
 10
13.197993
 20
28.618728
 30
0.0
 40
0.0625
100
AcDbArc
 50
90.0
 51
178.0
  0
LINE
  5
14F
100
AcDbEntity
  8
R-DOOR-DETL
100
AcDbLine
 10
13.207392
 20
28.681228
 30
0.0
 11
13.207392
 21
28.776918
 31
0.0
  0
LINE
  5
150
100
AcDbEntity
  8
R-DOOR-DETL
100
AcDbLine
 10
14.207392
 20
28.776918
 30
0.0
 11
13.207392
 21
28.776918
 31
0.0
  0
LINE
  5
151
100
AcDbEntity
  8
R-DOOR-DETL
100
AcDbLine
 10
14.21679
 20
28.681228
 30
0.0
 11
13.197993
 21
28.681228
 31
0.0
  0
ARC
  5
152
100
AcDbEntity
  8
R-DOOR-DETL
100
AcDbCircle
 10
19.771972
 20
28.573418
 30
0.0
 40
6.359855
100
AcDbArc
 50
176.912932
 51
184.509141
  0
ARC
  5
153
100
AcDbEntity
  8
R-DOOR-DETL
100
AcDbCircle
 10
7.642811
 20
28.573418
 30
0.0
 40
6.359855
100
AcDbArc
 50
355.490859
 51
3.087068
  0
LINE
  5
154
100
AcDbEntity
  8
R-DOOR-PATT
  6
CONTINUOUS
 62
     2
100
AcDbLine
 10
12.776399
 20
28.765918
 30
0.0
 11
12.776399
 21
29.030918
 31
0.0
  0
LINE
  5
155
100
AcDbEntity
  8
R-DOOR-DETL
100
AcDbLine
 10
13.417669
 20
25.781023
 30
0.0
 11
13.994747
 21
25.781023
 31
0.0
  0
LINE
  5
156
100
AcDbEntity
  8
R-DOOR-DETL
100
AcDbLine
 10
13.588374
 20
26.467248
 30
0.0
 11
13.836374
 21
26.467248
 31
0.0
  0
LINE
  5
157
100
AcDbEntity
  8
R-DOOR-DETL
100
AcDbLine
 10
13.588374
 20
26.407248
 30
0.0
 11
13.836374
 21
26.407248
 31
0.0
  0
LINE
  5
158
100
AcDbEntity
  8
R-DOOR-DETL
100
AcDbLine
 10
13.618374
 20
26.437248
 30
0.0
 11
13.806374
 21
26.437248
 31
0.0
  0
LINE
  5
159
100
AcDbEntity
  8
R-DOOR-DETL
100
AcDbLine
 10
14.389892
 20
27.750918
 30
0.0
 11
14.389892
 21
27.200918
 31
0.0
  0
LINE
  5
15A
100
AcDbEntity
  8
R-DOOR-DETL
100
AcDbLine
 10
14.103201
 20
27.421375
 30
0.0
 11
14.027259
 21
27.498926
 31
0.0
  0
LINE
  5
15B
100
AcDbEntity
  8
R-DOOR-DETL
100
AcDbLine
 10
14.237524
 20
27.55291
 30
0.0
 11
14.208333
 21
27.448367
 31
0.0
  0
CIRCLE
  5
15C
100
AcDbEntity
  8
R-DOOR-DETL
100
AcDbCircle
 10
13.707392
 20
27.525918
 30
0.0
 40
0.1625
  0
CIRCLE
  5
15D
100
AcDbEntity
  8
R-DOOR-DETL
100
AcDbCircle
 10
13.707392
 20
27.525918
 30
0.0
 40
0.1875
  0
LINE
  5
15E
100
AcDbEntity
  8
R-DOOR-DETL
100
AcDbLine
 10
13.59885
 20
27.525918
 30
0.0
 11
13.653121
 21
27.431918
 31
0.0
  0
LINE
  5
15F
100
AcDbEntity
  8
R-DOOR-DETL
100
AcDbLine
 10
13.815933
 20
27.525918
 30
0.0
 11
13.761662
 21
27.431918
 31
0.0
  0
CIRCLE
  5
160
100
AcDbEntity
  8
R-DOOR-DETL
100
AcDbCircle
 10
14.132392
 20
27.525918
 30
0.0
 40
0.1625
  0
CIRCLE
  5
161
100
AcDbEntity
  8
R-DOOR-DETL
100
AcDbCircle
 10
14.132392
 20
27.525918
 30
0.0
 40
0.1875
  0
LINE
  5
162
100
AcDbEntity
  8
R-DOOR-DETL
100
AcDbLine
 10
14.208333
 20
27.448367
 30
0.0
 11
14.103201
 21
27.421375
 31
0.0
  0
LINE
  5
163
100
AcDbEntity
  8
R-DOOR-DETL
100
AcDbLine
 10
13.761662
 20
27.431918
 30
0.0
 11
13.653121
 21
27.431918
 31
0.0
  0
LINE
  5
164
100
AcDbEntity
  8
R-DOOR-DETL
100
AcDbLine
 10
14.237524
 20
27.55291
 30
0.0
 11
14.161582
 21
27.630461
 31
0.0
  0
LINE
  5
165
100
AcDbEntity
  8
R-DOOR-DETL
100
AcDbLine
 10
14.161582
 20
27.630461
 30
0.0
 11
14.05645
 21
27.603469
 31
0.0
  0
LINE
  5
166
100
AcDbEntity
  8
R-DOOR-DETL
100
AcDbLine
 10
14.05645
 20
27.603469
 30
0.0
 11
14.027259
 21
27.498926
 31
0.0
  0
LINE
  5
167
100
AcDbEntity
  8
R-DOOR-DETL
100
AcDbLine
 10
14.301392
 20
27.986918
 30
0.0
 11
14.301392
 21
27.776918
 31
0.0
  0
LINE
  5
168
100
AcDbEntity
  8
R-DOOR-DETL
100
AcDbLine
 10
13.761662
 20
27.619918
 30
0.0
 11
13.653121
 21
27.619918
 31
0.0
  0
LINE
  5
169
100
AcDbEntity
  8
R-DOOR-DETL
100
AcDbLine
 10
13.653121
 20
27.619918
 30
0.0
 11
13.59885
 21
27.525918
 31
0.0
  0
LINE
  5
16A
100
AcDbEntity
  8
R-DOOR-DETL
100
AcDbLine
 10
13.761662
 20
27.619918
 30
0.0
 11
13.815933
 21
27.525918
 31
0.0
  0
LINE
  5
16B
100
AcDbEntity
  8
R-DOOR-DETL
100
AcDbLine
 10
13.024892
 20
27.750918
 30
0.0
 11
13.024892
 21
27.200918
 31
0.0
  0
LINE
  5
16C
100
AcDbEntity
  8
R-DOOR-DETL
100
AcDbLine
 10
13.27174
 20
27.4179
 30
0.0
 11
13.370612
 21
27.462684
 31
0.0
  0
LINE
  5
16D
100
AcDbEntity
  8
R-DOOR-DETL
100
AcDbLine
 10
13.183519
 20
27.481133
 30
0.0
 11
13.27174
 21
27.4179
 31
0.0
  0
LINE
  5
16E
100
AcDbEntity
  8
R-DOOR-DETL
100
AcDbLine
 10
13.194171
 20
27.589151
 30
0.0
 11
13.293043
 21
27.633936
 31
0.0
  0
LINE
  5
16F
100
AcDbEntity
  8
R-DOOR-DETL
100
AcDbLine
 10
13.183519
 20
27.481133
 30
0.0
 11
13.194171
 21
27.589151
 31
0.0
  0
LINE
  5
170
100
AcDbEntity
  8
R-DOOR-DETL
100
AcDbLine
 10
13.370612
 20
27.462684
 30
0.0
 11
13.381264
 21
27.570702
 31
0.0
  0
LINE
  5
171
100
AcDbEntity
  8
R-DOOR-DETL
100
AcDbLine
 10
13.293043
 20
27.633936
 30
0.0
 11
13.381264
 21
27.570702
 31
0.0
  0
LINE
  5
172
100
AcDbEntity
  8
R-DOOR-DETL
100
AcDbLine
 10
13.113392
 20
27.986918
 30
0.0
 11
13.113392
 21
27.776918
 31
0.0
  0
CIRCLE
  5
173
100
AcDbEntity
  8
R-DOOR-DETL
100
AcDbCircle
 10
13.282392
 20
27.525918
 30
0.0
 40
0.1875
  0
CIRCLE
  5
174
100
AcDbEntity
  8
R-DOOR-DETL
100
AcDbCircle
 10
13.282392
 20
27.525918
 30
0.0
 40
0.1625
  0
LWPOLYLINE
  5
175
100
AcDbEntity
  8
R-DOOR-DETL
100
AcDbPolyline
 90
       32
 70
     1
 43
0.0
 10
13.027392
 20
27.761918
 10
13.027392
 20
27.492121
 42
-0.414214
 10
13.012392
 20
27.477121
 10
12.946399
 20
27.477121
 42
0.414214
 10
12.931399
 20
27.462121
 10
12.931399
 20
27.231918
 42
0.414214
 10
12.962399
 20
27.200918
 10
13.106011
 20
27.200918
 42
0.267949
 10
13.132858
 20
27.216418
 10
13.238572
 20
27.399519
 42
0.40146
 10
13.228384
 20
27.441163
 42
-3.430162
 10
13.336399
 20
27.441163
 42
0.40146
 10
13.326212
 20
27.399519
 10
13.431925
 20
27.216418
 42
0.267949
 10
13.458772
 20
27.200918
 10
13.956011
 20
27.200918
 42
0.267949
 10
13.982858
 20
27.216418
 10
14.088572
 20
27.399519
 42
0.40146
 10
14.078384
 20
27.441163
 42
-3.430162
 10
14.186399
 20
27.441163
 42
0.40146
 10
14.176212
 20
27.399519
 10
14.281925
 20
27.216418
 42
0.267949
 10
14.308772
 20
27.200918
 10
14.452384
 20
27.200918
 42
0.414214
 10
14.483384
 20
27.231918
 10
14.483384
 20
27.462121
 42
0.414214
 10
14.468384
 20
27.477121
 10
14.402392
 20
27.477121
 42
-0.414214
 10
14.387392
 20
27.492121
 10
14.387392
 20
27.761918
 42
0.414214
 10
14.372392
 20
27.776918
 10
13.042392
 20
27.776918
 42
0.414214
  0
LINE
  5
176
100
AcDbEntity
  8
R-DOOR-DETL
100
AcDbLine
 10
14.389892
 20
27.325918
 30
0.0
 11
13.024892
 21
27.325918
 31
0.0
  0
LINE
  5
177
100
AcDbEntity
  8
R-DOOR-DETL
100
AcDbLine
 10
14.389892
 20
27.200918
 30
0.0
 11
13.024892
 21
27.200918
 31
0.0
  0
LWPOLYLINE
  5
178
100
AcDbEntity
  8
R-DOOR-DETL
100
AcDbPolyline
 90
       21
 70
     1
 43
0.0
 10
13.578282
 20
26.865421
 42
0.939516
 10
13.662494
 20
26.916001
 42
-2.169752
 10
13.752289
 20
26.916001
 42
0.939516
 10
13.836501
 20
26.865421
 42
0.106196
 10
13.861637
 20
26.92629
 42
-0.362414
 10
13.891153
 20
26.950918
 10
14.17968
 20
26.950918
 42
-0.414214
 10
14.21068
 20
26.919918
 10
14.21068
 20
26.759876
 42
0.564167
 10
14.282785
 20
26.716311
 42
-1.903207
 10
14.293378
 20
26.619626
 42
0.226984
 10
14.252496
 20
26.631215
 10
13.707392
 20
26.631215
 10
13.162287
 20
26.631215
 42
0.226984
 10
13.121405
 20
26.619626
 42
-1.903207
 10
13.131998
 20
26.716311
 42
0.564167
 10
13.204103
 20
26.759876
 10
13.204103
 20
26.919918
 42
-0.414214
 10
13.235103
 20
26.950918
 10
13.52363
 20
26.950918
 42
-0.362414
 10
13.553146
 20
26.92629
 42
0.106196
  0
LINE
  5
179
100
AcDbEntity
  8
R-DOOR-DETL
100
AcDbLine
 10
14.389892
 20
27.750918
 30
0.0
 11
13.024892
 21
27.750918
 31
0.0
  0
LINE
  5
17A
100
AcDbEntity
  8
R-DOOR-DETL
100
AcDbLine
 10
14.301392
 20
27.986918
 30
0.0
 11
13.113392
 21
27.986918
 31
0.0
  0
LINE
  5
17B
100
AcDbEntity
  8
R-DOOR-DETL
100
AcDbLine
 10
14.301392
 20
27.776918
 30
0.0
 11
13.113392
 21
27.776918
 31
0.0
  0
LWPOLYLINE
  5
17C
100
AcDbEntity
  8
R-DOOR-DETL
100
AcDbPolyline
 90
        4
 70
     1
 43
0.0
 10
14.004589
 20
25.719313
 10
14.004589
 20
24.969313
 10
13.954589
 20
24.969313
 10
13.954589
 20
25.719313
  0
LINE
  5
17D
100
AcDbEntity
  8
R-DOOR-PATT
  6
CONTINUOUS
100
AcDbLine
 10
14.000464
 20
24.760926
 30
0.0
 11
14.000464
 21
24.735926
 31
0.0
  0
LINE
  5
17E
100
AcDbEntity
  8
R-DOOR-PATT
  6
CONTINUOUS
100
AcDbLine
 10
14.010464
 20
24.750926
 30
0.0
 11
13.99303
 21
24.750926
 31
0.0
  0
LINE
  5
17F
100
AcDbEntity
  8
R-DOOR-DETL
100
AcDbLine
 10
13.618374
 20
26.377248
 30
0.0
 11
13.806374
 21
26.377248
 31
0.0
  0
LINE
  5
180
100
AcDbEntity
  8
R-DOOR-DETL
100
AcDbLine
 10
13.588374
 20
26.227248
 30
0.0
 11
13.836374
 21
26.227248
 31
0.0
  0
LINE
  5
181
100
AcDbEntity
  8
R-DOOR-DETL
100
AcDbLine
 10
13.588374
 20
26.347248
 30
0.0
 11
13.836374
 21
26.347248
 31
0.0
  0
LINE
  5
182
100
AcDbEntity
  8
R-DOOR-DETL
100
AcDbLine
 10
13.588374
 20
26.287248
 30
0.0
 11
13.836374
 21
26.287248
 31
0.0
  0
LINE
  5
183
100
AcDbEntity
  8
R-DOOR-DETL
100
AcDbLine
 10
13.588374
 20
26.167248
 30
0.0
 11
13.836374
 21
26.167248
 31
0.0
  0
LINE
  5
184
100
AcDbEntity
  8
R-DOOR-DETL
100
AcDbLine
 10
13.588374
 20
26.107248
 30
0.0
 11
13.836374
 21
26.107248
 31
0.0
  0
LINE
  5
185
100
AcDbEntity
  8
R-DOOR-DETL
100
AcDbLine
 10
13.618374
 20
26.317248
 30
0.0
 11
13.806374
 21
26.317248
 31
0.0
  0
LINE
  5
186
100
AcDbEntity
  8
R-DOOR-DETL
100
AcDbLine
 10
13.618374
 20
26.257248
 30
0.0
 11
13.806374
 21
26.257248
 31
0.0
  0
LINE
  5
187
100
AcDbEntity
  8
R-DOOR-DETL
100
AcDbLine
 10
13.618374
 20
26.197248
 30
0.0
 11
13.806374
 21
26.197248
 31
0.0
  0
LINE
  5
188
100
AcDbEntity
  8
R-DOOR-DETL
100
AcDbLine
 10
13.618374
 20
26.137248
 30
0.0
 11
13.806374
 21
26.137248
 31
0.0
  0
LINE
  5
189
100
AcDbEntity
  8
R-DOOR-DETL
100
AcDbLine
 10
13.618374
 20
26.077248
 30
0.0
 11
13.806374
 21
26.077248
 31
0.0
  0
LWPOLYLINE
  5
18A
100
AcDbEntity
  8
R-DOOR-DETL
100
AcDbPolyline
 90
        4
 70
     1
 43
0.0
 10
13.744747
 20
25.831023
 10
13.994747
 20
25.831023
 10
13.994747
 20
25.781023
 10
13.744747
 20
25.781023
  0
LINE
  5
18B
100
AcDbEntity
  8
R-DOOR-DETL
100
AcDbLine
 10
13.962374
 20
26.107383
 30
0.0
 11
13.962374
 21
26.232383
 31
0.0
  0
LINE
  5
18C
100
AcDbEntity
  8
R-DOOR-DETL
100
AcDbLine
 10
13.462374
 20
26.107383
 30
0.0
 11
13.462374
 21
26.232383
 31
0.0
  0
LINE
  5
18D
100
AcDbEntity
  8
R-DOOR-DETL
100
AcDbLine
 10
13.462374
 20
26.232383
 30
0.0
 11
13.962374
 21
26.232383
 31
0.0
  0
LINE
  5
18E
100
AcDbEntity
  8
R-DOOR-DETL
100
AcDbLine
 10
13.462374
 20
26.107383
 30
0.0
 11
13.962374
 21
26.107383
 31
0.0
  0
LWPOLYLINE
  5
18F
100
AcDbEntity
  8
R-DOOR-DETL
100
AcDbPolyline
 90
        4
 70
     1
 43
0.0
 10
13.667669
 20
25.831023
 10
13.417669
 20
25.831023
 10
13.417669
 20
25.781023
 10
13.667669
 20
25.781023
  0
LWPOLYLINE
  5
190
100
AcDbEntity
  8
R-DOOR-DETL
100
AcDbPolyline
 90
        4
 70
     1
 43
0.0
 10
13.412591
 20
25.719313
 10
13.412591
 20
24.969313
 10
13.462591
 20
24.969313
 10
13.462591
 20
25.719313
  0
LWPOLYLINE
  5
191
100
AcDbEntity
  8
R-DOOR-DETL
100
AcDbPolyline
 90
       29
 70
     1
 43
0.0
 10
13.555726
 20
26.258023
 10
13.555726
 20
26.373023
 42
0.414214
 10
13.540726
 20
26.388023
 10
13.388726
 20
26.388023
 42
0.414214
 10
13.294726
 20
26.294023
 10
13.294726
 20
26.039107
 42
-0.136094
 10
13.290441
 20
26.023656
 10
13.012349
 20
25.560832
 42
0.414214
 10
13.022613
 20
25.519666
 10
13.082615
 20
25.483613
 42
0.136094
 10
13.098066
 20
25.479328
 10
13.214313
 20
25.479328
 42
-0.400921
 10
13.244282
 20
25.450696
 10
13.266673
 20
24.959966
 42
0.400921
 10
13.306631
 20
24.921789
 10
13.412591
 20
24.921789
 42
0.843039
 10
13.419153
 20
24.960033
 42
-0.317837
 10
13.412591
 20
24.969313
 10
13.412591
 20
25.821181
 42
-0.414214
 10
13.422433
 20
25.831023
 10
13.654726
 20
25.831023
 42
0.414214
 10
13.669726
 20
25.846023
 10
13.669726
 20
25.961023
 42
0.414214
 10
13.654726
 20
25.976023
 10
13.564726
 20
25.976023
 42
-0.414214
 10
13.439726
 20
26.101023
 10
13.439726
 20
26.228023
 42
-0.414214
 10
13.454726
 20
26.243023
 10
13.540726
 20
26.243023
 42
0.414214
  0
LWPOLYLINE
  5
192
100
AcDbEntity
  8
R-DOOR-DETL
100
AcDbPolyline
 90
       29
 70
     1
 43
0.0
 10
13.861454
 20
26.258023
 10
13.861454
 20
26.373023
 42
-0.414214
 10
13.876454
 20
26.388023
 10
14.028454
 20
26.388023
 42
-0.414214
 10
14.122454
 20
26.294023
 10
14.122454
 20
26.039107
 42
0.136094
 10
14.126739
 20
26.023656
 10
14.404831
 20
25.560832
 42
-0.414214
 10
14.394567
 20
25.519666
 10
14.334565
 20
25.483613
 42
-0.136094
 10
14.319114
 20
25.479328
 10
14.202867
 20
25.479328
 42
0.400921
 10
14.172898
 20
25.450696
 10
14.150507
 20
24.959966
 42
-0.400921
 10
14.110549
 20
24.921789
 10
14.004589
 20
24.921789
 42
-0.843039
 10
13.998027
 20
24.960033
 42
0.317837
 10
14.004589
 20
24.969313
 10
14.004589
 20
25.821181
 42
0.414214
 10
13.994747
 20
25.831023
 10
13.762454
 20
25.831023
 42
-0.414214
 10
13.747454
 20
25.846023
 10
13.747454
 20
25.961023
 42
-0.414214
 10
13.762454
 20
25.976023
 10
13.852454
 20
25.976023
 42
0.414214
 10
13.977454
 20
26.101023
 10
13.977454
 20
26.228023
 42
0.414214
 10
13.962454
 20
26.243023
 10
13.876454
 20
26.243023
 42
-0.414214
  0
LINE
  5
193
100
AcDbEntity
  8
R-DOOR-DETL
100
AcDbLine
 10
14.301392
 20
27.986918
 30
0.0
 11
14.279252
 21
28.620909
 31
0.0
  0
LINE
  5
194
100
AcDbEntity
  8
R-DOOR-DETL
100
AcDbLine
 10
13.113392
 20
27.986918
 30
0.0
 11
13.135531
 21
28.620909
 31
0.0
  0
LWPOLYLINE
  5
195
100
AcDbEntity
  8
R-DOOR-DETL
100
AcDbPolyline
 90
       72
 70
     0
 43
0.0
 10
14.161411
 20
25.972279
 42
-0.131652
 10
14.157392
 20
25.987279
 10
14.157392
 20
26.421215
 42
0.414214
 10
14.097392
 20
26.481215
 10
13.707392
 20
26.481215
 10
13.317392
 20
26.481215
 42
0.414214
 10
13.257392
 20
26.421215
 10
13.257392
 20
25.987279
 42
-0.131652
 10
13.253372
 20
25.972279
 10
12.967757
 20
25.477579
 42
0.240079
 10
12.965856
 20
25.441309
 10
13.223019
 20
24.863711
 42
0.296213
 10
13.259561
 20
24.839981
 10
13.404477
 20
24.839981
 42
-0.414214
 10
13.414319
 20
24.830138
 10
13.414319
 20
24.760926
 42
-0.414214
 10
13.404319
 20
24.750926
 10
13.238561
 20
24.750926
 42
-0.282029
 10
13.154806
 20
24.802251
 10
12.786644
 20
25.524808
 42
-0.118358
 10
12.776399
 20
25.567484
 10
12.776399
 20
28.765918
 42
-0.414214
 10
12.791399
 20
28.780918
 10
12.861399
 20
28.780918
 42
-0.414214
 10
12.876399
 20
28.765918
 10
12.876399
 20
28.385918
 42
0.414214
 10
12.891399
 20
28.370918
 10
12.911399
 20
28.370918
 42
-0.414214
 10
12.926399
 20
28.355918
 10
12.926399
 20
27.702121
 42
0.414214
 10
12.941399
 20
27.687121
 10
13.007392
 20
27.687121
 42
-0.414214
 10
13.022392
 20
27.672121
 10
13.022392
 20
27.502121
 42
-0.414214
 10
13.007392
 20
27.487121
 10
12.941399
 20
27.487121
 42
0.414214
 10
12.926399
 20
27.472121
 10
12.926399
 20
27.230918
 42
0.414214
 10
12.956399
 20
27.200918
 10
13.707392
 20
27.200918
 10
14.458384
 20
27.200918
 42
0.414214
 10
14.488384
 20
27.230918
 10
14.488384
 20
27.472121
 42
0.414214
 10
14.473384
 20
27.487121
 10
14.407392
 20
27.487121
 42
-0.414214
 10
14.392392
 20
27.502121
 10
14.392392
 20
27.672121
 42
-0.414214
 10
14.407392
 20
27.687121
 10
14.473384
 20
27.687121
 42
0.414214
 10
14.488384
 20
27.702121
 10
14.488384
 20
28.355918
 42
-0.414214
 10
14.503384
 20
28.370918
 10
14.523384
 20
28.370918
 42
0.414214
 10
14.538384
 20
28.385918
 10
14.538384
 20
28.765918
 42
-0.414214
 10
14.553384
 20
28.780918
 10
14.623384
 20
28.780918
 42
-0.414214
 10
14.638384
 20
28.765918
 10
14.638384
 20
25.567484
 42
-0.118358
 10
14.628139
 20
25.524808
 10
14.259977
 20
24.802251
 42
-0.282029
 10
14.176223
 20
24.750926
 10
14.010464
 20
24.750926
 42
-0.414214
 10
14.000464
 20
24.760926
 10
14.000464
 20
24.830138
 42
-0.414214
 10
14.010307
 20
24.839981
 10
14.155222
 20
24.839981
 42
0.296213
 10
14.191764
 20
24.863711
 10
14.448927
 20
25.441309
 42
0.240079
 10
14.447026
 20
25.477579
 10
14.161411
 20
25.972279
 10
14.157392
 20
25.97924
  0
TEXT
  5
196
100
AcDbEntity
  8
R-DOOR-ANNO
  6
CONTINUOUS
100
AcDbText
 10
20.900471
 20
0.587892
 30
0.0
 40
0.625
  1
STYLE 31
  7
ROMANS
100
AcDbText
  0
ENDBLK
  5
198
100
AcDbEntity
  8
0
100
AcDbBlockEnd
  0
BLOCK
  5
3FB
100
AcDbEntity
  8
0
100
AcDbBlockBegin
  2
A$C4AD64EA0
 70
     0
 10
0.0
 20
0.0
 30
0.0
  3
A$C4AD64EA0
  1

  0
LWPOLYLINE
  5
3F8
100
AcDbEntity
  8
10INCHRAIL
  6
CONTINUOUS
 62
     3
100
AcDbPolyline
 90
       17
 70
     1
 43
0.0
 10
4.076091
 20
0.886095
 42
0.939516
 10
4.025511
 20
0.801883
 42
0.11093
 10
4.089272
 20
0.776248
 42
-0.367717
 10
4.114453
 20
0.746638
 10
4.114453
 20
0.212
 42
-0.414214
 10
4.052453
 20
0.15
 10
2.511992
 20
0.15
 42
-0.414214
 10
2.449992
 20
0.212
 10
2.449992
 20
0.930993
 10
2.449992
 20
1.649985
 42
-0.414214
 10
2.511992
 20
1.711985
 10
4.052453
 20
1.711985
 42
-0.414214
 10
4.114453
 20
1.649985
 10
4.114453
 20
1.115347
 42
-0.367717
 10
4.089272
 20
1.085737
 42
0.11093
 10
4.025511
 20
1.060102
 42
0.939516
 10
4.076091
 20
0.97589
 42
-2.169752
  0
LWPOLYLINE
  5
3F9
100
AcDbEntity
  8
0
  6
CONTINUOUS
 62
     3
100
AcDbPolyline
 90
       70
 70
     1
 43
0.0
 10
4.650656
 20
1.696985
 10
4.650656
 20
1.630993
 42
0.414214
 10
4.665656
 20
1.615993
 10
4.835656
 20
1.615993
 42
0.414214
 10
4.850656
 20
1.630993
 10
4.850656
 20
1.696985
 42
-0.414214
 10
4.865656
 20
1.711985
 10
5.519453
 20
1.711985
 42
0.414214
 10
5.534453
 20
1.726985
 10
5.534453
 20
1.746985
 42
-0.414214
 10
5.549453
 20
1.761985
 10
5.929453
 20
1.761985
 42
0.414214
 10
5.944453
 20
1.776985
 10
5.944453
 20
1.846985
 42
0.414214
 10
5.929453
 20
1.861985
 10
0.156
 20
1.861985
 42
0.414214
 10
0.0
 20
1.705985
 10
0.0
 20
1.234065
 42
0.414214
 10
0.01
 20
1.224065
 10
0.079213
 20
1.224065
 42
0.414214
 10
0.089055
 20
1.233908
 10
0.089055
 20
1.394947
 42
-0.043661
 10
0.089511
 20
1.400157
 10
0.140123
 20
1.687194
 42
-0.36397
 10
0.169668
 20
1.711985
 10
0.588031
 20
1.711985
 42
-0.131652
 10
0.713031
 20
1.678491
 10
1.221353
 20
1.385012
 42
0.131652
 10
1.236353
 20
1.380993
 10
1.670289
 20
1.380993
 42
-0.414214
 10
1.730289
 20
1.320993
 10
1.730289
 20
0.930993
 10
1.730289
 20
0.540993
 42
-0.414214
 10
1.670289
 20
0.480993
 10
1.236353
 20
0.480993
 42
0.131652
 10
1.221353
 20
0.476973
 10
0.713031
 20
0.183494
 42
-0.131652
 10
0.588031
 20
0.15
 10
0.169668
 20
0.15
 42
-0.36397
 10
0.140123
 20
0.174791
 10
0.089511
 20
0.461828
 42
-0.043661
 10
0.089055
 20
0.467038
 10
0.089055
 20
0.628077
 42
0.414214
 10
0.079213
 20
0.63792
 10
0.01
 20
0.63792
 42
0.414214
 10
0.0
 20
0.62792
 10
0.0
 20
0.156
 42
0.414214
 10
0.156
 20
0.0
 10
5.929453
 20
0.0
 42
0.414214
 10
5.944453
 20
0.015
 10
5.944453
 20
0.085
 42
0.414214
 10
5.929453
 20
0.1
 10
5.549453
 20
0.1
 42
-0.414214
 10
5.534453
 20
0.115
 10
5.534453
 20
0.135
 42
0.414214
 10
5.519453
 20
0.15
 10
4.865656
 20
0.15
 42
-0.414214
 10
4.850656
 20
0.165
 10
4.850656
 20
0.230993
 42
0.414214
 10
4.835656
 20
0.245993
 10
4.665656
 20
0.245993
 42
0.414214
 10
4.650656
 20
0.230993
 10
4.650656
 20
0.165
 42
-0.414214
 10
4.635656
 20
0.15
 10
4.394453
 20
0.15
 42
-0.414214
 10
4.364453
 20
0.18
 10
4.364453
 20
0.930993
 10
4.364453
 20
1.681985
 42
-0.414214
 10
4.394453
 20
1.711985
 10
4.635656
 20
1.711985
 42
-0.414214
  0
LWPOLYLINE
  5
3FA
100
AcDbEntity
  8
0
  6
CONTINUOUS
 62
     3
100
AcDbPolyline
 90
       17
 70
     1
 43
0.0
 10
2.114495
 20
1.060102
 42
-0.106196
 10
2.175364
 20
1.085238
 42
0.362414
 10
2.199992
 20
1.114754
 10
2.199992
 20
1.478689
 42
0.414214
 10
2.074992
 20
1.603689
 10
2.005289
 20
1.603689
 42
0.414214
 10
1.880289
 20
1.478689
 10
1.880289
 20
0.930993
 10
1.880289
 20
0.383296
 42
0.414214
 10
2.005289
 20
0.258296
 10
2.074992
 20
0.258296
 42
0.414214
 10
2.199992
 20
0.383296
 10
2.199992
 20
0.747231
 42
0.362414
 10
2.175364
 20
0.776747
 42
-0.106196
 10
2.114495
 20
0.801883
 42
-0.939516
 10
2.165075
 20
0.886095
 42
2.169752
 10
2.165075
 20
0.97589
 42
-0.939516
  0
ENDBLK
  5
3FC
100
AcDbEntity
  8
0
100
AcDbBlockEnd
  0
BLOCK
  5
409
100
AcDbEntity
  8
0
100
AcDbBlockBegin
  2
*D17
 70
     1
 10
0.0
 20
0.0
 30
0.0
  3
*D17
  1

  0
LINE
  5
3FE
100
AcDbEntity
  8
0
  6
BYBLOCK
 62
     0
100
AcDbLine
 10
104.454372
 20
294.448665
 30
0.0
 11
108.365772
 21
294.448665
 31
0.0
  0
LINE
  5
3FF
100
AcDbEntity
  8
0
  6
BYBLOCK
 62
     0
100
AcDbLine
 10
102.447842
 20
294.198665
 30
0.0
 11
108.365772
 21
294.198665
 31
0.0
  0
LINE
  5
400
100
AcDbEntity
  8
0
  6
BYBLOCK
 62
     0
100
AcDbLine
 10
108.005772
 20
294.808665
 30
0.0
 11
108.005772
 21
295.168665
 31
0.0
  0
LINE
  5
401
100
AcDbEntity
  8
0
  6
BYBLOCK
 62
     0
100
AcDbLine
 10
108.005772
 20
293.838665
 30
0.0
 11
108.005772
 21
293.034737
 31
0.0
  0
LINE
  5
402
100
AcDbEntity
  8
0
  6
BYBLOCK
 62
     0
100
AcDbLine
 10
108.005772
 20
293.034737
 30
0.0
 11
107.645772
 21
293.034737
 31
0.0
  0
SOLID
  5
403
100
AcDbEntity
  8
0
  6
BYBLOCK
 62
     0
100
AcDbTrace
 10
107.945772
 20
294.808665
 30
0.0
 11
108.065772
 21
294.808665
 31
0.0
 12
108.005772
 22
294.448665
 32
0.0
 13
108.005772
 23
294.448665
 33
0.0
  0
SOLID
  5
404
100
AcDbEntity
  8
0
  6
BYBLOCK
 62
     0
100
AcDbTrace
 10
107.945772
 20
293.838665
 30
0.0
 11
108.065772
 21
293.838665
 31
0.0
 12
108.005772
 22
294.198665
 32
0.0
 13
108.005772
 23
294.198665
 33
0.0
  0
MTEXT
  5
405
100
AcDbEntity
  8
0
  6
BYBLOCK
 62
     0
100
AcDbMText
 10
106.60863
 20
293.034737
 30
0.0
 40
0.36
 41
0.0
 71
     5
 72
     1
  1
\A1;1/4\P(6mm)
  7
ROMANS
  0
POINT
  5
406
100
AcDbEntity
  8
DEFPOINTS
  6
BYBLOCK
 62
     0
100
AcDbPoint
 10
104.329372
 20
294.448665
 30
0.0
  0
POINT
  5
407
100
AcDbEntity
  8
DEFPOINTS
  6
BYBLOCK
 62
     0
100
AcDbPoint
 10
102.322842
 20
294.198665
 30
0.0
  0
POINT
  5
408
100
AcDbEntity
  8
DEFPOINTS
  6
BYBLOCK
 62
     0
100
AcDbPoint
 10
108.005772
 20
294.198665
 30
0.0
  0
ENDBLK
  5
40A
100
AcDbEntity
  8
0
100
AcDbBlockEnd
  0
BLOCK
  5
416
100
AcDbEntity
  8
0
100
AcDbBlockBegin
  2
*D18
 70
     1
 10
0.0
 20
0.0
 30
0.0
  3
*D18
  1

  0
LINE
  5
40C
100
AcDbEntity
  8
0
  6
BYBLOCK
 62
     0
100
AcDbLine
 10
104.454372
 20
294.448665
 30
0.0
 11
109.664873
 21
294.448665
 31
0.0
  0
LINE
  5
40D
100
AcDbEntity
  8
0
  6
BYBLOCK
 62
     0
100
AcDbLine
 10
104.454372
 20
273.990967
 30
0.0
 11
109.664873
 21
273.990967
 31
0.0
  0
LINE
  5
40E
100
AcDbEntity
  8
0
  6
BYBLOCK
 62
     0
100
AcDbLine
 10
109.304873
 20
294.088665
 30
0.0
 11
109.304873
 21
284.879816
 31
0.0
  0
LINE
  5
40F
100
AcDbEntity
  8
0
  6
BYBLOCK
 62
     0
100
AcDbLine
 10
109.304873
 20
274.350967
 30
0.0
 11
109.304873
 21
283.559816
 31
0.0
  0
SOLID
  5
410
100
AcDbEntity
  8
0
  6
BYBLOCK
 62
     0
100
AcDbTrace
 10
109.244873
 20
294.088665
 30
0.0
 11
109.364873
 21
294.088665
 31
0.0
 12
109.304873
 22
294.448665
 32
0.0
 13
109.304873
 23
294.448665
 33
0.0
  0
SOLID
  5
411
100
AcDbEntity
  8
0
  6
BYBLOCK
 62
     0
100
AcDbTrace
 10
109.244873
 20
274.350967
 30
0.0
 11
109.364873
 21
274.350967
 31
0.0
 12
109.304873
 22
273.990967
 32
0.0
 13
109.304873
 23
273.990967
 33
0.0
  0
MTEXT
  5
412
100
AcDbEntity
  8
0
  6
BYBLOCK
 62
     0
100
AcDbMText
 10
109.304873
 20
284.219816
 30
0.0
 40
0.36
 41
0.0
 71
     5
 72
     1
  1
\A1;CLEAR \POPENING
  7
ROMANS
  0
POINT
  5
413
100
AcDbEntity
  8
DEFPOINTS
  6
BYBLOCK
 62
     0
100
AcDbPoint
 10
104.329372
 20
294.448665
 30
0.0
  0
POINT
  5
414
100
AcDbEntity
  8
DEFPOINTS
  6
BYBLOCK
 62
     0
100
AcDbPoint
 10
104.329372
 20
273.990967
 30
0.0
  0
POINT
  5
415
100
AcDbEntity
  8
DEFPOINTS
  6
BYBLOCK
 62
     0
100
AcDbPoint
 10
109.304873
 20
273.990967
 30
0.0
  0
ENDBLK
  5
417
100
AcDbEntity
  8
0
100
AcDbBlockEnd
  0
BLOCK
  5
423
100
AcDbEntity
  8
0
100
AcDbBlockBegin
  2
*D19
 70
     1
 10
0.0
 20
0.0
 30
0.0
  3
*D19
  1

  0
LINE
  5
419
100
AcDbEntity
  8
0
  6
BYBLOCK
 62
     0
100
AcDbLine
 10
100.920108
 20
289.296888
 30
0.0
 11
93.88241
 21
289.296888
 31
0.0
  0
LINE
  5
41A
100
AcDbEntity
  8
0
  6
BYBLOCK
 62
     0
100
AcDbLine
 10
100.249036
 20
294.448665
 30
0.0
 11
93.88241
 21
294.448665
 31
0.0
  0
LINE
  5
41B
100
AcDbEntity
  8
0
  6
BYBLOCK
 62
     0
100
AcDbLine
 10
94.24241
 20
289.656888
 30
0.0
 11
94.24241
 21
291.084205
 31
0.0
  0
LINE
  5
41C
100
AcDbEntity
  8
0
  6
BYBLOCK
 62
     0
100
AcDbLine
 10
94.24241
 20
294.088665
 30
0.0
 11
94.24241
 21
292.661348
 31
0.0
  0
SOLID
  5
41D
100
AcDbEntity
  8
0
  6
BYBLOCK
 62
     0
100
AcDbTrace
 10
94.18241
 20
289.656888
 30
0.0
 11
94.30241
 21
289.656888
 31
0.0
 12
94.24241
 22
289.296888
 32
0.0
 13
94.24241
 23
289.296888
 33
0.0
  0
SOLID
  5
41E
100
AcDbEntity
  8
0
  6
BYBLOCK
 62
     0
100
AcDbTrace
 10
94.18241
 20
294.088665
 30
0.0
 11
94.30241
 21
294.088665
 31
0.0
 12
94.24241
 22
294.448665
 32
0.0
 13
94.24241
 23
294.448665
 33
0.0
  0
MTEXT
  5
41F
100
AcDbEntity
  8
0
  6
BYBLOCK
 62
     0
100
AcDbMText
 10
94.24241
 20
291.872776
 30
0.0
 40
0.36
 41
0.0
 71
     5
 72
     1
  1
\A1;5 3/16\P(132mm)
  7
ROMANS
  0
POINT
  5
420
100
AcDbEntity
  8
DEFPOINTS
  6
BYBLOCK
 62
     0
100
AcDbPoint
 10
101.045108
 20
289.296888
 30
0.0
  0
POINT
  5
421
100
AcDbEntity
  8
DEFPOINTS
  6
BYBLOCK
 62
     0
100
AcDbPoint
 10
100.374036
 20
294.448665
 30
0.0
  0
POINT
  5
422
100
AcDbEntity
  8
DEFPOINTS
  6
BYBLOCK
 62
     0
100
AcDbPoint
 10
94.24241
 20
294.448665
 30
0.0
  0
ENDBLK
  5
424
100
AcDbEntity
  8
0
100
AcDbBlockEnd
  0
BLOCK
  5
431
100
AcDbEntity
  8
0
100
AcDbBlockBegin
  2
*D20
 70
     1
 10
0.0
 20
0.0
 30
0.0
  3
*D20
  1

  0
LINE
  5
426
100
AcDbEntity
  8
0
  6
BYBLOCK
 62
     0
100
AcDbLine
 10
102.445364
 20
274.240967
 30
0.0
 11
108.365772
 21
274.240967
 31
0.0
  0
LINE
  5
427
100
AcDbEntity
  8
0
  6
BYBLOCK
 62
     0
100
AcDbLine
 10
104.454372
 20
273.990967
 30
0.0
 11
108.365772
 21
273.990967
 31
0.0
  0
LINE
  5
428
100
AcDbEntity
  8
0
  6
BYBLOCK
 62
     0
100
AcDbLine
 10
108.005772
 20
274.600967
 30
0.0
 11
108.005772
 21
274.960967
 31
0.0
  0
LINE
  5
429
100
AcDbEntity
  8
0
  6
BYBLOCK
 62
     0
100
AcDbLine
 10
108.005772
 20
273.630967
 30
0.0
 11
108.005772
 21
272.844039
 31
0.0
  0
LINE
  5
42A
100
AcDbEntity
  8
0
  6
BYBLOCK
 62
     0
100
AcDbLine
 10
108.005772
 20
272.844039
 30
0.0
 11
107.645772
 21
272.844039
 31
0.0
  0
SOLID
  5
42B
100
AcDbEntity
  8
0
  6
BYBLOCK
 62
     0
100
AcDbTrace
 10
107.945772
 20
274.600967
 30
0.0
 11
108.065772
 21
274.600967
 31
0.0
 12
108.005772
 22
274.240967
 32
0.0
 13
108.005772
 23
274.240967
 33
0.0
  0
SOLID
  5
42C
100
AcDbEntity
  8
0
  6
BYBLOCK
 62
     0
100
AcDbTrace
 10
107.945772
 20
273.630967
 30
0.0
 11
108.065772
 21
273.630967
 31
0.0
 12
108.005772
 22
273.990967
 32
0.0
 13
108.005772
 23
273.990967
 33
0.0
  0
MTEXT
  5
42D
100
AcDbEntity
  8
0
  6
BYBLOCK
 62
     0
100
AcDbMText
 10
106.60863
 20
272.844039
 30
0.0
 40
0.36
 41
0.0
 71
     5
 72
     1
  1
\A1;1/4\P(6mm)
  7
ROMANS
  0
POINT
  5
42E
100
AcDbEntity
  8
DEFPOINTS
  6
BYBLOCK
 62
     0
100
AcDbPoint
 10
102.320364
 20
274.240967
 30
0.0
  0
POINT
  5
42F
100
AcDbEntity
  8
DEFPOINTS
  6
BYBLOCK
 62
     0
100
AcDbPoint
 10
104.329372
 20
273.990967
 30
0.0
  0
POINT
  5
430
100
AcDbEntity
  8
DEFPOINTS
  6
BYBLOCK
 62
     0
100
AcDbPoint
 10
108.005772
 20
273.990967
 30
0.0
  0
ENDBLK
  5
432
100
AcDbEntity
  8
0
100
AcDbBlockEnd
  0
BLOCK
  5
43E
100
AcDbEntity
  8
0
100
AcDbBlockBegin
  2
*D21
 70
     1
 10
0.0
 20
0.0
 30
0.0
  3
*D21
  1

  0
LINE
  5
434
100
AcDbEntity
  8
0
  6
BYBLOCK
 62
     0
100
AcDbLine
 10
100.920108
 20
279.142743
 30
0.0
 11
93.88241
 21
279.142743
 31
0.0
  0
LINE
  5
435
100
AcDbEntity
  8
0
  6
BYBLOCK
 62
     0
100
AcDbLine
 10
98.204372
 20
273.990967
 30
0.0
 11
93.88241
 21
273.990967
 31
0.0
  0
LINE
  5
436
100
AcDbEntity
  8
0
  6
BYBLOCK
 62
     0
100
AcDbLine
 10
94.24241
 20
278.782743
 30
0.0
 11
94.24241
 21
277.355426
 31
0.0
  0
LINE
  5
437
100
AcDbEntity
  8
0
  6
BYBLOCK
 62
     0
100
AcDbLine
 10
94.24241
 20
274.350967
 30
0.0
 11
94.24241
 21
275.778283
 31
0.0
  0
SOLID
  5
438
100
AcDbEntity
  8
0
  6
BYBLOCK
 62
     0
100
AcDbTrace
 10
94.18241
 20
278.782743
 30
0.0
 11
94.30241
 21
278.782743
 31
0.0
 12
94.24241
 22
279.142743
 32
0.0
 13
94.24241
 23
279.142743
 33
0.0
  0
SOLID
  5
439
100
AcDbEntity
  8
0
  6
BYBLOCK
 62
     0
100
AcDbTrace
 10
94.18241
 20
274.350967
 30
0.0
 11
94.30241
 21
274.350967
 31
0.0
 12
94.24241
 22
273.990967
 32
0.0
 13
94.24241
 23
273.990967
 33
0.0
  0
MTEXT
  5
43A
100
AcDbEntity
  8
0
  6
BYBLOCK
 62
     0
100
AcDbMText
 10
94.24241
 20
276.566855
 30
0.0
 40
0.36
 41
0.0
 71
     5
 72
     1
  1
\A1;5 3/16\P(132mm)
  7
ROMANS
  0
POINT
  5
43B
100
AcDbEntity
  8
DEFPOINTS
  6
BYBLOCK
 62
     0
100
AcDbPoint
 10
101.045108
 20
279.142743
 30
0.0
  0
POINT
  5
43C
100
AcDbEntity
  8
DEFPOINTS
  6
BYBLOCK
 62
     0
100
AcDbPoint
 10
98.329372
 20
273.990967
 30
0.0
  0
POINT
  5
43D
100
AcDbEntity
  8
DEFPOINTS
  6
BYBLOCK
 62
     0
100
AcDbPoint
 10
94.24241
 20
273.990967
 30
0.0
  0
ENDBLK
  5
43F
100
AcDbEntity
  8
0
100
AcDbBlockEnd
  0
BLOCK
  5
44B
100
AcDbEntity
  8
0
100
AcDbBlockBegin
  2
*D22
 70
     1
 10
0.0
 20
0.0
 30
0.0
  3
*D22
  1

  0
LINE
  5
441
100
AcDbEntity
  8
0
  6
BYBLOCK
 62
     0
100
AcDbLine
 10
100.795108
 20
289.296888
 30
0.0
 11
93.88241
 21
289.296888
 31
0.0
  0
LINE
  5
442
100
AcDbEntity
  8
0
  6
BYBLOCK
 62
     0
100
AcDbLine
 10
100.920108
 20
279.142743
 30
0.0
 11
93.88241
 21
279.142743
 31
0.0
  0
LINE
  5
443
100
AcDbEntity
  8
0
  6
BYBLOCK
 62
     0
100
AcDbLine
 10
94.24241
 20
288.936888
 30
0.0
 11
94.24241
 21
285.908387
 31
0.0
  0
LINE
  5
444
100
AcDbEntity
  8
0
  6
BYBLOCK
 62
     0
100
AcDbLine
 10
94.24241
 20
279.502743
 30
0.0
 11
94.24241
 21
282.531244
 31
0.0
  0
SOLID
  5
445
100
AcDbEntity
  8
0
  6
BYBLOCK
 62
     0
100
AcDbTrace
 10
94.18241
 20
288.936888
 30
0.0
 11
94.30241
 21
288.936888
 31
0.0
 12
94.24241
 22
289.296888
 32
0.0
 13
94.24241
 23
289.296888
 33
0.0
  0
SOLID
  5
446
100
AcDbEntity
  8
0
  6
BYBLOCK
 62
     0
100
AcDbTrace
 10
94.18241
 20
279.502743
 30
0.0
 11
94.30241
 21
279.502743
 31
0.0
 12
94.24241
 22
279.142743
 32
0.0
 13
94.24241
 23
279.142743
 33
0.0
  0
MTEXT
  5
447
100
AcDbEntity
  8
0
  6
BYBLOCK
 62
     0
100
AcDbMText
 10
94.24241
 20
284.219816
 30
0.0
 40
0.36
 41
0.0
 71
     5
 72
     1
  1
\A1;\PGLASS \PCLEAR OPENING\PLESS 10 3/8\P(264mm)
  7
ROMANS
  0
POINT
  5
448
100
AcDbEntity
  8
DEFPOINTS
  6
BYBLOCK
 62
     0
100
AcDbPoint
 10
100.920108
 20
289.296888
 30
0.0
  0
POINT
  5
449
100
AcDbEntity
  8
DEFPOINTS
  6
BYBLOCK
 62
     0
100
AcDbPoint
 10
101.045108
 20
279.142743
 30
0.0
  0
POINT
  5
44A
100
AcDbEntity
  8
DEFPOINTS
  6
BYBLOCK
 62
     0
100
AcDbPoint
 10
94.24241
 20
279.142743
 30
0.0
  0
ENDBLK
  5
44C
100
AcDbEntity
  8
0
100
AcDbBlockEnd
  0
BLOCK
  5
458
100
AcDbEntity
  8
0
100
AcDbBlockBegin
  2
*D23
 70
     1
 10
0.0
 20
0.0
 30
0.0
  3
*D23
  1

  0
LINE
  5
44E
100
AcDbEntity
  8
0
  6
BYBLOCK
 62
     0
100
AcDbLine
 10
100.338379
 20
280.15442
 30
0.0
 11
100.338379
 21
281.878864
 31
0.0
  0
LINE
  5
44F
100
AcDbEntity
  8
0
  6
BYBLOCK
 62
     0
100
AcDbLine
 10
102.320364
 20
280.15442
 30
0.0
 11
102.320364
 21
281.878864
 31
0.0
  0
LINE
  5
450
100
AcDbEntity
  8
0
  6
BYBLOCK
 62
     0
100
AcDbLine
 10
100.698379
 20
281.518864
 30
0.0
 11
101.960364
 21
281.518864
 31
0.0
  0
LINE
  5
451
100
AcDbEntity
  8
0
  6
BYBLOCK
 62
     0
100
AcDbLine
 10
102.320364
 20
281.518864
 30
0.0
 11
102.740364
 21
281.518864
 31
0.0
  0
SOLID
  5
452
100
AcDbEntity
  8
0
  6
BYBLOCK
 62
     0
100
AcDbTrace
 10
100.698379
 20
281.578864
 30
0.0
 11
100.698379
 21
281.458864
 31
0.0
 12
100.338379
 22
281.518864
 32
0.0
 13
100.338379
 23
281.518864
 33
0.0
  0
SOLID
  5
453
100
AcDbEntity
  8
0
  6
BYBLOCK
 62
     0
100
AcDbTrace
 10
101.960364
 20
281.578864
 30
0.0
 11
101.960364
 21
281.458864
 31
0.0
 12
102.320364
 22
281.518864
 32
0.0
 13
102.320364
 23
281.518864
 33
0.0
  0
MTEXT
  5
454
100
AcDbEntity
  8
0
  6
BYBLOCK
 62
     0
100
AcDbMText
 10
103.948936
 20
281.518864
 30
0.0
 40
0.36
 41
0.0
 71
     5
 72
     1
  1
\A1;2\P(51mm)
  7
ROMANS
  0
POINT
  5
455
100
AcDbEntity
  8
DEFPOINTS
  6
BYBLOCK
 62
     0
100
AcDbPoint
 10
100.338379
 20
280.02942
 30
0.0
  0
POINT
  5
456
100
AcDbEntity
  8
DEFPOINTS
  6
BYBLOCK
 62
     0
100
AcDbPoint
 10
102.320364
 20
280.02942
 30
0.0
  0
POINT
  5
457
100
AcDbEntity
  8
DEFPOINTS
  6
BYBLOCK
 62
     0
100
AcDbPoint
 10
102.320364
 20
281.518864
 30
0.0
  0
ENDBLK
  5
459
100
AcDbEntity
  8
0
100
AcDbBlockEnd
  0
BLOCK
  5
553
100
AcDbEntity
  8
0
100
AcDbBlockBegin
  2
A$C09E33746
 70
     0
 10
0.0
 20
0.0
 30
0.0
  3
A$C09E33746
  1

  0
LINE
  5
45C
100
AcDbEntity
  8
R-DOOR-DETL
100
AcDbLine
 10
12.436809
 20
22.688721
 30
0.0
 11
12.436809
 21
25.760613
 31
0.0
  0
LINE
  5
45D
100
AcDbEntity
  8
R-DOOR-DETL
100
AcDbLine
 10
11.951382
 20
22.680312
 30
0.0
 11
11.951382
 21
25.760613
 31
0.0
  0
LINE
  5
45E
100
AcDbEntity
  8
R-DOOR-DETL
100
AcDbLine
 10
12.259866
 20
22.643414
 30
0.0
 11
12.259866
 21
25.760613
 31
0.0
  0
LINE
  5
45F
100
AcDbEntity
  8
R-DOOR-DETL
100
AcDbLine
 10
12.134866
 20
22.700485
 30
0.0
 11
12.134866
 21
25.760613
 31
0.0
  0
LINE
  5
460
100
AcDbEntity
  8
R-DOOR-DETL
100
AcDbLine
 10
12.072366
 20
22.65361
 30
0.0
 11
12.072366
 21
25.760613
 31
0.0
  0
LINE
  5
461
100
AcDbEntity
  8
R-DOOR-DETL
100
AcDbLine
 10
12.009866
 20
22.64253
 30
0.0
 11
12.009866
 21
25.760613
 31
0.0
  0
LINE
  5
462
100
AcDbEntity
  8
R-DOOR-DETL
100
AcDbLine
 10
12.193481
 20
22.330351
 30
0.0
 11
12.193481
 21
25.760613
 31
0.0
  0
LINE
  5
463
100
AcDbEntity
  8
R-DOOR-DETL
100
AcDbLine
 10
12.384866
 20
22.706837
 30
0.0
 11
12.384866
 21
25.760613
 31
0.0
  0
LINE
  5
464
100
AcDbEntity
  8
R-DOOR-DETL
100
AcDbLine
 10
12.322366
 20
22.682145
 30
0.0
 11
12.322366
 21
25.760613
 31
0.0
  0
DIMENSION
  5
465
100
AcDbEntity
  8
R-DOOR-ANNO
  6
CONTINUOUS
100
AcDbDimension
  2
*D22
 10
5.108526
 20
15.606467
 30
0.0
 11
5.108526
 21
20.68354
 31
0.0
 12
-89.133883
 22
-263.536276
 32
0.0
  1
\PGLASS \PCLEAR OPENING\PLESS 10 3/8\P(264mm)
  3
ROMANS
100
AcDbAlignedDimension
 13
11.786225
 23
25.760613
 33
0.0
 14
11.911225
 24
15.606467
 34
0.0
 50
90.0
100
AcDbRotatedDimension
  0
LWPOLYLINE
  5
466
100
AcDbEntity
  8
BORDER
100
AcDbPolyline
 90
        4
 70
     1
 43
0.175785
 10
25.78113
 20
34.287965
 10
0.087893
 20
34.287965
 10
0.087893
 20
0.087893
 10
25.78113
 20
0.087893
  0
DIMENSION
  5
467
100
AcDbEntity
  8
R-DOOR-ANNO
100
AcDbDimension
  2
*D18
 10
20.17099
 20
10.454691
 30
0.0
 11
20.17099
 21
20.68354
 31
0.0
 12
-89.133883
 22
-263.536276
 32
0.0
  1
CLEAR \POPENING
  3
ROMANS
100
AcDbAlignedDimension
 13
15.195488
 23
30.912389
 33
0.0
 14
15.195488
 24
10.454691
 34
0.0
 50
90.0
100
AcDbRotatedDimension
1001
ACAD
1000
DSTYLE
1002
{
1070
   173
1070
     0
1070
     6
1000

1002
}
  0
INSERT
  5
468
100
AcDbEntity
  8
R-DOOR-ANNO
  6
CONTINUOUS
100
AcDbBlockReference
  2
CRLINFO
 10
0.087893
 20
0.087893
 30
0.0
  0
HATCH
  5
469
100
AcDbEntity
  8
R-DOOR-PATT
  6
CONTINUOUS
 62
     5
100
AcDbHatch
 10
0.0
 20
0.0
 30
0.0
210
0.0
220
0.0
230
1.0
  2
ANSI31
 70
     0
 71
     0
 91
        1
 92
        7
 72
     0
 73
     1
 93
        4
 10
9.195488082147761
 20
10.45469112095156
 10
15.19548808214776
 20
10.45469112095156
 10
15.19548808214776
 20
8.454691120951565
 10
9.195488082147761
 20
8.454691120951565
 97
        0
 75
     0
 76
     1
 52
180.0
 41
2.5
 77
     0
 78
     1
 53
135.0
 43
-21.735863
 44
39.583853
 45
0.2209708691207961
 46
0.2209708691207961
 79
     0
 47
0.011976
 98
        1
 10
12.468289
 20
9.645598
  0
TEXT
  5
46A
100
AcDbEntity
  8
R-DOOR-ANNO
  6
CONTINUOUS
100
AcDbText
 10
4.064298
 20
6.257773
 30
0.0
 40
0.625
  1
CRL 6" SQUARE DOOR RAIL CLAD
  7
ROMANS
 72
     1
 11
12.204179
 21
6.257773
 31
0.0
100
AcDbText
  0
TEXT
  5
46B
100
AcDbEntity
  8
R-DOOR-ANNO
  6
CONTINUOUS
100
AcDbText
 10
8.037512
 20
5.428158
 30
0.0
 40
0.625
  1
TOP AND BOTTOM
  7
ROMANS
 72
     1
 11
12.204179
 21
5.428158
 31
0.0
100
AcDbText
  0
LINE
  5
46C
100
AcDbEntity
  8
R-DOOR-ANNO
  6
CONTINUOUS
100
AcDbLine
 10
9.195488
 20
10.454691
 30
0.0
 11
15.195488
 21
10.454691
 31
0.0
  0
LINE
  5
46D
100
AcDbEntity
  8
0
100
AcDbLine
 10
10.101988
 20
10.454691
 30
0.0
 11
14.288988
 21
10.454691
 31
0.0
  0
DIMENSION
  5
46E
100
AcDbEntity
  8
R-DOOR-ANNO
100
AcDbDimension
  2
*D21
 10
5.108526
 20
10.454691
 30
0.0
 11
5.108526
 21
13.030579
 31
0.0
 12
-89.133883
 22
-263.536276
 32
0.0
  1
5 3/16\P(132mm)
  3
ROMANS
100
AcDbAlignedDimension
 13
11.911225
 23
15.606467
 33
0.0
 14
9.195488
 24
10.454691
 34
0.0
 50
90.0
100
AcDbRotatedDimension
1001
ACAD
1000
DSTYLE
1002
{
1070
   270
1070
     7
1070
   272
1070
     0
1070
    40
1040
2.0
1002
}
  0
LINE
  5
46F
100
AcDbEntity
  8
R-DOOR-DETL
100
AcDbLine
 10
12.436809
 20
19.178359
 30
0.0
 11
12.436809
 21
15.606467
 31
0.0
  0
LINE
  5
470
100
AcDbEntity
  8
R-DOOR-DETL
100
AcDbLine
 10
12.322366
 20
19.184935
 30
0.0
 11
12.322366
 21
15.606467
 31
0.0
  0
LINE
  5
471
100
AcDbEntity
  8
R-DOOR-DETL
100
AcDbLine
 10
12.384866
 20
19.160243
 30
0.0
 11
12.384866
 21
15.606467
 31
0.0
  0
LINE
  5
472
100
AcDbEntity
  8
R-DOOR-DETL
100
AcDbLine
 10
12.193481
 20
19.536729
 30
0.0
 11
12.193481
 21
15.606467
 31
0.0
  0
LINE
  5
473
100
AcDbEntity
  8
R-DOOR-DETL
100
AcDbLine
 10
12.009866
 20
19.22455
 30
0.0
 11
12.009866
 21
15.606467
 31
0.0
  0
LINE
  5
474
100
AcDbEntity
  8
R-DOOR-DETL
100
AcDbLine
 10
12.072366
 20
19.21347
 30
0.0
 11
12.072366
 21
15.606467
 31
0.0
  0
LINE
  5
475
100
AcDbEntity
  8
R-DOOR-DETL
100
AcDbLine
 10
12.134866
 20
19.166595
 30
0.0
 11
12.134866
 21
15.606467
 31
0.0
  0
LINE
  5
476
100
AcDbEntity
  8
R-DOOR-DETL
100
AcDbLine
 10
12.259866
 20
19.223666
 30
0.0
 11
12.259866
 21
15.606467
 31
0.0
  0
LINE
  5
477
100
AcDbEntity
  8
R-DOOR-DETL
100
AcDbLine
 10
11.951382
 20
19.186768
 30
0.0
 11
11.951382
 21
15.606467
 31
0.0
  0
LWPOLYLINE
  5
478
100
AcDbEntity
  8
R-DOOR-DETL
100
AcDbPolyline
 90
        4
 70
     1
 43
0.0
 10
12.486809
 20
15.668177
 10
12.486809
 20
16.418177
 10
12.436809
 20
16.418177
 10
12.436809
 20
15.668177
  0
LWPOLYLINE
  5
479
100
AcDbEntity
  8
R-DOOR-DETL
100
AcDbPolyline
 90
        4
 70
     1
 43
0.0
 10
11.901382
 20
15.668177
 10
11.901382
 20
16.418177
 10
11.951382
 20
16.418177
 10
11.951382
 20
15.668177
  0
LWPOLYLINE
  5
47A
100
AcDbEntity
  8
R-DOOR-DETL
100
AcDbPolyline
 90
       29
 70
     1
 43
0.0
 10
12.044518
 20
15.129467
 10
12.044518
 20
15.014467
 42
-0.414214
 10
12.029518
 20
14.999467
 10
11.877518
 20
14.999467
 42
-0.414214
 10
11.783518
 20
15.093467
 10
11.783518
 20
15.348384
 42
0.136094
 10
11.779233
 20
15.363835
 10
11.501141
 20
15.826658
 42
-0.414214
 10
11.511404
 20
15.867825
 10
11.571406
 20
15.903877
 42
-0.136094
 10
11.586857
 20
15.908162
 10
11.703104
 20
15.908162
 42
0.400921
 10
11.733073
 20
15.936795
 10
11.755464
 20
16.427524
 42
-0.400921
 10
11.795423
 20
16.465701
 10
11.901382
 20
16.465701
 42
-0.843039
 10
11.907944
 20
16.427457
 42
0.317837
 10
11.901382
 20
16.418177
 10
11.901382
 20
15.56631
 42
0.414214
 10
11.911225
 20
15.556467
 10
12.143518
 20
15.556467
 42
-0.414214
 10
12.158518
 20
15.541467
 10
12.158518
 20
15.426467
 42
-0.414214
 10
12.143518
 20
15.411467
 10
12.053518
 20
15.411467
 42
0.414214
 10
11.928518
 20
15.286467
 10
11.928518
 20
15.159467
 42
0.414214
 10
11.943518
 20
15.144467
 10
12.029518
 20
15.144467
 42
-0.414214
  0
LWPOLYLINE
  5
47B
100
AcDbEntity
  8
R-DOOR-DETL
100
AcDbPolyline
 90
       29
 70
     1
 43
0.0
 10
12.343673
 20
15.129467
 10
12.343673
 20
15.014467
 42
0.414214
 10
12.358673
 20
14.999467
 10
12.510673
 20
14.999467
 42
0.414214
 10
12.604673
 20
15.093467
 10
12.604673
 20
15.348384
 42
-0.136094
 10
12.608958
 20
15.363835
 10
12.887051
 20
15.826658
 42
0.414214
 10
12.876787
 20
15.867825
 10
12.816785
 20
15.903877
 42
0.136094
 10
12.801334
 20
15.908162
 10
12.685087
 20
15.908162
 42
-0.400921
 10
12.655118
 20
15.936795
 10
12.632727
 20
16.427524
 42
0.400921
 10
12.592768
 20
16.465701
 10
12.486809
 20
16.465701
 42
0.843039
 10
12.480247
 20
16.427457
 42
-0.317837
 10
12.486809
 20
16.418177
 10
12.486809
 20
15.56631
 42
-0.414214
 10
12.476966
 20
15.556467
 10
12.244673
 20
15.556467
 42
0.414214
 10
12.229673
 20
15.541467
 10
12.229673
 20
15.426467
 42
0.414214
 10
12.244673
 20
15.411467
 10
12.334673
 20
15.411467
 42
-0.414214
 10
12.459673
 20
15.286467
 10
12.459673
 20
15.159467
 42
-0.414214
 10
12.444673
 20
15.144467
 10
12.358673
 20
15.144467
 42
0.414214
  0
LWPOLYLINE
  5
47C
100
AcDbEntity
  8
R-DOOR-DETL
100
AcDbPolyline
 90
        8
 70
     1
 43
0.0
 10
11.204496
 20
10.704691
 10
11.254496
 20
10.704691
 10
11.254496
 20
16.493144
 42
-0.414214
 10
11.410496
 20
16.649144
 10
11.902416
 20
16.649144
 10
11.902416
 20
16.699144
 10
11.410496
 20
16.699144
 42
0.414214
 10
11.204496
 20
16.493144
  0
LWPOLYLINE
  5
47D
100
AcDbEntity
  8
R-DOOR-DETL
100
AcDbPolyline
 90
        8
 70
     1
 43
0.0
 10
12.980481
 20
16.699144
 42
-0.414214
 10
13.186481
 20
16.493144
 10
13.186481
 20
10.704691
 10
13.136481
 20
10.704691
 10
13.136481
 20
16.493144
 42
0.414214
 10
12.980481
 20
16.649144
 10
12.488561
 20
16.649144
 10
12.488561
 20
16.699144
  0
INSERT
  5
47E
100
AcDbEntity
  8
R-DOOR-DETL
100
AcDbBlockReference
  2
A$C4AD64EA0
 10
11.264496
 20
16.649144
 30
0.0
 50
270.0
  0
MTEXT
  5
47F
102
{ACAD_REACTORS
330
4DD
102
}
100
AcDbEntity
  8
R-DOOR-ANNO
  6
CONTINUOUS
100
AcDbMText
 10
15.117483
 20
15.930644
 30
0.0
 40
0.36
 41
0.0
 71
     4
 72
     1
  1
CLADDING
  7
ROMANS
  0
MTEXT
  5
480
102
{ACAD_REACTORS
330
483
102
}
100
AcDbEntity
  8
R-DOOR-ANNO
  6
CONTINUOUS
100
AcDbMText
 10
15.179352
 20
13.646159
 30
0.0
 40
0.36
 41
0.0
 71
     4
 72
     1
  1
SHOE
  7
ROMANS
  0
DIMENSION
  5
481
100
AcDbEntity
  8
R-DOOR-ANNO
  6
CONTINUOUS
100
AcDbDimension
  2
*D20
 10
18.871889
 20
10.454691
 30
0.0
 11
17.474746
 21
9.307764
 31
0.0
 12
-89.133883
 22
-263.536276
 32
0.0
 70
   128
  1
<>\P(6mm)
  3
STANDARD
100
AcDbAlignedDimension
 13
13.186481
 23
10.704691
 33
0.0
 14
15.195488
 24
10.454691
 34
0.0
 50
90.0
100
AcDbRotatedDimension
1001
ACAD
1000
DSTYLE
1002
{
1070
   173
1070
     0
1070
     6
1000

1002
}
  0
MTEXT
  5
482
102
{ACAD_REACTORS
330
484
102
}
100
AcDbEntity
  8
R-DOOR-ANNO
  6
CONTINUOUS
100
AcDbMText
 10
15.187396
 20
14.565918
 30
0.0
 40
0.36
 41
0.0
 71
     4
 72
     1
  1
GLASS CLAMP
  7
ROMANS
  0
LEADER
  5
483
100
AcDbEntity
  8
R-DOOR-ANNO
  6
CONTINUOUS
100
AcDbLeader
  3
STANDARD
 73
     0
 74
     0
 75
     1
 40
0.36
 41
1.337143
 76
     3
 10
12.814063
 20
14.333659
 30
0.0
 10
14.577396
 20
13.646159
 30
0.0
 10
15.077396
 20
13.646159
 30
0.0
 77
   256
340
480
213
-0.0119562090668701
223
0.0
233
0.0
1001
ACAD
1000
DSTYLE
1002
{
1070
    40
1040
1.0
1070
    41
1040
0.5
1002
}
  0
LEADER
  5
484
100
AcDbEntity
  8
R-DOOR-ANNO
  6
CONTINUOUS
100
AcDbLeader
  3
STANDARD
 73
     0
 74
     0
 75
     1
 40
0.36
 41
3.634286
 76
     3
 10
12.747769
 20
15.378418
 30
0.0
 10
14.577396
 20
14.565918
 30
0.0
 10
15.077396
 20
14.565918
 30
0.0
 77
   256
340
482
213
-0.0199999999999996
223
0.0
233
0.0
1001
ACAD
1000
DSTYLE
1002
{
1070
    40
1040
1.0
1070
    41
1040
0.5
1002
}
  0
LINE
  5
485
100
AcDbEntity
  8
R-DOOR-DETL
100
AcDbLine
 10
12.442262
 20
15.276196
 30
0.0
 11
12.442262
 21
15.151196
 31
0.0
  0
ARC
  5
486
100
AcDbEntity
  8
R-DOOR-DETL
100
AcDbCircle
 10
12.285827
 20
15.35933
 30
0.0
 40
0.03
100
AcDbArc
 50
0.0
 51
90.0
  0
LINE
  5
487
100
AcDbEntity
  8
R-DOOR-DETL
100
AcDbLine
 10
12.315827
 20
15.342838
 30
0.0
 11
12.067827
 21
15.342838
 31
0.0
  0
LINE
  5
488
100
AcDbEntity
  8
R-DOOR-DETL
100
AcDbLine
 10
12.315827
 20
15.282838
 30
0.0
 11
12.067827
 21
15.282838
 31
0.0
  0
LINE
  5
489
100
AcDbEntity
  8
R-DOOR-DETL
100
AcDbLine
 10
12.315827
 20
15.222838
 30
0.0
 11
12.067827
 21
15.222838
 31
0.0
  0
LINE
  5
48A
100
AcDbEntity
  8
R-DOOR-DETL
100
AcDbLine
 10
12.315827
 20
15.162838
 30
0.0
 11
12.067827
 21
15.162838
 31
0.0
  0
LWPOLYLINE
  5
48B
100
AcDbEntity
  8
R-DOOR-DETL
100
AcDbPolyline
 90
        4
 70
     1
 43
0.0
 10
12.161225
 20
15.556467
 10
11.911225
 20
15.556467
 10
11.911225
 20
15.606467
 10
12.161225
 20
15.606467
  0
ARC
  5
48C
100
AcDbEntity
  8
R-DOOR-DETL
100
AcDbCircle
 10
12.097827
 20
15.35933
 30
0.0
 40
0.03
100
AcDbArc
 50
90.0
 51
180.0
  0
LINE
  5
48D
100
AcDbEntity
  8
R-DOOR-DETL
100
AcDbLine
 10
11.942262
 20
15.276196
 30
0.0
 11
11.942262
 21
15.151196
 31
0.0
  0
HATCH
  5
48E
100
AcDbEntity
  8
R-DOOR-DETL
100
AcDbHatch
 10
0.0
 20
0.0
 30
0.0
210
0.0
220
0.0
230
1.0
  2
ANSI31
 70
     0
 71
     0
 91
        1
 92
        7
 72
     0
 73
     1
 93
        4
 10
11.94226227537839
 20
15.2761959167575
 10
12.06826227537837
 20
15.2761959167575
 10
12.06826227537837
 20
15.1511959167575
 10
11.94226227537839
 20
15.1511959167575
 97
        0
 75
     0
 76
     1
 52
90.0
 41
0.2
 77
     0
 78
     1
 53
45.0
 43
48.224459
 44
-15.6046
 45
0.0176776695296637
 46
-0.0176776695296637
 79
     0
 47
0.003428
 98
        1
 10
12.003117
 20
15.220606
  0
LINE
  5
48F
100
AcDbEntity
  8
R-DOOR-DETL
100
AcDbLine
 10
12.285827
 20
15.312838
 30
0.0
 11
12.097827
 21
15.312838
 31
0.0
  0
LINE
  5
490
100
AcDbEntity
  8
R-DOOR-DETL
100
AcDbLine
 10
12.285827
 20
15.38933
 30
0.0
 11
12.097827
 21
15.38933
 31
0.0
  0
LINE
  5
491
100
AcDbEntity
  8
R-DOOR-DETL
100
AcDbLine
 10
12.285827
 20
15.372838
 30
0.0
 11
12.097827
 21
15.372838
 31
0.0
  0
LINE
  5
492
100
AcDbEntity
  8
R-DOOR-DETL
100
AcDbLine
 10
12.285827
 20
15.252838
 30
0.0
 11
12.097827
 21
15.252838
 31
0.0
  0
LINE
  5
493
100
AcDbEntity
  8
R-DOOR-DETL
100
AcDbLine
 10
12.285827
 20
15.192838
 30
0.0
 11
12.097827
 21
15.192838
 31
0.0
  0
LWPOLYLINE
  5
494
100
AcDbEntity
  8
R-DOOR-DETL
100
AcDbPolyline
 90
        4
 70
     1
 43
0.0
 10
12.226966
 20
15.556467
 10
12.476966
 20
15.556467
 10
12.476966
 20
15.606467
 10
12.226966
 20
15.606467
  0
LINE
  5
495
100
AcDbEntity
  8
R-DOOR-DETL
100
AcDbLine
 10
12.442262
 20
15.151196
 30
0.0
 11
11.942262
 21
15.151196
 31
0.0
  0
LINE
  5
496
100
AcDbEntity
  8
R-DOOR-DETL
100
AcDbLine
 10
12.442262
 20
15.276196
 30
0.0
 11
11.942262
 21
15.276196
 31
0.0
  0
HATCH
  5
497
100
AcDbEntity
  8
R-DOOR-DETL
100
AcDbHatch
 10
0.0
 20
0.0
 30
0.0
210
0.0
220
0.0
230
1.0
  2
ANSI31
 70
     0
 71
     0
 91
        1
 92
        7
 72
     0
 73
     1
 93
        4
 10
12.31626227537836
 20
15.2761959167575
 10
12.31626227537836
 20
15.1511959167575
 10
12.44226227537834
 20
15.1511959167575
 10
12.44226227537834
 20
15.2761959167575
 97
        0
 75
     0
 76
     1
 52
90.0
 41
0.2
 77
     0
 78
     1
 53
135.0
 43
-23.839935
 44
-15.6046
 45
-0.0176776695296637
 46
-0.0176776695296637
 79
     0
 47
0.003428
 98
        1
 10
12.381408
 20
15.220606
  0
LINE
  5
498
100
AcDbEntity
  8
R-DOOR-DETL
100
AcDbLine
 10
12.315827
 20
15.102838
 30
0.0
 11
12.067827
 21
15.102838
 31
0.0
  0
LINE
  5
499
100
AcDbEntity
  8
R-DOOR-DETL
100
AcDbLine
 10
12.315827
 20
14.982838
 30
0.0
 11
12.067827
 21
14.982838
 31
0.0
  0
LINE
  5
49A
100
AcDbEntity
  8
R-DOOR-DETL
100
AcDbLine
 10
12.315827
 20
15.042838
 30
0.0
 11
12.067827
 21
15.042838
 31
0.0
  0
LINE
  5
49B
100
AcDbEntity
  8
R-DOOR-DETL
100
AcDbLine
 10
12.315827
 20
14.922838
 30
0.0
 11
12.067827
 21
14.922838
 31
0.0
  0
LINE
  5
49C
100
AcDbEntity
  8
R-DOOR-DETL
100
AcDbLine
 10
12.285827
 20
14.952838
 30
0.0
 11
12.097827
 21
14.952838
 31
0.0
  0
LINE
  5
49D
100
AcDbEntity
  8
R-DOOR-DETL
100
AcDbLine
 10
12.285827
 20
15.132838
 30
0.0
 11
12.097827
 21
15.132838
 31
0.0
  0
LINE
  5
49E
100
AcDbEntity
  8
R-DOOR-DETL
100
AcDbLine
 10
12.285827
 20
15.012838
 30
0.0
 11
12.097827
 21
15.012838
 31
0.0
  0
LINE
  5
49F
100
AcDbEntity
  8
R-DOOR-DETL
100
AcDbLine
 10
12.285827
 20
15.072838
 30
0.0
 11
12.097827
 21
15.072838
 31
0.0
  0
CIRCLE
  5
4A0
100
AcDbEntity
  8
R-DOOR-DETL
100
AcDbCircle
 10
12.620488
 20
11.959691
 30
0.0
 40
0.1625
  0
CIRCLE
  5
4A1
100
AcDbEntity
  8
R-DOOR-DETL
100
AcDbCircle
 10
12.620488
 20
11.959691
 30
0.0
 40
0.1875
  0
LINE
  5
4A2
100
AcDbEntity
  8
R-DOOR-DETL
100
AcDbLine
 10
12.877988
 20
11.734691
 30
0.0
 11
12.877988
 21
12.284691
 31
0.0
  0
LINE
  5
4A3
100
AcDbEntity
  8
R-DOOR-DETL
100
AcDbLine
 10
12.609836
 20
11.851673
 30
0.0
 11
12.521616
 21
11.914907
 31
0.0
  0
LINE
  5
4A4
100
AcDbEntity
  8
R-DOOR-DETL
100
AcDbLine
 10
12.63114
 20
12.067709
 30
0.0
 11
12.532268
 21
12.022925
 31
0.0
  0
LINE
  5
4A5
100
AcDbEntity
  8
R-DOOR-DETL
100
AcDbLine
 10
12.532268
 20
12.022925
 30
0.0
 11
12.521616
 21
11.914907
 31
0.0
  0
LINE
  5
4A6
100
AcDbEntity
  8
R-DOOR-DETL
100
AcDbLine
 10
12.71936
 20
12.004476
 30
0.0
 11
12.708709
 21
11.896458
 31
0.0
  0
LINE
  5
4A7
100
AcDbEntity
  8
R-DOOR-DETL
100
AcDbLine
 10
12.708709
 20
11.896458
 30
0.0
 11
12.609836
 21
11.851673
 31
0.0
  0
LINE
  5
4A8
100
AcDbEntity
  8
R-DOOR-DETL
100
AcDbLine
 10
12.71936
 20
12.004476
 30
0.0
 11
12.63114
 21
12.067709
 31
0.0
  0
LINE
  5
4A9
100
AcDbEntity
  8
R-DOOR-DETL
100
AcDbLine
 10
12.619653
 20
11.454691
 30
0.0
 11
12.619653
 21
10.847174
 31
0.0
  0
LINE
  5
4AA
100
AcDbEntity
  8
R-DOOR-DETL
100
AcDbLine
 10
12.564146
 20
11.454691
 30
0.0
 11
12.564146
 21
10.847174
 31
0.0
  0
LINE
  5
4AB
100
AcDbEntity
  8
R-DOOR-DETL
100
AcDbLine
 10
12.685653
 20
10.847174
 30
0.0
 11
12.685653
 21
10.722174
 31
0.0
  0
LINE
  5
4AC
100
AcDbEntity
  8
R-DOOR-DETL
100
AcDbLine
 10
12.561439
 20
10.692691
 30
0.0
 11
12.561439
 21
10.722174
 31
0.0
  0
LINE
  5
4AD
100
AcDbEntity
  8
R-DOOR-DETL
100
AcDbLine
 10
12.562183
 20
10.692691
 30
0.0
 11
12.562183
 21
10.722174
 31
0.0
  0
LINE
  5
4AE
100
AcDbEntity
  8
R-DOOR-DETL
100
AcDbLine
 10
12.620396
 20
11.454691
 30
0.0
 11
12.620396
 21
10.847174
 31
0.0
  0
LINE
  5
4AF
100
AcDbEntity
  8
R-DOOR-DETL
100
AcDbLine
 10
12.564889
 20
11.454691
 30
0.0
 11
12.564889
 21
10.847174
 31
0.0
  0
CIRCLE
  5
4B0
100
AcDbEntity
  8
R-DOOR-DETL
100
AcDbCircle
 10
12.195488
 20
11.959691
 30
0.0
 40
0.1875
  0
CIRCLE
  5
4B1
100
AcDbEntity
  8
R-DOOR-DETL
100
AcDbCircle
 10
12.195488
 20
11.959691
 30
0.0
 40
0.1625
  0
LINE
  5
4B2
100
AcDbEntity
  8
R-DOOR-DETL
100
AcDbLine
 10
12.086946
 20
11.959691
 30
0.0
 11
12.141217
 21
12.053691
 31
0.0
  0
LINE
  5
4B3
100
AcDbEntity
  8
R-DOOR-DETL
100
AcDbLine
 10
12.141217
 20
11.865691
 30
0.0
 11
12.086946
 21
11.959691
 31
0.0
  0
LINE
  5
4B4
100
AcDbEntity
  8
R-DOOR-DETL
100
AcDbLine
 10
12.30403
 20
11.959691
 30
0.0
 11
12.249759
 21
12.053691
 31
0.0
  0
LINE
  5
4B5
100
AcDbEntity
  8
R-DOOR-DETL
100
AcDbLine
 10
12.249759
 20
11.865691
 30
0.0
 11
12.30403
 21
11.959691
 31
0.0
  0
LINE
  5
4B6
100
AcDbEntity
  8
R-DOOR-DETL
100
AcDbLine
 10
12.141217
 20
11.865691
 30
0.0
 11
12.249759
 21
11.865691
 31
0.0
  0
LINE
  5
4B7
100
AcDbEntity
  8
R-DOOR-DETL
100
AcDbLine
 10
12.141217
 20
12.053691
 30
0.0
 11
12.249759
 21
12.053691
 31
0.0
  0
LINE
  5
4B8
100
AcDbEntity
  8
R-DOOR-DETL
100
AcDbLine
 10
11.512988
 20
11.734691
 30
0.0
 11
11.512988
 21
12.284691
 31
0.0
  0
LINE
  5
4B9
100
AcDbEntity
  8
R-DOOR-DETL
100
AcDbLine
 10
11.799678
 20
12.064234
 30
0.0
 11
11.87562
 21
11.986683
 31
0.0
  0
LINE
  5
4BA
100
AcDbEntity
  8
R-DOOR-DETL
100
AcDbLine
 10
11.741298
 20
11.855148
 30
0.0
 11
11.84643
 21
11.88214
 31
0.0
  0
LINE
  5
4BB
100
AcDbEntity
  8
R-DOOR-DETL
100
AcDbLine
 10
11.665356
 20
11.932699
 30
0.0
 11
11.694546
 21
12.037242
 31
0.0
  0
LINE
  5
4BC
100
AcDbEntity
  8
R-DOOR-DETL
100
AcDbLine
 10
11.665356
 20
11.932699
 30
0.0
 11
11.741298
 21
11.855148
 31
0.0
  0
LINE
  5
4BD
100
AcDbEntity
  8
R-DOOR-DETL
100
AcDbLine
 10
11.694546
 20
12.037242
 30
0.0
 11
11.799678
 21
12.064234
 31
0.0
  0
LINE
  5
4BE
100
AcDbEntity
  8
R-DOOR-DETL
100
AcDbLine
 10
11.84643
 20
11.88214
 30
0.0
 11
11.87562
 21
11.986683
 31
0.0
  0
CIRCLE
  5
4BF
100
AcDbEntity
  8
R-DOOR-DETL
100
AcDbCircle
 10
11.770488
 20
11.959691
 30
0.0
 40
0.1625
  0
CIRCLE
  5
4C0
100
AcDbEntity
  8
R-DOOR-DETL
100
AcDbCircle
 10
11.770488
 20
11.959691
 30
0.0
 40
0.1875
  0
LINE
  5
4C1
100
AcDbEntity
  8
R-DOOR-DETL
100
AcDbLine
 10
11.769653
 20
11.454691
 30
0.0
 11
11.769653
 21
10.847174
 31
0.0
  0
LINE
  5
4C2
100
AcDbEntity
  8
R-DOOR-DETL
100
AcDbLine
 10
11.82516
 20
11.454691
 30
0.0
 11
11.82516
 21
10.847174
 31
0.0
  0
LINE
  5
4C3
100
AcDbEntity
  8
R-DOOR-DETL
100
AcDbLine
 10
11.703653
 20
10.847174
 30
0.0
 11
11.703653
 21
10.722174
 31
0.0
  0
LINE
  5
4C4
100
AcDbEntity
  8
R-DOOR-DETL
100
AcDbLine
 10
11.841662
 20
10.692691
 30
0.0
 11
11.841662
 21
10.722174
 31
0.0
  0
LINE
  5
4C5
100
AcDbEntity
  8
R-DOOR-DETL
100
AcDbLine
 10
11.842405
 20
10.692691
 30
0.0
 11
11.842405
 21
10.722174
 31
0.0
  0
LINE
  5
4C6
100
AcDbEntity
  8
R-DOOR-DETL
100
AcDbLine
 10
11.825903
 20
11.454691
 30
0.0
 11
11.825903
 21
10.847174
 31
0.0
  0
LINE
  5
4C7
100
AcDbEntity
  8
R-DOOR-DETL
100
AcDbLine
 10
11.770396
 20
11.454691
 30
0.0
 11
11.770396
 21
10.847174
 31
0.0
  0
LINE
  5
4C8
100
AcDbEntity
  8
R-DOOR-DETL
100
AcDbLine
 10
11.512988
 20
11.734691
 30
0.0
 11
12.877988
 21
11.734691
 31
0.0
  0
LINE
  5
4C9
100
AcDbEntity
  8
R-DOOR-DETL
100
AcDbLine
 10
11.512988
 20
12.284691
 30
0.0
 11
12.877988
 21
12.284691
 31
0.0
  0
LINE
  5
4CA
100
AcDbEntity
  8
R-DOOR-DETL
100
AcDbLine
 10
11.512988
 20
12.159691
 30
0.0
 11
12.877988
 21
12.159691
 31
0.0
  0
LINE
  5
4CB
100
AcDbEntity
  8
R-DOOR-DETL
100
AcDbLine
 10
12.685653
 20
10.722174
 30
0.0
 11
11.703653
 21
10.722174
 31
0.0
  0
LINE
  5
4CC
100
AcDbEntity
  8
R-DOOR-DETL
100
AcDbLine
 10
12.685653
 20
10.847174
 30
0.0
 11
11.703653
 21
10.847174
 31
0.0
  0
LINE
  5
4CD
100
AcDbEntity
  8
R-DOOR-DETL
100
AcDbLine
 10
12.619653
 20
11.454691
 30
0.0
 11
11.769653
 21
11.454691
 31
0.0
  0
REGION
  5
4CE
100
AcDbEntity
  8
R-DOOR-DETL
100
AcDbModelerGeometry
 70
     1
  1
noi ki n o          
  1
=0;& {rn {n {rn {rn |
  1
3*2/ {rn {rn {m {o |
  1
,7:33 {rn {rn {rn {l {n |
  1
9><: {rn {rn {k {m {rn {j 90-(>-; ;0*=3: 0*+ |
  1
300/ {rn {rn {i {l |
  1
/3>1:r,*-9><: {rn nmqnfjkggogmnkhhim nnqmghifnnmofjnjli o o o n n o o o V V V V |
  1
<0:;8: {rn {h {g {rn {f o {k {rn |
  1
<0:;8: {rn {no {i {rn {nn o {k {rn |
  1
<0:;8: {rn {i {nm {rn {nl o {k {rn |
  1
:;8: {rn {nk {nj {i {ni o |
  1
<0:;8: {rn {nh {h {rn {ng o {k {rn |
  1
:;8: {rn {nj {nf {h {mo o |
  1
<0:;8: {rn {g {mn {rn {mm o {k {rn |
  1
:;8: {rn {ml {nk {g {mk o |
  1
):-+:' {rn {f {mj |
  1
):-+:' {rn {f {mi |
  1
:336/,:r<*-): {rn nmqjhljggogmnkhhmm noqffnifnnmofjnkgi o o o n oqogglgglkhikglngkll roqogglgglkhikglngkll o n V V |
  1
<0:;8: {rn {mh {no {rn {mg o {k {rn |
  1
:;8: {rn {nf {mf {no {lo o |
  1
):-+:' {rn {nn {ln |
  1
,+->687+r<*-): {rn nmqifgjggogmnkhhmm noqffnifnnmofjnkgi o o n o V V |
  1
<0:;8: {rn {nm {mh {rn {lm o {k {rn |
  1
:;8: {rn {ll {ml {nm {lk o |
  1
):-+:' {rn {mm {lj |
  1
,+->687+r<*-): {rn nnqgnhlggogmnkhhkk noqgiiifnnmofjnkgi o n mqlkfojifnjliiinkf:ronj o V V |
  1
/061+ {rn nmqjhljggogmnkhhmm noqgiiifnnmofjnkgi o |
  1
/061+ {rn nmqifgjggogmnkhhmm noqffnifnnmofjnkgi o |
  1
<0:;8: {rn {mn {nh {rn {li o {k {rn |
  1
:;8: {rn {mf {lh {nh {lg o |
  1
):-+:' {rn {ng {lf |
  1
:336/,:r<*-): {rn nmqjhljggogmnkhhmm nnqjglifnnmofjnjmg o o o n oqogglgglkhikglngkll oqogglgglkhikglngkll o n V V |
  1
/061+ {rn nmqifgjggogmnkhhmm nnqjglifnnmofjnjmg o |
  1
:;8: {rn {ko {ll {mn {kn o |
  1
):-+:' {rn {lm {km |
  1
:336/,:r<*-): {rn nnqgnhlggogmnkhhkk noqffnifnnmofjnkgi o o o n roqogglgglkhikglnglil roqogglgglkhikglnglil o n V V |
  1
/061+ {rn nnqgnhlggogmnkhhkk noqgiiifnnmofjnkgi o |
  1
:;8: {rn {lh {ko {mh {kl o |
  1
):-+:' {rn {mg {kk |
  1
,+->687+r<*-): {rn nmqjhljggogmnkhhmm nnqhogifnnmofjnjmg o rn o o V V |
  1
/061+ {rn nmqjhljggogmnkhhmm nnqhogifnnmofjnjmg o |
  1
):-+:' {rn {li {kj |
  1
,+->687+r<*-): {rn nnqifmlggogmnkhhkk nnqjglifnnmofjnjmg o rmqkookgmmnjkojifnl:ronk rn o V V |
  1
/061+ {rn nnqifmlggogmnkhhkk noqffnifnnmofjnkgi o |
  1
:336/,:r<*-): {rn nnqgnhlggogmnkhhkk nnqjglifnnmofjnjmg o o o n roqogglgglkhikglngkll oqogglgglkhikglngkll o n V V |
  1
/061+ {rn nnqgnhlggogmnkhhkk nnqhogifnnmofjnjmg o |
  1
/061+ {rn nnqifmlggogmnkhhkk nnqjglifnnmofjnjmg o |
  0
LINE
  5
4CF
100
AcDbEntity
  8
R-DOOR-DETL
100
AcDbLine
 10
12.620396
 20
11.454691
 30
0.0
 11
11.770396
 21
11.454691
 31
0.0
  0
REGION
  5
4D0
100
AcDbEntity
  8
R-DOOR-DETL
100
AcDbModelerGeometry
 70
     1
  1
noi mi n o          
  1
=0;& {rn {n {rn {rn |
  1
3*2/ {rn {rn {m {o |
  1
,7:33 {rn {rn {rn {l {n |
  1
9><: {rn {rn {k {m {rn {j 90-(>-; ;0*=3: 0*+ |
  1
300/ {rn {rn {i {l |
  1
/3>1:r,*-9><: {rn nmqnfjlfilokkjlgjn noqhgkihlgolmlonfn o o o n n o o o V V V V |
  1
<0:;8: {rn {h {g {rn {f n {k {rn |
  1
<0:;8: {rn {no {i {rn {nn n {k {rn |
  1
<0:;8: {rn {i {no {rn {nm o {k {rn |
  1
:;8: {rn {nl {nk {i {nj o |
  1
<0:;8: {rn {g {h {rn {ni o {k {rn |
  1
:;8: {rn {nh {nl {h {ng o |
  1
:;8: {rn {nf {nk {g {mo o |
  1
):-+:' {rn {f {mn |
  1
):-+:' {rn {f {mm |
  1
,+->687+r<*-): {rn nmqigilfilokkjlgfl noqhmmnhlgolmlonfn o rn o o V V |
  1
:;8: {rn {nh {nf {no {ml o |
  1
):-+:' {rn {ni {mk |
  1
,+->687+r<*-): {rn nmqigilfilokkjlgfl noqgkhnhlgolmlonfn o o rn o V V |
  1
):-+:' {rn {nm {mj |
  1
,+->687+r<*-): {rn nnqhoklfilokkjlgii noqgkhnhlgolmlonfn o o rn o V V |
  1
/061+ {rn nmqigilfilokkjlgfl noqhmmnhlgolmlonfn o |
  1
/061+ {rn nnqhoklfilokkjlgii noqhmmnhlgolmlonfn o |
  1
,+->687+r<*-): {rn nmqigilfilokkjlgfl noqgkhnhlgolmlonfn o rn o o V V |
  1
/061+ {rn nmqigilfilokkjlgfl noqgkhnhlgolmlonfn o |
  1
/061+ {rn nnqhoklfilokkjlgii noqgkhnhlgolmlonfn o |
  0
LINE
  5
4D1
100
AcDbEntity
  8
R-DOOR-DETL
100
AcDbLine
 10
13.149336
 20
10.492691
 30
0.0
 11
13.149336
 21
10.454691
 31
0.0
  0
LINE
  5
4D2
100
AcDbEntity
  8
R-DOOR-DETL
100
AcDbLine
 10
13.013341
 20
10.692691
 30
0.0
 11
13.013341
 21
10.492691
 31
0.0
  0
LINE
  5
4D3
100
AcDbEntity
  8
R-DOOR-DETL
100
AcDbLine
 10
13.014085
 20
10.692691
 30
0.0
 11
13.014085
 21
10.492691
 31
0.0
  0
LINE
  5
4D4
100
AcDbEntity
  8
R-DOOR-DETL
100
AcDbLine
 10
11.240153
 20
10.492691
 30
0.0
 11
11.240153
 21
10.454691
 31
0.0
  0
LINE
  5
4D5
100
AcDbEntity
  8
R-DOOR-DETL
100
AcDbLine
 10
11.371496
 20
10.692691
 30
0.0
 11
11.371496
 21
10.492691
 31
0.0
  0
LINE
  5
4D6
100
AcDbEntity
  8
R-DOOR-DETL
100
AcDbLine
 10
11.372239
 20
10.692691
 30
0.0
 11
11.372239
 21
10.492691
 31
0.0
  0
LINE
  5
4D7
100
AcDbEntity
  8
R-DOOR-DETL
100
AcDbLine
 10
13.013341
 20
10.692691
 30
0.0
 11
11.371496
 21
10.692691
 31
0.0
  0
LINE
  5
4D8
100
AcDbEntity
  8
R-DOOR-DETL
100
AcDbLine
 10
13.014085
 20
10.692691
 30
0.0
 11
11.372239
 21
10.692691
 31
0.0
  0
LWPOLYLINE
  5
4D9
100
AcDbEntity
  8
R-DOOR-DETL
100
AcDbPolyline
 90
       32
 70
     1
 43
0.0
 10
12.875488
 20
11.723691
 10
12.875488
 20
11.993488
 42
-0.414214
 10
12.890488
 20
12.008488
 10
12.956481
 20
12.008488
 42
0.414214
 10
12.971481
 20
12.023488
 10
12.971481
 20
12.253691
 42
0.414214
 10
12.940481
 20
12.284691
 10
12.796869
 20
12.284691
 42
0.267949
 10
12.770022
 20
12.269191
 10
12.664308
 20
12.08609
 42
0.40146
 10
12.674496
 20
12.044446
 42
-3.430162
 10
12.56648
 20
12.044446
 42
0.40146
 10
12.576668
 20
12.08609
 10
12.470954
 20
12.269191
 42
0.267949
 10
12.444108
 20
12.284691
 10
11.946869
 20
12.284691
 42
0.267949
 10
11.920022
 20
12.269191
 10
11.814308
 20
12.08609
 42
0.40146
 10
11.824496
 20
12.044446
 42
-3.430162
 10
11.71648
 20
12.044446
 42
0.40146
 10
11.726668
 20
12.08609
 10
11.620954
 20
12.269191
 42
0.267949
 10
11.594108
 20
12.284691
 10
11.450496
 20
12.284691
 42
0.414214
 10
11.419496
 20
12.253691
 10
11.419496
 20
12.023488
 42
0.414214
 10
11.434496
 20
12.008488
 10
11.500488
 20
12.008488
 42
-0.414214
 10
11.515488
 20
11.993488
 10
11.515488
 20
11.723691
 42
0.414214
 10
11.530488
 20
11.708691
 10
12.860488
 20
11.708691
 42
0.414214
  0
LINE
  5
4DA
100
AcDbEntity
  8
R-DOOR-DETL
100
AcDbLine
 10
13.149336
 20
10.454691
 30
0.0
 11
11.240153
 21
10.454691
 31
0.0
  0
LINE
  5
4DB
100
AcDbEntity
  8
R-DOOR-DETL
100
AcDbLine
 10
13.149336
 20
10.492691
 30
0.0
 11
11.240153
 21
10.492691
 31
0.0
  0
REGION
  5
4DC
100
AcDbEntity
  8
R-DOOR-DETL
100
AcDbModelerGeometry
 70
     1
  1
noi mi n o          
  1
=0;& {rn {n {rn {rn |
  1
3*2/ {rn {rn {m {o |
  1
,7:33 {rn {rn {rn {l {n |
  1
9><: {rn {rn {k {m {rn {j 90-(>-; ;0*=3: 0*+ |
  1
300/ {rn {rn {i {l |
  1
/3>1:r,*-9><: {rn nmqnfjkggogmnkhhim noqkhlifnnmofjnjhn o o o n n o o o V V V V |
  1
<0:;8: {rn {h {g {rn {f n {k {rn |
  1
<0:;8: {rn {no {i {rn {nn n {k {rn |
  1
<0:;8: {rn {i {no {rn {nm o {k {rn |
  1
:;8: {rn {nl {nk {i {nj o |
  1
<0:;8: {rn {g {h {rn {ni o {k {rn |
  1
:;8: {rn {nh {nl {h {ng o |
  1
:;8: {rn {nf {nk {g {mo o |
  1
):-+:' {rn {f {mn |
  1
):-+:' {rn {f {mm |
  1
,+->687+r<*-): {rn nlqnjoohfgjfgkninn noqkjkifnnmofjnjii o rn lqhmnhoffofhkofknj:ronj o V V |
  1
:;8: {rn {nh {nf {no {ml o |
  1
):-+:' {rn {ni {mk |
  1
,+->687+r<*-): {rn nlqnjoohfgjfgkninn noqkfmifnnmofjnjhh o o rn o V V |
  1
):-+:' {rn {nm {mj |
  1
,+->687+r<*-): {rn nnqmkogfilokkjlgjj noqkfmifnnmofjnjhh o o rn o V V |
  1
/061+ {rn nlqnjoohfgjfgkninn noqkjkifnnmofjnjii o |
  1
/061+ {rn nnqmkogfilokkjlgjj noqkjkifnnmofjnjii o |
  1
,+->687+r<*-): {rn nlqnjoohfgjfgkninn noqkfmifnnmofjnjhh o rn o o V V |
  1
/061+ {rn nlqnjoohfgjfgkninn noqkfmifnnmofjnjhh o |
  1
/061+ {rn nnqmkogfilokkjlgjj noqkfmifnnmofjnjhh o |
  0
LEADER
  5
4DD
100
AcDbEntity
  8
R-DOOR-ANNO
  6
CONTINUOUS
100
AcDbLeader
  3
STANDARD
 73
     0
 74
     0
 75
     1
 40
0.36
 41
2.451429
 76
     3
 10
13.126481
 20
16.618144
 30
0.0
 10
14.507483
 20
15.930644
 30
0.0
 10
15.007483
 20
15.930644
 30
0.0
 77
   256
340
47F
213
-0.0199999999999996
223
0.0
233
0.0
1001
ACAD
1000
DSTYLE
1002
{
1070
    40
1040
1.0
1070
    41
1040
0.5
1002
}
  0
LINE
  5
4DE
100
AcDbEntity
  8
R-DOOR-DETL
100
AcDbLine
 10
12.159319
 20
22.718824
 30
0.0
 11
12.284319
 21
22.625074
 31
0.0
  0
LINE
  5
4DF
100
AcDbEntity
  8
R-DOOR-DETL
100
AcDbLine
 10
11.95694
 20
22.680312
 30
0.0
 11
12.034319
 21
22.625074
 31
0.0
  0
LINE
  5
4E0
100
AcDbEntity
  8
R-DOOR-DETL
100
AcDbLine
 10
12.034319
 20
22.625074
 30
0.0
 11
12.159319
 21
22.718824
 31
0.0
  0
LINE
  5
4E1
100
AcDbEntity
  8
R-DOOR-DETL
100
AcDbLine
 10
12.284319
 20
22.625074
 30
0.0
 11
12.346819
 21
22.718824
 31
0.0
  0
LINE
  5
4E2
100
AcDbEntity
  8
R-DOOR-DETL
100
AcDbLine
 10
12.346819
 20
22.718824
 30
0.0
 11
12.442366
 21
22.688721
 31
0.0
  0
LINE
  5
4E3
100
AcDbEntity
  8
R-DOOR-DETL
100
AcDbLine
 10
12.284319
 20
19.242006
 30
0.0
 11
12.346819
 21
19.148256
 31
0.0
  0
LINE
  5
4E4
100
AcDbEntity
  8
R-DOOR-DETL
100
AcDbLine
 10
12.034319
 20
19.242006
 30
0.0
 11
12.159319
 21
19.148256
 31
0.0
  0
LINE
  5
4E5
100
AcDbEntity
  8
R-DOOR-DETL
100
AcDbLine
 10
11.95694
 20
19.186768
 30
0.0
 11
12.034319
 21
19.242006
 31
0.0
  0
LINE
  5
4E6
100
AcDbEntity
  8
R-DOOR-DETL
100
AcDbLine
 10
12.159319
 20
19.148256
 30
0.0
 11
12.284319
 21
19.242006
 31
0.0
  0
LINE
  5
4E7
100
AcDbEntity
  8
R-DOOR-DETL
100
AcDbLine
 10
12.346819
 20
19.148256
 30
0.0
 11
12.442366
 21
19.178359
 31
0.0
  0
DIMENSION
  5
4E8
100
AcDbEntity
  8
R-DOOR-ANNO
100
AcDbDimension
  2
*D23
 10
13.186481
 20
17.982588
 30
0.0
 11
14.815052
 21
17.982588
 31
0.0
 12
-89.133883
 22
-263.536276
 32
0.0
 70
   128
  1
2\P(51mm)
  3
ROMANS
100
AcDbAlignedDimension
 13
11.204496
 23
16.493144
 33
0.0
 14
13.186481
 24
16.493144
 34
0.0
100
AcDbRotatedDimension
1001
ACAD
1000
DSTYLE
1002
{
1070
   270
1070
     7
1070
   272
1070
     0
1070
    40
1040
2.0
1002
}
  0
TEXT
  5
4E9
100
AcDbEntity
  8
R-DOOR-ANNO
  6
CONTINUOUS
100
AcDbText
 10
21.020124
 20
0.587893
 30
0.0
 40
0.625
  1
STYLE 05
  7
ROMANS
100
AcDbText
  0
HATCH
  5
4EA
100
AcDbEntity
  8
R-DOOR-PATT
  6
CONTINUOUS
 62
     5
100
AcDbHatch
 10
0.0
 20
0.0
 30
0.0
210
0.0
220
0.0
230
1.0
  2
ANSI31
 70
     0
 71
     0
 91
        1
 92
        7
 72
     0
 73
     1
 93
        4
 10
9.195488082147733
 20
30.91238894682925
 10
15.19548808214773
 20
30.91238894682925
 10
15.19548808214773
 20
32.91238894682925
 10
9.195488082147733
 20
32.91238894682925
 97
        0
 75
     0
 76
     1
 52
180.0
 41
2.5
 77
     0
 78
     1
 53
225.0
 43
-78.32383
 44
-2.960277
 45
0.2209708691207961
 46
-0.2209708691207961
 79
     0
 47
0.011976
 98
        1
 10
12.468289
 20
31.721482
  0
LINE
  5
4EB
100
AcDbEntity
  8
R-DOOR-ANNO
  6
CONTINUOUS
100
AcDbLine
 10
15.195488
 20
30.912389
 30
0.0
 11
9.195488
 21
30.912389
 31
0.0
  0
DIMENSION
  5
4EC
100
AcDbEntity
  8
R-DOOR-ANNO
100
AcDbDimension
  2
*D19
 10
5.108526
 20
30.912389
 30
0.0
 11
5.108526
 21
28.336501
 31
0.0
 12
-89.133883
 22
-263.536276
 32
0.0
  1
5 3/16\P(132mm)
  3
ROMANS
100
AcDbAlignedDimension
 13
11.911225
 23
25.760613
 33
0.0
 14
11.240153
 24
30.912389
 34
0.0
 50
90.0
100
AcDbRotatedDimension
1001
ACAD
1000
DSTYLE
1002
{
1070
   270
1070
     7
1070
   272
1070
     0
1070
    40
1040
2.0
1002
}
  0
REGION
  5
4ED
100
AcDbEntity
  8
R-DOOR-DETL
100
AcDbModelerGeometry
 70
     1
  1
noi ki n o          
  1
=0;& {rn {n {rn {rn |
  1
3*2/ {rn {rn {m {o |
  1
,7:33 {rn {rn {rn {l {n |
  1
9><: {rn {rn {k {m {rn {j 90-(>-; ;0*=3: 0*+ |
  1
300/ {rn {rn {i {l |
  1
/3>1:r,*-9><: {rn nmqnfjkggogmnkhhim loqohflggfkigmfmgl o o o n n o o n V V V V |
  1
<0:;8: {rn {h {g {rn {f n {k {rn |
  1
<0:;8: {rn {no {i {rn {nn n {k {rn |
  1
<0:;8: {rn {i {nm {rn {nl n {k {rn |
  1
:;8: {rn {nk {nj {i {ni o |
  1
<0:;8: {rn {nh {h {rn {ng n {k {rn |
  1
:;8: {rn {nf {nk {h {mo o |
  1
<0:;8: {rn {g {mn {rn {mm n {k {rn |
  1
:;8: {rn {nj {ml {g {mk o |
  1
):-+:' {rn {f {mj |
  1
):-+:' {rn {f {mi |
  1
:336/,:r<*-): {rn nmqjhljggogmnkhhmm loqlhjlggfkigmfmhj o o o rn oqogglgglkhikglngkll oqogglgglkhikglngkll o n V V |
  1
<0:;8: {rn {mh {no {rn {mg n {k {rn |
  1
:;8: {rn {mf {nf {no {lo o |
  1
):-+:' {rn {ng {ln |
  1
,+->687+r<*-): {rn nnqgnhlggogmnkhhkk loqjoolggfkigmfmhj o n rmqlkfojifnjliiinkf:ronj o V V |
  1
<0:;8: {rn {nm {mh {rn {lm n {k {rn |
  1
:;8: {rn {ml {ll {nm {lk o |
  1
):-+:' {rn {nl {lj |
  1
,+->687+r<*-): {rn nmqifgjggogmnkhhmm loqlhjlggfkigmfmhj o o rn o V V |
  1
/061+ {rn nmqjhljggogmnkhhmm loqjoolggfkigmfmhj o |
  1
/061+ {rn nmqifgjggogmnkhhmm loqlhjlggfkigmfmhj o |
  1
<0:;8: {rn {mn {nh {rn {li n {k {rn |
  1
:;8: {rn {lh {mf {nh {lg o |
  1
):-+:' {rn {mg {lf |
  1
:336/,:r<*-): {rn nnqgnhlggogmnkhhkk loqlhjlggfkigmfmhj o o o rn roqogglgglkhikglnglil oqogglgglkhikglnglil o n V V |
  1
/061+ {rn nnqgnhlggogmnkhhkk loqjoolggfkigmfmhj o |
  1
:;8: {rn {ll {ko {mn {kn o |
  1
):-+:' {rn {mm {km |
  1
:336/,:r<*-): {rn nmqjhljggogmnkhhmm mfqhgllggfkigmfmfn o o o rn oqogglgglkhikglngkll roqogglgglkhikglngkll o n V V |
  1
/061+ {rn nmqifgjggogmnkhhmm mfqhgllggfkigmfmfn o |
  1
:;8: {rn {ko {lh {mh {kl o |
  1
):-+:' {rn {li {kk |
  1
,+->687+r<*-): {rn nnqifmlggogmnkhhkk mfqhgllggfkigmfmfn o rmqkookgmmnjkojifnl:ronk n o V V |
  1
/061+ {rn nnqifmlggogmnkhhkk loqlhjlggfkigmfmhj o |
  1
):-+:' {rn {lm {kj |
  1
,+->687+r<*-): {rn nmqjhljggogmnkhhmm mfqijglggfkigmfmfn o rn o o V V |
  1
/061+ {rn nmqjhljggogmnkhhmm mfqijglggfkigmfmfn o |
  1
:336/,:r<*-): {rn nnqgnhlggogmnkhhkk mfqhgllggfkigmfmfn o o o rn roqogglgglkhikglngkll roqogglgglkhikglngkll o n V V |
  1
/061+ {rn nnqifmlggogmnkhhkk mfqhgllggfkigmfmfn o |
  1
/061+ {rn nnqgnhlggogmnkhhkk mfqijglggfkigmfmfn o |
  0
LINE
  5
4EE
100
AcDbEntity
  8
R-DOOR-DETL
100
AcDbLine
 10
11.770396
 20
29.912389
 30
0.0
 11
11.770396
 21
30.519906
 31
0.0
  0
LINE
  5
4EF
100
AcDbEntity
  8
R-DOOR-DETL
100
AcDbLine
 10
11.825903
 20
29.912389
 30
0.0
 11
11.825903
 21
30.519906
 31
0.0
  0
LINE
  5
4F0
100
AcDbEntity
  8
R-DOOR-DETL
100
AcDbLine
 10
12.564889
 20
29.912389
 30
0.0
 11
12.564889
 21
30.519906
 31
0.0
  0
LINE
  5
4F1
100
AcDbEntity
  8
R-DOOR-DETL
100
AcDbLine
 10
12.620396
 20
29.912389
 30
0.0
 11
12.620396
 21
30.519906
 31
0.0
  0
LINE
  5
4F2
100
AcDbEntity
  8
R-DOOR-DETL
100
AcDbLine
 10
11.82516
 20
29.912389
 30
0.0
 11
11.82516
 21
30.519906
 31
0.0
  0
LINE
  5
4F3
100
AcDbEntity
  8
R-DOOR-DETL
100
AcDbLine
 10
11.769653
 20
29.912389
 30
0.0
 11
11.769653
 21
30.519906
 31
0.0
  0
LINE
  5
4F4
100
AcDbEntity
  8
R-DOOR-DETL
100
AcDbLine
 10
12.564146
 20
29.912389
 30
0.0
 11
12.564146
 21
30.519906
 31
0.0
  0
LINE
  5
4F5
100
AcDbEntity
  8
R-DOOR-DETL
100
AcDbLine
 10
12.619653
 20
29.912389
 30
0.0
 11
12.619653
 21
30.519906
 31
0.0
  0
DIMENSION
  5
4F6
100
AcDbEntity
  8
R-DOOR-ANNO
  6
CONTINUOUS
100
AcDbDimension
  2
*D17
 10
18.871889
 20
30.662389
 30
0.0
 11
17.474746
 21
29.498461
 31
0.0
 12
-89.133883
 22
-263.536276
 32
0.0
 70
   128
  1
<>\P(6mm)
  3
STANDARD
100
AcDbAlignedDimension
 13
15.195488
 23
30.912389
 33
0.0
 14
13.188958
 24
30.662389
 34
0.0
 50
90.0
100
AcDbRotatedDimension
1001
ACAD
1000
DSTYLE
1002
{
1070
   173
1070
     0
1070
     6
1000

1002
}
  0
LWPOLYLINE
  5
4F7
100
AcDbEntity
  8
R-DOOR-DETL
100
AcDbPolyline
 90
        8
 70
     1
 43
0.0
 10
12.980481
 20
24.667936
 42
0.414214
 10
13.186481
 20
24.873936
 10
13.186481
 20
30.662389
 10
13.136481
 20
30.662389
 10
13.136481
 20
24.873936
 42
-0.414214
 10
12.980481
 20
24.717936
 10
12.488561
 20
24.717936
 10
12.488561
 20
24.667936
  0
LWPOLYLINE
  5
4F8
100
AcDbEntity
  8
R-DOOR-DETL
100
AcDbPolyline
 90
        8
 70
     1
 43
0.0
 10
11.204496
 20
30.662389
 10
11.254496
 20
30.662389
 10
11.254496
 20
24.873936
 42
0.414214
 10
11.410496
 20
24.717936
 10
11.902416
 20
24.717936
 10
11.902416
 20
24.667936
 10
11.410496
 20
24.667936
 42
-0.414214
 10
11.204496
 20
24.873936
  0
INSERT
  5
4F9
100
AcDbEntity
  8
R-DOOR-DETL
100
AcDbBlockReference
  2
A$C4AD64EA0
 10
11.264496
 20
24.717936
 30
0.0
 41
-1.0
 50
270.0
  0
MTEXT
  5
4FA
102
{ACAD_REACTORS
330
4FF
102
}
100
AcDbEntity
  8
R-DOOR-ANNO
  6
CONTINUOUS
100
AcDbMText
 10
15.179352
 20
26.003566
 30
0.0
 40
0.36
 41
0.0
 71
     4
 72
     1
  1
SHOE
  7
ROMANS
  0
MTEXT
  5
4FB
102
{ACAD_REACTORS
330
4FD
102
}
100
AcDbEntity
  8
R-DOOR-ANNO
  6
CONTINUOUS
100
AcDbMText
 10
15.179352
 20
24.125934
 30
0.0
 40
0.36
 41
0.0
 71
     4
 72
     1
  1
CLADDING
  7
ROMANS
  0
MTEXT
  5
4FC
102
{ACAD_REACTORS
330
4FE
102
}
100
AcDbEntity
  8
R-DOOR-ANNO
  6
CONTINUOUS
100
AcDbMText
 10
15.187396
 20
24.842838
 30
0.0
 40
0.36
 41
0.0
 71
     4
 72
     1
  1
GLASS CLAMP
  7
ROMANS
  0
LEADER
  5
4FD
100
AcDbEntity
  8
R-DOOR-ANNO
  6
CONTINUOUS
100
AcDbLeader
  3
STANDARD
 73
     0
 74
     0
 75
     1
 40
0.36
 41
2.451429
 76
     3
 10
13.18835
 20
24.813434
 30
0.0
 10
14.569352
 20
24.125934
 30
0.0
 10
15.069352
 20
24.125934
 30
0.0
 77
   256
340
4FB
213
-0.0199999999999996
223
0.0
233
0.0
1001
ACAD
1000
DSTYLE
1002
{
1070
    40
1040
1.0
1070
    41
1040
0.5
1002
}
  0
LEADER
  5
4FE
100
AcDbEntity
  8
R-DOOR-ANNO
  6
CONTINUOUS
100
AcDbLeader
  3
STANDARD
 73
     0
 74
     0
 75
     1
 40
0.36
 41
3.634286
 76
     3
 10
12.747769
 20
25.655338
 30
0.0
 10
14.577396
 20
24.842838
 30
0.0
 10
15.077396
 20
24.842838
 30
0.0
 77
   256
340
4FC
213
-0.0199999999999996
223
0.0
233
0.0
1001
ACAD
1000
DSTYLE
1002
{
1070
    40
1040
1.0
1070
    41
1040
0.5
1002
}
  0
LEADER
  5
4FF
100
AcDbEntity
  8
R-DOOR-ANNO
  6
CONTINUOUS
100
AcDbLeader
  3
STANDARD
 73
     0
 74
     0
 75
     1
 40
0.36
 41
1.337143
 76
     3
 10
12.993052
 20
26.691066
 30
0.0
 10
14.577396
 20
26.003566
 30
0.0
 10
15.077396
 20
26.003566
 30
0.0
 77
   256
340
4FA
213
-0.0119562090668701
223
0.0
233
0.0
1001
ACAD
1000
DSTYLE
1002
{
1070
    40
1040
1.0
1070
    41
1040
0.5
1002
}
  0
LINE
  5
500
100
AcDbEntity
  8
R-DOOR-DETL
100
AcDbLine
 10
12.71936
 20
29.362605
 30
0.0
 11
12.63114
 21
29.299371
 31
0.0
  0
LINE
  5
501
100
AcDbEntity
  8
R-DOOR-DETL
100
AcDbLine
 10
12.708709
 20
29.470623
 30
0.0
 11
12.609836
 21
29.515407
 31
0.0
  0
LINE
  5
502
100
AcDbEntity
  8
R-DOOR-DETL
100
AcDbLine
 10
12.71936
 20
29.362605
 30
0.0
 11
12.708709
 21
29.470623
 31
0.0
  0
LINE
  5
503
100
AcDbEntity
  8
R-DOOR-DETL
100
AcDbLine
 10
12.532268
 20
29.344155
 30
0.0
 11
12.521616
 21
29.452173
 31
0.0
  0
LINE
  5
504
100
AcDbEntity
  8
R-DOOR-DETL
100
AcDbLine
 10
12.63114
 20
29.299371
 30
0.0
 11
12.532268
 21
29.344155
 31
0.0
  0
LINE
  5
505
100
AcDbEntity
  8
R-DOOR-DETL
100
AcDbLine
 10
12.609836
 20
29.515407
 30
0.0
 11
12.521616
 21
29.452173
 31
0.0
  0
LINE
  5
506
100
AcDbEntity
  8
R-DOOR-DETL
100
AcDbLine
 10
12.877988
 20
29.632389
 30
0.0
 11
12.877988
 21
29.082389
 31
0.0
  0
CIRCLE
  5
507
100
AcDbEntity
  8
R-DOOR-DETL
100
AcDbCircle
 10
12.620488
 20
29.407389
 30
0.0
 40
0.1875
  0
CIRCLE
  5
508
100
AcDbEntity
  8
R-DOOR-DETL
100
AcDbCircle
 10
12.620488
 20
29.407389
 30
0.0
 40
0.1625
  0
CIRCLE
  5
509
100
AcDbEntity
  8
R-DOOR-DETL
100
AcDbCircle
 10
11.770488
 20
29.407389
 30
0.0
 40
0.1875
  0
CIRCLE
  5
50A
100
AcDbEntity
  8
R-DOOR-DETL
100
AcDbCircle
 10
11.770488
 20
29.407389
 30
0.0
 40
0.1625
  0
LINE
  5
50B
100
AcDbEntity
  8
R-DOOR-DETL
100
AcDbLine
 10
11.84643
 20
29.48494
 30
0.0
 11
11.87562
 21
29.380397
 31
0.0
  0
LINE
  5
50C
100
AcDbEntity
  8
R-DOOR-DETL
100
AcDbLine
 10
11.694546
 20
29.329838
 30
0.0
 11
11.799678
 21
29.302846
 31
0.0
  0
LINE
  5
50D
100
AcDbEntity
  8
R-DOOR-DETL
100
AcDbLine
 10
11.665356
 20
29.434381
 30
0.0
 11
11.741298
 21
29.511932
 31
0.0
  0
LINE
  5
50E
100
AcDbEntity
  8
R-DOOR-DETL
100
AcDbLine
 10
11.665356
 20
29.434381
 30
0.0
 11
11.694546
 21
29.329838
 31
0.0
  0
LINE
  5
50F
100
AcDbEntity
  8
R-DOOR-DETL
100
AcDbLine
 10
11.741298
 20
29.511932
 30
0.0
 11
11.84643
 21
29.48494
 31
0.0
  0
LINE
  5
510
100
AcDbEntity
  8
R-DOOR-DETL
100
AcDbLine
 10
11.799678
 20
29.302846
 30
0.0
 11
11.87562
 21
29.380397
 31
0.0
  0
LINE
  5
511
100
AcDbEntity
  8
R-DOOR-DETL
100
AcDbLine
 10
11.512988
 20
29.632389
 30
0.0
 11
11.512988
 21
29.082389
 31
0.0
  0
LINE
  5
512
100
AcDbEntity
  8
R-DOOR-DETL
100
AcDbLine
 10
12.141217
 20
29.313389
 30
0.0
 11
12.249759
 21
29.313389
 31
0.0
  0
LINE
  5
513
100
AcDbEntity
  8
R-DOOR-DETL
100
AcDbLine
 10
12.141217
 20
29.501389
 30
0.0
 11
12.249759
 21
29.501389
 31
0.0
  0
LINE
  5
514
100
AcDbEntity
  8
R-DOOR-DETL
100
AcDbLine
 10
12.249759
 20
29.501389
 30
0.0
 11
12.30403
 21
29.407389
 31
0.0
  0
LINE
  5
515
100
AcDbEntity
  8
R-DOOR-DETL
100
AcDbLine
 10
12.30403
 20
29.407389
 30
0.0
 11
12.249759
 21
29.313389
 31
0.0
  0
LINE
  5
516
100
AcDbEntity
  8
R-DOOR-DETL
100
AcDbLine
 10
12.141217
 20
29.501389
 30
0.0
 11
12.086946
 21
29.407389
 31
0.0
  0
LINE
  5
517
100
AcDbEntity
  8
R-DOOR-DETL
100
AcDbLine
 10
12.086946
 20
29.407389
 30
0.0
 11
12.141217
 21
29.313389
 31
0.0
  0
CIRCLE
  5
518
100
AcDbEntity
  8
R-DOOR-DETL
100
AcDbCircle
 10
12.195488
 20
29.407389
 30
0.0
 40
0.1625
  0
CIRCLE
  5
519
100
AcDbEntity
  8
R-DOOR-DETL
100
AcDbCircle
 10
12.195488
 20
29.407389
 30
0.0
 40
0.1875
  0
LINE
  5
51A
100
AcDbEntity
  8
R-DOOR-DETL
100
AcDbLine
 10
11.512988
 20
29.207389
 30
0.0
 11
12.877988
 21
29.207389
 31
0.0
  0
LINE
  5
51B
100
AcDbEntity
  8
R-DOOR-DETL
100
AcDbLine
 10
11.512988
 20
29.082389
 30
0.0
 11
12.877988
 21
29.082389
 31
0.0
  0
LINE
  5
51C
100
AcDbEntity
  8
R-DOOR-DETL
100
AcDbLine
 10
11.512988
 20
29.632389
 30
0.0
 11
12.877988
 21
29.632389
 31
0.0
  0
LINE
  5
51D
100
AcDbEntity
  8
R-DOOR-DETL
100
AcDbLine
 10
12.620396
 20
29.912389
 30
0.0
 11
11.770396
 21
29.912389
 31
0.0
  0
LINE
  5
51E
100
AcDbEntity
  8
R-DOOR-DETL
100
AcDbLine
 10
12.619653
 20
29.912389
 30
0.0
 11
11.769653
 21
29.912389
 31
0.0
  0
LWPOLYLINE
  5
51F
100
AcDbEntity
  8
R-DOOR-DETL
100
AcDbPolyline
 90
       32
 70
     1
 43
0.0
 10
12.875488
 20
29.643389
 10
12.875488
 20
29.373592
 42
0.414214
 10
12.890488
 20
29.358592
 10
12.956481
 20
29.358592
 42
-0.414214
 10
12.971481
 20
29.343592
 10
12.971481
 20
29.113389
 42
-0.414214
 10
12.940481
 20
29.082389
 10
12.796869
 20
29.082389
 42
-0.267949
 10
12.770022
 20
29.097889
 10
12.664308
 20
29.280991
 42
-0.40146
 10
12.674496
 20
29.322634
 42
3.430162
 10
12.56648
 20
29.322634
 42
-0.40146
 10
12.576668
 20
29.280991
 10
12.470954
 20
29.097889
 42
-0.267949
 10
12.444108
 20
29.082389
 10
11.946869
 20
29.082389
 42
-0.267949
 10
11.920022
 20
29.097889
 10
11.814308
 20
29.280991
 42
-0.40146
 10
11.824496
 20
29.322634
 42
3.430162
 10
11.71648
 20
29.322634
 42
-0.40146
 10
11.726668
 20
29.280991
 10
11.620954
 20
29.097889
 42
-0.267949
 10
11.594108
 20
29.082389
 10
11.450496
 20
29.082389
 42
-0.414214
 10
11.419496
 20
29.113389
 10
11.419496
 20
29.343592
 42
-0.414214
 10
11.434496
 20
29.358592
 10
11.500488
 20
29.358592
 42
0.414214
 10
11.515488
 20
29.373592
 10
11.515488
 20
29.643389
 42
-0.414214
 10
11.530488
 20
29.658389
 10
12.860488
 20
29.658389
 42
-0.414214
  0
LINE
  5
520
100
AcDbEntity
  8
R-DOOR-DETL
100
AcDbLine
 10
12.442262
 20
26.090884
 30
0.0
 11
12.442262
 21
26.215884
 31
0.0
  0
LINE
  5
521
100
AcDbEntity
  8
R-DOOR-DETL
100
AcDbLine
 10
12.285827
 20
26.294242
 30
0.0
 11
12.097827
 21
26.294242
 31
0.0
  0
LINE
  5
522
100
AcDbEntity
  8
R-DOOR-DETL
100
AcDbLine
 10
12.285827
 20
26.354242
 30
0.0
 11
12.097827
 21
26.354242
 31
0.0
  0
LINE
  5
523
100
AcDbEntity
  8
R-DOOR-DETL
100
AcDbLine
 10
12.285827
 20
26.234242
 30
0.0
 11
12.097827
 21
26.234242
 31
0.0
  0
LINE
  5
524
100
AcDbEntity
  8
R-DOOR-DETL
100
AcDbLine
 10
12.285827
 20
26.174242
 30
0.0
 11
12.097827
 21
26.174242
 31
0.0
  0
LINE
  5
525
100
AcDbEntity
  8
R-DOOR-DETL
100
AcDbLine
 10
12.285827
 20
26.114242
 30
0.0
 11
12.097827
 21
26.114242
 31
0.0
  0
LINE
  5
526
100
AcDbEntity
  8
R-DOOR-DETL
100
AcDbLine
 10
12.285827
 20
25.994242
 30
0.0
 11
12.097827
 21
25.994242
 31
0.0
  0
LINE
  5
527
100
AcDbEntity
  8
R-DOOR-DETL
100
AcDbLine
 10
12.285827
 20
25.97775
 30
0.0
 11
12.097827
 21
25.97775
 31
0.0
  0
LINE
  5
528
100
AcDbEntity
  8
R-DOOR-DETL
100
AcDbLine
 10
12.285827
 20
26.054242
 30
0.0
 11
12.097827
 21
26.054242
 31
0.0
  0
HATCH
  5
529
100
AcDbEntity
  8
R-DOOR-DETL
100
AcDbHatch
 10
0.0
 20
0.0
 30
0.0
210
0.0
220
0.0
230
1.0
  2
ANSI31
 70
     0
 71
     0
 91
        1
 92
        7
 72
     0
 73
     1
 93
        4
 10
11.94226227537839
 20
26.09088415102326
 10
12.06826227537837
 20
26.09088415102326
 10
12.06826227537837
 20
26.21588415102326
 10
11.94226227537839
 20
26.21588415102326
 97
        0
 75
     0
 76
     1
 52
90.0
 41
0.2
 77
     0
 78
     1
 53
315.0
 43
48.224459
 44
56.97168
 45
0.0176776695296637
 46
0.0176776695296637
 79
     0
 47
0.003428
 98
        1
 10
12.003117
 20
26.146474
  0
LINE
  5
52A
100
AcDbEntity
  8
R-DOOR-DETL
100
AcDbLine
 10
11.942262
 20
26.090884
 30
0.0
 11
11.942262
 21
26.215884
 31
0.0
  0
ARC
  5
52B
100
AcDbEntity
  8
R-DOOR-DETL
100
AcDbCircle
 10
12.097827
 20
26.00775
 30
0.0
 40
0.03
100
AcDbArc
 50
180.0
 51
270.0
  0
LINE
  5
52C
100
AcDbEntity
  8
R-DOOR-DETL
100
AcDbLine
 10
12.285827
 20
26.414242
 30
0.0
 11
12.097827
 21
26.414242
 31
0.0
  0
LINE
  5
52D
100
AcDbEntity
  8
R-DOOR-DETL
100
AcDbLine
 10
12.315827
 20
26.444242
 30
0.0
 11
12.067827
 21
26.444242
 31
0.0
  0
LINE
  5
52E
100
AcDbEntity
  8
R-DOOR-DETL
100
AcDbLine
 10
12.315827
 20
26.324242
 30
0.0
 11
12.067827
 21
26.324242
 31
0.0
  0
LINE
  5
52F
100
AcDbEntity
  8
R-DOOR-DETL
100
AcDbLine
 10
12.315827
 20
26.384242
 30
0.0
 11
12.067827
 21
26.384242
 31
0.0
  0
LINE
  5
530
100
AcDbEntity
  8
R-DOOR-DETL
100
AcDbLine
 10
12.315827
 20
26.264242
 30
0.0
 11
12.067827
 21
26.264242
 31
0.0
  0
LINE
  5
531
100
AcDbEntity
  8
R-DOOR-DETL
100
AcDbLine
 10
12.315827
 20
26.204242
 30
0.0
 11
12.067827
 21
26.204242
 31
0.0
  0
LINE
  5
532
100
AcDbEntity
  8
R-DOOR-DETL
100
AcDbLine
 10
12.315827
 20
26.144242
 30
0.0
 11
12.067827
 21
26.144242
 31
0.0
  0
LINE
  5
533
100
AcDbEntity
  8
R-DOOR-DETL
100
AcDbLine
 10
12.315827
 20
26.084242
 30
0.0
 11
12.067827
 21
26.084242
 31
0.0
  0
LINE
  5
534
100
AcDbEntity
  8
R-DOOR-DETL
100
AcDbLine
 10
12.315827
 20
26.024242
 30
0.0
 11
12.067827
 21
26.024242
 31
0.0
  0
ARC
  5
535
100
AcDbEntity
  8
R-DOOR-DETL
100
AcDbCircle
 10
12.285827
 20
26.00775
 30
0.0
 40
0.03
100
AcDbArc
 50
270.0
 51
0.0
  0
HATCH
  5
536
100
AcDbEntity
  8
R-DOOR-DETL
100
AcDbHatch
 10
0.0
 20
0.0
 30
0.0
210
0.0
220
0.0
230
1.0
  2
ANSI31
 70
     0
 71
     0
 91
        1
 92
        7
 72
     0
 73
     1
 93
        4
 10
12.31626227537836
 20
26.09088415102326
 10
12.31626227537836
 20
26.21588415102326
 10
12.44226227537834
 20
26.21588415102326
 10
12.44226227537834
 20
26.09088415102326
 97
        0
 75
     0
 76
     1
 52
90.0
 41
0.2
 77
     0
 78
     1
 53
225.0
 43
-23.839935
 44
56.97168
 45
-0.0176776695296637
 46
0.0176776695296637
 79
     0
 47
0.003428
 98
        1
 10
12.381408
 20
26.146474
  0
LINE
  5
537
100
AcDbEntity
  8
R-DOOR-DETL
100
AcDbLine
 10
12.442262
 20
26.090884
 30
0.0
 11
11.942262
 21
26.090884
 31
0.0
  0
LINE
  5
538
100
AcDbEntity
  8
R-DOOR-DETL
100
AcDbLine
 10
12.442262
 20
26.215884
 30
0.0
 11
11.942262
 21
26.215884
 31
0.0
  0
LWPOLYLINE
  5
539
100
AcDbEntity
  8
R-DOOR-DETL
100
AcDbPolyline
 90
        4
 70
     1
 43
0.0
 10
12.486809
 20
25.698903
 10
12.486809
 20
24.948903
 10
12.436809
 20
24.948903
 10
12.436809
 20
25.698903
  0
LWPOLYLINE
  5
53A
100
AcDbEntity
  8
R-DOOR-DETL
100
AcDbPolyline
 90
        4
 70
     1
 43
0.0
 10
12.161225
 20
25.810613
 10
11.911225
 20
25.810613
 10
11.911225
 20
25.760613
 10
12.161225
 20
25.760613
  0
LWPOLYLINE
  5
53B
100
AcDbEntity
  8
R-DOOR-DETL
100
AcDbPolyline
 90
        4
 70
     1
 43
0.0
 10
11.901382
 20
25.698903
 10
11.901382
 20
24.948903
 10
11.951382
 20
24.948903
 10
11.951382
 20
25.698903
  0
LWPOLYLINE
  5
53C
100
AcDbEntity
  8
R-DOOR-DETL
100
AcDbPolyline
 90
        4
 70
     1
 43
0.0
 10
12.226966
 20
25.810613
 10
12.476966
 20
25.810613
 10
12.476966
 20
25.760613
 10
12.226966
 20
25.760613
  0
LWPOLYLINE
  5
53D
100
AcDbEntity
  8
R-DOOR-DETL
100
AcDbPolyline
 90
       29
 70
     1
 43
0.0
 10
12.343673
 20
26.237613
 10
12.343673
 20
26.352613
 42
-0.414214
 10
12.358673
 20
26.367613
 10
12.510673
 20
26.367613
 42
-0.414214
 10
12.604673
 20
26.273613
 10
12.604673
 20
26.018696
 42
0.136094
 10
12.608958
 20
26.003245
 10
12.887051
 20
25.540422
 42
-0.414214
 10
12.876787
 20
25.499255
 10
12.816785
 20
25.463203
 42
-0.136094
 10
12.801334
 20
25.458918
 10
12.685087
 20
25.458918
 42
0.400921
 10
12.655118
 20
25.430285
 10
12.632727
 20
24.939556
 42
-0.400921
 10
12.592768
 20
24.901379
 10
12.486809
 20
24.901379
 42
-0.843039
 10
12.480247
 20
24.939623
 42
0.317837
 10
12.486809
 20
24.948903
 10
12.486809
 20
25.80077
 42
0.414214
 10
12.476966
 20
25.810613
 10
12.244673
 20
25.810613
 42
-0.414214
 10
12.229673
 20
25.825613
 10
12.229673
 20
25.940613
 42
-0.414214
 10
12.244673
 20
25.955613
 10
12.334673
 20
25.955613
 42
0.414214
 10
12.459673
 20
26.080613
 10
12.459673
 20
26.207613
 42
0.414214
 10
12.444673
 20
26.222613
 10
12.358673
 20
26.222613
 42
-0.414214
  0
LWPOLYLINE
  5
53E
100
AcDbEntity
  8
R-DOOR-DETL
100
AcDbPolyline
 90
       29
 70
     1
 43
0.0
 10
12.044518
 20
26.237613
 10
12.044518
 20
26.352613
 42
0.414214
 10
12.029518
 20
26.367613
 10
11.877518
 20
26.367613
 42
0.414214
 10
11.783518
 20
26.273613
 10
11.783518
 20
26.018696
 42
-0.136094
 10
11.779233
 20
26.003245
 10
11.501141
 20
25.540422
 42
0.414214
 10
11.511404
 20
25.499255
 10
11.571406
 20
25.463203
 42
0.136094
 10
11.586857
 20
25.458918
 10
11.703104
 20
25.458918
 42
-0.400921
 10
11.733073
 20
25.430285
 10
11.755464
 20
24.939556
 42
0.400921
 10
11.795423
 20
24.901379
 10
11.901382
 20
24.901379
 42
0.843039
 10
11.907944
 20
24.939623
 42
-0.317837
 10
11.901382
 20
24.948903
 10
11.901382
 20
25.80077
 42
-0.414214
 10
11.911225
 20
25.810613
 10
12.143518
 20
25.810613
 42
0.414214
 10
12.158518
 20
25.825613
 10
12.158518
 20
25.940613
 42
0.414214
 10
12.143518
 20
25.955613
 10
12.053518
 20
25.955613
 42
-0.414214
 10
11.928518
 20
26.080613
 10
11.928518
 20
26.207613
 42
-0.414214
 10
11.943518
 20
26.222613
 10
12.029518
 20
26.222613
 42
0.414214
  0
LINE
  5
53F
100
AcDbEntity
  8
R-DOOR-DETL
100
AcDbLine
 10
12.562183
 20
30.674389
 30
0.0
 11
12.562183
 21
30.644906
 31
0.0
  0
LINE
  5
540
100
AcDbEntity
  8
R-DOOR-DETL
100
AcDbLine
 10
12.561439
 20
30.674389
 30
0.0
 11
12.561439
 21
30.644906
 31
0.0
  0
LINE
  5
541
100
AcDbEntity
  8
R-DOOR-DETL
100
AcDbLine
 10
12.685653
 20
30.519906
 30
0.0
 11
12.685653
 21
30.644906
 31
0.0
  0
LINE
  5
542
100
AcDbEntity
  8
R-DOOR-DETL
100
AcDbLine
 10
13.014085
 20
30.674389
 30
0.0
 11
13.014085
 21
30.874389
 31
0.0
  0
LINE
  5
543
100
AcDbEntity
  8
R-DOOR-DETL
100
AcDbLine
 10
13.013341
 20
30.674389
 30
0.0
 11
13.013341
 21
30.874389
 31
0.0
  0
LINE
  5
544
100
AcDbEntity
  8
R-DOOR-DETL
100
AcDbLine
 10
13.149336
 20
30.874389
 30
0.0
 11
13.149336
 21
30.912389
 31
0.0
  0
LINE
  5
545
100
AcDbEntity
  8
R-DOOR-DETL
100
AcDbLine
 10
11.842405
 20
30.674389
 30
0.0
 11
11.842405
 21
30.644906
 31
0.0
  0
LINE
  5
546
100
AcDbEntity
  8
R-DOOR-DETL
100
AcDbLine
 10
11.841662
 20
30.674389
 30
0.0
 11
11.841662
 21
30.644906
 31
0.0
  0
LINE
  5
547
100
AcDbEntity
  8
R-DOOR-DETL
100
AcDbLine
 10
11.703653
 20
30.519906
 30
0.0
 11
11.703653
 21
30.644906
 31
0.0
  0
REGION
  5
548
100
AcDbEntity
  8
R-DOOR-DETL
100
AcDbModelerGeometry
 70
     1
  1
noi mi n o          
  1
=0;& {rn {n {rn {rn |
  1
3*2/ {rn {rn {m {o |
  1
,7:33 {rn {rn {rn {l {n |
  1
9><: {rn {rn {k {m {rn {j 90-(>-; ;0*=3: 0*+ |
  1
300/ {rn {rn {i {l |
  1
/3>1:r,*-9><: {rn nmqnfjlfilokkjlgjn loqjgmkoimikjjoimh o o o n n o o n V V V V |
  1
<0:;8: {rn {h {g {rn {f o {k {rn |
  1
<0:;8: {rn {no {i {rn {nn n {k {rn |
  1
<0:;8: {rn {i {no {rn {nm o {k {rn |
  1
:;8: {rn {nl {nk {i {nj o |
  1
<0:;8: {rn {g {h {rn {ni n {k {rn |
  1
:;8: {rn {nh {nk {h {ng o |
  1
:;8: {rn {nf {nl {g {mo o |
  1
):-+:' {rn {f {mn |
  1
):-+:' {rn {f {mm |
  1
,+->687+r<*-): {rn nmqigilfilokkjlgfl loqikkfoimikjjoimh o rn o o V V |
  1
:;8: {rn {nf {nh {no {ml o |
  1
):-+:' {rn {nn {mk |
  1
,+->687+r<*-): {rn nnqhoklfilokkjlgii loqjnffoimikjjoimh o o n o V V |
  1
):-+:' {rn {ni {mj |
  1
,+->687+r<*-): {rn nmqigilfilokkjlgfl loqjnffoimikjjoimh o o n o V V |
  1
/061+ {rn nmqigilfilokkjlgfl loqikkfoimikjjoimh o |
  1
/061+ {rn nnqhoklfilokkjlgii loqikkfoimikjjoimh o |
  1
,+->687+r<*-): {rn nmqigilfilokkjlgfl loqjnffoimikjjoimh o rn o o V V |
  1
/061+ {rn nnqhoklfilokkjlgii loqjnffoimikjjoimh o |
  1
/061+ {rn nmqigilfilokkjlgfl loqjnffoimikjjoimh o |
  0
LINE
  5
549
100
AcDbEntity
  8
R-DOOR-DETL
100
AcDbLine
 10
12.685653
 20
30.519906
 30
0.0
 11
11.703653
 21
30.519906
 31
0.0
  0
LINE
  5
54A
100
AcDbEntity
  8
R-DOOR-DETL
100
AcDbLine
 10
12.685653
 20
30.644906
 30
0.0
 11
11.703653
 21
30.644906
 31
0.0
  0
LINE
  5
54B
100
AcDbEntity
  8
R-DOOR-DETL
100
AcDbLine
 10
11.372239
 20
30.674389
 30
0.0
 11
11.372239
 21
30.874389
 31
0.0
  0
LINE
  5
54C
100
AcDbEntity
  8
R-DOOR-DETL
100
AcDbLine
 10
11.371496
 20
30.674389
 30
0.0
 11
11.371496
 21
30.874389
 31
0.0
  0
LINE
  5
54D
100
AcDbEntity
  8
R-DOOR-DETL
100
AcDbLine
 10
11.240153
 20
30.874389
 30
0.0
 11
11.240153
 21
30.912389
 31
0.0
  0
REGION
  5
54E
100
AcDbEntity
  8
R-DOOR-DETL
100
AcDbModelerGeometry
 70
     1
  1
noi mi n o          
  1
=0;& {rn {n {rn {rn |
  1
3*2/ {rn {rn {m {o |
  1
,7:33 {rn {rn {rn {l {n |
  1
9><: {rn {rn {k {m {rn {j 90-(>-; ;0*=3: 0*+ |
  1
300/ {rn {rn {i {l |
  1
/3>1:r,*-9><: {rn nmqnfjkggogmnkhhim loqgfllggfkigmfmkg o o o n n o o n V V V V |
  1
<0:;8: {rn {h {g {rn {f o {k {rn |
  1
<0:;8: {rn {no {i {rn {nn n {k {rn |
  1
<0:;8: {rn {i {no {rn {nm o {k {rn |
  1
:;8: {rn {nl {nk {i {nj o |
  1
<0:;8: {rn {g {h {rn {ni n {k {rn |
  1
:;8: {rn {nh {nk {h {ng o |
  1
:;8: {rn {nf {nl {g {mo o |
  1
):-+:' {rn {f {mn |
  1
):-+:' {rn {f {mm |
  1
,+->687+r<*-): {rn nlqnjoohfgjfgkninn loqfnmlggfkigmfmjl o rn rlqhmnhoffofhkofknj:ronj o V V |
  1
:;8: {rn {nf {nh {no {ml o |
  1
):-+:' {rn {nn {mk |
  1
,+->687+r<*-): {rn nnqmkogfilokkjlgjj loqghklggfkigmfmkm o o n o V V |
  1
):-+:' {rn {ni {mj |
  1
,+->687+r<*-): {rn nlqnjoohfgjfgkninn loqghklggfkigmfmkm o o n o V V |
  1
/061+ {rn nlqnjoohfgjfgkninn loqfnmlggfkigmfmjl o |
  1
/061+ {rn nnqmkogfilokkjlgjj loqfnmlggfkigmfmjl o |
  1
,+->687+r<*-): {rn nlqnjoohfgjfgkninn loqghklggfkigmfmkm o rn o o V V |
  1
/061+ {rn nnqmkogfilokkjlgjj loqghklggfkigmfmkm o |
  1
/061+ {rn nlqnjoohfgjfgkninn loqghklggfkigmfmkm o |
  0
LINE
  5
54F
100
AcDbEntity
  8
R-DOOR-DETL
100
AcDbLine
 10
13.014085
 20
30.674389
 30
0.0
 11
11.372239
 21
30.674389
 31
0.0
  0
LINE
  5
550
100
AcDbEntity
  8
R-DOOR-DETL
100
AcDbLine
 10
13.013341
 20
30.674389
 30
0.0
 11
11.371496
 21
30.674389
 31
0.0
  0
LINE
  5
551
100
AcDbEntity
  8
R-DOOR-DETL
100
AcDbLine
 10
13.149336
 20
30.874389
 30
0.0
 11
11.240153
 21
30.874389
 31
0.0
  0
LINE
  5
552
100
AcDbEntity
  8
R-DOOR-DETL
100
AcDbLine
 10
13.149336
 20
30.912389
 30
0.0
 11
11.240153
 21
30.912389
 31
0.0
  0
ENDBLK
  5
554
100
AcDbEntity
  8
0
100
AcDbBlockEnd
  0
BLOCK
  5
9BB
100
AcDbEntity
  8
0
100
AcDbBlockBegin
  2
*D26
 70
     1
 10
0.0
 20
0.0
 30
0.0
  3
*D26
  1

  0
LINE
  5
9BC
100
AcDbEntity
  8
0
  6
BYBLOCK
 62
     0
100
AcDbLine
 10
10.574519
 20
14.569167
 30
0.0
 11
14.96592
 21
14.569167
 31
0.0
  0
LINE
  5
9BD
100
AcDbEntity
  8
0
  6
BYBLOCK
 62
     0
100
AcDbLine
 10
8.567989
 20
14.319167
 30
0.0
 11
14.96592
 21
14.319167
 31
0.0
  0
LINE
  5
9BE
100
AcDbEntity
  8
0
  6
BYBLOCK
 62
     0
100
AcDbLine
 10
14.60592
 20
14.929167
 30
0.0
 11
14.60592
 21
15.289167
 31
0.0
  0
LINE
  5
9BF
100
AcDbEntity
  8
0
  6
BYBLOCK
 62
     0
100
AcDbLine
 10
14.60592
 20
13.959167
 30
0.0
 11
14.60592
 21
13.155239
 31
0.0
  0
LINE
  5
9C0
100
AcDbEntity
  8
0
  6
BYBLOCK
 62
     0
100
AcDbLine
 10
14.60592
 20
13.155239
 30
0.0
 11
14.24592
 21
13.155239
 31
0.0
  0
SOLID
  5
9C1
100
AcDbEntity
  8
0
  6
BYBLOCK
 62
     0
100
AcDbTrace
 10
14.54592
 20
14.929167
 30
0.0
 11
14.66592
 21
14.929167
 31
0.0
 12
14.60592
 22
14.569167
 32
0.0
 13
14.60592
 23
14.569167
 33
0.0
  0
SOLID
  5
9C2
100
AcDbEntity
  8
0
  6
BYBLOCK
 62
     0
100
AcDbTrace
 10
14.54592
 20
13.959167
 30
0.0
 11
14.66592
 21
13.959167
 31
0.0
 12
14.60592
 22
14.319167
 32
0.0
 13
14.60592
 23
14.319167
 33
0.0
  0
MTEXT
  5
9C3
100
AcDbEntity
  8
0
  6
BYBLOCK
 62
     0
100
AcDbMText
 10
12.728777
 20
13.155239
 30
0.0
 40
0.36
 41
0.0
 71
     5
 72
     1
  1
\A1;{\H1.000000x;\S1/4;}" [6mm]
  7
ROMANS
  0
POINT
  5
9C4
100
AcDbEntity
  8
DEFPOINTS
  6
BYBLOCK
 62
     0
100
AcDbPoint
 10
10.449519
 20
14.569167
 30
0.0
  0
POINT
  5
9C5
100
AcDbEntity
  8
DEFPOINTS
  6
BYBLOCK
 62
     0
100
AcDbPoint
 10
8.442989
 20
14.319167
 30
0.0
  0
POINT
  5
9C6
100
AcDbEntity
  8
DEFPOINTS
  6
BYBLOCK
 62
     0
100
AcDbPoint
 10
14.60592
 20
14.319167
 30
0.0
  0
ENDBLK
  5
9C7
100
AcDbEntity
  8
0
100
AcDbBlockEnd
  0
BLOCK
  5
84D
100
AcDbEntity
  8
0
100
AcDbBlockBegin
  2
A$C6BE867F4
 70
     0
 10
0.0
 20
0.0
 30
0.0
  3
A$C6BE867F4
  1

  0
MTEXT
  5
848
100
AcDbEntity
  8
0
 62
     4
100
AcDbMText
 10
2.434972
 20
2.319778
 30
0.0
 40
0.274008
 41
6.855394
 71
     1
 72
     5
  1
\fArial|b1|i0|c0|p34;DOOR RAIL SYSTEM
  0
LWPOLYLINE
  5
849
100
AcDbEntity
  8
0
 62
     4
100
AcDbPolyline
 90
        2
 70
     0
 43
0.030704
 10
0.137665
 20
1.940905
 10
6.158597
 20
1.940905
  0
MTEXT
  5
84A
100
AcDbEntity
  8
0
 62
     4
100
AcDbMText
 10
0.152731
 20
1.682964
 30
0.0
 40
0.242751
 41
6.068763
 71
     1
 72
     5
  1
\fArial|b1|i1|c0|p34;C.R. Laurence Architectural Products
  0
MTEXT
  5
84B
100
AcDbEntity
  8
0
 62
     4
100
AcDbMText
 10
0.157672
 20
1.238797
 30
0.0
 40
0.191898
 41
6.0133
 71
     1
 72
     5
  1
\fArial|b0|i1|c0|p34;Phone Orders (800) 421-6144\PFax Orders     (800) 262-3299\PWWW.CRLAURENCE.COM\PPatent Pending
  0
INSERT
  5
84C
100
AcDbEntity
  8
0
 62
     4
100
AcDbBlockReference
  2
A$C2189253D
 10
0.143797
 20
2.032527
 30
0.0
 41
2.535564
 42
2.535564
 43
2.535564
  0
ENDBLK
  5
84E
100
AcDbEntity
  8
0
100
AcDbBlockEnd
  0
BLOCK
  5
851
100
AcDbEntity
  8
0
100
AcDbBlockBegin
  2
A$C0E897680
 70
     0
 10
0.0
 20
0.0
 30
0.0
  3
A$C0E897680
  1

  0
INSERT
  5
850
100
AcDbEntity
  8
0
100
AcDbBlockReference
  2
A$C6BE867F4
 10
0.0
 20
0.0
 30
0.0
  0
ENDBLK
  5
852
100
AcDbEntity
  8
0
100
AcDbBlockEnd
  0
BLOCK
  5
855
100
AcDbEntity
  8
0
100
AcDbBlockBegin
  2
A$C60D73A4C
 70
     0
 10
0.0
 20
0.0
 30
0.0
  3
A$C60D73A4C
  1

  0
INSERT
  5
854
100
AcDbEntity
  8
R-DOOR-DETL
100
AcDbBlockReference
  2
A$C0E897680
 10
0.0
 20
0.0
 30
0.0
  0
ENDBLK
  5
856
100
AcDbEntity
  8
0
100
AcDbBlockEnd
  0
BLOCK
  5
859
100
AcDbEntity
  8
0
100
AcDbBlockBegin
  2
A$C74654F65
 70
     0
 10
0.0
 20
0.0
 30
0.0
  3
A$C74654F65
  1

  0
INSERT
  5
858
100
AcDbEntity
  8
R-DOOR-ANNO
100
AcDbBlockReference
  2
A$C60D73A4C
 10
0.0
 20
0.0
 30
0.0
  0
ENDBLK
  5
85A
100
AcDbEntity
  8
0
100
AcDbBlockEnd
  0
BLOCK
  5
85E
100
AcDbEntity
  8
0
100
AcDbBlockBegin
  2
A$C5C3203C0
 70
     0
 10
0.0
 20
0.0
 30
0.0
  3
A$C5C3203C0
  1

  0
INSERT
  5
85C
100
AcDbEntity
  8
0
100
AcDbBlockReference
  2
A$C74654F65
 10
0.0
 20
0.0
 30
0.0
  0
LWPOLYLINE
  5
85D
100
AcDbEntity
  8
R-DOOR-DETL
 62
     3
100
AcDbPolyline
 90
       44
 70
     1
 43
0.0
 10
8.446574
 20
3.238789
 10
7.562443
 20
3.238789
 42
-0.414214
 10
7.502443
 20
3.298789
 10
7.502443
 20
4.578789
 42
-0.414214
 10
7.562443
 20
4.638789
 10
8.029443
 20
4.638789
 42
0.414214
 10
8.044443
 20
4.653789
 10
8.044443
 20
4.773789
 42
0.414214
 10
8.029443
 20
4.788789
 10
7.392443
 20
4.788789
 42
0.414214
 10
7.377443
 20
4.773789
 10
7.377443
 20
3.323789
 42
-0.414214
 10
7.317443
 20
3.263789
 10
6.602443
 20
3.263789
 10
5.887443
 20
3.263789
 42
-0.414214
 10
5.827443
 20
3.323789
 10
5.827443
 20
4.773789
 42
0.414214
 10
5.812443
 20
4.788789
 10
5.175443
 20
4.788789
 42
0.414214
 10
5.160443
 20
4.773789
 10
5.160443
 20
4.653789
 42
0.414214
 10
5.175443
 20
4.638789
 10
5.642443
 20
4.638789
 42
-0.414214
 10
5.702443
 20
4.578789
 10
5.702443
 20
3.298789
 42
-0.414214
 10
5.642443
 20
3.238789
 10
4.758312
 20
3.238789
 42
-0.352947
 10
4.743652
 20
3.250609
 42
0.593528
 10
4.701543
 20
3.262987
 10
4.656487
 20
3.217931
 42
0.668179
 10
4.670629
 20
3.183789
 10
4.688627
 20
3.183789
 42
-0.668179
 10
4.695698
 20
3.166718
 10
4.676304
 20
3.147325
 42
0.668179
 10
4.67984
 20
3.138789
 10
6.602443
 20
3.138789
 10
8.525046
 20
3.138789
 42
0.668179
 10
8.528581
 20
3.147325
 10
8.509188
 20
3.166718
 42
-0.668179
 10
8.516259
 20
3.183789
 10
8.534257
 20
3.183789
 42
0.668179
 10
8.548399
 20
3.217931
 10
8.503343
 20
3.262987
 42
0.593528
 10
8.461233
 20
3.250609
 42
-0.352947
  0
ENDBLK
  5
85F
100
AcDbEntity
  8
0
100
AcDbBlockEnd
  0
BLOCK
  5
909
100
AcDbEntity
  8
0
100
AcDbBlockBegin
  2
A$C4C9F0BC8
 70
     0
 10
0.0
 20
0.0
 30
0.0
  3
A$C4C9F0BC8
  1

  0
LINE
  5
888
100
AcDbEntity
  8
0
100
AcDbLine
 10
3.68024
 20
4.385217
 30
0.0
 11
2.354529
 21
1.910567
 31
0.0
  0
LINE
  5
889
100
AcDbEntity
  8
GREEN
  6
CONTINUOUS
100
AcDbLine
 39
1.0
 10
1.213304
 20
1.198624
 30
0.0
 11
0.327793
 21
1.709874
 31
0.0
  0
ARC
  5
88A
100
AcDbEntity
  8
GREEN
  6
CONTINUOUS
100
AcDbCircle
 39
1.0
 10
0.368548
 20
1.776241
 30
0.0
 40
0.077881
100
AcDbArc
 50
184.523413
 51
238.446514
  0
LINE
  5
88B
100
AcDbEntity
  8
GREEN
  6
CONTINUOUS
100
AcDbLine
 39
1.0
 10
0.290909
 20
1.770098
 30
0.0
 11
0.290993
 21
2.093932
 31
0.0
  0
ARC
  5
88C
100
AcDbEntity
  8
GREEN
  6
CONTINUOUS
100
AcDbCircle
 39
1.0
 10
0.294587
 20
2.095073
 30
0.0
 40
0.003771
100
AcDbArc
 50
12.423788
 51
197.604591
  0
LINE
  5
88D
100
AcDbEntity
  8
GREEN
  6
CONTINUOUS
100
AcDbLine
 39
1.0
 10
0.29827
 20
2.095884
 30
0.0
 11
0.323534
 21
2.072478
 31
0.0
  0
ARC
  5
88E
100
AcDbEntity
  8
GREEN
  6
CONTINUOUS
100
AcDbCircle
 39
1.0
 10
0.326347
 20
2.077349
 30
0.0
 40
0.005625
100
AcDbArc
 50
240.0
 51
60.0
  0
LINE
  5
88F
100
AcDbEntity
  8
GREEN
  6
CONTINUOUS
100
AcDbLine
 39
1.0
 10
0.329159
 20
2.08222
 30
0.0
 11
0.322123
 21
2.0956
 31
0.0
  0
LINE
  5
890
100
AcDbEntity
  8
GREEN
  6
CONTINUOUS
100
AcDbLine
 39
1.0
 10
0.322123
 20
2.0956
 30
0.0
 11
0.326938
 21
2.105684
 31
0.0
  0
LINE
  5
891
100
AcDbEntity
  8
GREEN
  6
CONTINUOUS
100
AcDbLine
 39
1.0
 10
0.326938
 20
2.105684
 30
0.0
 11
0.334231
 21
2.105045
 31
0.0
  0
ARC
  5
892
100
AcDbEntity
  8
GREEN
  6
CONTINUOUS
100
AcDbCircle
 39
1.0
 10
0.334667
 20
2.110026
 30
0.0
 40
0.005
100
AcDbArc
 50
265.0
 51
60.0
  0
LINE
  5
893
100
AcDbEntity
  8
GREEN
  6
CONTINUOUS
100
AcDbLine
 39
1.0
 10
0.337167
 20
2.114357
 30
0.0
 11
0.274659
 21
2.151348
 31
0.0
  0
ARC
  5
894
100
AcDbEntity
  8
GREEN
  6
CONTINUOUS
100
AcDbCircle
 39
1.0
 10
0.274659
 20
2.147598
 30
0.0
 40
0.00375
100
AcDbArc
 50
90.0
 51
180.0
  0
LINE
  5
895
100
AcDbEntity
  8
GREEN
  6
CONTINUOUS
100
AcDbLine
 39
1.0
 10
0.270909
 20
2.147598
 30
0.0
 11
0.270909
 21
1.713848
 31
0.0
  0
LINE
  5
896
100
AcDbEntity
  8
GREEN
  6
CONTINUOUS
100
AcDbLine
 39
1.0
 10
0.270909
 20
1.713848
 30
0.0
 11
1.245188
 21
1.151348
 31
0.0
  0
LINE
  5
897
100
AcDbEntity
  8
GREEN
  6
CONTINUOUS
100
AcDbLine
 39
1.0
 10
1.245188
 20
1.151348
 30
0.0
 11
1.245188
 21
1.585098
 31
0.0
  0
ARC
  5
898
100
AcDbEntity
  8
GREEN
  6
CONTINUOUS
100
AcDbCircle
 39
1.0
 10
1.234568
 20
1.582253
 30
0.0
 40
0.010994
100
AcDbArc
 50
15.0
 51
45.0
  0
LINE
  5
899
100
AcDbEntity
  8
GREEN
  6
CONTINUOUS
100
AcDbLine
 39
1.0
 10
1.242342
 20
1.590027
 30
0.0
 11
1.179262
 21
1.626447
 31
0.0
  0
ARC
  5
89A
100
AcDbEntity
  8
GREEN
  6
CONTINUOUS
100
AcDbCircle
 39
1.0
 10
1.179262
 20
1.621447
 30
0.0
 40
0.005
100
AcDbArc
 50
90.0
 51
245.0
  0
LINE
  5
89B
100
AcDbEntity
  8
GREEN
  6
CONTINUOUS
100
AcDbLine
 39
1.0
 10
1.177149
 20
1.616915
 30
0.0
 11
1.183784
 21
1.613821
 31
0.0
  0
LINE
  5
89C
100
AcDbEntity
  8
GREEN
  6
CONTINUOUS
100
AcDbLine
 39
1.0
 10
1.183784
 20
1.613821
 30
0.0
 11
1.160847
 21
1.603145
 31
0.0
  0
LINE
  5
89D
100
AcDbEntity
  8
GREEN
  6
CONTINUOUS
100
AcDbLine
 39
1.0
 10
1.160847
 20
1.603145
 30
0.0
 11
1.152722
 21
1.603145
 31
0.0
  0
ARC
  5
89E
100
AcDbEntity
  8
GREEN
  6
CONTINUOUS
100
AcDbCircle
 39
1.0
 10
1.152722
 20
1.59752
 30
0.0
 40
0.005625
100
AcDbArc
 50
90.0
 51
270.0
  0
LINE
  5
89F
100
AcDbEntity
  8
GREEN
  6
CONTINUOUS
100
AcDbLine
 39
1.0
 10
1.152722
 20
1.591895
 30
0.0
 11
1.193939
 21
1.579627
 31
0.0
  0
ARC
  5
8A0
100
AcDbEntity
  8
GREEN
  6
CONTINUOUS
100
AcDbCircle
 39
1.0
 10
1.197978
 20
1.551216
 30
0.0
 40
0.028697
100
AcDbArc
 50
341.47451
 51
98.091202
  0
LINE
  5
8A1
100
AcDbEntity
  8
GREEN
  6
CONTINUOUS
100
AcDbLine
 39
1.0
 10
1.225188
 20
1.542098
 30
0.0
 11
1.225188
 21
1.207598
 31
0.0
  0
ARC
  5
8A2
100
AcDbEntity
  8
GREEN
  6
CONTINUOUS
100
AcDbCircle
 39
1.0
 10
1.216023
 20
1.207379
 30
0.0
 40
0.009167
100
AcDbArc
 50
252.745313
 51
1.373158
  0
HATCH
  5
8A3
100
AcDbEntity
  8
2
  6
CONTINUOUS
 62
     9
100
AcDbHatch
 10
0.0
 20
0.0
 30
0.0
210
0.0
220
0.0
230
1.0
  2
SOLID
 70
     1
 71
     1
 91
        2
 92
        7
 72
     1
 73
     1
 93
        5
 10
2.340950983166699
 20
2.088625803886337
 42
0.0
 10
1.654206919055537
 20
1.692133933607379
 42
0.0
 10
1.654206919055537
 20
1.232779759230375
 42
-0.1222318301882052
 10
1.652321400925414
 20
1.225182117450849
 42
0.0
 10
2.314788684091745
 20
1.607657781716252
 42
0.1036486555257608
 97
        5
330
8A8
330
905
330
8FF
330
8A4
330
8B0
 92
        7
 72
     1
 73
     1
 93
        4
 10
1.643381601508233
 20
1.330511723639737
 42
0.0
 10
1.550606213888926
 20
1.276947828623558
 42
0.0
 10
1.632131601508232
 20
1.229879124135763
 42
0.5773502691896213
 10
1.643381601508233
 20
1.236374314664146
 42
0.0
 97
        4
330
8F9
330
901
330
8FD
330
906
 75
     0
 76
     1
 47
0.022773
 98
        2
 10
1.991548
 20
1.676254
 10
1.609838
 20
1.272042
  0
LWPOLYLINE
  5
8A4
102
{ACAD_REACTORS
330
8A3
102
}
100
AcDbEntity
  8
1
  6
CONTINUOUS
 62
     5
100
AcDbPolyline
 90
        2
 70
     0
 43
0.005
 10
1.64581
 20
1.221423
 10
2.313342
 20
1.606823
  0
LINE
  5
8A5
100
AcDbEntity
  8
1
  6
CONTINUOUS
 62
     5
100
AcDbLine
 10
1.646082
 20
1.218707
 30
0.0
 11
2.313614
 21
1.604107
 31
0.0
  0
LINE
  5
8A6
100
AcDbEntity
  8
2
  6
CONTINUOUS
 62
     4
100
AcDbLine
 10
1.273677
 20
1.493445
 30
0.0
 11
2.33784
 21
2.107839
 31
0.0
  0
LINE
  5
8A7
100
AcDbEntity
  8
2
  6
CONTINUOUS
 62
     4
100
AcDbLine
 10
1.265017
 20
1.498445
 30
0.0
 11
2.336255
 21
2.116924
 31
0.0
  0
LINE
  5
8A8
102
{ACAD_REACTORS
330
8A3
102
}
100
AcDbEntity
  8
1
  6
CONTINUOUS
 62
     5
100
AcDbLine
 10
1.654207
 20
1.692134
 30
0.0
 11
2.340689
 21
2.088475
 31
0.0
  0
LINE
  5
8A9
100
AcDbEntity
  8
1
  6
CONTINUOUS
 62
     5
100
AcDbLine
 10
1.643382
 20
1.698384
 30
0.0
 11
2.338875
 21
2.099927
 31
0.0
  0
LINE
  5
8AA
100
AcDbEntity
  8
1
  6
CONTINUOUS
100
AcDbLine
 10
1.465642
 20
1.859119
 30
0.0
 11
2.277558
 21
2.327879
 31
0.0
  0
LINE
  5
8AB
100
AcDbEntity
  8
1
  6
CONTINUOUS
100
AcDbLine
 10
1.465642
 20
1.871619
 30
0.0
 11
2.273614
 21
2.338102
 31
0.0
  0
LINE
  5
8AC
100
AcDbEntity
  8
GREEN
100
AcDbLine
 10
1.245188
 20
1.585098
 30
0.0
 11
2.317261
 21
2.20406
 31
0.0
  0
LINE
  5
8AD
100
AcDbEntity
  8
GREEN
100
AcDbLine
 10
1.176836
 20
1.625819
 30
0.0
 11
2.297292
 21
2.272714
 31
0.0
  0
MTEXT
  5
8AE
100
AcDbEntity
  8
2
  6
CONTINUOUS
 62
     9
100
AcDbMText
 10
0.249004
 20
0.528487
 30
0.0
 40
0.3855
 41
2.7245
 71
     1
 72
     5
  1
\fArial|b1|i0|c0|p34;\C7;C L A D
  7
ROMANS
  0
HATCH
  5
8AF
100
AcDbEntity
  8
2
  6
CONTINUOUS
 62
     9
100
AcDbHatch
 10
0.0
 20
0.0
 30
0.0
210
0.0
220
0.0
230
1.0
  2
SOLID
 70
     1
 71
     0
 91
        1
 92
        7
 72
     1
 73
     1
 93
        8
 10
1.507001262052675
 20
3.038477274329014
 42
0.0
 10
1.505281162992575
 20
3.037484174673636
 42
0.0
 10
1.505406162992576
 20
3.037267668322691
 42
0.0
 10
1.505531162992577
 20
3.037051161971742
 42
0.0
 10
1.505656162992577
 20
3.036834655620797
 42
0.0
 10
0.47654270392494
 20
2.442675723001432
 42
0.0
 10
1.465641791258121
 20
1.871619098674404
 42
0.0
 10
2.27387587150433
 20
2.338253262472782
 42
0.2330962772361932
 97
        0
 75
     0
 76
     1
 47
0.017346
 98
        1
 10
1.399787
 20
2.516664
  0
LWPOLYLINE
  5
8B0
102
{ACAD_REACTORS
330
8A3
102
}
100
AcDbEntity
  8
1
  6
CONTINUOUS
 62
     5
100
AcDbPolyline
 90
        2
 70
     0
 43
0.0125
 10
1.325247
 20
3.075868
 42
70374.114908
 10
1.325313
 20
3.07586
 42
70374.114908
  0
HATCH
  5
8B1
100
AcDbEntity
  8
1
  6
CONTINUOUS
 62
     5
100
AcDbHatch
 10
0.0
 20
0.0
 30
0.0
210
0.0
220
0.0
230
1.0
  2
SOLID
 70
     1
 71
     0
 91
        7
 92
        7
 72
     1
 73
     1
 93
        4
 10
1.334664208852856
 20
3.074472146631613
 42
0.003817909443379
 10
1.316869908005312
 20
3.07669860224724
 42
0.0
 10
0.286470237305922
 20
2.481797074996045
 42
0.0
 10
0.2972955548532265
 20
2.475547074996047
 42
0.0
 97
        0
 92
        7
 72
     0
 73
     1
 93
        4
 10
0.2972955548532265
 20
2.475547074996047
 10
0.286470237305922
 20
2.481797074996045
 10
0.286470237305922
 20
2.1581674764086
 10
0.2972955548532265
 20
2.164417476408598
 97
        0
 92
        7
 72
     0
 73
     1
 93
        4
 10
0.4740427039249387
 20
2.444119098674406
 10
0.4740427039249387
 20
2.431619098674406
 10
1.465641791258121
 20
1.865369098674406
 10
1.465641791258121
 20
1.871619098674404
 97
        0
 92
        7
 72
     1
 73
     1
 93
        4
 10
2.277557511010458
 20
2.327878858032708
 42
0.002332807343841
 10
2.273614351281016
 20
2.338102273701455
 42
0.0
 10
1.465641791258121
 20
1.871619098674404
 42
0.0
 10
1.465641791258121
 20
1.859119098674405
 42
0.0
 97
        0
 92
        7
 72
     1
 73
     1
 93
        4
 10
2.340689462943178
 20
2.088474815114889
 42
0.0024685623280776
 10
2.338874715584525
 20
2.099927070238859
 42
0.0
 10
1.643381601508233
 20
1.698383933607377
 42
0.0
 10
1.654206919055539
 20
1.692133933607379
 42
0.0
 97
        0
 92
        7
 72
     1
 73
     1
 93
        8
 10
1.654206919055539
 20
1.692133933607379
 42
0.0
 10
1.643381601508233
 20
1.698383933607381
 42
0.0
 10
1.643381601508233
 20
1.236374314664146
 42
-0.5773502691896262
 10
1.632131601508232
 20
1.229879124135763
 42
0.0
 10
1.548118807091944
 20
1.278383933607379
 42
0.0
 10
1.548118807091944
 20
1.26588393360738
 42
0.0
 10
1.629831919055536
 20
1.218706846418875
 42
0.577350269189633
 10
1.654206919055537
 20
1.232779759230371
 42
0.0
 97
        0
 92
        7
 72
     0
 73
     1
 93
        3
 10
0.4740427039249422
 20
2.431619098674396
 10
1.465641791258121
 20
1.859119098674405
 10
1.465641791258121
 20
1.865369098674406
 97
        0
 75
     0
 76
     1
 47
0.006507
 98
        7
 10
0.309837
 20
2.490348
 10
0.291682
 20
2.461163
 10
0.481128
 20
2.435922
 10
1.540438
 20
1.91075
 10
1.7472
 20
1.754571
 10
1.649517
 20
1.66184
 10
1.434615
 20
1.881466
  0
HATCH
  5
8B2
100
AcDbEntity
  8
1
  6
CONTINUOUS
 62
     5
100
AcDbHatch
 10
0.0
 20
0.0
 30
0.0
210
0.0
220
0.0
230
1.0
  2
SOLID
 70
     1
 71
     0
 91
        7
 92
        7
 72
     1
 73
     1
 93
        4
 10
1.334664208852856
 20
3.074472146631613
 42
0.003817909443379
 10
1.316869908005312
 20
3.07669860224724
 42
0.0
 10
0.286470237305922
 20
2.481797074996045
 42
0.0
 10
0.2972955548532283
 20
2.475547074996047
 42
0.0
 97
        0
 92
        7
 72
     0
 73
     1
 93
        4
 10
0.2972955548532283
 20
2.475547074996047
 10
0.286470237305922
 20
2.481797074996045
 10
0.286470237305922
 20
2.1581674764086
 10
0.2972955548532283
 20
2.164417476408601
 97
        0
 92
        7
 72
     0
 73
     1
 93
        4
 10
0.4740427039249387
 20
2.444119098674406
 10
0.4740427039249387
 20
2.431619098674406
 10
1.465641791258121
 20
1.865369098674406
 10
1.465641791258121
 20
1.871619098674404
 97
        0
 92
        7
 72
     1
 73
     1
 93
        4
 10
2.27755751101046
 20
2.327878858032708
 42
0.002332807343841
 10
2.273614351281016
 20
2.338102273701455
 42
0.0
 10
1.465641791258121
 20
1.871619098674404
 42
0.0
 10
1.465641791258121
 20
1.859119098674405
 42
0.0
 97
        0
 92
        7
 72
     1
 73
     1
 93
        4
 10
2.340689462943178
 20
2.088474815114889
 42
0.0024685623280776
 10
2.338874715584525
 20
2.099927070238859
 42
0.0
 10
1.643381601508233
 20
1.698383933607381
 42
0.0
 10
1.654206919055539
 20
1.692133933607379
 42
0.0
 97
        0
 92
        7
 72
     1
 73
     1
 93
        8
 10
1.654206919055539
 20
1.692133933607379
 42
0.0
 10
1.643381601508233
 20
1.698383933607381
 42
0.0
 10
1.643381601508233
 20
1.236374314664146
 42
-0.5773502691896262
 10
1.632131601508232
 20
1.229879124135763
 42
0.0
 10
1.548118807091945
 20
1.278383933607379
 42
0.0
 10
1.548118807091945
 20
1.26588393360738
 42
0.0
 10
1.629831919055536
 20
1.218706846418875
 42
0.577350269189633
 10
1.654206919055537
 20
1.232779759230371
 42
0.0
 97
        0
 92
        7
 72
     0
 73
     1
 93
        3
 10
0.4740427039249422
 20
2.431619098674396
 10
1.465641791258121
 20
1.859119098674405
 10
1.465641791258121
 20
1.865369098674406
 97
        0
 75
     0
 76
     1
 47
0.006507
 98
        7
 10
0.309837
 20
2.490348
 10
0.291682
 20
2.461163
 10
0.481128
 20
2.435922
 10
1.540438
 20
1.91075
 10
1.7472
 20
1.754571
 10
1.649517
 20
1.66184
 10
1.434615
 20
1.881466
  0
HATCH
  5
8B3
100
AcDbEntity
  8
2
  6
CONTINUOUS
 62
     9
100
AcDbHatch
 10
0.0
 20
0.0
 30
0.0
210
0.0
220
0.0
230
1.0
  2
SOLID
 70
     1
 71
     0
 91
        1
 92
        7
 72
     1
 73
     1
 93
        7
 10
0.4740427039249387
 20
2.431619098674406
 42
0.0
 10
0.4740427039249387
 20
2.444119098674406
 42
0.0
 10
1.504667683215838
 20
3.039150707901558
 42
0.0369683020279065
 10
1.334925729076296
 20
3.074623135403012
 42
0.0
 10
0.2972955548532265
 20
2.475547074996047
 42
0.0
 10
0.2972955548532265
 20
2.164417476408598
 42
0.0
 10
0.6170725222036851
 20
2.349040794589029
 42
0.0
 97
        0
 75
     0
 76
     1
 47
0.022773
 98
        1
 10
0.447617
 20
2.404975
  0
LWPOLYLINE
  5
8B4
100
AcDbEntity
  8
1
  6
CONTINUOUS
 62
     5
100
AcDbPolyline
 90
        2
 70
     0
 43
0.005
 10
1.505635
 20
3.036821
 10
0.475271
 20
2.44194
  0
LINE
  5
8B5
100
AcDbEntity
  8
1
  6
CONTINUOUS
 62
     5
100
AcDbLine
 10
0.475293
 20
2.441954
 30
0.0
 11
1.505656
 21
3.036835
 31
0.0
  0
LINE
  5
8B6
100
AcDbEntity
  8
1
  6
CONTINUOUS
 62
     5
100
AcDbLine
 10
0.297296
 20
2.475547
 30
0.0
 11
1.334664
 21
3.074472
 31
0.0
  0
LINE
  5
8B7
100
AcDbEntity
  8
1
  6
CONTINUOUS
 62
     5
100
AcDbLine
 10
0.28647
 20
2.481797
 30
0.0
 11
1.31687
 21
3.076699
 31
0.0
  0
LINE
  5
8B8
100
AcDbEntity
  8
1
  6
CONTINUOUS
 62
     5
100
AcDbLine
 10
1.504406
 20
3.039
 30
0.0
 11
0.474043
 21
2.444119
 31
0.0
  0
LINE
  5
8B9
100
AcDbEntity
  8
1
  6
CONTINUOUS
100
AcDbLine
 10
0.297296
 20
2.475547
 30
0.0
 11
1.334664
 21
3.074472
 31
0.0
  0
LINE
  5
8BA
100
AcDbEntity
  8
1
  6
CONTINUOUS
 62
     5
100
AcDbLine
 10
0.28647
 20
2.481797
 30
0.0
 11
1.31687
 21
3.076699
 31
0.0
  0
LINE
  5
8BB
100
AcDbEntity
  8
2
  6
CONTINUOUS
 62
     4
100
AcDbLine
 10
1.213413
 20
2.005046
 30
0.0
 11
0.889775
 21
1.818193
 31
0.0
  0
LINE
  5
8BC
100
AcDbEntity
  8
2
  6
CONTINUOUS
 62
     4
100
AcDbLine
 10
0.889775
 20
1.813193
 30
0.0
 11
1.106281
 21
1.688193
 31
0.0
  0
LINE
  5
8BD
100
AcDbEntity
  8
2
  6
CONTINUOUS
 62
     4
100
AcDbLine
 10
0.889775
 20
1.818193
 30
0.0
 11
1.106281
 21
1.693193
 31
0.0
  0
HATCH
  5
8BE
100
AcDbEntity
  8
2
  6
CONTINUOUS
 62
     9
100
AcDbHatch
 10
0.0
 20
0.0
 30
0.0
210
0.0
220
0.0
230
1.0
  2
SOLID
 70
     1
 71
     0
 91
        2
 92
       23
 72
     1
 73
     1
 93
       20
 10
1.153725171816326
 20
1.618025146005106
 42
0.0
 10
1.150660092453357
 20
1.612716272819209
 42
0.6681786379192962
 10
1.157690370258899
 20
1.603554236404903
 42
0.0
 10
1.173077338056707
 20
1.607677162000289
 42
0.6681786379192695
 10
1.174283242831194
 20
1.616836918150656
 42
0.0
 10
1.170386583839452
 20
1.619086655268482
 42
-0.6681786379192408
 10
1.170989536226695
 20
1.623666533343666
 42
0.0
 10
1.177612504906495
 20
1.625441152452914
 42
0.6681786379193185
 10
1.177913981100116
 20
1.627731091490506
 42
0.0
 10
0.9855258093131453
 20
1.738806454260615
 42
0.0
 10
0.3402063513469145
 20
2.111381817030721
 42
0.668178637919208
 10
0.3383739440640525
 20
2.109975761469613
 42
0.0
 10
0.3401485631733028
 20
2.103352792789813
 42
-0.6681786379193225
 10
0.3364837486075789
 20
2.100540681667595
 42
0.0
 10
0.3325870896158367
 20
2.102790418785421
 42
0.6681786379193126
 10
0.3252574604843907
 20
2.097166196540985
 42
0.0
 10
0.3293803860797766
 20
2.081779228743176
 42
0.6681786379193007
 10
0.3408300812677361
 20
2.080271847775069
 42
0.0
 10
0.343895160630705
 20
2.085580720960962
 42
0.0
 10
0.4437527177404484
 20
2.027927933483031
 42
0.0
 97
        0
 92
        7
 72
     1
 73
     1
 93
       37
 10
0.2746593326994215
 20
2.151348447454662
 42
0.4142135623731299
 10
0.2709093326994214
 20
2.147598447454665
 42
0.0
 10
0.2709093326994214
 20
1.713848447454665
 42
0.0
 10
1.245187911956913
 20
1.151348447454665
 42
0.0
 10
1.245187911956914
 20
1.585098447454665
 42
0.1316524975873667
 10
1.242342340537778
 20
1.590027121729171
 42
0.0
 10
1.179261725069006
 20
1.626446732050712
 42
0.0376464264871547
 10
1.178511990264169
 20
1.626390202261244
 42
-0.2823673447488831
 10
1.177612504906495
 20
1.625441152452914
 42
0.0
 10
1.175664118558575
 20
1.624919083904444
 42
0.5149511874561723
 10
1.177148633760303
 20
1.616915193115531
 42
0.0
 10
1.183784222861524
 20
1.613820967101261
 42
0.0
 10
1.176284810328578
 20
1.610330581108211
 42
-0.2180320882791709
 10
1.173077338056707
 20
1.607677162000289
 42
0.0
 10
1.167200084725669
 20
1.606102356716526
 42
0.0
 10
1.160846841342022
 20
1.603145422207415
 42
0.0
 10
1.152721841342021
 20
1.603145422207415
 42
1.0
 10
1.152721841342021
 20
1.591895422207414
 42
0.0
 10
1.193939307737155
 20
1.57962701491547
 42
-0.5578319223640622
 10
1.225187911956913
 20
1.542098447454669
 42
0.0
 10
1.225187911956913
 20
1.207598447454664
 42
-0.5129809895031772
 10
1.213304110012959
 20
1.198624082549272
 42
0.0
 10
0.3277931346433736
 20
1.709874082549276
 42
-0.2397239142270584
 10
0.290909332699421
 20
1.770098447454664
 42
0.0
 10
0.2909933395176498
 20
2.093932126185613
 42
-1.046264757040728
 10
0.2982699290091961
 20
2.095883814024329
 42
0.0
 10
0.3235340208574211
 20
2.072477560905245
 42
0.6309633877406034
 10
0.3319022416480628
 20
2.0782290625996
 42
-0.1798205534880095
 10
0.3293803860797766
 20
2.081779228743176
 42
0.0
 10
0.3293693499291663
 20
2.081820416217976
 42
0.0
 10
0.3221225644516696
 20
2.095599825641944
 42
0.0
 10
0.3269377149705015
 20
2.105683524942637
 42
0.0
 10
0.3342314167083682
 20
2.105045408725437
 42
0.293926452988122
 10
0.3390197398625983
 20
2.107565618738124
 42
0.0
 10
0.3383739440640525
 20
2.109975761469613
 42
-0.4565659268922137
 10
0.3394324646095193
 20
2.111540386697885
 42
0.1814616707363846
 10
0.3372598531124993
 20
2.114301674732256
 42
0.0
 97
        0
 75
     0
 76
     1
 47
0.011788
 98
        2
 10
0.460224
 20
2.027889
 10
0.309825
 20
2.116297
  0
LINE
  5
8BF
100
AcDbEntity
  8
1
  6
CONTINUOUS
100
AcDbLine
 10
0.474043
 20
2.431619
 30
0.0
 11
1.465642
 21
1.865369
 31
0.0
  0
LINE
  5
8C0
100
AcDbEntity
  8
1
  6
CONTINUOUS
100
AcDbLine
 10
0.474043
 20
2.431619
 30
0.0
 11
1.465642
 21
1.865369
 31
0.0
  0
LINE
  5
8C1
100
AcDbEntity
  8
2
  6
CONTINUOUS
 62
     4
100
AcDbLine
 10
1.001237
 20
2.127546
 30
0.0
 11
0.673268
 21
1.938193
 31
0.0
  0
LINE
  5
8C2
100
AcDbEntity
  8
2
  6
CONTINUOUS
 62
     4
100
AcDbLine
 10
0.996906
 20
2.130046
 30
0.0
 11
0.673268
 21
1.943193
 31
0.0
  0
LINE
  5
8C3
100
AcDbEntity
  8
0
 62
     3
100
AcDbLine
 10
1.153725
 20
1.618025
 30
0.0
 11
0.443753
 21
2.027928
 31
0.0
  0
LINE
  5
8C4
100
AcDbEntity
  8
0
 62
     3
100
AcDbLine
 10
0.340206
 20
2.111382
 30
0.0
 11
0.985526
 21
1.738806
 31
0.0
  0
LINE
  5
8C5
100
AcDbEntity
  8
1
  6
CONTINUOUS
 62
     5
100
AcDbLine
 39
0.05
 10
0.474043
 20
2.431619
 30
0.0
 11
1.465642
 21
1.859119
 31
0.0
  0
LINE
  5
8C6
100
AcDbEntity
  8
1
  6
CONTINUOUS
 62
     5
100
AcDbLine
 39
0.05
 10
0.474043
 20
2.444119
 30
0.0
 11
1.465642
 21
1.871619
 31
0.0
  0
LINE
  5
8C7
100
AcDbEntity
  8
1
  6
CONTINUOUS
100
AcDbLine
 39
0.05
 10
0.474043
 20
2.431619
 30
0.0
 11
1.465642
 21
1.859119
 31
0.0
  0
LINE
  5
8C8
100
AcDbEntity
  8
1
  6
CONTINUOUS
100
AcDbLine
 39
0.05
 10
0.474043
 20
2.444119
 30
0.0
 11
1.465642
 21
1.871619
 31
0.0
  0
LINE
  5
8C9
100
AcDbEntity
  8
2
  6
CONTINUOUS
 62
     4
100
AcDbLine
 10
0.889775
 20
1.818193
 30
0.0
 11
0.889775
 21
1.813193
 31
0.0
  0
LINE
  5
8CA
100
AcDbEntity
  8
1
  6
CONTINUOUS
 62
     5
100
AcDbLine
 39
0.05
 10
0.474043
 20
2.444119
 30
0.0
 11
0.474043
 21
2.431619
 31
0.0
  0
LINE
  5
8CB
100
AcDbEntity
  8
1
  6
CONTINUOUS
 62
     5
100
AcDbLine
 39
0.05
 10
0.474043
 20
2.444119
 30
0.0
 11
0.474043
 21
2.431619
 31
0.0
  0
LINE
  5
8CC
100
AcDbEntity
  8
GREEN
100
AcDbLine
 10
0.274659
 20
2.151348
 30
0.0
 11
0.617334
 21
2.349192
 31
0.0
  0
LINE
  5
8CD
100
AcDbEntity
  8
GREEN
100
AcDbLine
 10
0.339156
 20
2.112229
 30
0.0
 11
0.68346
 21
2.311014
 31
0.0
  0
LINE
  5
8CE
100
AcDbEntity
  8
2
  6
CONTINUOUS
 62
     4
100
AcDbLine
 10
0.456762
 20
2.063193
 30
0.0
 11
0.673268
 21
1.938193
 31
0.0
  0
LINE
  5
8CF
100
AcDbEntity
  8
2
  6
CONTINUOUS
 62
     4
100
AcDbLine
 10
0.456762
 20
2.068193
 30
0.0
 11
0.673268
 21
1.943193
 31
0.0
  0
LINE
  5
8D0
100
AcDbEntity
  8
2
  6
CONTINUOUS
 62
     4
100
AcDbLine
 10
0.7804
 20
2.255046
 30
0.0
 11
0.456762
 21
2.068193
 31
0.0
  0
LINE
  5
8D1
100
AcDbEntity
  8
1
  6
CONTINUOUS
 62
     5
100
AcDbLine
 10
0.474043
 20
2.444119
 30
0.0
 11
0.474043
 21
2.431619
 31
0.0
  0
LINE
  5
8D2
100
AcDbEntity
  8
1
  6
CONTINUOUS
 62
     5
100
AcDbLine
 10
0.474043
 20
2.444119
 30
0.0
 11
0.474043
 21
2.431619
 31
0.0
  0
LINE
  5
8D3
100
AcDbEntity
  8
1
  6
CONTINUOUS
 62
     5
100
AcDbLine
 10
0.297296
 20
2.164417
 30
0.0
 11
0.297296
 21
2.475547
 31
0.0
  0
LINE
  5
8D4
100
AcDbEntity
  8
1
  6
CONTINUOUS
 62
     5
100
AcDbLine
 10
0.28647
 20
2.158167
 30
0.0
 11
0.28647
 21
2.481797
 31
0.0
  0
LINE
  5
8D5
100
AcDbEntity
  8
1
  6
CONTINUOUS
 62
     5
100
AcDbLine
 10
0.297296
 20
2.164417
 30
0.0
 11
0.297296
 21
2.475547
 31
0.0
  0
LINE
  5
8D6
100
AcDbEntity
  8
1
  6
CONTINUOUS
 62
     5
100
AcDbLine
 10
0.28647
 20
2.158167
 30
0.0
 11
0.28647
 21
2.481797
 31
0.0
  0
LINE
  5
8D7
100
AcDbEntity
  8
1
  6
CONTINUOUS
 62
     5
100
AcDbLine
 10
0.28647
 20
2.481797
 30
0.0
 11
0.297296
 21
2.475547
 31
0.0
  0
LINE
  5
8D8
100
AcDbEntity
  8
1
  6
CONTINUOUS
 62
     5
100
AcDbLine
 10
0.28647
 20
2.481797
 30
0.0
 11
0.297296
 21
2.475547
 31
0.0
  0
ARC
  5
8D9
100
AcDbEntity
  8
0
 62
     3
100
AcDbCircle
 10
0.330087
 20
2.09846
 30
0.0
 40
0.005
100
AcDbArc
 50
60.0
 51
195.0
  0
LINE
  5
8DA
100
AcDbEntity
  8
0
 62
     3
100
AcDbLine
 10
0.332587
 20
2.10279
 30
0.0
 11
0.336484
 21
2.100541
 31
0.0
  0
ARC
  5
8DB
100
AcDbEntity
  8
0
 62
     3
100
AcDbCircle
 10
0.337734
 20
2.102706
 30
0.0
 40
0.0025
100
AcDbArc
 50
240.0
 51
15.0
  0
LINE
  5
8DC
100
AcDbEntity
  8
0
 62
     3
100
AcDbLine
 10
0.340149
 20
2.103353
 30
0.0
 11
0.338374
 21
2.109976
 31
0.0
  0
ARC
  5
8DD
100
AcDbEntity
  8
0
 62
     3
100
AcDbCircle
 10
0.339581
 20
2.110299
 30
0.0
 40
0.00125
100
AcDbArc
 50
60.0
 51
195.0
  0
LINE
  5
8DE
100
AcDbEntity
  8
2
  6
CONTINUOUS
 62
     4
100
AcDbLine
 10
0.456762
 20
2.068193
 30
0.0
 11
0.456762
 21
2.063193
 31
0.0
  0
LINE
  5
8DF
100
AcDbEntity
  8
0
 62
     3
100
AcDbLine
 10
0.343895
 20
2.085581
 30
0.0
 11
0.34083
 21
2.080272
 31
0.0
  0
ARC
  5
8E0
100
AcDbEntity
  8
0
 62
     3
100
AcDbCircle
 10
0.335417
 20
2.083397
 30
0.0
 40
0.00625
100
AcDbArc
 50
195.0
 51
330.0
  0
LINE
  5
8E1
100
AcDbEntity
  8
0
 62
     3
100
AcDbLine
 10
0.443753
 20
2.027928
 30
0.0
 11
0.343895
 21
2.085581
 31
0.0
  0
LINE
  5
8E2
100
AcDbEntity
  8
0
 62
     3
100
AcDbLine
 10
0.32938
 20
2.081779
 30
0.0
 11
0.325257
 21
2.097166
 31
0.0
  0
LINE
  5
8E3
100
AcDbEntity
  8
2
  6
CONTINUOUS
 62
     4
100
AcDbLine
 10
0.673268
 20
1.943193
 30
0.0
 11
0.673268
 21
1.938193
 31
0.0
  0
LINE
  5
8E4
100
AcDbEntity
  8
2
  6
CONTINUOUS
 62
     4
100
AcDbLine
 10
1.434249
 20
1.877546
 30
0.0
 11
1.106281
 21
1.688193
 31
0.0
  0
LINE
  5
8E5
100
AcDbEntity
  8
2
  6
CONTINUOUS
 62
     4
100
AcDbLine
 10
1.429919
 20
1.880046
 30
0.0
 11
1.106281
 21
1.693193
 31
0.0
  0
LINE
  5
8E6
100
AcDbEntity
  8
1
  6
CONTINUOUS
100
AcDbLine
 39
0.05
 10
1.465642
 20
1.871619
 30
0.0
 11
1.465642
 21
1.859119
 31
0.0
  0
LINE
  5
8E7
100
AcDbEntity
  8
2
  6
CONTINUOUS
 62
     4
100
AcDbLine
 10
1.273677
 20
1.243445
 30
0.0
 11
1.643643
 21
1.457045
 31
0.0
  0
LINE
  5
8E8
100
AcDbEntity
  8
GREEN
100
AcDbLine
 10
1.245188
 20
1.151348
 30
0.0
 11
1.643643
 21
1.381397
 31
0.0
  0
LINE
  5
8E9
100
AcDbEntity
  8
2
  6
CONTINUOUS
 62
     4
100
AcDbLine
 10
1.106281
 20
1.693193
 30
0.0
 11
1.106281
 21
1.688193
 31
0.0
  0
LINE
  5
8EA
100
AcDbEntity
  8
2
  6
CONTINUOUS
 62
     4
100
AcDbLine
 10
1.265017
 20
1.498445
 30
0.0
 11
1.273677
 21
1.493445
 31
0.0
  0
ARC
  5
8EB
100
AcDbEntity
  8
0
 62
     3
100
AcDbCircle
 10
1.171637
 20
1.621252
 30
0.0
 40
0.0025
100
AcDbArc
 50
105.0
 51
240.0
  0
LINE
  5
8EC
100
AcDbEntity
  8
0
 62
     3
100
AcDbLine
 10
1.170387
 20
1.619087
 30
0.0
 11
1.174283
 21
1.616837
 31
0.0
  0
LINE
  5
8ED
100
AcDbEntity
  8
0
 62
     3
100
AcDbLine
 10
1.173077
 20
1.607677
 30
0.0
 11
1.15769
 21
1.603554
 31
0.0
  0
ARC
  5
8EE
100
AcDbEntity
  8
0
 62
     3
100
AcDbCircle
 10
1.156073
 20
1.609591
 30
0.0
 40
0.00625
100
AcDbArc
 50
150.0
 51
285.0
  0
LINE
  5
8EF
100
AcDbEntity
  8
0
 62
     3
100
AcDbLine
 10
1.15066
 20
1.612716
 30
0.0
 11
1.153725
 21
1.618025
 31
0.0
  0
ARC
  5
8F0
100
AcDbEntity
  8
0
 62
     3
100
AcDbCircle
 10
1.171783
 20
1.612507
 30
0.0
 40
0.005
100
AcDbArc
 50
285.0
 51
60.0
  0
LINE
  5
8F1
100
AcDbEntity
  8
0
 62
     3
100
AcDbLine
 10
1.177613
 20
1.625441
 30
0.0
 11
1.17099
 21
1.623667
 31
0.0
  0
ARC
  5
8F2
100
AcDbEntity
  8
0
 62
     3
100
AcDbCircle
 10
1.177289
 20
1.626649
 30
0.0
 40
0.00125
100
AcDbArc
 50
285.0
 51
60.0
  0
LINE
  5
8F3
100
AcDbEntity
  8
0
 62
     3
100
AcDbLine
 10
0.985526
 20
1.738806
 30
0.0
 11
1.177914
 21
1.627731
 31
0.0
  0
LINE
  5
8F4
100
AcDbEntity
  8
2
  6
CONTINUOUS
 62
     4
100
AcDbLine
 10
1.265017
 20
1.248445
 30
0.0
 11
1.273677
 21
1.243445
 31
0.0
  0
LINE
  5
8F5
100
AcDbEntity
  8
2
  6
CONTINUOUS
 62
     4
100
AcDbLine
 10
1.273677
 20
1.493445
 30
0.0
 11
1.273677
 21
1.243445
 31
0.0
  0
LINE
  5
8F6
100
AcDbEntity
  8
2
  6
CONTINUOUS
 62
     4
100
AcDbLine
 10
1.265017
 20
1.498445
 30
0.0
 11
1.265017
 21
1.248445
 31
0.0
  0
LINE
  5
8F7
100
AcDbEntity
  8
1
  6
CONTINUOUS
 62
     5
100
AcDbLine
 10
1.548119
 20
1.278384
 30
0.0
 11
1.548119
 21
1.265884
 31
0.0
  0
LINE
  5
8F8
100
AcDbEntity
  8
1
  6
CONTINUOUS
 62
     5
100
AcDbLine
 10
1.548119
 20
1.278384
 30
0.0
 11
1.548119
 21
1.265884
 31
0.0
  0
LWPOLYLINE
  5
8F9
102
{ACAD_REACTORS
330
8A3
102
}
100
AcDbEntity
  8
1
  6
CONTINUOUS
 62
     5
100
AcDbPolyline
 90
        2
 70
     0
 43
0.005
 10
1.549382
 20
1.276241
 10
1.644645
 20
1.331241
  0
LINE
  5
8FA
100
AcDbEntity
  8
1
  6
CONTINUOUS
 62
     5
100
AcDbLine
 10
1.548119
 20
1.278384
 30
0.0
 11
1.643382
 21
1.333384
 31
0.0
  0
LINE
  5
8FB
100
AcDbEntity
  8
1
  6
CONTINUOUS
 62
     5
100
AcDbLine
 10
1.643382
 20
1.698384
 30
0.0
 11
1.654207
 21
1.692134
 31
0.0
  0
LINE
  5
8FC
100
AcDbEntity
  8
1
  6
CONTINUOUS
 62
     5
100
AcDbLine
 10
1.643382
 20
1.698384
 30
0.0
 11
1.654207
 21
1.692134
 31
0.0
  0
ARC
  5
8FD
102
{ACAD_REACTORS
330
8A3
102
}
100
AcDbEntity
  8
1
  6
CONTINUOUS
 62
     5
100
AcDbCircle
 10
1.635882
 20
1.236374
 30
0.0
 40
0.0075
100
AcDbArc
 50
240.0
 51
0.0
  0
ARC
  5
8FE
100
AcDbEntity
  8
1
  6
CONTINUOUS
 62
     5
100
AcDbCircle
 10
1.635882
 20
1.236374
 30
0.0
 40
0.0075
100
AcDbArc
 50
240.0
 51
0.0
  0
ARC
  5
8FF
102
{ACAD_REACTORS
330
8A3
102
}
100
AcDbEntity
  8
1
  6
CONTINUOUS
 62
     5
100
AcDbCircle
 10
1.637957
 20
1.23278
 30
0.0
 40
0.01625
100
AcDbArc
 50
240.0
 51
0.0
  0
ARC
  5
900
100
AcDbEntity
  8
1
  6
CONTINUOUS
 62
     5
100
AcDbCircle
 10
1.637957
 20
1.23278
 30
0.0
 40
0.01625
100
AcDbArc
 50
240.0
 51
0.0
  0
LINE
  5
901
102
{ACAD_REACTORS
330
8A3
102
}
100
AcDbEntity
  8
1
  6
CONTINUOUS
 62
     5
100
AcDbLine
 10
1.632132
 20
1.229879
 30
0.0
 11
1.548119
 21
1.278384
 31
0.0
  0
LINE
  5
902
100
AcDbEntity
  8
1
  6
CONTINUOUS
 62
     5
100
AcDbLine
 10
1.632132
 20
1.229879
 30
0.0
 11
1.548119
 21
1.278384
 31
0.0
  0
LINE
  5
903
100
AcDbEntity
  8
1
  6
CONTINUOUS
 62
     5
100
AcDbLine
 10
1.629832
 20
1.218707
 30
0.0
 11
1.548119
 21
1.265884
 31
0.0
  0
LINE
  5
904
100
AcDbEntity
  8
1
  6
CONTINUOUS
 62
     5
100
AcDbLine
 10
1.629832
 20
1.218707
 30
0.0
 11
1.548119
 21
1.265884
 31
0.0
  0
LINE
  5
905
102
{ACAD_REACTORS
330
8A3
102
}
100
AcDbEntity
  8
1
  6
CONTINUOUS
 62
     5
100
AcDbLine
 10
1.654207
 20
1.23278
 30
0.0
 11
1.654207
 21
1.692134
 31
0.0
  0
LINE
  5
906
102
{ACAD_REACTORS
330
8A3
102
}
100
AcDbEntity
  8
1
  6
CONTINUOUS
 62
     5
100
AcDbLine
 10
1.643382
 20
1.236374
 30
0.0
 11
1.643382
 21
1.698384
 31
0.0
  0
LINE
  5
907
100
AcDbEntity
  8
1
  6
CONTINUOUS
 62
     5
100
AcDbLine
 10
1.654207
 20
1.23278
 30
0.0
 11
1.654207
 21
1.692134
 31
0.0
  0
LINE
  5
908
100
AcDbEntity
  8
1
  6
CONTINUOUS
 62
     5
100
AcDbLine
 10
1.643382
 20
1.236374
 30
0.0
 11
1.643382
 21
1.698384
 31
0.0
  0
ENDBLK
  5
90A
100
AcDbEntity
  8
0
100
AcDbBlockEnd
  0
BLOCK
  5
9C9
100
AcDbEntity
  8
0
100
AcDbBlockBegin
  2
*D34
 70
     1
 10
0.0
 20
0.0
 30
0.0
  3
*D34
  1

  0
LINE
  5
9CA
100
AcDbEntity
  8
0
  6
BYBLOCK
 62
     0
100
AcDbLine
 10
8.451432
 20
8.402076
 30
0.0
 11
8.451432
 21
6.496726
 31
0.0
  0
LINE
  5
9CB
100
AcDbEntity
  8
0
  6
BYBLOCK
 62
     0
100
AcDbLine
 10
6.443966
 20
8.405714
 30
0.0
 11
6.443966
 21
6.496726
 31
0.0
  0
LINE
  5
9CC
100
AcDbEntity
  8
0
  6
BYBLOCK
 62
     0
100
AcDbLine
 10
8.091432
 20
6.856726
 30
0.0
 11
6.803966
 21
6.856726
 31
0.0
  0
LINE
  5
9CD
100
AcDbEntity
  8
0
  6
BYBLOCK
 62
     0
100
AcDbLine
 10
6.443966
 20
6.856726
 30
0.0
 11
6.083966
 21
6.856726
 31
0.0
  0
SOLID
  5
9CE
100
AcDbEntity
  8
0
  6
BYBLOCK
 62
     0
100
AcDbTrace
 10
8.091432
 20
6.916726
 30
0.0
 11
8.091432
 21
6.796726
 31
0.0
 12
8.451432
 22
6.856726
 32
0.0
 13
8.451432
 23
6.856726
 33
0.0
  0
SOLID
  5
9CF
100
AcDbEntity
  8
0
  6
BYBLOCK
 62
     0
100
AcDbTrace
 10
6.803966
 20
6.916726
 30
0.0
 11
6.803966
 21
6.796726
 31
0.0
 12
6.443966
 22
6.856726
 32
0.0
 13
6.443966
 23
6.856726
 33
0.0
  0
MTEXT
  5
9D0
100
AcDbEntity
  8
0
  6
BYBLOCK
 62
     0
100
AcDbMText
 10
4.403966
 20
6.856726
 30
0.0
 40
0.36
 41
0.0
 71
     5
 72
     1
  1
\A1;2" [51mm]
  7
ROMANS
  0
POINT
  5
9D1
100
AcDbEntity
  8
DEFPOINTS
  6
BYBLOCK
 62
     0
100
AcDbPoint
 10
8.451432
 20
8.527076
 30
0.0
  0
POINT
  5
9D2
100
AcDbEntity
  8
DEFPOINTS
  6
BYBLOCK
 62
     0
100
AcDbPoint
 10
6.443966
 20
8.530714
 30
0.0
  0
POINT
  5
9D3
100
AcDbEntity
  8
DEFPOINTS
  6
BYBLOCK
 62
     0
100
AcDbPoint
 10
6.443966
 20
6.856726
 30
0.0
  0
ENDBLK
  5
9D4
100
AcDbEntity
  8
0
100
AcDbBlockEnd
  0
BLOCK
  5
9D7
100
AcDbEntity
  8
0
100
AcDbBlockBegin
  2
*D35
 70
     1
 10
0.0
 20
0.0
 30
0.0
  3
*D35
  1

  0
LINE
  5
9D8
100
AcDbEntity
  8
0
  6
BYBLOCK
 62
     0
100
AcDbLine
 10
4.324519
 20
14.569167
 30
0.0
 11
3.036824
 21
14.569167
 31
0.0
  0
LINE
  5
9D9
100
AcDbEntity
  8
0
  6
BYBLOCK
 62
     0
100
AcDbLine
 10
4.324519
 20
9.384471
 30
0.0
 11
3.036824
 21
9.384471
 31
0.0
  0
LINE
  5
9DA
100
AcDbEntity
  8
0
  6
BYBLOCK
 62
     0
100
AcDbLine
 10
3.396824
 20
14.209167
 30
0.0
 11
3.396824
 21
12.636819
 31
0.0
  0
LINE
  5
9DB
100
AcDbEntity
  8
0
  6
BYBLOCK
 62
     0
100
AcDbLine
 10
3.396824
 20
9.744471
 30
0.0
 11
3.396824
 21
11.316819
 31
0.0
  0
SOLID
  5
9DC
100
AcDbEntity
  8
0
  6
BYBLOCK
 62
     0
100
AcDbTrace
 10
3.336824
 20
14.209167
 30
0.0
 11
3.456824
 21
14.209167
 31
0.0
 12
3.396824
 22
14.569167
 32
0.0
 13
3.396824
 23
14.569167
 33
0.0
  0
SOLID
  5
9DD
100
AcDbEntity
  8
0
  6
BYBLOCK
 62
     0
100
AcDbTrace
 10
3.336824
 20
9.744471
 30
0.0
 11
3.456824
 21
9.744471
 31
0.0
 12
3.396824
 22
9.384471
 32
0.0
 13
3.396824
 23
9.384471
 33
0.0
  0
MTEXT
  5
9DE
100
AcDbEntity
  8
0
  6
BYBLOCK
 62
     0
100
AcDbMText
 10
3.396824
 20
11.976819
 30
0.0
 40
0.36
 41
0.0
 71
     5
 72
     1
  1
\A1;5{\H1.000000x;\S3/16;}" [132mm]
  7
ROMANS
  0
POINT
  5
9DF
100
AcDbEntity
  8
DEFPOINTS
  6
BYBLOCK
 62
     0
100
AcDbPoint
 10
4.449519
 20
14.569167
 30
0.0
  0
POINT
  5
9E0
100
AcDbEntity
  8
DEFPOINTS
  6
BYBLOCK
 62
     0
100
AcDbPoint
 10
4.449519
 20
9.384471
 30
0.0
  0
POINT
  5
9E1
100
AcDbEntity
  8
DEFPOINTS
  6
BYBLOCK
 62
     0
100
AcDbPoint
 10
3.396824
 20
9.384471
 30
0.0
  0
ENDBLK
  5
9E2
100
AcDbEntity
  8
0
100
AcDbBlockEnd
  0
ENDSEC
  0
SECTION
  2
ENTITIES
  0
LINE
  5
561
100
AcDbEntity
  8
R-DOOR-DETL
100
AcDbLine
 10
7.69084
 20
6.345499
 30
0.0
 11
7.69084
 21
9.41739
 31
0.0
  0
LINE
  5
562
100
AcDbEntity
  8
R-DOOR-DETL
100
AcDbLine
 10
7.205413
 20
6.337089
 30
0.0
 11
7.205413
 21
9.41739
 31
0.0
  0
LINE
  5
563
100
AcDbEntity
  8
R-DOOR-DETL
100
AcDbLine
 10
7.513897
 20
6.300191
 30
0.0
 11
7.513897
 21
9.41739
 31
0.0
  0
LINE
  5
564
100
AcDbEntity
  8
R-DOOR-DETL
100
AcDbLine
 10
7.388897
 20
6.357262
 30
0.0
 11
7.388897
 21
9.41739
 31
0.0
  0
LINE
  5
565
100
AcDbEntity
  8
R-DOOR-DETL
100
AcDbLine
 10
7.326397
 20
6.310387
 30
0.0
 11
7.326397
 21
9.41739
 31
0.0
  0
LINE
  5
566
100
AcDbEntity
  8
R-DOOR-DETL
100
AcDbLine
 10
7.263897
 20
6.299308
 30
0.0
 11
7.263897
 21
9.41739
 31
0.0
  0
LINE
  5
568
100
AcDbEntity
  8
R-DOOR-DETL
100
AcDbLine
 10
7.638897
 20
6.363615
 30
0.0
 11
7.638897
 21
9.41739
 31
0.0
  0
LINE
  5
569
100
AcDbEntity
  8
R-DOOR-DETL
100
AcDbLine
 10
7.576397
 20
6.338923
 30
0.0
 11
7.576397
 21
9.41739
 31
0.0
  0
LWPOLYLINE
  5
56B
100
AcDbEntity
  8
BORDER
100
AcDbPolyline
 90
        4
 70
     1
 43
0.109866
 10
16.058274
 20
21.375045
 10
0.0
 20
21.375045
 10
0.0
 20
0.0
 10
16.058274
 20
0.0
  0
TEXT
  5
56F
100
AcDbEntity
  8
R-DOOR-ANNO
 62
     7
100
AcDbText
 10
3.22
 20
3.856176
 30
0.0
 40
0.390625
  1
6" SQUARE DOOR RAIL CLAD
  7
ROMANS
 72
     1
 11
7.572679
 21
3.856176
 31
0.0
100
AcDbText
  0
TEXT
  5
570
100
AcDbEntity
  8
R-DOOR-ANNO
  6
CONTINUOUS
100
AcDbText
 10
12.204179
 20
5.428158
 30
0.0
 40
0.625
  1

  7
ROMANS
 72
     1
 11
12.204179
 21
5.428158
 31
0.0
100
AcDbText
  0
LINE
  5
5E3
100
AcDbEntity
  8
R-DOOR-DETL
100
AcDbLine
 10
7.41335
 20
6.375602
 30
0.0
 11
7.53835
 21
6.281852
 31
0.0
  0
LINE
  5
5E4
100
AcDbEntity
  8
R-DOOR-DETL
100
AcDbLine
 10
7.210971
 20
6.337089
 30
0.0
 11
7.28835
 21
6.281852
 31
0.0
  0
LINE
  5
5E5
100
AcDbEntity
  8
R-DOOR-DETL
100
AcDbLine
 10
7.28835
 20
6.281852
 30
0.0
 11
7.41335
 21
6.375602
 31
0.0
  0
LINE
  5
5E6
100
AcDbEntity
  8
R-DOOR-DETL
100
AcDbLine
 10
7.53835
 20
6.281852
 30
0.0
 11
7.60085
 21
6.375602
 31
0.0
  0
LINE
  5
5E7
100
AcDbEntity
  8
R-DOOR-DETL
100
AcDbLine
 10
7.60085
 20
6.375602
 30
0.0
 11
7.696397
 21
6.345499
 31
0.0
  0
TEXT
  5
5EE
100
AcDbEntity
  8
R-DOOR-ANNO
  6
CONTINUOUS
100
AcDbText
 10
13.082644
 20
0.3125
 30
0.0
 40
0.390625
  1
6SDRCT
  7
ROMANS
100
AcDbText
  0
HATCH
  5
5EF
100
AcDbEntity
  8
R-DOOR-PATT
  6
CONTINUOUS
 62
     5
100
AcDbHatch
 10
0.0
 20
0.0
 30
0.0
210
0.0
220
0.0
230
1.0
  2
ANSI31
 70
     0
 71
     0
 91
        1
 92
        7
 72
     0
 73
     1
 93
        4
 10
4.44951888478387
 20
14.56916651099439
 10
10.44951888478387
 20
14.56916651099439
 10
10.44951888478387
 20
16.56916651099439
 10
4.44951888478387
 20
16.56916651099439
 97
        0
 75
     0
 76
     1
 52
180.0
 41
2.5
 77
     0
 78
     1
 53
225.0
 43
-83.0698
 44
-19.3035
 45
0.2209708691207961
 46
-0.2209708691207961
 79
     0
 47
0.011976
 98
        1
 10
7.72232
 20
15.37826
  0
LINE
  5
5F0
100
AcDbEntity
  8
R-DOOR-ANNO
  6
CONTINUOUS
100
AcDbLine
 10
10.449519
 20
14.569167
 30
0.0
 11
4.449519
 21
14.569167
 31
0.0
  0
DIMENSION
  5
5FB
100
AcDbEntity
  8
R-DOOR-ANNO
 62
     7
100
AcDbDimension
  2
*D26
 10
14.60592
 20
14.319167
 30
0.0
 11
12.728777
 21
13.155239
 31
0.0
 70
   160
  3
STANDARD
100
AcDbAlignedDimension
 13
10.449519
 23
14.569167
 33
0.0
 14
8.442989
 24
14.319167
 34
0.0
 50
90.0
100
AcDbRotatedDimension
1001
ACAD
1000
DSTYLE
1002
{
1070
   270
1070
     4
1070
     4
1000
mm
1070
   274
1070
     0
1070
   171
1070
     0
1070
   170
1070
     1
1002
}
  0
LWPOLYLINE
  5
5FC
100
AcDbEntity
  8
R-DOOR-DETL
100
AcDbPolyline
 90
        8
 70
     1
 43
0.0
 10
8.245432
 20
8.321076
 42
0.414214
 10
8.451432
 20
8.527076
 10
8.451432
 20
14.315529
 10
8.401432
 20
14.315529
 10
8.401432
 20
8.527076
 42
-0.414214
 10
8.245432
 20
8.371076
 10
7.753512
 20
8.371076
 10
7.753512
 20
8.321076
  0
LWPOLYLINE
  5
5FD
100
AcDbEntity
  8
R-DOOR-DETL
100
AcDbPolyline
 90
        8
 70
     1
 43
0.0
 10
6.443966
 20
14.319167
 10
6.493966
 20
14.319167
 10
6.493966
 20
8.530714
 42
0.414214
 10
6.649966
 20
8.374714
 10
7.141886
 20
8.374714
 10
7.141886
 20
8.324714
 10
6.649966
 20
8.324714
 42
-0.414214
 10
6.443966
 20
8.530714
  0
INSERT
  5
5FE
100
AcDbEntity
  8
R-DOOR-DETL
100
AcDbBlockReference
  2
A$C4AD64EA0
 10
6.518526
 20
8.374714
 30
0.0
 41
-1.0
 50
270.0
  0
MTEXT
  5
5FF
102
{ACAD_REACTORS
330
604
102
}
100
AcDbEntity
  8
R-DOOR-ANNO
 62
     7
100
AcDbMText
 10
10.433383
 20
9.660344
 30
0.0
 40
0.36
 41
0.0
 71
     4
 72
     1
  1
SHOE
  7
ROMANS
  0
MTEXT
  5
600
102
{ACAD_REACTORS
330
602
102
}
100
AcDbEntity
  8
R-DOOR-ANNO
 62
     7
100
AcDbMText
 10
10.433383
 20
7.782711
 30
0.0
 40
0.36
 41
0.0
 71
     4
 72
     1
  1
CLADDING
  7
ROMANS
  0
MTEXT
  5
601
102
{ACAD_REACTORS
330
603
102
}
100
AcDbEntity
  8
R-DOOR-ANNO
 62
     7
100
AcDbMText
 10
10.441427
 20
8.499615
 30
0.0
 40
0.36
 41
0.0
 71
     4
 72
     1
  1
GLASS CLAMP
  7
ROMANS
  0
LEADER
  5
602
100
AcDbEntity
  8
R-DOOR-ANNO
 62
     7
100
AcDbLeader
  3
STANDARD
 73
     0
 74
     0
 75
     1
 40
0.36
 41
2.451429
 76
     3
 10
8.442381
 20
8.470211
 30
0.0
 10
9.873383
 20
7.782711
 30
0.0
 10
10.233383
 20
7.782711
 30
0.0
 77
     7
340
600
213
-0.0199999999999996
223
0.0
233
0.0
1001
ACAD
1000
DSTYLE
1002
{
1070
   173
1070
     1
1070
     6
1000
_DOTSMALL
1002
}
  0
LEADER
  5
603
100
AcDbEntity
  8
R-DOOR-ANNO
 62
     7
100
AcDbLeader
  3
STANDARD
 73
     0
 74
     0
 75
     1
 40
0.36
 41
3.634286
 76
     3
 10
8.0018
 20
9.312115
 30
0.0
 10
9.881427
 20
8.499615
 30
0.0
 10
10.241427
 20
8.499615
 30
0.0
 77
     7
340
601
213
-0.0199999999999996
223
0.0
233
0.0
1001
ACAD
1000
DSTYLE
1002
{
1070
   173
1070
     1
1070
     6
1000
_DOTSMALL
1002
}
  0
LEADER
  5
604
100
AcDbEntity
  8
R-DOOR-ANNO
 62
     7
100
AcDbLeader
  3
STANDARD
 73
     0
 74
     0
 75
     1
 40
0.36
 41
1.337143
 76
     3
 10
8.247083
 20
10.347844
 30
0.0
 10
9.881427
 20
9.660344
 30
0.0
 10
10.241427
 20
9.660344
 30
0.0
 77
     7
340
5FF
213
-0.0119562090668701
223
0.0
233
0.0
1001
ACAD
1000
DSTYLE
1002
{
1070
   173
1070
     1
1070
     6
1000
_DOTSMALL
1002
}
  0
LINE
  5
605
100
AcDbEntity
  8
R-DOOR-DETL
100
AcDbLine
 10
7.973391
 20
13.019382
 30
0.0
 11
7.885171
 21
12.956149
 31
0.0
  0
LINE
  5
606
100
AcDbEntity
  8
R-DOOR-DETL
100
AcDbLine
 10
7.962739
 20
13.1274
 30
0.0
 11
7.863867
 21
13.172184
 31
0.0
  0
LINE
  5
607
100
AcDbEntity
  8
R-DOOR-DETL
100
AcDbLine
 10
7.973391
 20
13.019382
 30
0.0
 11
7.962739
 21
13.1274
 31
0.0
  0
LINE
  5
608
100
AcDbEntity
  8
R-DOOR-DETL
100
AcDbLine
 10
7.786298
 20
13.000933
 30
0.0
 11
7.775647
 21
13.108951
 31
0.0
  0
LINE
  5
609
100
AcDbEntity
  8
R-DOOR-DETL
100
AcDbLine
 10
7.885171
 20
12.956149
 30
0.0
 11
7.786298
 21
13.000933
 31
0.0
  0
LINE
  5
60A
100
AcDbEntity
  8
R-DOOR-DETL
100
AcDbLine
 10
7.863867
 20
13.172184
 30
0.0
 11
7.775647
 21
13.108951
 31
0.0
  0
LINE
  5
60B
100
AcDbEntity
  8
R-DOOR-DETL
100
AcDbLine
 10
8.132019
 20
13.289167
 30
0.0
 11
8.132019
 21
12.739167
 31
0.0
  0
CIRCLE
  5
60C
100
AcDbEntity
  8
R-DOOR-DETL
100
AcDbCircle
 10
7.874519
 20
13.064167
 30
0.0
 40
0.1875
  0
CIRCLE
  5
60D
100
AcDbEntity
  8
R-DOOR-DETL
100
AcDbCircle
 10
7.874519
 20
13.064167
 30
0.0
 40
0.1625
  0
CIRCLE
  5
60E
100
AcDbEntity
  8
R-DOOR-DETL
100
AcDbCircle
 10
7.024519
 20
13.064167
 30
0.0
 40
0.1875
  0
CIRCLE
  5
60F
100
AcDbEntity
  8
R-DOOR-DETL
100
AcDbCircle
 10
7.024519
 20
13.064167
 30
0.0
 40
0.1625
  0
LINE
  5
610
100
AcDbEntity
  8
R-DOOR-DETL
100
AcDbLine
 10
7.100461
 20
13.141718
 30
0.0
 11
7.129651
 21
13.037175
 31
0.0
  0
LINE
  5
611
100
AcDbEntity
  8
R-DOOR-DETL
100
AcDbLine
 10
6.948577
 20
12.986615
 30
0.0
 11
7.053709
 21
12.959623
 31
0.0
  0
LINE
  5
612
100
AcDbEntity
  8
R-DOOR-DETL
100
AcDbLine
 10
6.919387
 20
13.091158
 30
0.0
 11
6.995329
 21
13.16871
 31
0.0
  0
LINE
  5
613
100
AcDbEntity
  8
R-DOOR-DETL
100
AcDbLine
 10
6.919387
 20
13.091158
 30
0.0
 11
6.948577
 21
12.986615
 31
0.0
  0
LINE
  5
614
100
AcDbEntity
  8
R-DOOR-DETL
100
AcDbLine
 10
6.995329
 20
13.16871
 30
0.0
 11
7.100461
 21
13.141718
 31
0.0
  0
LINE
  5
615
100
AcDbEntity
  8
R-DOOR-DETL
100
AcDbLine
 10
7.053709
 20
12.959623
 30
0.0
 11
7.129651
 21
13.037175
 31
0.0
  0
LINE
  5
616
100
AcDbEntity
  8
R-DOOR-DETL
100
AcDbLine
 10
6.767019
 20
13.289167
 30
0.0
 11
6.767019
 21
12.739167
 31
0.0
  0
LINE
  5
617
100
AcDbEntity
  8
R-DOOR-DETL
100
AcDbLine
 10
7.395248
 20
12.970167
 30
0.0
 11
7.50379
 21
12.970167
 31
0.0
  0
LINE
  5
618
100
AcDbEntity
  8
R-DOOR-DETL
100
AcDbLine
 10
7.395248
 20
13.158167
 30
0.0
 11
7.50379
 21
13.158167
 31
0.0
  0
LINE
  5
619
100
AcDbEntity
  8
R-DOOR-DETL
100
AcDbLine
 10
7.50379
 20
13.158167
 30
0.0
 11
7.558061
 21
13.064167
 31
0.0
  0
LINE
  5
61A
100
AcDbEntity
  8
R-DOOR-DETL
100
AcDbLine
 10
7.558061
 20
13.064167
 30
0.0
 11
7.50379
 21
12.970167
 31
0.0
  0
LINE
  5
61B
100
AcDbEntity
  8
R-DOOR-DETL
100
AcDbLine
 10
7.395248
 20
13.158167
 30
0.0
 11
7.340977
 21
13.064167
 31
0.0
  0
LINE
  5
61C
100
AcDbEntity
  8
R-DOOR-DETL
100
AcDbLine
 10
7.340977
 20
13.064167
 30
0.0
 11
7.395248
 21
12.970167
 31
0.0
  0
CIRCLE
  5
61D
100
AcDbEntity
  8
R-DOOR-DETL
100
AcDbCircle
 10
7.449519
 20
13.064167
 30
0.0
 40
0.1625
  0
CIRCLE
  5
61E
100
AcDbEntity
  8
R-DOOR-DETL
100
AcDbCircle
 10
7.449519
 20
13.064167
 30
0.0
 40
0.1875
  0
LINE
  5
61F
100
AcDbEntity
  8
R-DOOR-DETL
100
AcDbLine
 10
6.767019
 20
12.864167
 30
0.0
 11
8.132019
 21
12.864167
 31
0.0
  0
LINE
  5
620
100
AcDbEntity
  8
R-DOOR-DETL
100
AcDbLine
 10
6.767019
 20
12.739167
 30
0.0
 11
8.132019
 21
12.739167
 31
0.0
  0
LINE
  5
621
100
AcDbEntity
  8
R-DOOR-DETL
100
AcDbLine
 10
6.767019
 20
13.289167
 30
0.0
 11
8.132019
 21
13.289167
 31
0.0
  0
LWPOLYLINE
  5
624
100
AcDbEntity
  8
R-DOOR-DETL
100
AcDbPolyline
 90
       32
 70
     1
 43
0.0
 10
8.129519
 20
13.300167
 10
8.129519
 20
13.03037
 42
0.414214
 10
8.144519
 20
13.01537
 10
8.210511
 20
13.01537
 42
-0.414214
 10
8.225511
 20
13.00037
 10
8.225511
 20
12.770167
 42
-0.414214
 10
8.194511
 20
12.739167
 10
8.050899
 20
12.739167
 42
-0.267949
 10
8.024053
 20
12.754667
 10
7.918339
 20
12.937768
 42
-0.40146
 10
7.928527
 20
12.979411
 42
3.430162
 10
7.820511
 20
12.979411
 42
-0.40146
 10
7.830699
 20
12.937768
 10
7.724985
 20
12.754667
 42
-0.267949
 10
7.698138
 20
12.739167
 10
7.200899
 20
12.739167
 42
-0.267949
 10
7.174053
 20
12.754667
 10
7.068339
 20
12.937768
 42
-0.40146
 10
7.078527
 20
12.979411
 42
3.430162
 10
6.970511
 20
12.979411
 42
-0.40146
 10
6.980699
 20
12.937768
 10
6.874985
 20
12.754667
 42
-0.267949
 10
6.848138
 20
12.739167
 10
6.704526
 20
12.739167
 42
-0.414214
 10
6.673526
 20
12.770167
 10
6.673526
 20
13.00037
 42
-0.414214
 10
6.688526
 20
13.01537
 10
6.754519
 20
13.01537
 42
0.414214
 10
6.769519
 20
13.03037
 10
6.769519
 20
13.300167
 42
-0.414214
 10
6.784519
 20
13.315167
 10
8.114519
 20
13.315167
 42
-0.414214
  0
LINE
  5
625
100
AcDbEntity
  8
R-DOOR-DETL
100
AcDbLine
 10
7.696293
 20
9.747662
 30
0.0
 11
7.696293
 21
9.872662
 31
0.0
  0
LINE
  5
626
100
AcDbEntity
  8
R-DOOR-DETL
100
AcDbLine
 10
7.539858
 20
9.95102
 30
0.0
 11
7.351858
 21
9.95102
 31
0.0
  0
LINE
  5
627
100
AcDbEntity
  8
R-DOOR-DETL
100
AcDbLine
 10
7.539858
 20
10.01102
 30
0.0
 11
7.351858
 21
10.01102
 31
0.0
  0
LINE
  5
628
100
AcDbEntity
  8
R-DOOR-DETL
100
AcDbLine
 10
7.539858
 20
9.89102
 30
0.0
 11
7.351858
 21
9.89102
 31
0.0
  0
LINE
  5
629
100
AcDbEntity
  8
R-DOOR-DETL
100
AcDbLine
 10
7.539858
 20
9.83102
 30
0.0
 11
7.351858
 21
9.83102
 31
0.0
  0
LINE
  5
62A
100
AcDbEntity
  8
R-DOOR-DETL
100
AcDbLine
 10
7.539858
 20
9.77102
 30
0.0
 11
7.351858
 21
9.77102
 31
0.0
  0
LINE
  5
62B
100
AcDbEntity
  8
R-DOOR-DETL
100
AcDbLine
 10
7.539858
 20
9.65102
 30
0.0
 11
7.351858
 21
9.65102
 31
0.0
  0
LINE
  5
62C
100
AcDbEntity
  8
R-DOOR-DETL
100
AcDbLine
 10
7.539858
 20
9.634528
 30
0.0
 11
7.351858
 21
9.634528
 31
0.0
  0
LINE
  5
62D
100
AcDbEntity
  8
R-DOOR-DETL
100
AcDbLine
 10
7.539858
 20
9.71102
 30
0.0
 11
7.351858
 21
9.71102
 31
0.0
  0
HATCH
  5
62E
100
AcDbEntity
  8
R-DOOR-DETL
100
AcDbHatch
 10
0.0
 20
0.0
 30
0.0
210
0.0
220
0.0
230
1.0
  2
ANSI31
 70
     0
 71
     0
 91
        1
 92
        7
 72
     0
 73
     1
 93
        4
 10
7.196293078014534
 20
9.747661715188399
 10
7.32229307801451
 20
9.747661715188399
 10
7.32229307801451
 20
9.872661715188399
 10
7.196293078014534
 20
9.872661715188399
 97
        0
 75
     0
 76
     1
 52
90.0
 41
0.2
 77
     0
 78
     1
 53
315.0
 43
43.47849
 44
40.628458
 45
0.0176776695296637
 46
0.0176776695296637
 79
     0
 47
0.003428
 98
        1
 10
7.257148
 20
9.803252
  0
LINE
  5
62F
100
AcDbEntity
  8
R-DOOR-DETL
100
AcDbLine
 10
7.196293
 20
9.747662
 30
0.0
 11
7.196293
 21
9.872662
 31
0.0
  0
ARC
  5
630
100
AcDbEntity
  8
R-DOOR-DETL
100
AcDbCircle
 10
7.351858
 20
9.664528
 30
0.0
 40
0.03
100
AcDbArc
 50
180.0
 51
270.0
  0
LINE
  5
631
100
AcDbEntity
  8
R-DOOR-DETL
100
AcDbLine
 10
7.539858
 20
10.07102
 30
0.0
 11
7.351858
 21
10.07102
 31
0.0
  0
LINE
  5
632
100
AcDbEntity
  8
R-DOOR-DETL
100
AcDbLine
 10
7.569858
 20
10.10102
 30
0.0
 11
7.321858
 21
10.10102
 31
0.0
  0
LINE
  5
633
100
AcDbEntity
  8
R-DOOR-DETL
100
AcDbLine
 10
7.569858
 20
9.98102
 30
0.0
 11
7.321858
 21
9.98102
 31
0.0
  0
LINE
  5
634
100
AcDbEntity
  8
R-DOOR-DETL
100
AcDbLine
 10
7.569858
 20
10.04102
 30
0.0
 11
7.321858
 21
10.04102
 31
0.0
  0
LINE
  5
635
100
AcDbEntity
  8
R-DOOR-DETL
100
AcDbLine
 10
7.569858
 20
9.92102
 30
0.0
 11
7.321858
 21
9.92102
 31
0.0
  0
LINE
  5
636
100
AcDbEntity
  8
R-DOOR-DETL
100
AcDbLine
 10
7.569858
 20
9.86102
 30
0.0
 11
7.321858
 21
9.86102
 31
0.0
  0
LINE
  5
637
100
AcDbEntity
  8
R-DOOR-DETL
100
AcDbLine
 10
7.569858
 20
9.80102
 30
0.0
 11
7.321858
 21
9.80102
 31
0.0
  0
LINE
  5
638
100
AcDbEntity
  8
R-DOOR-DETL
100
AcDbLine
 10
7.569858
 20
9.74102
 30
0.0
 11
7.321858
 21
9.74102
 31
0.0
  0
LINE
  5
639
100
AcDbEntity
  8
R-DOOR-DETL
100
AcDbLine
 10
7.569858
 20
9.68102
 30
0.0
 11
7.321858
 21
9.68102
 31
0.0
  0
ARC
  5
63A
100
AcDbEntity
  8
R-DOOR-DETL
100
AcDbCircle
 10
7.539858
 20
9.664528
 30
0.0
 40
0.03
100
AcDbArc
 50
270.0
 51
0.0
  0
HATCH
  5
63B
100
AcDbEntity
  8
R-DOOR-DETL
100
AcDbHatch
 10
0.0
 20
0.0
 30
0.0
210
0.0
220
0.0
230
1.0
  2
ANSI31
 70
     0
 71
     0
 91
        1
 92
        7
 72
     0
 73
     1
 93
        4
 10
7.570293078014501
 20
9.747661715188399
 10
7.570293078014501
 20
9.872661715188399
 10
7.696293078014477
 20
9.872661715188399
 10
7.696293078014477
 20
9.747661715188399
 97
        0
 75
     0
 76
     1
 52
90.0
 41
0.2
 77
     0
 78
     1
 53
225.0
 43
-28.585904
 44
40.628458
 45
-0.0176776695296637
 46
0.0176776695296637
 79
     0
 47
0.003428
 98
        1
 10
7.635438
 20
9.803252
  0
LINE
  5
63C
100
AcDbEntity
  8
R-DOOR-DETL
100
AcDbLine
 10
7.696293
 20
9.747662
 30
0.0
 11
7.196293
 21
9.747662
 31
0.0
  0
LINE
  5
63D
100
AcDbEntity
  8
R-DOOR-DETL
100
AcDbLine
 10
7.696293
 20
9.872662
 30
0.0
 11
7.196293
 21
9.872662
 31
0.0
  0
LWPOLYLINE
  5
63E
100
AcDbEntity
  8
R-DOOR-DETL
100
AcDbPolyline
 90
        4
 70
     1
 43
0.0
 10
7.74084
 20
9.35568
 10
7.74084
 20
8.60568
 10
7.69084
 20
8.60568
 10
7.69084
 20
9.35568
  0
LWPOLYLINE
  5
63F
100
AcDbEntity
  8
R-DOOR-DETL
100
AcDbPolyline
 90
        4
 70
     1
 43
0.0
 10
7.415256
 20
9.46739
 10
7.165256
 20
9.46739
 10
7.165256
 20
9.41739
 10
7.415256
 20
9.41739
  0
LWPOLYLINE
  5
640
100
AcDbEntity
  8
R-DOOR-DETL
100
AcDbPolyline
 90
        4
 70
     1
 43
0.0
 10
7.155413
 20
9.35568
 10
7.155413
 20
8.60568
 10
7.205413
 20
8.60568
 10
7.205413
 20
9.35568
  0
LWPOLYLINE
  5
641
100
AcDbEntity
  8
R-DOOR-DETL
100
AcDbPolyline
 90
        4
 70
     1
 43
0.0
 10
7.480997
 20
9.46739
 10
7.730997
 20
9.46739
 10
7.730997
 20
9.41739
 10
7.480997
 20
9.41739
  0
LWPOLYLINE
  5
642
100
AcDbEntity
  8
R-DOOR-DETL
100
AcDbPolyline
 90
       29
 70
     1
 43
0.0
 10
7.597704
 20
9.89439
 10
7.597704
 20
10.00939
 42
-0.414214
 10
7.612704
 20
10.02439
 10
7.764704
 20
10.02439
 42
-0.414214
 10
7.858704
 20
9.93039
 10
7.858704
 20
9.675474
 42
0.136094
 10
7.862989
 20
9.660023
 10
8.141081
 20
9.197199
 42
-0.414214
 10
8.130818
 20
9.156033
 10
8.070816
 20
9.11998
 42
-0.136094
 10
8.055365
 20
9.115695
 10
7.939118
 20
9.115695
 42
0.400921
 10
7.909149
 20
9.087063
 10
7.886758
 20
8.596333
 42
-0.400921
 10
7.846799
 20
8.558156
 10
7.74084
 20
8.558156
 42
-0.843039
 10
7.734278
 20
8.596401
 42
0.317837
 10
7.74084
 20
8.60568
 10
7.74084
 20
9.457548
 42
0.414214
 10
7.730997
 20
9.46739
 10
7.498704
 20
9.46739
 42
-0.414214
 10
7.483704
 20
9.48239
 10
7.483704
 20
9.59739
 42
-0.414214
 10
7.498704
 20
9.61239
 10
7.588704
 20
9.61239
 42
0.414214
 10
7.713704
 20
9.73739
 10
7.713704
 20
9.86439
 42
0.414214
 10
7.698704
 20
9.87939
 10
7.612704
 20
9.87939
 42
-0.414214
  0
LWPOLYLINE
  5
643
100
AcDbEntity
  8
R-DOOR-DETL
100
AcDbPolyline
 90
       29
 70
     1
 43
0.0
 10
7.298549
 20
9.89439
 10
7.298549
 20
10.00939
 42
0.414214
 10
7.283549
 20
10.02439
 10
7.131549
 20
10.02439
 42
0.414214
 10
7.037549
 20
9.93039
 10
7.037549
 20
9.675474
 42
-0.136094
 10
7.033264
 20
9.660023
 10
6.755171
 20
9.197199
 42
0.414214
 10
6.765435
 20
9.156033
 10
6.825437
 20
9.11998
 42
0.136094
 10
6.840888
 20
9.115695
 10
6.957135
 20
9.115695
 42
-0.400921
 10
6.987104
 20
9.087063
 10
7.009495
 20
8.596333
 42
0.400921
 10
7.049454
 20
8.558156
 10
7.155413
 20
8.558156
 42
0.843039
 10
7.161975
 20
8.596401
 42
-0.317837
 10
7.155413
 20
8.60568
 10
7.155413
 20
9.457548
 42
-0.414214
 10
7.165256
 20
9.46739
 10
7.397549
 20
9.46739
 42
0.414214
 10
7.412549
 20
9.48239
 10
7.412549
 20
9.59739
 42
0.414214
 10
7.397549
 20
9.61239
 10
7.307549
 20
9.61239
 42
-0.414214
 10
7.182549
 20
9.73739
 10
7.182549
 20
9.86439
 42
-0.414214
 10
7.197549
 20
9.87939
 10
7.283549
 20
9.87939
 42
0.414214
  0
INSERT
  5
861
100
AcDbEntity
  8
0
100
AcDbBlockReference
  2
A$C74654F65
 10
0.134553
 20
0.269288
 30
0.0
  0
LINE
  5
90D
100
AcDbEntity
  8
GREEN
  6
CONTINUOUS
100
AcDbLine
 39
1.0
 10
13.591337
 20
18.188452
 30
0.0
 11
12.705826
 21
18.699702
 31
0.0
  0
ARC
  5
90E
100
AcDbEntity
  8
GREEN
  6
CONTINUOUS
100
AcDbCircle
 39
1.0
 10
12.746581
 20
18.766068
 30
0.0
 40
0.077881
100
AcDbArc
 50
184.523413
 51
238.446514
  0
LINE
  5
90F
100
AcDbEntity
  8
GREEN
  6
CONTINUOUS
100
AcDbLine
 39
1.0
 10
12.668942
 20
18.759926
 30
0.0
 11
12.669026
 21
19.08376
 31
0.0
  0
ARC
  5
910
100
AcDbEntity
  8
GREEN
  6
CONTINUOUS
100
AcDbCircle
 39
1.0
 10
12.672621
 20
19.0849
 30
0.0
 40
0.003771
100
AcDbArc
 50
12.423788
 51
197.604591
  0
LINE
  5
911
100
AcDbEntity
  8
GREEN
  6
CONTINUOUS
100
AcDbLine
 39
1.0
 10
12.676303
 20
19.085712
 30
0.0
 11
12.701567
 21
19.062305
 31
0.0
  0
ARC
  5
912
100
AcDbEntity
  8
GREEN
  6
CONTINUOUS
100
AcDbCircle
 39
1.0
 10
12.70438
 20
19.067177
 30
0.0
 40
0.005625
100
AcDbArc
 50
240.0
 51
60.0
  0
LINE
  5
913
100
AcDbEntity
  8
GREEN
  6
CONTINUOUS
100
AcDbLine
 39
1.0
 10
12.707192
 20
19.072048
 30
0.0
 11
12.700156
 21
19.085428
 31
0.0
  0
LINE
  5
914
100
AcDbEntity
  8
GREEN
  6
CONTINUOUS
100
AcDbLine
 39
1.0
 10
12.700156
 20
19.085428
 30
0.0
 11
12.704971
 21
19.095511
 31
0.0
  0
LINE
  5
915
100
AcDbEntity
  8
GREEN
  6
CONTINUOUS
100
AcDbLine
 39
1.0
 10
12.704971
 20
19.095511
 30
0.0
 11
12.712264
 21
19.094873
 31
0.0
  0
ARC
  5
916
100
AcDbEntity
  8
GREEN
  6
CONTINUOUS
100
AcDbCircle
 39
1.0
 10
12.7127
 20
19.099854
 30
0.0
 40
0.005
100
AcDbArc
 50
265.0
 51
60.0
  0
LINE
  5
917
100
AcDbEntity
  8
GREEN
  6
CONTINUOUS
100
AcDbLine
 39
1.0
 10
12.7152
 20
19.104184
 30
0.0
 11
12.652692
 21
19.141176
 31
0.0
  0
ARC
  5
918
100
AcDbEntity
  8
GREEN
  6
CONTINUOUS
100
AcDbCircle
 39
1.0
 10
12.652692
 20
19.137426
 30
0.0
 40
0.00375
100
AcDbArc
 50
90.0
 51
180.0
  0
LINE
  5
919
100
AcDbEntity
  8
GREEN
  6
CONTINUOUS
100
AcDbLine
 39
1.0
 10
12.648942
 20
19.137426
 30
0.0
 11
12.648942
 21
18.703676
 31
0.0
  0
LINE
  5
91A
100
AcDbEntity
  8
GREEN
  6
CONTINUOUS
100
AcDbLine
 39
1.0
 10
12.648942
 20
18.703676
 30
0.0
 11
13.623221
 21
18.141176
 31
0.0
  0
LINE
  5
91B
100
AcDbEntity
  8
GREEN
  6
CONTINUOUS
100
AcDbLine
 39
1.0
 10
13.623221
 20
18.141176
 30
0.0
 11
13.623221
 21
18.574926
 31
0.0
  0
ARC
  5
91C
100
AcDbEntity
  8
GREEN
  6
CONTINUOUS
100
AcDbCircle
 39
1.0
 10
13.612601
 20
18.572081
 30
0.0
 40
0.010994
100
AcDbArc
 50
15.0
 51
45.0
  0
LINE
  5
91D
100
AcDbEntity
  8
GREEN
  6
CONTINUOUS
100
AcDbLine
 39
1.0
 10
13.620375
 20
18.579855
 30
0.0
 11
13.557295
 21
18.616275
 31
0.0
  0
ARC
  5
91E
100
AcDbEntity
  8
GREEN
  6
CONTINUOUS
100
AcDbCircle
 39
1.0
 10
13.557295
 20
18.611275
 30
0.0
 40
0.005
100
AcDbArc
 50
90.0
 51
245.0
  0
LINE
  5
91F
100
AcDbEntity
  8
GREEN
  6
CONTINUOUS
100
AcDbLine
 39
1.0
 10
13.555182
 20
18.606743
 30
0.0
 11
13.561817
 21
18.603649
 31
0.0
  0
LINE
  5
920
100
AcDbEntity
  8
GREEN
  6
CONTINUOUS
100
AcDbLine
 39
1.0
 10
13.561817
 20
18.603649
 30
0.0
 11
13.53888
 21
18.592973
 31
0.0
  0
LINE
  5
921
100
AcDbEntity
  8
GREEN
  6
CONTINUOUS
100
AcDbLine
 39
1.0
 10
13.53888
 20
18.592973
 30
0.0
 11
13.530755
 21
18.592973
 31
0.0
  0
ARC
  5
922
100
AcDbEntity
  8
GREEN
  6
CONTINUOUS
100
AcDbCircle
 39
1.0
 10
13.530755
 20
18.587348
 30
0.0
 40
0.005625
100
AcDbArc
 50
90.0
 51
270.0
  0
LINE
  5
923
100
AcDbEntity
  8
GREEN
  6
CONTINUOUS
100
AcDbLine
 39
1.0
 10
13.530755
 20
18.581723
 30
0.0
 11
13.571972
 21
18.569455
 31
0.0
  0
ARC
  5
924
100
AcDbEntity
  8
GREEN
  6
CONTINUOUS
100
AcDbCircle
 39
1.0
 10
13.576011
 20
18.541044
 30
0.0
 40
0.028697
100
AcDbArc
 50
341.47451
 51
98.091202
  0
LINE
  5
925
100
AcDbEntity
  8
GREEN
  6
CONTINUOUS
100
AcDbLine
 39
1.0
 10
13.603221
 20
18.531926
 30
0.0
 11
13.603221
 21
18.197426
 31
0.0
  0
ARC
  5
926
100
AcDbEntity
  8
GREEN
  6
CONTINUOUS
100
AcDbCircle
 39
1.0
 10
13.594056
 20
18.197207
 30
0.0
 40
0.009167
100
AcDbArc
 50
252.745313
 51
1.373158
  0
HATCH
  5
927
100
AcDbEntity
  8
2
  6
CONTINUOUS
 62
     9
100
AcDbHatch
 10
0.0
 20
0.0
 30
0.0
210
0.0
220
0.0
230
1.0
  2
SOLID
 70
     1
 71
     1
 91
        2
 92
        7
 72
     1
 73
     1
 93
        5
 10
14.71898401955074
 20
19.07845362730835
 42
0.0
 10
14.03223995543957
 20
18.68196175702939
 42
0.0
 10
14.03223995543957
 20
18.22260758265239
 42
-0.1222318301882052
 10
14.03035443730945
 20
18.21500994087286
 42
0.0
 10
14.69282172047578
 20
18.59748560513827
 42
0.1036486555257608
 97
        5
330
92C
330
989
330
983
330
928
330
934
 92
        7
 72
     1
 73
     1
 93
        4
 10
14.02141463789227
 20
18.32033954706175
 42
0.0
 10
13.92863925027296
 20
18.26677565204557
 42
0.0
 10
14.01016463789227
 20
18.21970694755778
 42
0.5773502691896213
 10
14.02141463789227
 20
18.22620213808616
 42
0.0
 97
        4
330
97D
330
985
330
981
330
98A
 75
     0
 76
     1
 47
0.022773
 98
        2
 10
14.369581
 20
18.666082
 10
13.987871
 20
18.26187
  0
LWPOLYLINE
  5
928
102
{ACAD_REACTORS
330
927
102
}
100
AcDbEntity
  8
1
  6
CONTINUOUS
 62
     5
100
AcDbPolyline
 90
        2
 70
     0
 43
0.005
 10
14.023843
 20
18.211251
 10
14.691375
 20
18.59665
  0
LINE
  5
929
100
AcDbEntity
  8
1
  6
CONTINUOUS
 62
     5
100
AcDbLine
 10
14.024115
 20
18.208535
 30
0.0
 11
14.691647
 21
18.593934
 31
0.0
  0
LINE
  5
92A
100
AcDbEntity
  8
2
  6
CONTINUOUS
 62
     4
100
AcDbLine
 10
13.65171
 20
18.483273
 30
0.0
 11
14.715873
 21
19.097667
 31
0.0
  0
LINE
  5
92B
100
AcDbEntity
  8
2
  6
CONTINUOUS
 62
     4
100
AcDbLine
 10
13.64305
 20
18.488273
 30
0.0
 11
14.714288
 21
19.106752
 31
0.0
  0
LINE
  5
92C
102
{ACAD_REACTORS
330
927
102
}
100
AcDbEntity
  8
1
  6
CONTINUOUS
 62
     5
100
AcDbLine
 10
14.03224
 20
18.681962
 30
0.0
 11
14.718722
 21
19.078303
 31
0.0
  0
LINE
  5
92D
100
AcDbEntity
  8
1
  6
CONTINUOUS
 62
     5
100
AcDbLine
 10
14.021415
 20
18.688212
 30
0.0
 11
14.716908
 21
19.089755
 31
0.0
  0
LINE
  5
92E
100
AcDbEntity
  8
1
  6
CONTINUOUS
100
AcDbLine
 10
13.843675
 20
18.848947
 30
0.0
 11
14.655591
 21
19.317707
 31
0.0
  0
LINE
  5
92F
100
AcDbEntity
  8
1
  6
CONTINUOUS
100
AcDbLine
 10
13.843675
 20
18.861447
 30
0.0
 11
14.651647
 21
19.32793
 31
0.0
  0
LINE
  5
930
100
AcDbEntity
  8
GREEN
100
AcDbLine
 10
13.623221
 20
18.574926
 30
0.0
 11
14.695294
 21
19.193888
 31
0.0
  0
LINE
  5
931
100
AcDbEntity
  8
GREEN
100
AcDbLine
 10
13.554869
 20
18.615647
 30
0.0
 11
14.675325
 21
19.262542
 31
0.0
  0
MTEXT
  5
932
100
AcDbEntity
  8
2
  6
CONTINUOUS
 62
     9
100
AcDbMText
 10
12.627037
 20
17.518314
 30
0.0
 40
0.3855
 41
2.7245
 71
     1
 72
     5
  1
\fArial|b1|i0|c0|p34;\C7;C L A D
  7
ROMANS
  0
HATCH
  5
933
100
AcDbEntity
  8
2
  6
CONTINUOUS
 62
     9
100
AcDbHatch
 10
0.0
 20
0.0
 30
0.0
210
0.0
220
0.0
230
1.0
  2
SOLID
 70
     1
 71
     0
 91
        1
 92
        7
 72
     1
 73
     1
 93
        8
 10
13.88503429843671
 20
20.02830509775103
 42
0.0
 10
13.88331419937661
 20
20.02731199809565
 42
0.0
 10
13.88343919937661
 20
20.02709549174471
 42
0.0
 10
13.88356419937661
 20
20.02687898539376
 42
0.0
 10
13.88368919937661
 20
20.02666247904281
 42
0.0
 10
12.85457574030897
 20
19.43250354642345
 42
0.0
 10
13.84367482764216
 20
18.86144692209642
 42
0.0
 10
14.65190890788837
 20
19.3280810858948
 42
0.2330962772361932
 97
        0
 75
     0
 76
     1
 47
0.017346
 98
        1
 10
13.77782
 20
19.506492
  0
LWPOLYLINE
  5
934
102
{ACAD_REACTORS
330
927
102
}
100
AcDbEntity
  8
1
  6
CONTINUOUS
 62
     5
100
AcDbPolyline
 90
        2
 70
     0
 43
0.0125
 10
13.70328
 20
20.065696
 42
70374.114908
 10
13.703346
 20
20.065688
 42
70374.114908
  0
HATCH
  5
935
100
AcDbEntity
  8
1
  6
CONTINUOUS
 62
     5
100
AcDbHatch
 10
0.0
 20
0.0
 30
0.0
210
0.0
220
0.0
230
1.0
  2
SOLID
 70
     1
 71
     0
 91
        7
 92
        7
 72
     1
 73
     1
 93
        4
 10
13.71269724523689
 20
20.06429997005363
 42
0.003817909443379
 10
13.69490294438935
 20
20.06652642566926
 42
0.0
 10
12.66450327368996
 20
19.47162489841806
 42
0.0
 10
12.67532859123726
 20
19.46537489841806
 42
0.0
 97
        0
 92
        7
 72
     0
 73
     1
 93
        4
 10
12.67532859123726
 20
19.46537489841806
 10
12.66450327368996
 20
19.47162489841806
 10
12.66450327368996
 20
19.14799529983062
 10
12.67532859123726
 20
19.15424529983061
 97
        0
 92
        7
 72
     0
 73
     1
 93
        4
 10
12.85207574030897
 20
19.43394692209642
 10
12.85207574030897
 20
19.42144692209642
 10
13.84367482764216
 20
18.85519692209642
 10
13.84367482764216
 20
18.86144692209642
 97
        0
 92
        7
 72
     1
 73
     1
 93
        4
 10
14.65559054739449
 20
19.31770668145472
 42
0.002332807343841
 10
14.65164738766505
 20
19.32793009712347
 42
0.0
 10
13.84367482764216
 20
18.86144692209642
 42
0.0
 10
13.84367482764216
 20
18.84894692209642
 42
0.0
 97
        0
 92
        7
 72
     1
 73
     1
 93
        4
 10
14.71872249932721
 20
19.0783026385369
 42
0.0024685623280776
 10
14.71690775196856
 20
19.08975489366087
 42
0.0
 10
14.02141463789227
 20
18.68821175702939
 42
0.0
 10
14.03223995543958
 20
18.68196175702939
 42
0.0
 97
        0
 92
        7
 72
     1
 73
     1
 93
        8
 10
14.03223995543958
 20
18.68196175702939
 42
0.0
 10
14.02141463789227
 20
18.68821175702939
 42
0.0
 10
14.02141463789227
 20
18.22620213808616
 42
-0.5773502691896262
 10
14.01016463789227
 20
18.21970694755778
 42
0.0
 10
13.92615184347598
 20
18.2682117570294
 42
0.0
 10
13.92615184347598
 20
18.2557117570294
 42
0.0
 10
14.00786495543957
 20
18.20853466984089
 42
0.577350269189633
 10
14.03223995543957
 20
18.22260758265239
 42
0.0
 97
        0
 92
        7
 72
     0
 73
     1
 93
        3
 10
12.85207574030898
 20
19.42144692209641
 10
13.84367482764216
 20
18.84894692209642
 10
13.84367482764216
 20
18.85519692209642
 97
        0
 75
     0
 76
     1
 47
0.006507
 98
        7
 10
12.687871
 20
19.480176
 10
12.669715
 20
19.450991
 10
12.859161
 20
19.42575
 10
13.918471
 20
18.900577
 10
14.125233
 20
18.744399
 10
14.02755
 20
18.651668
 10
13.812648
 20
18.871294
  0
HATCH
  5
936
100
AcDbEntity
  8
1
  6
CONTINUOUS
 62
     5
100
AcDbHatch
 10
0.0
 20
0.0
 30
0.0
210
0.0
220
0.0
230
1.0
  2
SOLID
 70
     1
 71
     0
 91
        7
 92
        7
 72
     1
 73
     1
 93
        4
 10
13.71269724523689
 20
20.06429997005363
 42
0.003817909443379
 10
13.69490294438935
 20
20.06652642566926
 42
0.0
 10
12.66450327368996
 20
19.47162489841806
 42
0.0
 10
12.67532859123726
 20
19.46537489841806
 42
0.0
 97
        0
 92
        7
 72
     0
 73
     1
 93
        4
 10
12.67532859123726
 20
19.46537489841806
 10
12.66450327368996
 20
19.47162489841806
 10
12.66450327368996
 20
19.14799529983062
 10
12.67532859123726
 20
19.15424529983062
 97
        0
 92
        7
 72
     0
 73
     1
 93
        4
 10
12.85207574030897
 20
19.43394692209642
 10
12.85207574030897
 20
19.42144692209642
 10
13.84367482764216
 20
18.85519692209642
 10
13.84367482764216
 20
18.86144692209642
 97
        0
 92
        7
 72
     1
 73
     1
 93
        4
 10
14.6555905473945
 20
19.31770668145472
 42
0.002332807343841
 10
14.65164738766505
 20
19.32793009712347
 42
0.0
 10
13.84367482764216
 20
18.86144692209642
 42
0.0
 10
13.84367482764216
 20
18.84894692209642
 42
0.0
 97
        0
 92
        7
 72
     1
 73
     1
 93
        4
 10
14.71872249932721
 20
19.0783026385369
 42
0.0024685623280776
 10
14.71690775196856
 20
19.08975489366087
 42
0.0
 10
14.02141463789227
 20
18.68821175702939
 42
0.0
 10
14.03223995543958
 20
18.68196175702939
 42
0.0
 97
        0
 92
        7
 72
     1
 73
     1
 93
        8
 10
14.03223995543958
 20
18.68196175702939
 42
0.0
 10
14.02141463789227
 20
18.68821175702939
 42
0.0
 10
14.02141463789227
 20
18.22620213808616
 42
-0.5773502691896262
 10
14.01016463789227
 20
18.21970694755778
 42
0.0
 10
13.92615184347598
 20
18.2682117570294
 42
0.0
 10
13.92615184347598
 20
18.2557117570294
 42
0.0
 10
14.00786495543957
 20
18.20853466984089
 42
0.577350269189633
 10
14.03223995543957
 20
18.22260758265239
 42
0.0
 97
        0
 92
        7
 72
     0
 73
     1
 93
        3
 10
12.85207574030898
 20
19.42144692209641
 10
13.84367482764216
 20
18.84894692209642
 10
13.84367482764216
 20
18.85519692209642
 97
        0
 75
     0
 76
     1
 47
0.006507
 98
        7
 10
12.687871
 20
19.480176
 10
12.669715
 20
19.450991
 10
12.859161
 20
19.42575
 10
13.918471
 20
18.900577
 10
14.125233
 20
18.744399
 10
14.02755
 20
18.651668
 10
13.812648
 20
18.871294
  0
HATCH
  5
937
100
AcDbEntity
  8
2
  6
CONTINUOUS
 62
     9
100
AcDbHatch
 10
0.0
 20
0.0
 30
0.0
210
0.0
220
0.0
230
1.0
  2
SOLID
 70
     1
 71
     0
 91
        1
 92
        7
 72
     1
 73
     1
 93
        7
 10
12.85207574030897
 20
19.42144692209642
 42
0.0
 10
12.85207574030897
 20
19.43394692209642
 42
0.0
 10
13.88270071959987
 20
20.02897853132358
 42
0.0369683020279065
 10
13.71295876546033
 20
20.06445095882503
 42
0.0
 10
12.67532859123726
 20
19.46537489841806
 42
0.0
 10
12.67532859123726
 20
19.15424529983061
 42
0.0
 10
12.99510555858772
 20
19.33886861801104
 42
0.0
 97
        0
 75
     0
 76
     1
 47
0.022773
 98
        1
 10
12.82565
 20
19.394802
  0
LWPOLYLINE
  5
938
100
AcDbEntity
  8
1
  6
CONTINUOUS
 62
     5
100
AcDbPolyline
 90
        2
 70
     0
 43
0.005
 10
13.883668
 20
20.026649
 10
12.853304
 20
19.431768
  0
LINE
  5
939
100
AcDbEntity
  8
1
  6
CONTINUOUS
 62
     5
100
AcDbLine
 10
12.853326
 20
19.431782
 30
0.0
 11
13.883689
 21
20.026662
 31
0.0
  0
LINE
  5
93A
100
AcDbEntity
  8
1
  6
CONTINUOUS
 62
     5
100
AcDbLine
 10
12.675329
 20
19.465375
 30
0.0
 11
13.712697
 21
20.0643
 31
0.0
  0
LINE
  5
93B
100
AcDbEntity
  8
1
  6
CONTINUOUS
 62
     5
100
AcDbLine
 10
12.664503
 20
19.471625
 30
0.0
 11
13.694903
 21
20.066526
 31
0.0
  0
LINE
  5
93C
100
AcDbEntity
  8
1
  6
CONTINUOUS
 62
     5
100
AcDbLine
 10
13.882439
 20
20.028828
 30
0.0
 11
12.852076
 21
19.433947
 31
0.0
  0
LINE
  5
93D
100
AcDbEntity
  8
1
  6
CONTINUOUS
100
AcDbLine
 10
12.675329
 20
19.465375
 30
0.0
 11
13.712697
 21
20.0643
 31
0.0
  0
LINE
  5
93E
100
AcDbEntity
  8
1
  6
CONTINUOUS
 62
     5
100
AcDbLine
 10
12.664503
 20
19.471625
 30
0.0
 11
13.694903
 21
20.066526
 31
0.0
  0
LINE
  5
93F
100
AcDbEntity
  8
2
  6
CONTINUOUS
 62
     4
100
AcDbLine
 10
13.591446
 20
18.994873
 30
0.0
 11
13.267808
 21
18.808021
 31
0.0
  0
LINE
  5
940
100
AcDbEntity
  8
2
  6
CONTINUOUS
 62
     4
100
AcDbLine
 10
13.267808
 20
18.803021
 30
0.0
 11
13.484314
 21
18.678021
 31
0.0
  0
LINE
  5
941
100
AcDbEntity
  8
2
  6
CONTINUOUS
 62
     4
100
AcDbLine
 10
13.267808
 20
18.808021
 30
0.0
 11
13.484314
 21
18.683021
 31
0.0
  0
HATCH
  5
942
100
AcDbEntity
  8
2
  6
CONTINUOUS
 62
     9
100
AcDbHatch
 10
0.0
 20
0.0
 30
0.0
210
0.0
220
0.0
230
1.0
  2
SOLID
 70
     1
 71
     0
 91
        2
 92
       23
 72
     1
 73
     1
 93
       20
 10
13.53175820820036
 20
18.60785296942712
 42
0.0
 10
13.52869312883739
 20
18.60254409624122
 42
0.6681786379192962
 10
13.53572340664293
 20
18.59338205982692
 42
0.0
 10
13.55111037444074
 20
18.5975049854223
 42
0.6681786379192695
 10
13.55231627921523
 20
18.60666474157267
 42
0.0
 10
13.54841962022349
 20
18.6089144786905
 42
-0.6681786379192408
 10
13.54902257261073
 20
18.61349435676568
 42
0.0
 10
13.55564554129053
 20
18.61526897587493
 42
0.6681786379193185
 10
13.55594701748415
 20
18.61755891491252
 42
0.0
 10
13.36355884569718
 20
18.72863427768263
 42
0.0
 10
12.71823938773095
 20
19.10120964045274
 42
0.668178637919208
 10
12.71640698044809
 20
19.09980358489163
 42
0.0
 10
12.71818159955734
 20
19.09318061621183
 42
-0.6681786379193225
 10
12.71451678499161
 20
19.09036850508961
 42
0.0
 10
12.71062012599987
 20
19.09261824220743
 42
0.6681786379193126
 10
12.70329049686843
 20
19.086994019963
 42
0.0
 10
12.70741342246381
 20
19.07160705216519
 42
0.6681786379193007
 10
12.71886311765177
 20
19.07009967119708
 42
0.0
 10
12.72192819701474
 20
19.07540854438298
 42
0.0
 10
12.82178575412448
 20
19.01775575690504
 42
0.0
 97
        0
 92
        7
 72
     1
 73
     1
 93
       37
 10
12.65269236908346
 20
19.14117627087668
 42
0.4142135623731299
 10
12.64894236908346
 20
19.13742627087668
 42
0.0
 10
12.64894236908346
 20
18.70367627087668
 42
0.0
 10
13.62322094834095
 20
18.14117627087668
 42
0.0
 10
13.62322094834095
 20
18.57492627087668
 42
0.1316524975873667
 10
13.62037537692181
 20
18.57985494515119
 42
0.0
 10
13.55729476145304
 20
18.61627455547273
 42
0.0376464264871547
 10
13.55654502664821
 20
18.61621802568326
 42
-0.2823673447488831
 10
13.55564554129053
 20
18.61526897587493
 42
0.0
 10
13.55369715494261
 20
18.61474690732646
 42
0.5149511874561723
 10
13.55518167014434
 20
18.60674301653754
 42
0.0
 10
13.56181725924556
 20
18.60364879052328
 42
0.0
 10
13.55431784671261
 20
18.60015840453023
 42
-0.2180320882791709
 10
13.55111037444074
 20
18.5975049854223
 42
0.0
 10
13.5452331211097
 20
18.59593018013854
 42
0.0
 10
13.53887987772606
 20
18.59297324562943
 42
0.0
 10
13.53075487772606
 20
18.59297324562943
 42
1.0
 10
13.53075487772606
 20
18.58172324562943
 42
0.0
 10
13.57197234412119
 20
18.56945483833748
 42
-0.5578319223640622
 10
13.60322094834095
 20
18.53192627087668
 42
0.0
 10
13.60322094834095
 20
18.19742627087668
 42
-0.5129809895031772
 10
13.591337146397
 20
18.18845190597129
 42
0.0
 10
12.70582617102741
 20
18.69970190597129
 42
-0.2397239142270584
 10
12.66894236908346
 20
18.75992627087668
 42
0.0
 10
12.66902637590169
 20
19.08375994960763
 42
-1.046264757040728
 10
12.67630296539323
 20
19.08571163744634
 42
0.0
 10
12.70156705724146
 20
19.06230538432726
 42
0.6309633877406034
 10
12.7099352780321
 20
19.06805688602162
 42
-0.1798205534880095
 10
12.70741342246381
 20
19.07160705216519
 42
0.0
 10
12.7074023863132
 20
19.07164823963999
 42
0.0
 10
12.7001556008357
 20
19.08542764906396
 42
0.0
 10
12.70497075135454
 20
19.09551134836465
 42
0.0
 10
12.7122644530924
 20
19.09487323214745
 42
0.293926452988122
 10
12.71705277624663
 20
19.09739344216014
 42
0.0
 10
12.71640698044809
 20
19.09980358489163
 42
-0.4565659268922137
 10
12.71746550099355
 20
19.1013682101199
 42
0.1814616707363846
 10
12.71529288949653
 20
19.10412949815427
 42
0.0
 97
        0
 75
     0
 76
     1
 47
0.011788
 98
        2
 10
12.838257
 20
19.017717
 10
12.687858
 20
19.106125
  0
LINE
  5
943
100
AcDbEntity
  8
1
  6
CONTINUOUS
100
AcDbLine
 10
12.852076
 20
19.421447
 30
0.0
 11
13.843675
 21
18.855197
 31
0.0
  0
LINE
  5
944
100
AcDbEntity
  8
1
  6
CONTINUOUS
100
AcDbLine
 10
12.852076
 20
19.421447
 30
0.0
 11
13.843675
 21
18.855197
 31
0.0
  0
LINE
  5
945
100
AcDbEntity
  8
2
  6
CONTINUOUS
 62
     4
100
AcDbLine
 10
13.37927
 20
19.117373
 30
0.0
 11
13.051301
 21
18.928021
 31
0.0
  0
LINE
  5
946
100
AcDbEntity
  8
2
  6
CONTINUOUS
 62
     4
100
AcDbLine
 10
13.374939
 20
19.119873
 30
0.0
 11
13.051301
 21
18.933021
 31
0.0
  0
LINE
  5
947
100
AcDbEntity
  8
0
 62
     3
100
AcDbLine
 10
13.531758
 20
18.607853
 30
0.0
 11
12.821786
 21
19.017756
 31
0.0
  0
LINE
  5
948
100
AcDbEntity
  8
0
 62
     3
100
AcDbLine
 10
12.718239
 20
19.10121
 30
0.0
 11
13.363559
 21
18.728634
 31
0.0
  0
LINE
  5
949
100
AcDbEntity
  8
1
  6
CONTINUOUS
 62
     5
100
AcDbLine
 39
0.05
 10
12.852076
 20
19.421447
 30
0.0
 11
13.843675
 21
18.848947
 31
0.0
  0
LINE
  5
94A
100
AcDbEntity
  8
1
  6
CONTINUOUS
 62
     5
100
AcDbLine
 39
0.05
 10
12.852076
 20
19.433947
 30
0.0
 11
13.843675
 21
18.861447
 31
0.0
  0
LINE
  5
94B
100
AcDbEntity
  8
1
  6
CONTINUOUS
100
AcDbLine
 39
0.05
 10
12.852076
 20
19.421447
 30
0.0
 11
13.843675
 21
18.848947
 31
0.0
  0
LINE
  5
94C
100
AcDbEntity
  8
1
  6
CONTINUOUS
100
AcDbLine
 39
0.05
 10
12.852076
 20
19.433947
 30
0.0
 11
13.843675
 21
18.861447
 31
0.0
  0
LINE
  5
94D
100
AcDbEntity
  8
2
  6
CONTINUOUS
 62
     4
100
AcDbLine
 10
13.267808
 20
18.808021
 30
0.0
 11
13.267808
 21
18.803021
 31
0.0
  0
LINE
  5
94E
100
AcDbEntity
  8
1
  6
CONTINUOUS
 62
     5
100
AcDbLine
 39
0.05
 10
12.852076
 20
19.433947
 30
0.0
 11
12.852076
 21
19.421447
 31
0.0
  0
LINE
  5
94F
100
AcDbEntity
  8
1
  6
CONTINUOUS
 62
     5
100
AcDbLine
 39
0.05
 10
12.852076
 20
19.433947
 30
0.0
 11
12.852076
 21
19.421447
 31
0.0
  0
LINE
  5
950
100
AcDbEntity
  8
GREEN
100
AcDbLine
 10
12.652692
 20
19.141176
 30
0.0
 11
12.995367
 21
19.33902
 31
0.0
  0
LINE
  5
951
100
AcDbEntity
  8
GREEN
100
AcDbLine
 10
12.717189
 20
19.102057
 30
0.0
 11
13.061493
 21
19.300842
 31
0.0
  0
LINE
  5
952
100
AcDbEntity
  8
2
  6
CONTINUOUS
 62
     4
100
AcDbLine
 10
12.834795
 20
19.053021
 30
0.0
 11
13.051301
 21
18.928021
 31
0.0
  0
LINE
  5
953
100
AcDbEntity
  8
2
  6
CONTINUOUS
 62
     4
100
AcDbLine
 10
12.834795
 20
19.058021
 30
0.0
 11
13.051301
 21
18.933021
 31
0.0
  0
LINE
  5
954
100
AcDbEntity
  8
2
  6
CONTINUOUS
 62
     4
100
AcDbLine
 10
13.158433
 20
19.244873
 30
0.0
 11
12.834795
 21
19.058021
 31
0.0
  0
LINE
  5
955
100
AcDbEntity
  8
1
  6
CONTINUOUS
 62
     5
100
AcDbLine
 10
12.852076
 20
19.433947
 30
0.0
 11
12.852076
 21
19.421447
 31
0.0
  0
LINE
  5
956
100
AcDbEntity
  8
1
  6
CONTINUOUS
 62
     5
100
AcDbLine
 10
12.852076
 20
19.433947
 30
0.0
 11
12.852076
 21
19.421447
 31
0.0
  0
LINE
  5
957
100
AcDbEntity
  8
1
  6
CONTINUOUS
 62
     5
100
AcDbLine
 10
12.675329
 20
19.154245
 30
0.0
 11
12.675329
 21
19.465375
 31
0.0
  0
LINE
  5
958
100
AcDbEntity
  8
1
  6
CONTINUOUS
 62
     5
100
AcDbLine
 10
12.664503
 20
19.147995
 30
0.0
 11
12.664503
 21
19.471625
 31
0.0
  0
LINE
  5
959
100
AcDbEntity
  8
1
  6
CONTINUOUS
 62
     5
100
AcDbLine
 10
12.675329
 20
19.154245
 30
0.0
 11
12.675329
 21
19.465375
 31
0.0
  0
LINE
  5
95A
100
AcDbEntity
  8
1
  6
CONTINUOUS
 62
     5
100
AcDbLine
 10
12.664503
 20
19.147995
 30
0.0
 11
12.664503
 21
19.471625
 31
0.0
  0
LINE
  5
95B
100
AcDbEntity
  8
1
  6
CONTINUOUS
 62
     5
100
AcDbLine
 10
12.664503
 20
19.471625
 30
0.0
 11
12.675329
 21
19.465375
 31
0.0
  0
LINE
  5
95C
100
AcDbEntity
  8
1
  6
CONTINUOUS
 62
     5
100
AcDbLine
 10
12.664503
 20
19.471625
 30
0.0
 11
12.675329
 21
19.465375
 31
0.0
  0
ARC
  5
95D
100
AcDbEntity
  8
0
 62
     3
100
AcDbCircle
 10
12.70812
 20
19.088288
 30
0.0
 40
0.005
100
AcDbArc
 50
60.0
 51
195.0
  0
LINE
  5
95E
100
AcDbEntity
  8
0
 62
     3
100
AcDbLine
 10
12.71062
 20
19.092618
 30
0.0
 11
12.714517
 21
19.090369
 31
0.0
  0
ARC
  5
95F
100
AcDbEntity
  8
0
 62
     3
100
AcDbCircle
 10
12.715767
 20
19.092534
 30
0.0
 40
0.0025
100
AcDbArc
 50
240.0
 51
15.0
  0
LINE
  5
960
100
AcDbEntity
  8
0
 62
     3
100
AcDbLine
 10
12.718182
 20
19.093181
 30
0.0
 11
12.716407
 21
19.099804
 31
0.0
  0
ARC
  5
961
100
AcDbEntity
  8
0
 62
     3
100
AcDbCircle
 10
12.717614
 20
19.100127
 30
0.0
 40
0.00125
100
AcDbArc
 50
60.0
 51
195.0
  0
LINE
  5
962
100
AcDbEntity
  8
2
  6
CONTINUOUS
 62
     4
100
AcDbLine
 10
12.834795
 20
19.058021
 30
0.0
 11
12.834795
 21
19.053021
 31
0.0
  0
LINE
  5
963
100
AcDbEntity
  8
0
 62
     3
100
AcDbLine
 10
12.721928
 20
19.075409
 30
0.0
 11
12.718863
 21
19.0701
 31
0.0
  0
ARC
  5
964
100
AcDbEntity
  8
0
 62
     3
100
AcDbCircle
 10
12.71345
 20
19.073225
 30
0.0
 40
0.00625
100
AcDbArc
 50
195.0
 51
330.0
  0
LINE
  5
965
100
AcDbEntity
  8
0
 62
     3
100
AcDbLine
 10
12.821786
 20
19.017756
 30
0.0
 11
12.721928
 21
19.075409
 31
0.0
  0
LINE
  5
966
100
AcDbEntity
  8
0
 62
     3
100
AcDbLine
 10
12.707413
 20
19.071607
 30
0.0
 11
12.70329
 21
19.086994
 31
0.0
  0
LINE
  5
967
100
AcDbEntity
  8
2
  6
CONTINUOUS
 62
     4
100
AcDbLine
 10
13.051301
 20
18.933021
 30
0.0
 11
13.051301
 21
18.928021
 31
0.0
  0
LINE
  5
968
100
AcDbEntity
  8
2
  6
CONTINUOUS
 62
     4
100
AcDbLine
 10
13.812282
 20
18.867373
 30
0.0
 11
13.484314
 21
18.678021
 31
0.0
  0
LINE
  5
969
100
AcDbEntity
  8
2
  6
CONTINUOUS
 62
     4
100
AcDbLine
 10
13.807952
 20
18.869873
 30
0.0
 11
13.484314
 21
18.683021
 31
0.0
  0
LINE
  5
96A
100
AcDbEntity
  8
1
  6
CONTINUOUS
100
AcDbLine
 39
0.05
 10
13.843675
 20
18.861447
 30
0.0
 11
13.843675
 21
18.848947
 31
0.0
  0
LINE
  5
96B
100
AcDbEntity
  8
2
  6
CONTINUOUS
 62
     4
100
AcDbLine
 10
13.65171
 20
18.233273
 30
0.0
 11
14.021676
 21
18.446872
 31
0.0
  0
LINE
  5
96C
100
AcDbEntity
  8
GREEN
100
AcDbLine
 10
13.623221
 20
18.141176
 30
0.0
 11
14.021676
 21
18.371224
 31
0.0
  0
LINE
  5
96D
100
AcDbEntity
  8
2
  6
CONTINUOUS
 62
     4
100
AcDbLine
 10
13.484314
 20
18.683021
 30
0.0
 11
13.484314
 21
18.678021
 31
0.0
  0
LINE
  5
96E
100
AcDbEntity
  8
2
  6
CONTINUOUS
 62
     4
100
AcDbLine
 10
13.64305
 20
18.488273
 30
0.0
 11
13.65171
 21
18.483273
 31
0.0
  0
ARC
  5
96F
100
AcDbEntity
  8
0
 62
     3
100
AcDbCircle
 10
13.54967
 20
18.61108
 30
0.0
 40
0.0025
100
AcDbArc
 50
105.0
 51
240.0
  0
LINE
  5
970
100
AcDbEntity
  8
0
 62
     3
100
AcDbLine
 10
13.54842
 20
18.608914
 30
0.0
 11
13.552316
 21
18.606665
 31
0.0
  0
LINE
  5
971
100
AcDbEntity
  8
0
 62
     3
100
AcDbLine
 10
13.55111
 20
18.597505
 30
0.0
 11
13.535723
 21
18.593382
 31
0.0
  0
ARC
  5
972
100
AcDbEntity
  8
0
 62
     3
100
AcDbCircle
 10
13.534106
 20
18.599419
 30
0.0
 40
0.00625
100
AcDbArc
 50
150.0
 51
285.0
  0
LINE
  5
973
100
AcDbEntity
  8
0
 62
     3
100
AcDbLine
 10
13.528693
 20
18.602544
 30
0.0
 11
13.531758
 21
18.607853
 31
0.0
  0
ARC
  5
974
100
AcDbEntity
  8
0
 62
     3
100
AcDbCircle
 10
13.549816
 20
18.602335
 30
0.0
 40
0.005
100
AcDbArc
 50
285.0
 51
60.0
  0
LINE
  5
975
100
AcDbEntity
  8
0
 62
     3
100
AcDbLine
 10
13.555646
 20
18.615269
 30
0.0
 11
13.549023
 21
18.613494
 31
0.0
  0
ARC
  5
976
100
AcDbEntity
  8
0
 62
     3
100
AcDbCircle
 10
13.555322
 20
18.616476
 30
0.0
 40
0.00125
100
AcDbArc
 50
285.0
 51
60.0
  0
LINE
  5
977
100
AcDbEntity
  8
0
 62
     3
100
AcDbLine
 10
13.363559
 20
18.728634
 30
0.0
 11
13.555947
 21
18.617559
 31
0.0
  0
LINE
  5
978
100
AcDbEntity
  8
2
  6
CONTINUOUS
 62
     4
100
AcDbLine
 10
13.64305
 20
18.238273
 30
0.0
 11
13.65171
 21
18.233273
 31
0.0
  0
LINE
  5
979
100
AcDbEntity
  8
2
  6
CONTINUOUS
 62
     4
100
AcDbLine
 10
13.65171
 20
18.483273
 30
0.0
 11
13.65171
 21
18.233273
 31
0.0
  0
LINE
  5
97A
100
AcDbEntity
  8
2
  6
CONTINUOUS
 62
     4
100
AcDbLine
 10
13.64305
 20
18.488273
 30
0.0
 11
13.64305
 21
18.238273
 31
0.0
  0
LINE
  5
97B
100
AcDbEntity
  8
1
  6
CONTINUOUS
 62
     5
100
AcDbLine
 10
13.926152
 20
18.268212
 30
0.0
 11
13.926152
 21
18.255712
 31
0.0
  0
LINE
  5
97C
100
AcDbEntity
  8
1
  6
CONTINUOUS
 62
     5
100
AcDbLine
 10
13.926152
 20
18.268212
 30
0.0
 11
13.926152
 21
18.255712
 31
0.0
  0
LWPOLYLINE
  5
97D
102
{ACAD_REACTORS
330
927
102
}
100
AcDbEntity
  8
1
  6
CONTINUOUS
 62
     5
100
AcDbPolyline
 90
        2
 70
     0
 43
0.005
 10
13.927415
 20
18.266069
 10
14.022678
 20
18.321069
  0
LINE
  5
97E
100
AcDbEntity
  8
1
  6
CONTINUOUS
 62
     5
100
AcDbLine
 10
13.926152
 20
18.268212
 30
0.0
 11
14.021415
 21
18.323212
 31
0.0
  0
LINE
  5
97F
100
AcDbEntity
  8
1
  6
CONTINUOUS
 62
     5
100
AcDbLine
 10
14.021415
 20
18.688212
 30
0.0
 11
14.03224
 21
18.681962
 31
0.0
  0
LINE
  5
980
100
AcDbEntity
  8
1
  6
CONTINUOUS
 62
     5
100
AcDbLine
 10
14.021415
 20
18.688212
 30
0.0
 11
14.03224
 21
18.681962
 31
0.0
  0
ARC
  5
981
102
{ACAD_REACTORS
330
927
102
}
100
AcDbEntity
  8
1
  6
CONTINUOUS
 62
     5
100
AcDbCircle
 10
14.013915
 20
18.226202
 30
0.0
 40
0.0075
100
AcDbArc
 50
240.0
 51
0.0
  0
ARC
  5
982
100
AcDbEntity
  8
1
  6
CONTINUOUS
 62
     5
100
AcDbCircle
 10
14.013915
 20
18.226202
 30
0.0
 40
0.0075
100
AcDbArc
 50
240.0
 51
0.0
  0
ARC
  5
983
102
{ACAD_REACTORS
330
927
102
}
100
AcDbEntity
  8
1
  6
CONTINUOUS
 62
     5
100
AcDbCircle
 10
14.01599
 20
18.222608
 30
0.0
 40
0.01625
100
AcDbArc
 50
240.0
 51
0.0
  0
ARC
  5
984
100
AcDbEntity
  8
1
  6
CONTINUOUS
 62
     5
100
AcDbCircle
 10
14.01599
 20
18.222608
 30
0.0
 40
0.01625
100
AcDbArc
 50
240.0
 51
0.0
  0
LINE
  5
985
102
{ACAD_REACTORS
330
927
102
}
100
AcDbEntity
  8
1
  6
CONTINUOUS
 62
     5
100
AcDbLine
 10
14.010165
 20
18.219707
 30
0.0
 11
13.926152
 21
18.268212
 31
0.0
  0
LINE
  5
986
100
AcDbEntity
  8
1
  6
CONTINUOUS
 62
     5
100
AcDbLine
 10
14.010165
 20
18.219707
 30
0.0
 11
13.926152
 21
18.268212
 31
0.0
  0
LINE
  5
987
100
AcDbEntity
  8
1
  6
CONTINUOUS
 62
     5
100
AcDbLine
 10
14.007865
 20
18.208535
 30
0.0
 11
13.926152
 21
18.255712
 31
0.0
  0
LINE
  5
988
100
AcDbEntity
  8
1
  6
CONTINUOUS
 62
     5
100
AcDbLine
 10
14.007865
 20
18.208535
 30
0.0
 11
13.926152
 21
18.255712
 31
0.0
  0
LINE
  5
989
102
{ACAD_REACTORS
330
927
102
}
100
AcDbEntity
  8
1
  6
CONTINUOUS
 62
     5
100
AcDbLine
 10
14.03224
 20
18.222608
 30
0.0
 11
14.03224
 21
18.681962
 31
0.0
  0
LINE
  5
98A
102
{ACAD_REACTORS
330
927
102
}
100
AcDbEntity
  8
1
  6
CONTINUOUS
 62
     5
100
AcDbLine
 10
14.021415
 20
18.226202
 30
0.0
 11
14.021415
 21
18.688212
 31
0.0
  0
LINE
  5
98B
100
AcDbEntity
  8
1
  6
CONTINUOUS
 62
     5
100
AcDbLine
 10
14.03224
 20
18.222608
 30
0.0
 11
14.03224
 21
18.681962
 31
0.0
  0
LINE
  5
98C
100
AcDbEntity
  8
1
  6
CONTINUOUS
 62
     5
100
AcDbLine
 10
14.021415
 20
18.226202
 30
0.0
 11
14.021415
 21
18.688212
 31
0.0
  0
DIMENSION
  5
9D5
100
AcDbEntity
  8
R-DOOR-ANNO
 62
     7
100
AcDbDimension
  2
*D34
 10
6.443966
 20
6.856726
 30
0.0
 11
4.403966
 21
6.856726
 31
0.0
 70
    32
  3
STANDARD
100
AcDbAlignedDimension
 13
8.451432
 23
8.527076
 33
0.0
 14
6.443966
 24
8.530714
 34
0.0
100
AcDbRotatedDimension
1001
ACAD
1000
DSTYLE
1002
{
1070
   270
1070
     4
1070
     4
1000
mm
1070
   274
1070
     0
1070
   171
1070
     0
1070
   170
1070
     1
1002
}
  0
DIMENSION
  5
9E3
100
AcDbEntity
  8
R-DOOR-ANNO
 62
     7
100
AcDbDimension
  2
*D35
 10
3.396824
 20
9.384471
 30
0.0
 11
3.396824
 21
11.976819
 31
0.0
 70
    32
  3
STANDARD
100
AcDbAlignedDimension
 13
4.449519
 23
14.569167
 33
0.0
 14
4.449519
 24
9.384471
 34
0.0
 50
90.0
100
AcDbRotatedDimension
1001
ACAD
1000
DSTYLE
1002
{
1070
   270
1070
     4
1070
     4
1000
mm
1070
   274
1070
     0
1070
   171
1070
     0
1070
   170
1070
     1
1002
}
  0
LINE
  5
9E4
100
AcDbEntity
  8
R-DOOR-ANNO
 62
     7
100
AcDbLine
 10
4.324519
 20
9.384471
 30
0.0
 11
6.776859
 21
9.384471
 31
0.0
  0
LINE
  5
9E5
100
AcDbEntity
  8
R-DOOR-ANNO
 62
     7
100
AcDbLine
 10
6.776859
 20
9.384471
 30
0.0
 11
7.090749
 21
9.384471
 31
0.0
  0
ENDSEC
  0
SECTION
  2
OBJECTS
  0
DICTIONARY
  5
C
100
AcDbDictionary
  3
ACAD_GROUP
350
D
  3
ACAD_MLINESTYLE
350
1B
  0
DICTIONARY
  5
D
102
{ACAD_REACTORS
330
C
102
}
100
AcDbDictionary
  0
DICTIONARY
  5
1B
102
{ACAD_REACTORS
330
C
102
}
100
AcDbDictionary
  3
STANDARD
350
1C
  0
MLINESTYLE
  5
1C
102
{ACAD_REACTORS
330
1B
102
}
100
AcDbMlineStyle
  2
STANDARD
 70
     0
  3

 62
   256
 51
90.0
 52
90.0
 71
     2
 49
0.5
 62
   256
  6
BYLAYER
 49
-0.5
 62
   256
  6
BYLAYER
  0
ENDSEC
  0
EOF
