  0
SECTION
  2
HEADER
  9
$ACADVER
  1
AC1014
  9
$ACADMAINTVER
 70
     9
  9
$DWGCODEPAGE
  3
ANSI_1252
  9
$INSBASE
 10
0.0
 20
0.0
 30
0.0
  9
$EXTMIN
 10
-0.054933
 20
-0.054933
 30
0.0
  9
$EXTMAX
 10
16.113206
 20
21.429978
 30
1.0
  9
$LIMMIN
 10
0.0
 20
0.0
  9
$LIMMAX
 10
16.058274
 20
21.375045
  9
$ORTHOMODE
 70
     0
  9
$REGENMODE
 70
     1
  9
$FILLMODE
 70
     1
  9
$QTEXTMODE
 70
     0
  9
$MIRRTEXT
 70
     1
  9
$DRAGMODE
 70
     2
  9
$LTSCALE
 40
1.0
  9
$OSMODE
 70
   131
  9
$ATTMODE
 70
     1
  9
$TEXTSIZE
 40
0.2
  9
$TRACEWID
 40
0.05
  9
$TEXTSTYLE
  7
ROMNAS
  9
$CLAYER
  8
0
  9
$CELTYPE
  6
BYLAYER
  9
$CECOLOR
 62
   256
  9
$CELTSCALE
 40
1.0
  9
$DELOBJ
 70
     1
  9
$DISPSILH
 70
     0
  9
$DIMSCALE
 40
2.0
  9
$DIMASZ
 40
0.18
  9
$DIMEXO
 40
0.0625
  9
$DIMDLI
 40
0.38
  9
$DIMRND
 40
0.0
  9
$DIMDLE
 40
0.0
  9
$DIMEXE
 40
0.18
  9
$DIMTP
 40
0.0
  9
$DIMTM
 40
0.0
  9
$DIMTXT
 40
0.18
  9
$DIMCEN
 40
0.09
  9
$DIMTSZ
 40
0.0
  9
$DIMTOL
 70
     0
  9
$DIMLIM
 70
     0
  9
$DIMTIH
 70
     1
  9
$DIMTOH
 70
     1
  9
$DIMSE1
 70
     0
  9
$DIMSE2
 70
     0
  9
$DIMTAD
 70
     0
  9
$DIMZIN
 70
     0
  9
$DIMBLK
  1

  9
$DIMASO
 70
     1
  9
$DIMSHO
 70
     1
  9
$DIMPOST
  1

  9
$DIMAPOST
  1
mm
  9
$DIMALT
 70
     1
  9
$DIMALTD
 70
     0
  9
$DIMALTF
 40
25.4
  9
$DIMLFAC
 40
1.0
  9
$DIMTOFL
 70
     0
  9
$DIMTVP
 40
0.0
  9
$DIMTIX
 70
     0
  9
$DIMSOXD
 70
     0
  9
$DIMSAH
 70
     0
  9
$DIMBLK1
  1

  9
$DIMBLK2
  1

  9
$DIMSTYLE
  2
STANDARD
  9
$DIMCLRD
 70
     0
  9
$DIMCLRE
 70
     0
  9
$DIMCLRT
 70
     0
  9
$DIMTFAC
 40
1.0
  9
$DIMGAP
 40
0.09
  9
$DIMJUST
 70
     0
  9
$DIMSD1
 70
     0
  9
$DIMSD2
 70
     0
  9
$DIMTOLJ
 70
     1
  9
$DIMTZIN
 70
     0
  9
$DIMALTZ
 70
     0
  9
$DIMALTTZ
 70
     0
  9
$DIMFIT
 70
     3
  9
$DIMUPT
 70
     0
  9
$DIMUNIT
 70
     4
  9
$DIMDEC
 70
     4
  9
$DIMTDEC
 70
     4
  9
$DIMALTU
 70
     2
  9
$DIMALTTD
 70
     0
  9
$DIMTXSTY
  7
ROMNAS
  9
$DIMAUNIT
 70
     0
  9
$LUNITS
 70
     2
  9
$LUPREC
 70
     4
  9
$SKETCHINC
 40
0.1
  9
$FILLETRAD
 40
0.5
  9
$AUNITS
 70
     0
  9
$AUPREC
 70
     0
  9
$MENU
  1
.
  9
$ELEVATION
 40
0.0
  9
$PELEVATION
 40
0.0
  9
$THICKNESS
 40
0.0
  9
$LIMCHECK
 70
     0
  9
$BLIPMODE
 70
     0
  9
$CHAMFERA
 40
0.5
  9
$CHAMFERB
 40
0.5
  9
$CHAMFERC
 40
1.0
  9
$CHAMFERD
 40
0.0
  9
$SKPOLY
 70
     0
  9
$TDCREATE
 40
2451961.398497824
  9
$TDUPDATE
 40
2452103.434768403
  9
$TDINDWG
 40
0.0281101736
  9
$TDUSRTIMER
 40
0.0281101736
  9
$USRTIMER
 70
     1
  9
$ANGBASE
 50
0.0
  9
$ANGDIR
 70
     0
  9
$PDMODE
 70
     0
  9
$PDSIZE
 40
0.0
  9
$PLINEWID
 40
0.0
  9
$COORDS
 70
     1
  9
$SPLFRAME
 70
     0
  9
$SPLINETYPE
 70
     6
  9
$SPLINESEGS
 70
     8
  9
$ATTDIA
 70
     0
  9
$ATTREQ
 70
     1
  9
$HANDLING
 70
     1
  9
$HANDSEED
  5
72A
  9
$SURFTAB1
 70
     6
  9
$SURFTAB2
 70
     6
  9
$SURFTYPE
 70
     6
  9
$SURFU
 70
     6
  9
$SURFV
 70
     6
  9
$UCSNAME
  2
SM-TEMP
  9
$UCSORG
 10
0.0
 20
0.0
 30
0.0
  9
$UCSXDIR
 10
1.0
 20
0.0
 30
0.0
  9
$UCSYDIR
 10
0.0
 20
1.0
 30
0.0
  9
$PUCSNAME
  2

  9
$PUCSORG
 10
0.0
 20
0.0
 30
0.0
  9
$PUCSXDIR
 10
1.0
 20
0.0
 30
0.0
  9
$PUCSYDIR
 10
0.0
 20
1.0
 30
0.0
  9
$USERI1
 70
     0
  9
$USERI2
 70
     0
  9
$USERI3
 70
     0
  9
$USERI4
 70
     0
  9
$USERI5
 70
     0
  9
$USERR1
 40
0.0
  9
$USERR2
 40
0.0
  9
$USERR3
 40
0.0
  9
$USERR4
 40
0.0
  9
$USERR5
 40
0.0
  9
$WORLDVIEW
 70
     1
  9
$SHADEDGE
 70
     3
  9
$SHADEDIF
 70
    70
  9
$TILEMODE
 70
     1
  9
$MAXACTVP
 70
    48
  9
$PINSBASE
 10
0.0
 20
0.0
 30
0.0
  9
$PLIMCHECK
 70
     0
  9
$PEXTMIN
 10
1.000000E+20
 20
1.000000E+20
 30
1.000000E+20
  9
$PEXTMAX
 10
-1.000000E+20
 20
-1.000000E+20
 30
-1.000000E+20
  9
$PLIMMIN
 10
0.0
 20
0.0
  9
$PLIMMAX
 10
12.0
 20
9.0
  9
$UNITMODE
 70
     0
  9
$VISRETAIN
 70
     1
  9
$PLINEGEN
 70
     0
  9
$PSLTSCALE
 70
     1
  9
$TREEDEPTH
 70
  3020
  9
$PICKSTYLE
 70
     1
  9
$CMLSTYLE
  2
STANDARD
  9
$CMLJUST
 70
     0
  9
$CMLSCALE
 40
1.0
  9
$PROXYGRAPHICS
 70
     1
  9
$MEASUREMENT
 70
     0
  0
ENDSEC
  0
SECTION
  2
CLASSES
  0
CLASS
  1
HATCH
  2
AcDbHatch
  3
"ACAD_SEDONA"
 90
        0
280
     0
281
     1
  0
CLASS
  1
LWPOLYLINE
  2
AcDbPolyline
  3
"AutoCAD"
 90
        0
280
     0
281
     1
  0
ENDSEC
  0
SECTION
  2
TABLES
  0
TABLE
  2
VPORT
  5
8
100
AcDbSymbolTable
 70
     1
  0
VPORT
  5
722
100
AcDbSymbolTableRecord
100
AcDbViewportTableRecord
  2
*ACTIVE
 70
     0
 10
0.0
 20
0.0
 11
1.0
 21
1.0
 12
8.054754
 22
10.687523
 13
0.0
 23
0.0
 14
0.5
 24
0.5
 15
0.5
 25
0.5
 16
0.0
 26
0.0
 36
1.0
 17
0.0
 27
0.0
 37
0.0
 40
21.719292
 41
1.74735
 42
50.0
 43
0.0
 44
0.0
 50
0.0
 51
0.0
 71
     0
 72
 10000
 73
     1
 74
     1
 75
     0
 76
     0
 77
     0
 78
     0
  0
ENDTAB
  0
TABLE
  2
LTYPE
  5
5
100
AcDbSymbolTable
 70
     2
  0
LTYPE
  5
12
100
AcDbSymbolTableRecord
100
AcDbLinetypeTableRecord
  2
BYBLOCK
 70
     0
  3

 72
    65
 73
     0
 40
0.0
  0
LTYPE
  5
13
100
AcDbSymbolTableRecord
100
AcDbLinetypeTableRecord
  2
BYLAYER
 70
     0
  3

 72
    65
 73
     0
 40
0.0
  0
LTYPE
  5
14
100
AcDbSymbolTableRecord
100
AcDbLinetypeTableRecord
  2
CONTINUOUS
 70
     0
  3
Solid line
 72
    65
 73
     0
 40
0.0
  0
LTYPE
  5
5C4
100
AcDbSymbolTableRecord
100
AcDbLinetypeTableRecord
  2
HIDDEN
 70
     0
  3
Hidden __ __ __ __ __ __ __ __ __ __ __ __ __ _
 72
    65
 73
     2
 40
0.375
 49
0.25
 74
     0
 49
-0.125
 74
     0
  0
ENDTAB
  0
TABLE
  2
LAYER
  5
2
100
AcDbSymbolTable
 70
    11
  0
LAYER
  5
E
100
AcDbSymbolTableRecord
100
AcDbLayerTableRecord
  2
0
 70
     0
 62
     7
  6
CONTINUOUS
  0
LAYER
  5
BD
100
AcDbSymbolTableRecord
100
AcDbLayerTableRecord
  2
DEFPOINTS
 70
     0
 62
     7
  6
CONTINUOUS
  0
LAYER
  5
BE
100
AcDbSymbolTableRecord
100
AcDbLayerTableRecord
  2
DIMN
 70
     0
 62
     4
  6
CONTINUOUS
  0
LAYER
  5
BF
100
AcDbSymbolTableRecord
100
AcDbLayerTableRecord
  2
BORDER
 70
     0
 62
     4
  6
CONTINUOUS
  0
LAYER
  5
C0
100
AcDbSymbolTableRecord
100
AcDbLayerTableRecord
  2
BOARDER
 70
     0
 62
     7
  6
CONTINUOUS
  0
LAYER
  5
C1
100
AcDbSymbolTableRecord
100
AcDbLayerTableRecord
  2
R-DOOR-ANNO
 70
     0
 62
     7
  6
CONTINUOUS
  0
LAYER
  5
C2
100
AcDbSymbolTableRecord
100
AcDbLayerTableRecord
  2
R-DOOR-PATT
 70
     0
 62
     5
  6
CONTINUOUS
  0
LAYER
  5
C3
100
AcDbSymbolTableRecord
100
AcDbLayerTableRecord
  2
R-DOOR-DETL
 70
     0
 62
     3
  6
CONTINUOUS
  0
LAYER
  5
5C5
100
AcDbSymbolTableRecord
100
AcDbLayerTableRecord
  2
1
 70
     0
 62
     1
  6
CONTINUOUS
  0
LAYER
  5
5C6
100
AcDbSymbolTableRecord
100
AcDbLayerTableRecord
  2
2
 70
     0
 62
     2
  6
HIDDEN
  0
LAYER
  5
5C7
100
AcDbSymbolTableRecord
100
AcDbLayerTableRecord
  2
GREEN
 70
     0
 62
     3
  6
CONTINUOUS
  0
ENDTAB
  0
TABLE
  2
STYLE
  5
3
100
AcDbSymbolTable
 70
     3
  0
STYLE
  5
F
100
AcDbSymbolTableRecord
100
AcDbTextStyleTableRecord
  2
STANDARD
 70
     0
 40
0.0
 41
1.0
 50
0.0
 71
     0
 42
0.2
  3
txt
  4

  0
STYLE
  5
22
100
AcDbSymbolTableRecord
100
AcDbTextStyleTableRecord
  2
ROMNAS
 70
     0
 40
0.0
 41
1.0
 50
0.0
 71
     0
 42
0.2
  3
romans.shx
  4

  0
STYLE
  5
C4
100
AcDbSymbolTableRecord
100
AcDbTextStyleTableRecord
  2
ROMANS
 70
     0
 40
0.0
 41
1.0
 50
0.0
 71
     0
 42
0.5
  3
romans
  4

  0
ENDTAB
  0
TABLE
  2
VIEW
  5
6
100
AcDbSymbolTable
 70
     0
  0
ENDTAB
  0
TABLE
  2
UCS
  5
7
100
AcDbSymbolTable
 70
     0
  0
ENDTAB
  0
TABLE
  2
APPID
  5
9
100
AcDbSymbolTable
 70
     1
  0
APPID
  5
10
100
AcDbSymbolTableRecord
100
AcDbRegAppTableRecord
  2
ACAD
 70
     0
  0
ENDTAB
  0
TABLE
  2
DIMSTYLE
  5
A
100
AcDbSymbolTable
 70
     3
  0
DIMSTYLE
105
1D
102
{ACAD_REACTORS
330
290
330
2AA
330
721
102
}
100
AcDbSymbolTableRecord
100
AcDbDimStyleTableRecord
  2
STANDARD
 70
     0
  3

  4

  5

  6

  7

 40
1.0
 41
0.18
 42
0.0625
 43
0.38
 44
0.18
 45
0.0
 46
0.0
 47
0.0
 48
0.0
140
0.18
141
0.09
142
0.0
143
25.4
144
1.0
145
0.0
146
1.0
147
0.09
 71
     0
 72
     0
 73
     1
 74
     1
 75
     0
 76
     0
 77
     0
 78
     0
170
     0
171
     2
172
     0
173
     0
174
     0
175
     0
176
     0
177
     0
178
     0
270
     7
271
     4
272
     4
273
     2
274
     2
340
22
275
     0
280
     0
281
     0
282
     0
283
     1
284
     0
285
     0
286
     0
287
     3
288
     0
  0
DIMSTYLE
105
23
100
AcDbSymbolTableRecord
100
AcDbDimStyleTableRecord
  2
ROMANS
 70
     0
  3

  4

  5

  6

  7

 40
2.0
 41
0.18
 42
0.0625
 43
0.38
 44
0.18
 45
0.0
 46
0.0
 47
0.0
 48
0.0
140
0.18
141
0.0
142
0.0
143
25.4
144
1.0
145
0.0
146
1.0
147
0.09
 71
     0
 72
     0
 73
     1
 74
     1
 75
     0
 76
     0
 77
     0
 78
     0
170
     0
171
     2
172
     0
173
     0
174
     0
175
     0
176
     0
177
     0
178
     0
270
     7
271
     4
272
     4
273
     2
274
     2
340
22
275
     0
280
     0
281
     0
282
     0
283
     1
284
     0
285
     0
286
     0
287
     3
288
     0
  0
DIMSTYLE
105
54F
100
AcDbSymbolTableRecord
100
AcDbDimStyleTableRecord
  2
STANDARD1
 70
     0
  3

  4

  5

  6

  7

 40
0.25
 41
0.1
 42
0.05
 43
0.1
 44
0.1
 45
0.0
 46
0.0
 47
0.024
 48
0.024
140
0.18
141
0.0
142
0.0
143
25.4
144
1.0
145
0.0
146
1.0
147
0.09
 71
     0
 72
     0
 73
     1
 74
     1
 75
     0
 76
     0
 77
     0
 78
     4
170
     0
171
     2
172
     0
173
     0
174
     0
175
     0
176
     0
177
     0
178
     0
270
     2
271
     3
272
     3
273
     2
274
     2
340
C4
275
     0
280
     0
281
     0
282
     0
283
     1
284
     4
285
     0
286
     0
287
     3
288
     0
  0
ENDTAB
  0
TABLE
  2
BLOCK_RECORD
  5
1
100
AcDbSymbolTable
 70
    26
  0
BLOCK_RECORD
  5
18
100
AcDbSymbolTableRecord
100
AcDbBlockTableRecord
  2
*MODEL_SPACE
  0
BLOCK_RECORD
  5
15
100
AcDbSymbolTableRecord
100
AcDbBlockTableRecord
  2
*PAPER_SPACE
  0
BLOCK_RECORD
  5
3D
100
AcDbSymbolTableRecord
100
AcDbBlockTableRecord
  2
A$C2189253D
  0
BLOCK_RECORD
  5
41
100
AcDbSymbolTableRecord
100
AcDbBlockTableRecord
  2
A$C21405640
  0
BLOCK_RECORD
  5
49
100
AcDbSymbolTableRecord
100
AcDbBlockTableRecord
  2
A$C35F20450
  0
BLOCK_RECORD
  5
4D
100
AcDbSymbolTableRecord
100
AcDbBlockTableRecord
  2
_DOTSMALL
  0
BLOCK_RECORD
  5
54
100
AcDbSymbolTableRecord
100
AcDbBlockTableRecord
  2
A$C108A264A
  0
BLOCK_RECORD
  5
58
100
AcDbSymbolTableRecord
100
AcDbBlockTableRecord
  2
A$C262D5DC0
  0
BLOCK_RECORD
  5
5C
100
AcDbSymbolTableRecord
100
AcDbBlockTableRecord
  2
CRLINFO
  0
BLOCK_RECORD
  5
60
100
AcDbSymbolTableRecord
100
AcDbBlockTableRecord
  2
*D7
  0
BLOCK_RECORD
  5
6E
100
AcDbSymbolTableRecord
100
AcDbBlockTableRecord
  2
*D8
  0
BLOCK_RECORD
  5
7C
100
AcDbSymbolTableRecord
100
AcDbBlockTableRecord
  2
*D9
  0
BLOCK_RECORD
  5
89
100
AcDbSymbolTableRecord
100
AcDbBlockTableRecord
  2
*D10
  0
BLOCK_RECORD
  5
96
100
AcDbSymbolTableRecord
100
AcDbBlockTableRecord
  2
*D11
  0
BLOCK_RECORD
  5
A3
100
AcDbSymbolTableRecord
100
AcDbBlockTableRecord
  2
*D12
  0
BLOCK_RECORD
  5
B0
100
AcDbSymbolTableRecord
100
AcDbBlockTableRecord
  2
*D13
  0
BLOCK_RECORD
  5
C5
100
AcDbSymbolTableRecord
100
AcDbBlockTableRecord
  2
A$C795C01F3
  0
BLOCK_RECORD
  5
393
100
AcDbSymbolTableRecord
100
AcDbBlockTableRecord
  2
*D15
  0
BLOCK_RECORD
  5
3AD
100
AcDbSymbolTableRecord
100
AcDbBlockTableRecord
  2
*D16
  0
BLOCK_RECORD
  5
52B
100
AcDbSymbolTableRecord
100
AcDbBlockTableRecord
  2
A$C6BE867F4
  0
BLOCK_RECORD
  5
533
100
AcDbSymbolTableRecord
100
AcDbBlockTableRecord
  2
A$C0E897680
  0
BLOCK_RECORD
  5
537
100
AcDbSymbolTableRecord
100
AcDbBlockTableRecord
  2
A$C60D73A4C
  0
BLOCK_RECORD
  5
53B
100
AcDbSymbolTableRecord
100
AcDbBlockTableRecord
  2
A$C74654F65
  0
BLOCK_RECORD
  5
53F
100
AcDbSymbolTableRecord
100
AcDbBlockTableRecord
  2
A$C5C3203C0
  0
BLOCK_RECORD
  5
550
100
AcDbSymbolTableRecord
100
AcDbBlockTableRecord
  2
A$C216638AD
  0
BLOCK_RECORD
  5
5C8
100
AcDbSymbolTableRecord
100
AcDbBlockTableRecord
  2
A$C71464D1B
  0
BLOCK_RECORD
  5
714
100
AcDbSymbolTableRecord
100
AcDbBlockTableRecord
  2
*D25
  0
ENDTAB
  0
ENDSEC
  0
SECTION
  2
BLOCKS
  0
BLOCK
  5
19
100
AcDbEntity
  8
0
100
AcDbBlockBegin
  2
*MODEL_SPACE
 70
     0
 10
0.0
 20
0.0
 30
0.0
  3
*MODEL_SPACE
  1

  0
ENDBLK
  5
1A
100
AcDbEntity
  8
0
100
AcDbBlockEnd
  0
BLOCK
  5
16
100
AcDbEntity
 67
     1
  8
0
100
AcDbBlockBegin
  2
*PAPER_SPACE
 70
     0
 10
0.0
 20
0.0
 30
0.0
  3
*PAPER_SPACE
  1

  0
ENDBLK
  5
17
100
AcDbEntity
 67
     1
  8
0
100
AcDbBlockEnd
  0
BLOCK
  5
3F
100
AcDbEntity
  8
0
100
AcDbBlockBegin
  2
A$C2189253D
 70
     0
 10
0.0
 20
0.0
 30
0.0
  3
A$C2189253D
  1

  0
HATCH
  5
3E
100
AcDbEntity
  8
BOARDER
  6
CONTINUOUS
 62
     4
100
AcDbHatch
 10
0.0
 20
0.0
 30
0.0
210
0.0
220
0.0
230
1.0
  2
ANSI31
 70
     0
 71
     0
 91
        3
 92
        7
 72
     1
 73
     1
 93
        8
 10
0.1273646403742585
 20
0.2547293417921961
 42
1.0
 10
0.1273646403742585
 20
0.0000000027943585
 42
0.0
 10
0.2547293098731842
 20
0.000000002794359
 42
0.0
 10
0.2547293098731842
 20
0.1198050709874456
 42
0.0
 10
0.1273646403742585
 20
0.1198050709874452
 42
-1.0
 10
0.1273646403742585
 20
0.1349242735991094
 42
0.0
 10
0.2547293098731842
 20
0.1349242735991099
 42
0.0
 10
0.2547293098731842
 20
0.2547293417921961
 42
0.0
 97
        0
 92
        7
 72
     1
 73
     1
 93
       12
 10
0.2729453093314724
 20
0.2547293417921956
 42
0.0
 10
0.2729453093314742
 20
0.0000000027943585
 42
0.0
 10
0.3927503775245586
 20
0.0000000027943585
 42
0.0
 10
0.3927503775245586
 20
0.1273646722932775
 42
-1.0
 10
0.4078695801362234
 20
0.1273646722932775
 42
0.0
 10
0.4078695801362234
 20
0.0000000027943581
 42
0.0
 10
0.5276746483293114
 20
0.0000000027943576
 42
0.0
 10
0.5276746483293114
 20
0.1106172266293384
 42
0.4142135623730797
 10
0.5109272026653731
 20
0.1273646722932775
 42
0.4142135623730875
 10
0.5276746483293114
 20
0.1441121179572162
 42
0.0
 10
0.5276746483293114
 20
0.2379818961282574
 42
0.4142135623731106
 10
0.5109272026653713
 20
0.2547293417921961
 42
0.0
 97
        0
 92
        7
 72
     0
 73
     1
 93
        6
 10
0.5458906477876049
 20
0.2547293417921961
 10
0.5458906477876031
 20
0.0000000027943576
 10
0.8006199867854384
 20
0.0000000027943581
 10
0.8006199867854402
 20
0.127364672293278
 10
0.6732553172865199
 20
0.1273646722932771
 10
0.6732553172865181
 20
0.2547293417921961
 97
        0
 75
     0
 76
     1
 52
0.0
 41
0.040373
 77
     0
 78
     1
 53
45.0
 43
-7.406223
 44
-1.968858
 45
-0.0035684948455219
 46
0.0035684948455219
 79
     0
 47
0.0009
 98
        3
 10
0.137804
 20
0.196439
 10
0.137804
 20
0.196439
 10
0.137804
 20
0.196439
  0
ENDBLK
  5
40
100
AcDbEntity
  8
0
100
AcDbBlockEnd
  0
BLOCK
  5
47
100
AcDbEntity
  8
0
100
AcDbBlockBegin
  2
A$C21405640
 70
     0
 10
0.0
 20
0.0
 30
0.0
  3
A$C21405640
  1

  0
MTEXT
  5
42
100
AcDbEntity
  8
0
100
AcDbMText
 10
0.504549
 20
2.99683
 30
0.0
 40
0.614073
 41
19.242589
 71
     1
 72
     5
  1
\fArial|b0|i1|c0|p34;Phone Orders (800) 421-6144\PFax Orders     (800) 262-3299\PWWW.CRLAURENCE.COM
  0
MTEXT
  5
43
100
AcDbEntity
  8
0
100
AcDbMText
 10
7.702431
 20
6.455969
 30
0.0
 40
0.876824
 41
21.937261
 71
     1
 72
     5
  1
\fArial|b1|i0|c0|p34;DOOR RAIL SYSTEM
  0
LWPOLYLINE
  5
44
100
AcDbEntity
  8
0
100
AcDbPolyline
 90
        2
 70
     0
 43
0.098252
 10
0.440527
 20
5.243578
 10
19.707511
 20
5.243578
  0
MTEXT
  5
45
100
AcDbEntity
  8
0
100
AcDbMText
 10
0.488738
 20
4.418164
 30
0.0
 40
0.776802
 41
19.420041
 71
     1
 72
     5
  1
\fArial|b1|i1|c0|p34;C.R. Laurence Architectural Products
  0
INSERT
  5
46
100
AcDbEntity
  8
0
 62
     7
100
AcDbBlockReference
  2
A$C2189253D
 10
0.460151
 20
5.536767
 30
0.0
 41
8.113806
 42
8.113806
 43
8.113806
  0
ENDBLK
  5
48
100
AcDbEntity
  8
0
100
AcDbBlockEnd
  0
BLOCK
  5
4B
100
AcDbEntity
  8
0
 62
     3
100
AcDbBlockBegin
  2
A$C35F20450
 70
     0
 10
0.0
 20
0.0
 30
0.0
  3
A$C35F20450
  1

  0
INSERT
  5
4A
100
AcDbEntity
  8
DIMN
100
AcDbBlockReference
  2
A$C21405640
 10
0.0
 20
0.0
 30
0.0
 41
0.5
 42
0.5
 43
0.5
  0
ENDBLK
  5
4C
100
AcDbEntity
  8
0
 62
     3
100
AcDbBlockEnd
  0
BLOCK
  5
52
100
AcDbEntity
  8
0
100
AcDbBlockBegin
  2
_DOTSMALL
 70
     0
 10
0.0
 20
0.0
 30
0.0
  3
_DOTSMALL
  1

  0
POLYLINE
  5
4E
100
AcDbEntity
  8
0
  6
BYBLOCK
 62
     0
100
AcDb2dPolyline
 66
     1
 10
0.0
 20
0.0
 30
0.0
 70
     1
 40
0.5
 41
0.5
  0
VERTEX
  5
4F
100
AcDbEntity
  8
0
  6
BYBLOCK
 62
     0
100
AcDbVertex
100
AcDb2dVertex
 10
-0.0625
 20
0.0
 30
0.0
 42
1.0
  0
VERTEX
  5
50
100
AcDbEntity
  8
0
  6
BYBLOCK
 62
     0
100
AcDbVertex
100
AcDb2dVertex
 10
0.0625
 20
0.0
 30
0.0
 42
1.0
  0
SEQEND
  5
51
100
AcDbEntity
  8
0
  6
BYBLOCK
 62
     0
  0
ENDBLK
  5
53
100
AcDbEntity
  8
0
100
AcDbBlockEnd
  0
BLOCK
  5
56
100
AcDbEntity
  8
0
100
AcDbBlockBegin
  2
A$C108A264A
 70
     0
 10
0.0
 20
0.0
 30
0.0
  3
A$C108A264A
  1

  0
LWPOLYLINE
  5
55
100
AcDbEntity
  8
0
 62
     3
100
AcDbPolyline
 90
       82
 70
     0
 43
0.0
 10
0.025676
 20
0.038536
 10
0.045069
 20
0.057929
 42
0.668179
 10
0.037998
 20
0.075
 10
0.02
 20
0.075
 42
-0.668179
 10
0.005858
 20
0.109142
 10
0.050914
 20
0.154198
 42
-0.668179
 10
0.093592
 20
0.136521
 10
0.093592
 20
0.112
 10
0.542814
 20
0.112
 42
0.414214
 10
0.557814
 20
0.127
 10
0.557814
 20
0.133
 42
-0.414214
 10
0.572814
 20
0.148
 10
1.356814
 20
0.148
 42
-0.414214
 10
1.371814
 20
0.133
 10
1.371814
 20
0.127
 42
0.414214
 10
1.386814
 20
0.112
 10
2.516814
 20
0.112
 42
0.414214
 10
2.531814
 20
0.127
 10
2.531814
 20
0.133
 42
-0.414214
 10
2.546814
 20
0.148
 10
3.330814
 20
0.148
 42
-0.414214
 10
3.345814
 20
0.133
 10
3.345814
 20
0.127
 42
0.414214
 10
3.360814
 20
0.112
 10
3.810036
 20
0.112
 10
3.810036
 20
0.136521
 42
-0.668179
 10
3.852714
 20
0.154198
 10
3.89777
 20
0.109142
 42
-0.668179
 10
3.883628
 20
0.075
 10
3.86563
 20
0.075
 42
0.668179
 10
3.858559
 20
0.057929
 10
3.877952
 20
0.038536
 42
-0.668179
 10
3.874417
 20
0.03
 10
2.997814
 20
0.03
 42
0.414214
 10
2.982814
 20
0.015
 10
2.982814
 20
0.015
 42
-0.414214
 10
2.967814
 20
0.0
 10
2.872814
 20
0.0
 42
-0.414214
 10
2.857814
 20
0.015
 10
2.857814
 20
0.026
 42
-0.414214
 10
2.872814
 20
0.041
 10
2.894314
 20
0.041
 42
0.414214
 10
2.909314
 20
0.056
 10
2.909314
 20
0.071
 42
0.414214
 10
2.894314
 20
0.086
 10
2.634314
 20
0.086
 42
0.414214
 10
2.619314
 20
0.071
 10
2.619314
 20
0.056
 42
0.414214
 10
2.634314
 20
0.041
 10
2.655814
 20
0.041
 42
-0.414214
 10
2.670814
 20
0.026
 10
2.670814
 20
0.015
 42
-0.414214
 10
2.655814
 20
0.0
 10
2.567814
 20
0.0
 42
-0.414214
 10
2.552814
 20
0.015
 42
0.414214
 10
2.537814
 20
0.03
 10
1.365814
 20
0.03
 42
0.414214
 10
1.350814
 20
0.015
 42
-0.414214
 10
1.335814
 20
0.0
 10
1.247814
 20
0.0
 42
-0.414214
 10
1.232814
 20
0.015
 10
1.232814
 20
0.026
 42
-0.414214
 10
1.247814
 20
0.041
 10
1.269314
 20
0.041
 42
0.414214
 10
1.284314
 20
0.056
 10
1.284314
 20
0.071
 42
0.414214
 10
1.269314
 20
0.086
 10
1.009314
 20
0.086
 42
0.414214
 10
0.994314
 20
0.071
 10
0.994314
 20
0.056
 42
0.414214
 10
1.009314
 20
0.041
 10
1.030814
 20
0.041
 42
-0.414214
 10
1.045814
 20
0.026
 10
1.045814
 20
0.015
 42
-0.414214
 10
1.030814
 20
0.0
 10
0.935814
 20
0.0
 42
-0.414214
 10
0.920814
 20
0.015
 10
0.920814
 20
0.015
 42
0.414214
 10
0.905814
 20
0.03
 10
0.029211
 20
0.03
 42
-0.668179
 10
0.025676
 20
0.038536
 10
0.045069
 20
0.057929
  0
ENDBLK
  5
57
100
AcDbEntity
  8
0
100
AcDbBlockEnd
  0
BLOCK
  5
5A
100
AcDbEntity
  8
0
100
AcDbBlockBegin
  2
A$C262D5DC0
 70
     0
 10
0.0
 20
0.0
 30
0.0
  3
A$C262D5DC0
  1

  0
LWPOLYLINE
  5
59
100
AcDbEntity
  8
0
 62
     3
100
AcDbPolyline
 90
       27
 70
     0
 43
0.0
 10
4.42
 20
0.187
 42
-0.985813
 10
4.280029
 20
0.185
 10
4.1375
 20
0.185
 42
1.0
 10
4.1375
 20
0.14
 10
4.17
 20
0.14
 10
4.211733
 20
0.050503
 10
4.185191
 20
0.038126
 42
0.802585
 10
4.193643
 20
0.0
 10
4.485
 20
0.0
 42
0.414214
 10
4.5
 20
0.015
 10
4.5
 20
1.75
 10
0.0
 20
1.75
 10
0.0
 20
0.015
 42
0.414214
 10
0.015
 20
0.0
 10
0.306357
 20
0.0
 42
0.802585
 10
0.314809
 20
0.038126
 10
0.288267
 20
0.050503
 10
0.33
 20
0.14
 10
0.3625
 20
0.14
 42
1.0
 10
0.3625
 20
0.185
 10
0.219971
 20
0.185
 42
-0.985813
 10
0.08
 20
0.187
 10
0.08
 20
1.635
 42
-0.414214
 10
0.095
 20
1.65
 10
4.405
 20
1.65
 42
-0.414214
 10
4.42
 20
1.635
 10
4.42
 20
0.185
  0
ENDBLK
  5
5B
100
AcDbEntity
  8
0
100
AcDbBlockEnd
  0
BLOCK
  5
5E
100
AcDbEntity
  8
0
100
AcDbBlockBegin
  2
CRLINFO
 70
     0
 10
0.0
 20
0.0
 30
0.0
  3
CRLINFO
  1

  0
INSERT
  5
5D
100
AcDbEntity
  8
R-DOOR-ANNO
  6
CONTINUOUS
100
AcDbBlockReference
  2
A$C35F20450
 10
0.260404
 20
0.351814
 30
0.0
  0
ENDBLK
  5
5F
100
AcDbEntity
  8
0
100
AcDbBlockEnd
  0
BLOCK
  5
6C
100
AcDbEntity
  8
0
100
AcDbBlockBegin
  2
*D7
 70
     1
 10
0.0
 20
0.0
 30
0.0
  3
*D7
  1

  0
LINE
  5
61
100
AcDbEntity
  8
0
  6
BYBLOCK
 62
     0
100
AcDbLine
 10
-1.684007
 20
-97.63155
 30
0.0
 11
4.255023
 21
-97.63155
 31
0.0
  0
LINE
  5
62
100
AcDbEntity
  8
0
  6
BYBLOCK
 62
     0
100
AcDbLine
 10
0.325001
 20
-97.88155
 30
0.0
 11
4.255023
 21
-97.88155
 31
0.0
  0
LINE
  5
63
100
AcDbEntity
  8
0
  6
BYBLOCK
 62
     0
100
AcDbLine
 10
3.895023
 20
-97.27155
 30
0.0
 11
3.895023
 21
-96.91155
 31
0.0
  0
LINE
  5
64
100
AcDbEntity
  8
0
  6
BYBLOCK
 62
     0
100
AcDbLine
 10
3.895023
 20
-98.24155
 30
0.0
 11
3.895023
 21
-99.045478
 31
0.0
  0
LINE
  5
65
100
AcDbEntity
  8
0
  6
BYBLOCK
 62
     0
100
AcDbLine
 10
3.895023
 20
-99.045478
 30
0.0
 11
3.535023
 21
-99.045478
 31
0.0
  0
SOLID
  5
66
100
AcDbEntity
  8
0
  6
BYBLOCK
 62
     0
100
AcDbTrace
 10
3.835023
 20
-97.27155
 30
0.0
 11
3.955023
 21
-97.27155
 31
0.0
 12
3.895023
 22
-97.63155
 32
0.0
 13
3.895023
 23
-97.63155
 33
0.0
  0
SOLID
  5
67
100
AcDbEntity
  8
0
  6
BYBLOCK
 62
     0
100
AcDbTrace
 10
3.835023
 20
-98.24155
 30
0.0
 11
3.955023
 21
-98.24155
 31
0.0
 12
3.895023
 22
-97.88155
 32
0.0
 13
3.895023
 23
-97.88155
 33
0.0
  0
MTEXT
  5
68
100
AcDbEntity
  8
0
  6
BYBLOCK
 62
     0
100
AcDbMText
 10
2.49788
 20
-99.045478
 30
0.0
 40
0.36
 41
0.0
 71
     5
 72
     1
  1
\A1;1/4\P(6mm)
  7
ROMANS
  0
POINT
  5
69
100
AcDbEntity
  8
DEFPOINTS
  6
BYBLOCK
 62
     0
100
AcDbPoint
 10
-1.809007
 20
-97.63155
 30
0.0
  0
POINT
  5
6A
100
AcDbEntity
  8
DEFPOINTS
  6
BYBLOCK
 62
     0
100
AcDbPoint
 10
0.200001
 20
-97.88155
 30
0.0
  0
POINT
  5
6B
100
AcDbEntity
  8
DEFPOINTS
  6
BYBLOCK
 62
     0
100
AcDbPoint
 10
3.895023
 20
-97.88155
 30
0.0
  0
ENDBLK
  5
6D
100
AcDbEntity
  8
0
100
AcDbBlockEnd
  0
BLOCK
  5
7A
100
AcDbEntity
  8
0
100
AcDbBlockBegin
  2
*D8
 70
     1
 10
0.0
 20
0.0
 30
0.0
  3
*D8
  1

  0
LINE
  5
6F
100
AcDbEntity
  8
0
  6
BYBLOCK
 62
     0
100
AcDbLine
 10
-0.346227
 20
-78.321942
 30
0.0
 11
4.253289
 21
-78.321942
 31
0.0
  0
LINE
  5
70
100
AcDbEntity
  8
0
  6
BYBLOCK
 62
     0
100
AcDbLine
 10
-1.684007
 20
-78.571942
 30
0.0
 11
4.253289
 21
-78.571942
 31
0.0
  0
LINE
  5
71
100
AcDbEntity
  8
0
  6
BYBLOCK
 62
     0
100
AcDbLine
 10
3.893289
 20
-77.961942
 30
0.0
 11
3.893289
 21
-77.601942
 31
0.0
  0
LINE
  5
72
100
AcDbEntity
  8
0
  6
BYBLOCK
 62
     0
100
AcDbLine
 10
3.893289
 20
-78.931942
 30
0.0
 11
3.893289
 21
-79.735869
 31
0.0
  0
LINE
  5
73
100
AcDbEntity
  8
0
  6
BYBLOCK
 62
     0
100
AcDbLine
 10
3.893289
 20
-79.735869
 30
0.0
 11
3.533289
 21
-79.735869
 31
0.0
  0
SOLID
  5
74
100
AcDbEntity
  8
0
  6
BYBLOCK
 62
     0
100
AcDbTrace
 10
3.833289
 20
-77.961942
 30
0.0
 11
3.953289
 21
-77.961942
 31
0.0
 12
3.893289
 22
-78.321942
 32
0.0
 13
3.893289
 23
-78.321942
 33
0.0
  0
SOLID
  5
75
100
AcDbEntity
  8
0
  6
BYBLOCK
 62
     0
100
AcDbTrace
 10
3.833289
 20
-78.931942
 30
0.0
 11
3.953289
 21
-78.931942
 31
0.0
 12
3.893289
 22
-78.571942
 32
0.0
 13
3.893289
 23
-78.571942
 33
0.0
  0
MTEXT
  5
76
100
AcDbEntity
  8
0
  6
BYBLOCK
 62
     0
100
AcDbMText
 10
2.496146
 20
-79.735869
 30
0.0
 40
0.36
 41
0.0
 71
     5
 72
     1
  1
\A1;1/4\P(6mm)
  7
ROMANS
  0
POINT
  5
77
100
AcDbEntity
  8
DEFPOINTS
  6
BYBLOCK
 62
     0
100
AcDbPoint
 10
-0.471227
 20
-78.321942
 30
0.0
  0
POINT
  5
78
100
AcDbEntity
  8
DEFPOINTS
  6
BYBLOCK
 62
     0
100
AcDbPoint
 10
-1.809007
 20
-78.571942
 30
0.0
  0
POINT
  5
79
100
AcDbEntity
  8
DEFPOINTS
  6
BYBLOCK
 62
     0
100
AcDbPoint
 10
3.893289
 20
-78.571942
 30
0.0
  0
ENDBLK
  5
7B
100
AcDbEntity
  8
0
100
AcDbBlockEnd
  0
BLOCK
  5
87
100
AcDbEntity
  8
0
100
AcDbBlockBegin
  2
*D9
 70
     1
 10
0.0
 20
0.0
 30
0.0
  3
*D9
  1

  0
LINE
  5
7D
100
AcDbEntity
  8
0
  6
BYBLOCK
 62
     0
100
AcDbLine
 10
-3.793492
 20
-94.255544
 30
0.0
 11
-3.793492
 21
-90.99227
 31
0.0
  0
LINE
  5
7E
100
AcDbEntity
  8
0
  6
BYBLOCK
 62
     0
100
AcDbLine
 10
-1.806507
 20
-94.255544
 30
0.0
 11
-1.806507
 21
-90.99227
 31
0.0
  0
LINE
  5
7F
100
AcDbEntity
  8
0
  6
BYBLOCK
 62
     0
100
AcDbLine
 10
-3.433492
 20
-91.35227
 30
0.0
 11
-2.166507
 21
-91.35227
 31
0.0
  0
LINE
  5
80
100
AcDbEntity
  8
0
  6
BYBLOCK
 62
     0
100
AcDbLine
 10
-1.806507
 20
-91.35227
 30
0.0
 11
-1.224179
 21
-91.35227
 31
0.0
  0
SOLID
  5
81
100
AcDbEntity
  8
0
  6
BYBLOCK
 62
     0
100
AcDbTrace
 10
-3.433492
 20
-91.29227
 30
0.0
 11
-3.433492
 21
-91.41227
 31
0.0
 12
-3.793492
 22
-91.35227
 32
0.0
 13
-3.793492
 23
-91.35227
 33
0.0
  0
SOLID
  5
82
100
AcDbEntity
  8
0
  6
BYBLOCK
 62
     0
100
AcDbTrace
 10
-2.166507
 20
-91.29227
 30
0.0
 11
-2.166507
 21
-91.41227
 31
0.0
 12
-1.806507
 22
-91.35227
 32
0.0
 13
-1.806507
 23
-91.35227
 33
0.0
  0
MTEXT
  5
83
100
AcDbEntity
  8
0
  6
BYBLOCK
 62
     0
100
AcDbMText
 10
-0.015608
 20
-91.35227
 30
0.0
 40
0.36
 41
0.0
 71
     5
 72
     1
  1
\A1;2\P(51mm)
  7
ROMANS
  0
POINT
  5
84
100
AcDbEntity
  8
DEFPOINTS
  6
BYBLOCK
 62
     0
100
AcDbPoint
 10
-3.793492
 20
-94.380544
 30
0.0
  0
POINT
  5
85
100
AcDbEntity
  8
DEFPOINTS
  6
BYBLOCK
 62
     0
100
AcDbPoint
 10
-1.806507
 20
-94.380544
 30
0.0
  0
POINT
  5
86
100
AcDbEntity
  8
DEFPOINTS
  6
BYBLOCK
 62
     0
100
AcDbPoint
 10
-1.806507
 20
-91.35227
 30
0.0
  0
ENDBLK
  5
88
100
AcDbEntity
  8
0
100
AcDbBlockEnd
  0
BLOCK
  5
94
100
AcDbEntity
  8
0
100
AcDbBlockBegin
  2
*D10
 70
     1
 10
0.0
 20
0.0
 30
0.0
  3
*D10
  1

  0
LINE
  5
8A
100
AcDbEntity
  8
0
  6
BYBLOCK
 62
     0
100
AcDbLine
 10
-3.31259
 20
-81.571942
 30
0.0
 11
-10.245888
 21
-81.571942
 31
0.0
  0
LINE
  5
8B
100
AcDbEntity
  8
0
  6
BYBLOCK
 62
     0
100
AcDbLine
 10
-3.18759
 20
-94.63425
 30
0.0
 11
-10.245888
 21
-94.63425
 31
0.0
  0
LINE
  5
8C
100
AcDbEntity
  8
0
  6
BYBLOCK
 62
     0
100
AcDbLine
 10
-9.885888
 20
-81.931942
 30
0.0
 11
-9.885888
 21
-86.714525
 31
0.0
  0
LINE
  5
8D
100
AcDbEntity
  8
0
  6
BYBLOCK
 62
     0
100
AcDbLine
 10
-9.885888
 20
-94.27425
 30
0.0
 11
-9.885888
 21
-89.491668
 31
0.0
  0
SOLID
  5
8E
100
AcDbEntity
  8
0
  6
BYBLOCK
 62
     0
100
AcDbTrace
 10
-9.945888
 20
-81.931942
 30
0.0
 11
-9.825888
 21
-81.931942
 31
0.0
 12
-9.885888
 22
-81.571942
 32
0.0
 13
-9.885888
 23
-81.571942
 33
0.0
  0
SOLID
  5
8F
100
AcDbEntity
  8
0
  6
BYBLOCK
 62
     0
100
AcDbTrace
 10
-9.945888
 20
-94.27425
 30
0.0
 11
-9.825888
 21
-94.27425
 31
0.0
 12
-9.885888
 22
-94.63425
 32
0.0
 13
-9.885888
 23
-94.63425
 33
0.0
  0
MTEXT
  5
90
100
AcDbEntity
  8
0
  6
BYBLOCK
 62
     0
100
AcDbMText
 10
-9.885888
 20
-88.103096
 30
0.0
 40
0.36
 41
0.0
 71
     5
 72
     1
  1
\A1;GLASS\PCLEAR OPENING\PLESS 8 7/16\P(214mm)
  7
ROMANS
  0
POINT
  5
91
100
AcDbEntity
  8
DEFPOINTS
  6
BYBLOCK
 62
     0
100
AcDbPoint
 10
-3.18759
 20
-81.571942
 30
0.0
  0
POINT
  5
92
100
AcDbEntity
  8
DEFPOINTS
  6
BYBLOCK
 62
     0
100
AcDbPoint
 10
-3.06259
 20
-94.63425
 30
0.0
  0
POINT
  5
93
100
AcDbEntity
  8
DEFPOINTS
  6
BYBLOCK
 62
     0
100
AcDbPoint
 10
-9.885888
 20
-94.63425
 30
0.0
  0
ENDBLK
  5
95
100
AcDbEntity
  8
0
100
AcDbBlockEnd
  0
BLOCK
  5
A1
100
AcDbEntity
  8
0
100
AcDbBlockBegin
  2
*D11
 70
     1
 10
0.0
 20
0.0
 30
0.0
  3
*D11
  1

  0
LINE
  5
97
100
AcDbEntity
  8
0
  6
BYBLOCK
 62
     0
100
AcDbLine
 10
-5.924999
 20
-97.88155
 30
0.0
 11
-10.245888
 21
-97.88155
 31
0.0
  0
LINE
  5
98
100
AcDbEntity
  8
0
  6
BYBLOCK
 62
     0
100
AcDbLine
 10
-3.309183
 20
-94.63425
 30
0.0
 11
-10.245888
 21
-94.63425
 31
0.0
  0
LINE
  5
99
100
AcDbEntity
  8
0
  6
BYBLOCK
 62
     0
100
AcDbLine
 10
-9.885888
 20
-97.52155
 30
0.0
 11
-9.885888
 21
-97.046472
 31
0.0
  0
LINE
  5
9A
100
AcDbEntity
  8
0
  6
BYBLOCK
 62
     0
100
AcDbLine
 10
-9.885888
 20
-94.99425
 30
0.0
 11
-9.885888
 21
-95.469329
 31
0.0
  0
SOLID
  5
9B
100
AcDbEntity
  8
0
  6
BYBLOCK
 62
     0
100
AcDbTrace
 10
-9.945888
 20
-97.52155
 30
0.0
 11
-9.825888
 21
-97.52155
 31
0.0
 12
-9.885888
 22
-97.88155
 32
0.0
 13
-9.885888
 23
-97.88155
 33
0.0
  0
SOLID
  5
9C
100
AcDbEntity
  8
0
  6
BYBLOCK
 62
     0
100
AcDbTrace
 10
-9.945888
 20
-94.99425
 30
0.0
 11
-9.825888
 21
-94.99425
 31
0.0
 12
-9.885888
 22
-94.63425
 32
0.0
 13
-9.885888
 23
-94.63425
 33
0.0
  0
MTEXT
  5
9D
100
AcDbEntity
  8
0
  6
BYBLOCK
 62
     0
100
AcDbMText
 10
-9.885888
 20
-96.2579
 30
0.0
 40
0.36
 41
0.0
 71
     5
 72
     1
  1
\A1;3 1/4\P(83mm)
  7
ROMANS
  0
POINT
  5
9E
100
AcDbEntity
  8
DEFPOINTS
  6
BYBLOCK
 62
     0
100
AcDbPoint
 10
-5.799999
 20
-97.88155
 30
0.0
  0
POINT
  5
9F
100
AcDbEntity
  8
DEFPOINTS
  6
BYBLOCK
 62
     0
100
AcDbPoint
 10
-3.184183
 20
-94.63425
 30
0.0
  0
POINT
  5
A0
100
AcDbEntity
  8
DEFPOINTS
  6
BYBLOCK
 62
     0
100
AcDbPoint
 10
-9.885888
 20
-94.63425
 30
0.0
  0
ENDBLK
  5
A2
100
AcDbEntity
  8
0
100
AcDbBlockEnd
  0
BLOCK
  5
AE
100
AcDbEntity
  8
0
100
AcDbBlockBegin
  2
*D12
 70
     1
 10
0.0
 20
0.0
 30
0.0
  3
*D12
  1

  0
LINE
  5
A4
100
AcDbEntity
  8
0
  6
BYBLOCK
 62
     0
100
AcDbLine
 10
-3.177477
 20
-81.571942
 30
0.0
 11
-10.245888
 21
-81.571942
 31
0.0
  0
LINE
  5
A5
100
AcDbEntity
  8
0
  6
BYBLOCK
 62
     0
100
AcDbLine
 10
-5.927477
 20
-76.409442
 30
0.0
 11
-10.245888
 21
-76.409442
 31
0.0
  0
LINE
  5
A6
100
AcDbEntity
  8
0
  6
BYBLOCK
 62
     0
100
AcDbLine
 10
-9.885888
 20
-81.211942
 30
0.0
 11
-9.885888
 21
-79.779263
 31
0.0
  0
LINE
  5
A7
100
AcDbEntity
  8
0
  6
BYBLOCK
 62
     0
100
AcDbLine
 10
-9.885888
 20
-76.769442
 30
0.0
 11
-9.885888
 21
-78.20212
 31
0.0
  0
SOLID
  5
A8
100
AcDbEntity
  8
0
  6
BYBLOCK
 62
     0
100
AcDbTrace
 10
-9.945888
 20
-81.211942
 30
0.0
 11
-9.825888
 21
-81.211942
 31
0.0
 12
-9.885888
 22
-81.571942
 32
0.0
 13
-9.885888
 23
-81.571942
 33
0.0
  0
SOLID
  5
A9
100
AcDbEntity
  8
0
  6
BYBLOCK
 62
     0
100
AcDbTrace
 10
-9.945888
 20
-76.769442
 30
0.0
 11
-9.825888
 21
-76.769442
 31
0.0
 12
-9.885888
 22
-76.409442
 32
0.0
 13
-9.885888
 23
-76.409442
 33
0.0
  0
MTEXT
  5
AA
100
AcDbEntity
  8
0
  6
BYBLOCK
 62
     0
100
AcDbMText
 10
-9.885888
 20
-78.990692
 30
0.0
 40
0.36
 41
0.0
 71
     5
 72
     1
  1
\A1;5 3/16\P(132mm)
  7
ROMANS
  0
POINT
  5
AB
100
AcDbEntity
  8
DEFPOINTS
  6
BYBLOCK
 62
     0
100
AcDbPoint
 10
-3.052477
 20
-81.571942
 30
0.0
  0
POINT
  5
AC
100
AcDbEntity
  8
DEFPOINTS
  6
BYBLOCK
 62
     0
100
AcDbPoint
 10
-5.802477
 20
-76.409442
 30
0.0
  0
POINT
  5
AD
100
AcDbEntity
  8
DEFPOINTS
  6
BYBLOCK
 62
     0
100
AcDbPoint
 10
-9.885888
 20
-76.409442
 30
0.0
  0
ENDBLK
  5
AF
100
AcDbEntity
  8
0
100
AcDbBlockEnd
  0
BLOCK
  5
BB
100
AcDbEntity
  8
0
100
AcDbBlockBegin
  2
*D13
 70
     1
 10
0.0
 20
0.0
 30
0.0
  3
*D13
  1

  0
LINE
  5
B1
100
AcDbEntity
  8
0
  6
BYBLOCK
 62
     0
100
AcDbLine
 10
0.322523
 20
-76.409442
 30
0.0
 11
5.560924
 21
-76.409442
 31
0.0
  0
LINE
  5
B2
100
AcDbEntity
  8
0
  6
BYBLOCK
 62
     0
100
AcDbLine
 10
0.325001
 20
-97.88155
 30
0.0
 11
5.560924
 21
-97.88155
 31
0.0
  0
LINE
  5
B3
100
AcDbEntity
  8
0
  6
BYBLOCK
 62
     0
100
AcDbLine
 10
5.200924
 20
-76.769442
 30
0.0
 11
5.200924
 21
-89.653244
 31
0.0
  0
LINE
  5
B4
100
AcDbEntity
  8
0
  6
BYBLOCK
 62
     0
100
AcDbLine
 10
5.200924
 20
-97.52155
 30
0.0
 11
5.200924
 21
-90.973244
 31
0.0
  0
SOLID
  5
B5
100
AcDbEntity
  8
0
  6
BYBLOCK
 62
     0
100
AcDbTrace
 10
5.140924
 20
-76.769442
 30
0.0
 11
5.260924
 21
-76.769442
 31
0.0
 12
5.200924
 22
-76.409442
 32
0.0
 13
5.200924
 23
-76.409442
 33
0.0
  0
SOLID
  5
B6
100
AcDbEntity
  8
0
  6
BYBLOCK
 62
     0
100
AcDbTrace
 10
5.140924
 20
-97.52155
 30
0.0
 11
5.260924
 21
-97.52155
 31
0.0
 12
5.200924
 22
-97.88155
 32
0.0
 13
5.200924
 23
-97.88155
 33
0.0
  0
MTEXT
  5
B7
100
AcDbEntity
  8
0
  6
BYBLOCK
 62
     0
100
AcDbMText
 10
5.200924
 20
-90.313244
 30
0.0
 40
0.36
 41
0.0
 71
     5
 72
     1
  1
\A1;CLEAR\P OPENING
  7
ROMANS
  0
POINT
  5
B8
100
AcDbEntity
  8
DEFPOINTS
  6
BYBLOCK
 62
     0
100
AcDbPoint
 10
0.197523
 20
-76.409442
 30
0.0
  0
POINT
  5
B9
100
AcDbEntity
  8
DEFPOINTS
  6
BYBLOCK
 62
     0
100
AcDbPoint
 10
0.200001
 20
-97.88155
 30
0.0
  0
POINT
  5
BA
100
AcDbEntity
  8
DEFPOINTS
  6
BYBLOCK
 62
     0
100
AcDbPoint
 10
5.200924
 20
-97.88155
 30
0.0
  0
ENDBLK
  5
BC
100
AcDbEntity
  8
0
100
AcDbBlockEnd
  0
BLOCK
  5
211
100
AcDbEntity
  8
0
100
AcDbBlockBegin
  2
A$C795C01F3
 70
     0
 10
0.0
 20
0.0
 30
0.0
  3
A$C795C01F3
  1

  0
MTEXT
  5
C6
102
{ACAD_REACTORS
330
C7
102
}
100
AcDbEntity
  8
R-DOOR-ANNO
  6
CONTINUOUS
100
AcDbMText
 10
14.256851
 20
12.234453
 30
0.0
 40
0.36
 41
0.0
 71
     4
 72
     1
  1
GLASS CLAMP
  7
ROMANS
  0
LEADER
  5
C7
100
AcDbEntity
  8
R-DOOR-ANNO
  6
CONTINUOUS
100
AcDbLeader
  3
STANDARD
 73
     0
 74
     0
 75
     1
 40
0.36
 41
3.634286
 76
     3
 10
12.317224
 20
13.046953
 30
0.0
 10
13.966851
 20
12.234453
 30
0.0
 10
14.146851
 20
12.234453
 30
0.0
 77
   256
340
C6
213
-0.0199999999999996
223
0.0
233
0.0
1001
ACAD
1000
DSTYLE
1002
{
1070
   173
1070
     1
1070
     6
1000
_DOTSMALL
1002
}
  0
DIMENSION
  5
C8
100
AcDbEntity
  8
R-DOOR-ANNO
  6
CONTINUOUS
100
AcDbDimension
  2
*D13
 10
20.028984
 20
9.996413
 30
0.0
 11
20.028984
 21
17.564719
 31
0.0
 12
14.828061
 22
107.877963
 32
0.0
 70
   128
  1
CLEAR\P OPENING
  3
STANDARD
100
AcDbAlignedDimension
 13
15.025584
 23
31.468522
 33
0.0
 14
15.028061
 24
9.996413
 34
0.0
 50
90.0
100
AcDbRotatedDimension
1001
ACAD
1000
DSTYLE
1002
{
1070
   173
1070
     0
1070
     6
1000

1002
}
  0
LINE
  5
C9
100
AcDbEntity
  8
R-DOOR-DETL
  6
CONTINUOUS
 62
     3
100
AcDbLine
 10
11.097069
 20
10.261413
 30
0.0
 11
11.097069
 21
13.459848
 31
0.0
  0
LINE
  5
CA
100
AcDbEntity
  8
R-DOOR-DETL
  6
CONTINUOUS
 62
     3
100
AcDbLine
 10
12.959054
 20
13.459848
 30
0.0
 11
12.959054
 21
10.261413
 31
0.0
  0
ARC
  5
CB
100
AcDbEntity
  8
R-DOOR-DETL
  6
CONTINUOUS
 62
     3
100
AcDbCircle
 10
12.418061
 20
12.606117
 30
0.0
 40
0.06
100
AcDbArc
 50
270.0
 51
360.0
  0
ARC
  5
CC
100
AcDbEntity
  8
R-DOOR-DETL
  6
CONTINUOUS
 62
     3
100
AcDbCircle
 10
11.638061
 20
12.606117
 30
0.0
 40
0.06
100
AcDbArc
 50
180.0
 51
270.0
  0
DIMENSION
  5
CD
100
AcDbEntity
  8
R-DOOR-ANNO
  6
CONTINUOUS
100
AcDbDimension
  2
*D11
 10
4.942173
 20
13.243713
 30
0.0
 11
4.942173
 21
11.620063
 31
0.0
 12
14.828061
 22
107.877963
 32
0.0
  1
<>\P(83mm)
  3
STANDARD
100
AcDbAlignedDimension
 13
9.028061
 23
9.996413
 33
0.0
 14
11.643877
 24
13.243713
 34
0.0
 50
90.0
100
AcDbRotatedDimension
1001
ACAD
1000
DSTYLE
1002
{
1070
   173
1070
     0
1070
     6
1000

1002
}
  0
LWPOLYLINE
  5
CE
100
AcDbEntity
  8
R-DOOR-DETL
  6
CONTINUOUS
 62
     3
100
AcDbPolyline
 90
       12
 70
     1
 43
0.0
 10
11.475476
 20
14.22508
 42
-0.282029
 10
11.559231
 20
14.276405
 10
11.734989
 20
14.276405
 10
11.734989
 20
14.326405
 10
11.559231
 20
14.326405
 42
0.282029
 10
11.430926
 20
14.24778
 10
11.047314
 20
13.494901
 42
0.118358
 10
11.037069
 20
13.452225
 10
11.037069
 20
10.246413
 10
11.087069
 20
10.246413
 10
11.087069
 20
13.440222
 42
-0.118358
 10
11.097314
 20
13.482897
  0
LWPOLYLINE
  5
CF
100
AcDbEntity
  8
R-DOOR-DETL
  6
CONTINUOUS
 62
     3
100
AcDbPolyline
 90
       12
 70
     1
 43
0.0
 10
12.580647
 20
14.22508
 42
0.282029
 10
12.496892
 20
14.276405
 10
12.321134
 20
14.276405
 10
12.321134
 20
14.326405
 10
12.496892
 20
14.326405
 42
-0.282029
 10
12.625197
 20
14.24778
 10
13.008809
 20
13.494901
 42
-0.118358
 10
13.019054
 20
13.452225
 10
13.019054
 20
10.246413
 10
12.969054
 20
10.246413
 10
12.969054
 20
13.440222
 42
0.118358
 10
12.958809
 20
13.482897
  0
LWPOLYLINE
  5
D0
100
AcDbEntity
  8
BORDER
100
AcDbPolyline
 90
        4
 70
     1
 43
0.175785
 10
25.78113
 20
34.287965
 10
0.087893
 20
34.287965
 10
0.087893
 20
0.087893
 10
25.78113
 20
0.087893
  0
HATCH
  5
D1
100
AcDbEntity
  8
R-DOOR-PATT
  6
CONTINUOUS
 62
     5
100
AcDbHatch
 10
0.0
 20
0.0
 30
0.0
210
0.0
220
0.0
230
1.0
  2
ANSI31
 70
     0
 71
     0
 91
        1
 92
        7
 72
     0
 73
     1
 93
        4
 10
9.025583599786308
 20
9.996413377458949
 10
15.0255835997863
 20
9.996413377458949
 10
15.0255835997863
 20
7.996413377458949
 10
9.025583599786308
 20
7.996413377458949
 97
        0
 75
     0
 76
     1
 52
180.0
 41
2.5
 77
     0
 78
     1
 53
135.0
 43
-3.823913
 44
39.125575
 45
0.2209708691207961
 46
0.2209708691207961
 79
     0
 47
0.011976
 98
        1
 10
12.298385
 20
9.18732
  0
LINE
  5
D2
100
AcDbEntity
  8
0
100
AcDbLine
 10
9.934561
 20
9.996413
 30
0.0
 11
14.121561
 21
9.996413
 31
0.0
  0
LINE
  5
D3
100
AcDbEntity
  8
0
100
AcDbLine
 10
9.028061
 20
9.996413
 30
0.0
 11
15.028061
 21
9.996413
 31
0.0
  0
TEXT
  5
D4
100
AcDbEntity
  8
R-DOOR-ANNO
  6
CONTINUOUS
100
AcDbText
 10
4.263334
 20
6.32974
 30
0.0
 40
0.625
  1
CRL 4" TAPER DOOR RAIL CLAD
  7
ROMANS
 72
     1
 11
12.001429
 21
6.32974
 31
0.0
100
AcDbText
  0
TEXT
  5
D5
100
AcDbEntity
  8
R-DOOR-ANNO
  6
CONTINUOUS
100
AcDbText
 10
7.834762
 20
5.500125
 30
0.0
 40
0.625
  1
TOP AND BOTTOM
  7
ROMANS
 72
     1
 11
12.001429
 21
5.500125
 31
0.0
100
AcDbText
  0
TEXT
  5
D6
100
AcDbEntity
  8
R-DOOR-ANNO
  6
CONTINUOUS
100
AcDbText
 10
6.778215
 20
4.587794
 30
0.0
 40
0.625
  1
 WITH CLAD HEADER 
  7
ROMANS
 72
     1
 11
12.001429
 21
4.587794
 31
0.0
100
AcDbText
  0
INSERT
  5
D7
100
AcDbEntity
  8
R-DOOR-ANNO
  6
CONTINUOUS
100
AcDbBlockReference
  2
CRLINFO
 10
0.087893
 20
0.087893
 30
0.0
  0
DIMENSION
  5
D8
100
AcDbEntity
  8
R-DOOR-ANNO
  6
CONTINUOUS
100
AcDbDimension
  2
*D7
 10
18.723084
 20
9.996413
 30
0.0
 11
17.325941
 21
8.832486
 31
0.0
 12
14.828061
 22
107.877963
 32
0.0
 70
   128
  1
<>\P(6mm)
  3
STANDARD
100
AcDbAlignedDimension
 13
13.019054
 23
10.246413
 33
0.0
 14
15.028061
 24
9.996413
 34
0.0
 50
90.0
100
AcDbRotatedDimension
1001
ACAD
1000
DSTYLE
1002
{
1070
   173
1070
     0
1070
     6
1000

1002
}
  0
MTEXT
  5
D9
102
{ACAD_REACTORS
330
DA
102
}
100
AcDbEntity
  8
R-DOOR-ANNO
  6
CONTINUOUS
100
AcDbMText
 10
14.248808
 20
11.284969
 30
0.0
 40
0.36
 41
0.0
 71
     4
 72
     1
  1
SHOE
  7
ROMANS
  0
LEADER
  5
DA
100
AcDbEntity
  8
R-DOOR-ANNO
  6
CONTINUOUS
100
AcDbLeader
  3
STANDARD
 73
     0
 74
     0
 75
     1
 40
0.36
 41
1.337143
 76
     3
 10
12.732748
 20
11.972469
 30
0.0
 10
13.958808
 20
11.284969
 30
0.0
 10
14.138808
 20
11.284969
 30
0.0
 77
   256
340
D9
213
-0.0199999999999996
223
0.0
233
0.0
1001
ACAD
1000
DSTYLE
1002
{
1070
   173
1070
     1
1070
     6
1000
_DOTSMALL
1002
}
  0
LINE
  5
DB
100
AcDbEntity
  8
R-DOOR-DETL
  6
CONTINUOUS
 62
     3
100
AcDbLine
 10
12.028061
 20
11.826413
 30
0.0
 11
11.277069
 21
11.826413
 31
0.0
  0
CIRCLE
  5
DC
100
AcDbEntity
  8
R-DOOR-DETL
  6
CONTINUOUS
 62
     3
100
AcDbCircle
 10
11.603061
 20
11.501413
 30
0.0
 40
0.1625
  0
CIRCLE
  5
DD
100
AcDbEntity
  8
R-DOOR-DETL
  6
CONTINUOUS
 62
     3
100
AcDbCircle
 10
11.603061
 20
11.501413
 30
0.0
 40
0.1875
  0
LWPOLYLINE
  5
DE
100
AcDbEntity
  8
R-DOOR-DETL
  6
CONTINUOUS
 62
     3
100
AcDbPolyline
 90
       32
 70
     1
 43
0.0
 10
12.708061
 20
11.265413
 10
12.708061
 20
11.53521
 42
-0.414214
 10
12.723061
 20
11.55021
 10
12.789054
 20
11.55021
 42
0.414214
 10
12.804054
 20
11.56521
 10
12.804054
 20
11.795413
 42
0.414214
 10
12.773054
 20
11.826413
 10
12.629442
 20
11.826413
 42
0.267949
 10
12.602595
 20
11.810913
 10
12.496881
 20
11.627812
 42
0.40146
 10
12.507069
 20
11.586168
 42
-3.430162
 10
12.399054
 20
11.586168
 42
0.40146
 10
12.409242
 20
11.627812
 10
12.303528
 20
11.810913
 42
0.267949
 10
12.276681
 20
11.826413
 10
11.779442
 20
11.826413
 42
0.267949
 10
11.752595
 20
11.810913
 10
11.646881
 20
11.627812
 42
0.40146
 10
11.657069
 20
11.586168
 42
-3.430162
 10
11.549054
 20
11.586168
 42
0.40146
 10
11.559242
 20
11.627812
 10
11.453528
 20
11.810913
 42
0.267949
 10
11.426681
 20
11.826413
 10
11.283069
 20
11.826413
 42
0.414214
 10
11.252069
 20
11.795413
 10
11.252069
 20
11.56521
 42
0.414214
 10
11.267069
 20
11.55021
 10
11.333061
 20
11.55021
 42
-0.414214
 10
11.348061
 20
11.53521
 10
11.348061
 20
11.265413
 42
0.414214
 10
11.363061
 20
11.250413
 10
12.693061
 20
11.250413
 42
0.414214
  0
LINE
  5
DF
100
AcDbEntity
  8
R-DOOR-DETL
  6
CONTINUOUS
 62
     3
100
AcDbLine
 10
12.982653
 20
9.996413
 30
0.0
 11
11.07347
 21
9.996413
 31
0.0
  0
LINE
  5
E0
100
AcDbEntity
  8
R-DOOR-DETL
  6
CONTINUOUS
 62
     3
100
AcDbLine
 10
12.982653
 20
10.034413
 30
0.0
 11
11.07347
 21
10.034413
 31
0.0
  0
LINE
  5
E1
100
AcDbEntity
  8
R-DOOR-DETL
  6
CONTINUOUS
 62
     3
100
AcDbLine
 10
12.846658
 20
10.234413
 30
0.0
 11
11.204813
 21
10.234413
 31
0.0
  0
LINE
  5
E2
100
AcDbEntity
  8
R-DOOR-DETL
  6
CONTINUOUS
 62
     3
100
AcDbLine
 10
11.345561
 20
11.276413
 30
0.0
 11
12.710561
 21
11.276413
 31
0.0
  0
LWPOLYLINE
  5
E3
100
AcDbEntity
  8
R-DOOR-DETL
  6
CONTINUOUS
 62
     3
100
AcDbPolyline
 90
       21
 70
     1
 43
0.0
 10
12.157171
 20
12.16191
 42
0.939516
 10
12.072959
 20
12.111331
 42
-2.169752
 10
11.983164
 20
12.111331
 42
0.939516
 10
11.898952
 20
12.16191
 42
0.106196
 10
11.873816
 20
12.101042
 42
-0.362414
 10
11.8443
 20
12.076413
 10
11.555773
 20
12.076413
 42
-0.414214
 10
11.524773
 20
12.107413
 10
11.524773
 20
12.267456
 42
0.564167
 10
11.452668
 20
12.31102
 42
-1.903207
 10
11.442075
 20
12.407706
 42
0.226984
 10
11.482957
 20
12.396117
 10
12.028061
 20
12.396117
 10
12.573166
 20
12.396117
 42
0.226984
 10
12.614048
 20
12.407706
 42
-1.903207
 10
12.603455
 20
12.31102
 42
0.564167
 10
12.53135
 20
12.267456
 10
12.53135
 20
12.107413
 42
-0.414214
 10
12.50035
 20
12.076413
 10
12.211823
 20
12.076413
 42
-0.362414
 10
12.182307
 20
12.101042
 42
0.106196
  0
LINE
  5
E4
100
AcDbEntity
  8
R-DOOR-DETL
  6
CONTINUOUS
 62
     3
100
AcDbLine
 10
11.345561
 20
11.701413
 30
0.0
 11
12.710561
 21
11.701413
 31
0.0
  0
LINE
  5
E5
100
AcDbEntity
  8
R-DOOR-DETL
  6
CONTINUOUS
 62
     3
100
AcDbLine
 10
11.345561
 20
11.826413
 30
0.0
 11
12.710561
 21
11.826413
 31
0.0
  0
ARC
  5
E6
100
AcDbEntity
  8
R-DOOR-DETL
  6
CONTINUOUS
 62
     3
100
AcDbCircle
 10
11.112069
 20
10.261413
 30
0.0
 40
0.015
100
AcDbArc
 50
180.0
 51
270.0
  0
LINE
  5
E7
100
AcDbEntity
  8
R-DOOR-DETL
  6
CONTINUOUS
 62
     3
100
AcDbLine
 10
11.182069
 20
10.246413
 30
0.0
 11
11.112069
 21
10.246413
 31
0.0
  0
ARC
  5
E8
100
AcDbEntity
  8
R-DOOR-DETL
  6
CONTINUOUS
 62
     3
100
AcDbCircle
 10
11.182069
 20
10.261413
 30
0.0
 40
0.015
100
AcDbArc
 50
270.0
 51
0.0
  0
LINE
  5
E9
100
AcDbEntity
  8
R-DOOR-DETL
  6
CONTINUOUS
 62
     3
100
AcDbLine
 10
11.197069
 20
10.641413
 30
0.0
 11
11.197069
 21
10.261413
 31
0.0
  0
ARC
  5
EA
100
AcDbEntity
  8
R-DOOR-DETL
  6
CONTINUOUS
 62
     3
100
AcDbCircle
 10
11.212069
 20
10.641413
 30
0.0
 40
0.015
100
AcDbArc
 50
90.0
 51
180.0
  0
LINE
  5
EB
100
AcDbEntity
  8
R-DOOR-DETL
  6
CONTINUOUS
 62
     3
100
AcDbLine
 10
11.232069
 20
10.656413
 30
0.0
 11
11.212069
 21
10.656413
 31
0.0
  0
ARC
  5
EC
100
AcDbEntity
  8
R-DOOR-DETL
  6
CONTINUOUS
 62
     3
100
AcDbCircle
 10
11.232069
 20
10.671413
 30
0.0
 40
0.015
100
AcDbArc
 50
270.0
 51
0.0
  0
LINE
  5
ED
100
AcDbEntity
  8
R-DOOR-DETL
  6
CONTINUOUS
 62
     3
100
AcDbLine
 10
11.247069
 20
11.32521
 30
0.0
 11
11.247069
 21
10.671413
 31
0.0
  0
ARC
  5
EE
100
AcDbEntity
  8
R-DOOR-DETL
  6
CONTINUOUS
 62
     3
100
AcDbCircle
 10
11.262069
 20
11.32521
 30
0.0
 40
0.015
100
AcDbArc
 50
90.0
 51
180.0
  0
LINE
  5
EF
100
AcDbEntity
  8
R-DOOR-DETL
  6
CONTINUOUS
 62
     3
100
AcDbLine
 10
11.328061
 20
11.34021
 30
0.0
 11
11.262069
 21
11.34021
 31
0.0
  0
ARC
  5
F0
100
AcDbEntity
  8
R-DOOR-DETL
  6
CONTINUOUS
 62
     3
100
AcDbCircle
 10
11.328061
 20
11.35521
 30
0.0
 40
0.015
100
AcDbArc
 50
270.0
 51
0.0
  0
LINE
  5
F1
100
AcDbEntity
  8
R-DOOR-DETL
  6
CONTINUOUS
 62
     3
100
AcDbLine
 10
11.343061
 20
11.52521
 30
0.0
 11
11.343061
 21
11.35521
 31
0.0
  0
ARC
  5
F2
100
AcDbEntity
  8
R-DOOR-DETL
  6
CONTINUOUS
 62
     3
100
AcDbCircle
 10
11.328061
 20
11.52521
 30
0.0
 40
0.015
100
AcDbArc
 50
0.0
 51
90.0
  0
LINE
  5
F3
100
AcDbEntity
  8
R-DOOR-DETL
  6
CONTINUOUS
 62
     3
100
AcDbLine
 10
11.262069
 20
11.54021
 30
0.0
 11
11.328061
 21
11.54021
 31
0.0
  0
ARC
  5
F4
100
AcDbEntity
  8
R-DOOR-DETL
  6
CONTINUOUS
 62
     3
100
AcDbCircle
 10
11.262069
 20
11.55521
 30
0.0
 40
0.015
100
AcDbArc
 50
180.0
 51
270.0
  0
LINE
  5
F5
100
AcDbEntity
  8
R-DOOR-DETL
  6
CONTINUOUS
 62
     3
100
AcDbLine
 10
11.247069
 20
11.796413
 30
0.0
 11
11.247069
 21
11.55521
 31
0.0
  0
ARC
  5
F6
100
AcDbEntity
  8
R-DOOR-DETL
  6
CONTINUOUS
 62
     3
100
AcDbCircle
 10
11.277069
 20
11.796413
 30
0.0
 40
0.03
100
AcDbArc
 50
90.0
 51
180.0
  0
LINE
  5
F7
100
AcDbEntity
  8
R-DOOR-DETL
  6
CONTINUOUS
 62
     3
100
AcDbLine
 10
11.345561
 20
11.276413
 30
0.0
 11
11.345561
 21
11.826413
 31
0.0
  0
LINE
  5
F8
100
AcDbEntity
  8
R-DOOR-DETL
  6
CONTINUOUS
 62
     3
100
AcDbLine
 10
11.204813
 20
10.234413
 30
0.0
 11
11.204813
 21
10.034413
 31
0.0
  0
LINE
  5
F9
100
AcDbEntity
  8
R-DOOR-DETL
  6
CONTINUOUS
 62
     3
100
AcDbLine
 10
11.07347
 20
10.034413
 30
0.0
 11
11.07347
 21
9.996413
 31
0.0
  0
LINE
  5
FA
100
AcDbEntity
  8
R-DOOR-DETL
  6
CONTINUOUS
 62
     3
100
AcDbLine
 10
12.779054
 20
11.826413
 30
0.0
 11
12.028061
 21
11.826413
 31
0.0
  0
ARC
  5
FB
100
AcDbEntity
  8
R-DOOR-DETL
  6
CONTINUOUS
 62
     3
100
AcDbCircle
 10
12.779054
 20
11.796413
 30
0.0
 40
0.03
100
AcDbArc
 50
360.0
 51
90.0
  0
LINE
  5
FC
100
AcDbEntity
  8
R-DOOR-DETL
  6
CONTINUOUS
 62
     3
100
AcDbLine
 10
12.809054
 20
11.55521
 30
0.0
 11
12.809054
 21
11.796413
 31
0.0
  0
ARC
  5
FD
100
AcDbEntity
  8
R-DOOR-DETL
  6
CONTINUOUS
 62
     3
100
AcDbCircle
 10
12.794054
 20
11.55521
 30
0.0
 40
0.015
100
AcDbArc
 50
270.0
 51
0.0
  0
LINE
  5
FE
100
AcDbEntity
  8
R-DOOR-DETL
  6
CONTINUOUS
 62
     3
100
AcDbLine
 10
12.728061
 20
11.54021
 30
0.0
 11
12.794054
 21
11.54021
 31
0.0
  0
ARC
  5
FF
100
AcDbEntity
  8
R-DOOR-DETL
  6
CONTINUOUS
 62
     3
100
AcDbCircle
 10
12.728061
 20
11.52521
 30
0.0
 40
0.015
100
AcDbArc
 50
90.0
 51
180.0
  0
LINE
  5
100
100
AcDbEntity
  8
R-DOOR-DETL
  6
CONTINUOUS
 62
     3
100
AcDbLine
 10
12.713061
 20
11.35521
 30
0.0
 11
12.713061
 21
11.52521
 31
0.0
  0
ARC
  5
101
100
AcDbEntity
  8
R-DOOR-DETL
  6
CONTINUOUS
 62
     3
100
AcDbCircle
 10
12.728061
 20
11.35521
 30
0.0
 40
0.015
100
AcDbArc
 50
180.0
 51
270.0
  0
LINE
  5
102
100
AcDbEntity
  8
R-DOOR-DETL
  6
CONTINUOUS
 62
     3
100
AcDbLine
 10
12.794054
 20
11.34021
 30
0.0
 11
12.728061
 21
11.34021
 31
0.0
  0
ARC
  5
103
100
AcDbEntity
  8
R-DOOR-DETL
  6
CONTINUOUS
 62
     3
100
AcDbCircle
 10
12.794054
 20
11.32521
 30
0.0
 40
0.015
100
AcDbArc
 50
0.0
 51
90.0
  0
LINE
  5
104
100
AcDbEntity
  8
R-DOOR-DETL
  6
CONTINUOUS
 62
     3
100
AcDbLine
 10
12.809054
 20
10.671413
 30
0.0
 11
12.809054
 21
11.32521
 31
0.0
  0
ARC
  5
105
100
AcDbEntity
  8
R-DOOR-DETL
  6
CONTINUOUS
 62
     3
100
AcDbCircle
 10
12.824054
 20
10.671413
 30
0.0
 40
0.015
100
AcDbArc
 50
180.0
 51
270.0
  0
LINE
  5
106
100
AcDbEntity
  8
R-DOOR-DETL
  6
CONTINUOUS
 62
     3
100
AcDbLine
 10
12.844054
 20
10.656413
 30
0.0
 11
12.824054
 21
10.656413
 31
0.0
  0
ARC
  5
107
100
AcDbEntity
  8
R-DOOR-DETL
  6
CONTINUOUS
 62
     3
100
AcDbCircle
 10
12.844054
 20
10.641413
 30
0.0
 40
0.015
100
AcDbArc
 50
0.0
 51
90.0
  0
LINE
  5
108
100
AcDbEntity
  8
R-DOOR-DETL
  6
CONTINUOUS
 62
     3
100
AcDbLine
 10
12.859054
 20
10.261413
 30
0.0
 11
12.859054
 21
10.641413
 31
0.0
  0
ARC
  5
109
100
AcDbEntity
  8
R-DOOR-DETL
  6
CONTINUOUS
 62
     3
100
AcDbCircle
 10
12.874054
 20
10.261413
 30
0.0
 40
0.015
100
AcDbArc
 50
180.0
 51
270.0
  0
LINE
  5
10A
100
AcDbEntity
  8
R-DOOR-DETL
  6
CONTINUOUS
 62
     3
100
AcDbLine
 10
12.944054
 20
10.246413
 30
0.0
 11
12.874054
 21
10.246413
 31
0.0
  0
ARC
  5
10B
100
AcDbEntity
  8
R-DOOR-DETL
  6
CONTINUOUS
 62
     3
100
AcDbCircle
 10
12.944054
 20
10.261413
 30
0.0
 40
0.015
100
AcDbArc
 50
270.0
 51
0.0
  0
LINE
  5
10C
100
AcDbEntity
  8
R-DOOR-DETL
  6
CONTINUOUS
 62
     3
100
AcDbLine
 10
12.551934
 20
11.546198
 30
0.0
 11
12.541282
 21
11.43818
 31
0.0
  0
LINE
  5
10D
100
AcDbEntity
  8
R-DOOR-DETL
  6
CONTINUOUS
 62
     3
100
AcDbLine
 10
12.551934
 20
11.546198
 30
0.0
 11
12.463713
 21
11.609431
 31
0.0
  0
LINE
  5
10E
100
AcDbEntity
  8
R-DOOR-DETL
  6
CONTINUOUS
 62
     3
100
AcDbLine
 10
12.136603
 20
11.501413
 30
0.0
 11
12.082332
 21
11.595413
 31
0.0
  0
LINE
  5
10F
100
AcDbEntity
  8
R-DOOR-DETL
  6
CONTINUOUS
 62
     3
100
AcDbLine
 10
12.082332
 20
11.407413
 30
0.0
 11
12.136603
 21
11.501413
 31
0.0
  0
LINE
  5
110
100
AcDbEntity
  8
R-DOOR-DETL
  6
CONTINUOUS
 62
     3
100
AcDbLine
 10
12.364841
 20
11.564647
 30
0.0
 11
12.354189
 21
11.456629
 31
0.0
  0
LINE
  5
111
100
AcDbEntity
  8
R-DOOR-DETL
  6
CONTINUOUS
 62
     3
100
AcDbLine
 10
12.44241
 20
11.393395
 30
0.0
 11
12.354189
 21
11.456629
 31
0.0
  0
CIRCLE
  5
112
100
AcDbEntity
  8
R-DOOR-DETL
  6
CONTINUOUS
 62
     3
100
AcDbCircle
 10
12.453061
 20
11.501413
 30
0.0
 40
0.1625
  0
LINE
  5
113
100
AcDbEntity
  8
R-DOOR-DETL
  6
CONTINUOUS
 62
     3
100
AcDbLine
 10
12.541282
 20
11.43818
 30
0.0
 11
12.44241
 21
11.393395
 31
0.0
  0
LINE
  5
114
100
AcDbEntity
  8
R-DOOR-DETL
  6
CONTINUOUS
 62
     3
100
AcDbLine
 10
12.463713
 20
11.609431
 30
0.0
 11
12.364841
 21
11.564647
 31
0.0
  0
CIRCLE
  5
115
100
AcDbEntity
  8
R-DOOR-DETL
  6
CONTINUOUS
 62
     3
100
AcDbCircle
 10
12.453061
 20
11.501413
 30
0.0
 40
0.1875
  0
LINE
  5
116
100
AcDbEntity
  8
R-DOOR-DETL
  6
CONTINUOUS
 62
     3
100
AcDbLine
 10
12.710561
 20
11.276413
 30
0.0
 11
12.710561
 21
11.826413
 31
0.0
  0
LINE
  5
117
100
AcDbEntity
  8
R-DOOR-DETL
  6
CONTINUOUS
 62
     3
100
AcDbLine
 10
12.982653
 20
10.034413
 30
0.0
 11
12.982653
 21
9.996413
 31
0.0
  0
LINE
  5
118
100
AcDbEntity
  8
R-DOOR-DETL
  6
CONTINUOUS
 62
     3
100
AcDbLine
 10
12.51897
 20
10.388896
 30
0.0
 11
12.51897
 21
10.263896
 31
0.0
  0
LINE
  5
119
100
AcDbEntity
  8
R-DOOR-DETL
  6
CONTINUOUS
 62
     3
100
AcDbLine
 10
12.846658
 20
10.234413
 30
0.0
 11
12.846658
 21
10.034413
 31
0.0
  0
LINE
  5
11A
100
AcDbEntity
  8
R-DOOR-DETL
  6
CONTINUOUS
 62
     3
100
AcDbLine
 10
12.394756
 20
10.234413
 30
0.0
 11
12.394756
 21
10.263896
 31
0.0
  0
LINE
  5
11B
100
AcDbEntity
  8
R-DOOR-DETL
  6
CONTINUOUS
 62
     3
100
AcDbLine
 10
12.45297
 20
10.996413
 30
0.0
 11
12.45297
 21
10.388896
 31
0.0
  0
LINE
  5
11C
100
AcDbEntity
  8
R-DOOR-DETL
  6
CONTINUOUS
 62
     3
100
AcDbLine
 10
12.397463
 20
10.996413
 30
0.0
 11
12.397463
 21
10.388896
 31
0.0
  0
LINE
  5
11D
100
AcDbEntity
  8
R-DOOR-DETL
  6
CONTINUOUS
 62
     3
100
AcDbLine
 10
11.91952
 20
11.501413
 30
0.0
 11
11.973791
 21
11.595413
 31
0.0
  0
LINE
  5
11E
100
AcDbEntity
  8
R-DOOR-DETL
  6
CONTINUOUS
 62
     3
100
AcDbLine
 10
11.973791
 20
11.407413
 30
0.0
 11
11.91952
 21
11.501413
 31
0.0
  0
LINE
  5
11F
100
AcDbEntity
  8
R-DOOR-DETL
  6
CONTINUOUS
 62
     3
100
AcDbLine
 10
11.573871
 20
11.39687
 30
0.0
 11
11.679003
 21
11.423862
 31
0.0
  0
LINE
  5
120
100
AcDbEntity
  8
R-DOOR-DETL
  6
CONTINUOUS
 62
     3
100
AcDbLine
 10
11.632252
 20
11.605956
 30
0.0
 11
11.708194
 21
11.528405
 31
0.0
  0
LINE
  5
121
100
AcDbEntity
  8
R-DOOR-DETL
  6
CONTINUOUS
 62
     3
100
AcDbLine
 10
11.679003
 20
11.423862
 30
0.0
 11
11.708194
 21
11.528405
 31
0.0
  0
LINE
  5
122
100
AcDbEntity
  8
R-DOOR-DETL
  6
CONTINUOUS
 62
     3
100
AcDbLine
 10
11.497929
 20
11.474421
 30
0.0
 11
11.52712
 21
11.578965
 31
0.0
  0
LINE
  5
123
100
AcDbEntity
  8
R-DOOR-DETL
  6
CONTINUOUS
 62
     3
100
AcDbLine
 10
11.497929
 20
11.474421
 30
0.0
 11
11.573871
 21
11.39687
 31
0.0
  0
LINE
  5
124
100
AcDbEntity
  8
R-DOOR-DETL
  6
CONTINUOUS
 62
     3
100
AcDbLine
 10
11.52712
 20
11.578965
 30
0.0
 11
11.632252
 21
11.605956
 31
0.0
  0
LINE
  5
125
100
AcDbEntity
  8
R-DOOR-DETL
  6
CONTINUOUS
 62
     3
100
AcDbLine
 10
11.53697
 20
10.388896
 30
0.0
 11
11.53697
 21
10.263896
 31
0.0
  0
LINE
  5
126
100
AcDbEntity
  8
R-DOOR-DETL
  6
CONTINUOUS
 62
     3
100
AcDbLine
 10
11.674979
 20
10.234413
 30
0.0
 11
11.674979
 21
10.263896
 31
0.0
  0
LINE
  5
127
100
AcDbEntity
  8
R-DOOR-DETL
  6
CONTINUOUS
 62
     3
100
AcDbLine
 10
11.60297
 20
10.996413
 30
0.0
 11
11.60297
 21
10.388896
 31
0.0
  0
LINE
  5
128
100
AcDbEntity
  8
R-DOOR-DETL
  6
CONTINUOUS
 62
     3
100
AcDbLine
 10
11.658477
 20
10.996413
 30
0.0
 11
11.658477
 21
10.388896
 31
0.0
  0
CIRCLE
  5
129
100
AcDbEntity
  8
R-DOOR-DETL
  6
CONTINUOUS
 62
     3
100
AcDbCircle
 10
12.028061
 20
11.501413
 30
0.0
 40
0.1625
  0
CIRCLE
  5
12A
100
AcDbEntity
  8
R-DOOR-DETL
  6
CONTINUOUS
 62
     3
100
AcDbCircle
 10
12.028061
 20
11.501413
 30
0.0
 40
0.1875
  0
LWPOLYLINE
  5
12B
100
AcDbEntity
  8
R-DOOR-DETL
  6
CONTINUOUS
 62
     3
100
AcDbPolyline
 90
        8
 70
     1
 43
0.0
 10
12.406161
 20
10.408413
 42
0.414214
 10
12.531161
 20
10.533413
 10
12.531161
 20
11.125413
 42
0.414214
 10
12.406161
 20
11.250413
 10
11.649961
 20
11.250413
 42
0.414214
 10
11.524961
 20
11.125413
 10
11.524961
 20
10.533413
 42
0.414214
 10
11.649961
 20
10.408413
  0
LINE
  5
12C
100
AcDbEntity
  8
R-DOOR-DETL
  6
CONTINUOUS
 62
     3
100
AcDbLine
 10
12.51897
 20
10.263896
 30
0.0
 11
11.53697
 21
10.263896
 31
0.0
  0
LINE
  5
12D
100
AcDbEntity
  8
R-DOOR-DETL
  6
CONTINUOUS
 62
     3
100
AcDbLine
 10
12.51897
 20
10.388896
 30
0.0
 11
11.53697
 21
10.388896
 31
0.0
  0
LINE
  5
12E
100
AcDbEntity
  8
R-DOOR-DETL
  6
CONTINUOUS
 62
     3
100
AcDbLine
 10
12.45297
 20
10.996413
 30
0.0
 11
11.60297
 21
10.996413
 31
0.0
  0
LINE
  5
12F
100
AcDbEntity
  8
R-DOOR-DETL
  6
CONTINUOUS
 62
     3
100
AcDbLine
 10
11.973791
 20
11.407413
 30
0.0
 11
12.082332
 21
11.407413
 31
0.0
  0
LINE
  5
130
100
AcDbEntity
  8
R-DOOR-DETL
  6
CONTINUOUS
 62
     3
100
AcDbLine
 10
11.973791
 20
11.595413
 30
0.0
 11
12.082332
 21
11.595413
 31
0.0
  0
LINE
  5
131
100
AcDbEntity
  8
R-DOOR-DETL
  6
CONTINUOUS
 62
     3
100
AcDbLine
 10
12.028061
 20
12.546117
 30
0.0
 11
12.418061
 21
12.546117
 31
0.0
  0
LINE
  5
132
100
AcDbEntity
  8
R-DOOR-DETL
  6
CONTINUOUS
 62
     3
100
AcDbLine
 10
11.638061
 20
12.546117
 30
0.0
 11
12.028061
 21
12.546117
 31
0.0
  0
LINE
  5
133
100
AcDbEntity
  8
R-DOOR-DETL
  6
CONTINUOUS
 62
     3
100
AcDbLine
 10
12.14872
 20
12.560083
 30
0.0
 11
11.90072
 21
12.560083
 31
0.0
  0
TEXT
  5
134
100
AcDbEntity
  8
R-DOOR-ANNO
  6
CONTINUOUS
100
AcDbText
 10
20.892415
 20
0.587893
 30
0.0
 40
0.625
  1
STYLE 22
  7
ROMANS
100
AcDbText
  0
LINE
  5
135
100
AcDbEntity
  8
0
  6
BYBLOCK
 62
     0
100
AcDbLine
 10
11.525584
 20
26.306022
 30
0.0
 11
5.26101
 21
26.306022
 31
0.0
  0
DIMENSION
  5
136
100
AcDbEntity
  8
R-DOOR-ANNO
  6
CONTINUOUS
100
AcDbDimension
  2
*D12
 10
4.942173
 20
31.468522
 30
0.0
 11
4.942173
 21
28.887272
 31
0.0
 12
14.828061
 22
107.877963
 32
0.0
  1
<>\P(132mm)
  3
STANDARD
100
AcDbAlignedDimension
 13
11.775584
 23
26.306022
 33
0.0
 14
9.025584
 24
31.468522
 34
0.0
 50
90.0
100
AcDbRotatedDimension
1001
ACAD
1000
DSTYLE
1002
{
1070
   173
1070
     0
1070
     6
1000

1002
}
  0
LINE
  5
137
100
AcDbEntity
  8
0
  6
BYBLOCK
 62
     0
100
AcDbLine
 10
11.653061
 20
13.243713
 30
0.0
 11
5.26101
 21
13.243713
 31
0.0
  0
DIMENSION
  5
138
100
AcDbEntity
  8
R-DOOR-ANNO
  6
CONTINUOUS
100
AcDbDimension
  2
*D10
 10
4.942173
 20
13.243713
 30
0.0
 11
4.942173
 21
19.774867
 31
0.0
 12
14.828061
 22
107.877963
 32
0.0
  1
GLASS\PCLEAR OPENING\PLESS 8 7/16\P(214mm)
  3
STANDARD
100
AcDbAlignedDimension
 13
11.64047
 23
26.306022
 33
0.0
 14
11.76547
 24
13.243713
 34
0.0
 50
90.0
100
AcDbRotatedDimension
1001
ACAD
1000
DSTYLE
1002
{
1070
   173
1070
     0
1070
     6
1000

1002
}
  0
LINE
  5
139
100
AcDbEntity
  8
R-DOOR-DETL
 62
     3
100
AcDbLine
 10
9.025584
 20
31.468522
 30
0.0
 11
15.025584
 21
31.468522
 31
0.0
  0
HATCH
  5
13A
100
AcDbEntity
  8
R-DOOR-PATT
  6
CONTINUOUS
 62
     5
100
AcDbHatch
 10
0.0
 20
0.0
 30
0.0
210
0.0
220
0.0
230
1.0
  2
ANSI31
 70
     0
 71
     0
 91
        1
 92
        7
 72
     0
 73
     1
 93
        4
 10
9.025583599786273
 20
31.4685216421669
 10
15.02558359978627
 20
31.4685216421669
 10
15.02558359978627
 20
33.4685216421669
 10
9.025583599786273
 20
33.4685216421669
 97
        0
 75
     0
 76
     1
 52
180.0
 41
2.5
 77
     0
 78
     1
 53
225.0
 43
-3.823913
 44
2.33936
 45
0.2209708691207961
 46
-0.2209708691207961
 79
     0
 47
0.011976
 98
        1
 10
12.298385
 20
32.277615
  0
LINE
  5
13B
100
AcDbEntity
  8
R-DOOR-DETL
  6
CONTINUOUS
100
AcDbLine
 10
9.775584
 20
31.468522
 30
0.0
 11
14.275584
 21
31.468522
 31
0.0
  0
INSERT
  5
13C
100
AcDbEntity
  8
R-DOOR-DETL
 62
     3
100
AcDbBlockReference
  2
A$C108A264A
 10
10.07377
 20
29.638522
 30
0.0
  0
INSERT
  5
13D
100
AcDbEntity
  8
R-DOOR-DETL
 62
     3
100
AcDbBlockReference
  2
A$C262D5DC0
 10
9.775584
 20
29.668522
 30
0.0
  0
LINE
  5
13E
100
AcDbEntity
  8
R-DOOR-DETL
 62
     3
100
AcDbLine
 10
14.301055
 20
29.606022
 30
0.0
 11
9.750112
 21
29.606022
 31
0.0
  0
LINE
  5
13F
100
AcDbEntity
  8
R-DOOR-DETL
 62
     3
100
AcDbLine
 10
14.301055
 20
29.556022
 30
0.0
 11
9.750112
 21
29.556022
 31
0.0
  0
POINT
  5
140
100
AcDbEntity
  8
DEFPOINTS
  6
BYBLOCK
 62
     0
100
AcDbPoint
 10
7.62101
 20
13.243713
 30
0.0
  0
ARC
  5
141
100
AcDbEntity
  8
R-DOOR-DETL
 62
     3
100
AcDbCircle
 10
9.775584
 20
31.387272
 30
0.0
 40
0.03125
100
AcDbArc
 50
90.0
 51
180.0
  0
ARC
  5
142
100
AcDbEntity
  8
R-DOOR-DETL
 62
     3
100
AcDbCircle
 10
9.775584
 20
31.387272
 30
0.0
 40
0.08125
100
AcDbArc
 50
90.0
 51
180.0
  0
LINE
  5
143
100
AcDbEntity
  8
R-DOOR-DETL
 62
     3
100
AcDbLine
 10
9.744334
 20
29.556022
 30
0.0
 11
9.694334
 21
29.556022
 31
0.0
  0
LINE
  5
144
100
AcDbEntity
  8
R-DOOR-DETL
 62
     3
100
AcDbLine
 10
9.744334
 20
31.387272
 30
0.0
 11
9.744334
 21
29.556022
 31
0.0
  0
LINE
  5
145
100
AcDbEntity
  8
R-DOOR-DETL
 62
     3
100
AcDbLine
 10
9.694334
 20
31.387272
 30
0.0
 11
9.694334
 21
29.556022
 31
0.0
  0
LINE
  5
146
100
AcDbEntity
  8
R-DOOR-DETL
 62
     3
100
AcDbLine
 10
10.194334
 20
31.418522
 30
0.0
 11
10.194334
 21
31.468522
 31
0.0
  0
LINE
  5
147
100
AcDbEntity
  8
R-DOOR-DETL
 62
     3
100
AcDbLine
 10
10.194334
 20
31.418522
 30
0.0
 11
9.775584
 21
31.418522
 31
0.0
  0
LINE
  5
148
100
AcDbEntity
  8
R-DOOR-DETL
 62
     3
100
AcDbLine
 10
10.194334
 20
31.468522
 30
0.0
 11
9.775584
 21
31.468522
 31
0.0
  0
LINE
  5
149
100
AcDbEntity
  8
R-DOOR-DETL
 62
     3
100
AcDbLine
 10
9.750112
 20
29.606022
 30
0.0
 11
9.750112
 21
29.556022
 31
0.0
  0
LWPOLYLINE
  5
14A
100
AcDbEntity
  8
R-DOOR-DETL
 62
     3
100
AcDbPolyline
 90
        4
 70
     1
 43
0.0
 10
10.791282
 20
29.606022
 10
10.791282
 20
29.668522
 10
10.291282
 20
29.668522
 10
10.291282
 20
29.606022
  0
LINE
  5
14B
100
AcDbEntity
  8
R-DOOR-DETL
  6
CONTINUOUS
 62
     3
100
AcDbLine
 10
11.431584
 20
28.512022
 30
0.0
 11
11.431584
 21
28.302022
 31
0.0
  0
LINE
  5
14C
100
AcDbEntity
  8
R-DOOR-DETL
  6
CONTINUOUS
 62
     3
100
AcDbLine
 10
12.619584
 20
28.512022
 30
0.0
 11
12.619584
 21
28.302022
 31
0.0
  0
LWPOLYLINE
  5
14D
100
AcDbEntity
  8
R-DOOR-DETL
  6
CONTINUOUS
 62
     3
100
AcDbPolyline
 90
       12
 70
     1
 43
0.0
 10
11.475476
 20
25.327355
 42
0.282029
 10
11.559231
 20
25.27603
 10
11.734989
 20
25.27603
 10
11.734989
 20
25.22603
 10
11.559231
 20
25.22603
 42
-0.282029
 10
11.430926
 20
25.304655
 10
11.047314
 20
26.057534
 42
-0.118358
 10
11.037069
 20
26.10021
 10
11.037069
 20
29.306022
 10
11.087069
 20
29.306022
 10
11.087069
 20
26.112213
 42
0.118358
 10
11.097314
 20
26.069538
  0
LWPOLYLINE
  5
14E
100
AcDbEntity
  8
R-DOOR-DETL
  6
CONTINUOUS
 62
     3
100
AcDbPolyline
 90
       72
 70
     0
 43
0.0
 10
12.479603
 20
26.497383
 42
-0.131652
 10
12.475584
 20
26.512383
 10
12.475584
 20
26.946318
 42
0.414214
 10
12.415584
 20
27.006318
 10
12.025584
 20
27.006318
 10
11.635584
 20
27.006318
 42
0.414214
 10
11.575584
 20
26.946318
 10
11.575584
 20
26.512383
 42
-0.131652
 10
11.571564
 20
26.497383
 10
11.285949
 20
26.002682
 42
0.240079
 10
11.284048
 20
25.966413
 10
11.541211
 20
25.388815
 42
0.296213
 10
11.577753
 20
25.365085
 10
11.722669
 20
25.365085
 42
-0.414214
 10
11.732511
 20
25.355242
 10
11.732511
 20
25.28603
 42
-0.414214
 10
11.722511
 20
25.27603
 10
11.556753
 20
25.27603
 42
-0.282029
 10
11.472998
 20
25.327355
 10
11.104836
 20
26.049912
 42
-0.118358
 10
11.094591
 20
26.092587
 10
11.094591
 20
29.291022
 42
-0.414214
 10
11.109591
 20
29.306022
 10
11.179591
 20
29.306022
 42
-0.414214
 10
11.194591
 20
29.291022
 10
11.194591
 20
28.911022
 42
0.414214
 10
11.209591
 20
28.896022
 10
11.229591
 20
28.896022
 42
-0.414214
 10
11.244591
 20
28.881022
 10
11.244591
 20
28.227225
 42
0.414214
 10
11.259591
 20
28.212225
 10
11.325584
 20
28.212225
 42
-0.414214
 10
11.340584
 20
28.197225
 10
11.340584
 20
28.027225
 42
-0.414214
 10
11.325584
 20
28.012225
 10
11.259591
 20
28.012225
 42
0.414214
 10
11.244591
 20
27.997225
 10
11.244591
 20
27.756022
 42
0.414214
 10
11.274591
 20
27.726022
 10
12.025584
 20
27.726022
 10
12.776576
 20
27.726022
 42
0.414214
 10
12.806576
 20
27.756022
 10
12.806576
 20
27.997225
 42
0.414214
 10
12.791576
 20
28.012225
 10
12.725584
 20
28.012225
 42
-0.414214
 10
12.710584
 20
28.027225
 10
12.710584
 20
28.197225
 42
-0.414214
 10
12.725584
 20
28.212225
 10
12.791576
 20
28.212225
 42
0.414214
 10
12.806576
 20
28.227225
 10
12.806576
 20
28.881022
 42
-0.414214
 10
12.821576
 20
28.896022
 10
12.841576
 20
28.896022
 42
0.414214
 10
12.856576
 20
28.911022
 10
12.856576
 20
29.291022
 42
-0.414214
 10
12.871576
 20
29.306022
 10
12.941576
 20
29.306022
 42
-0.414214
 10
12.956576
 20
29.291022
 10
12.956576
 20
26.092587
 42
-0.118358
 10
12.946331
 20
26.049912
 10
12.578169
 20
25.327355
 42
-0.282029
 10
12.494415
 20
25.27603
 10
12.328656
 20
25.27603
 42
-0.414214
 10
12.318656
 20
25.28603
 10
12.318656
 20
25.355242
 42
-0.414214
 10
12.328499
 20
25.365085
 10
12.473414
 20
25.365085
 42
0.296213
 10
12.509956
 20
25.388815
 10
12.767119
 20
25.966413
 42
0.240079
 10
12.765218
 20
26.002682
 10
12.479603
 20
26.497383
 10
12.475584
 20
26.504344
  0
LWPOLYLINE
  5
14F
100
AcDbEntity
  8
R-DOOR-DETL
  6
CONTINUOUS
 62
     3
100
AcDbPolyline
 90
       12
 70
     1
 43
0.0
 10
12.580647
 20
25.327355
 42
-0.282029
 10
12.496892
 20
25.27603
 10
12.321134
 20
25.27603
 10
12.321134
 20
25.22603
 10
12.496892
 20
25.22603
 42
0.282029
 10
12.625197
 20
25.304655
 10
13.008809
 20
26.057534
 42
0.118358
 10
13.019054
 20
26.10021
 10
13.019054
 20
29.306022
 10
12.969054
 20
29.306022
 10
12.969054
 20
26.112213
 42
-0.118358
 10
12.958809
 20
26.069538
  0
DIMENSION
  5
150
100
AcDbEntity
  8
R-DOOR-ANNO
  6
CONTINUOUS
100
AcDbDimension
  2
*D8
 10
18.721349
 20
29.306022
 30
0.0
 11
17.324206
 21
28.142094
 31
0.0
 12
14.828061
 22
107.877963
 32
0.0
 70
   128
  1
<>\P(6mm)
  3
STANDARD
100
AcDbAlignedDimension
 13
14.356834
 23
29.556022
 33
0.0
 14
13.019054
 24
29.306022
 34
0.0
 50
90.0
100
AcDbRotatedDimension
1001
ACAD
1000
DSTYLE
1002
{
1070
   173
1070
     0
1070
     6
1000

1002
}
  0
DIMENSION
  5
151
100
AcDbEntity
  8
R-DOOR-ANNO
  6
CONTINUOUS
100
AcDbDimension
  2
*D9
 10
13.021554
 20
16.525693
 30
0.0
 11
14.812453
 21
16.525693
 31
0.0
 12
14.828061
 22
107.877963
 32
0.0
 70
   128
  1
2\P(51mm)
  3
STANDARD
100
AcDbAlignedDimension
 13
11.034569
 23
13.49742
 33
0.0
 14
13.021554
 24
13.49742
 34
0.0
100
AcDbRotatedDimension
1001
ACAD
1000
DSTYLE
1002
{
1070
   173
1070
     0
1070
     6
1000

1002
}
  0
MTEXT
  5
152
102
{ACAD_REACTORS
330
153
102
}
100
AcDbEntity
  8
R-DOOR-ANNO
  6
CONTINUOUS
100
AcDbMText
 10
14.248808
 20
13.29001
 30
0.0
 40
0.36
 41
0.0
 71
     4
 72
     1
  1
CLADDING
  7
ROMANS
  0
LEADER
  5
153
100
AcDbEntity
  8
R-DOOR-ANNO
  6
CONTINUOUS
100
AcDbLeader
  3
STANDARD
 73
     0
 74
     0
 75
     1
 40
0.36
 41
2.451429
 76
     3
 10
12.757806
 20
13.97751
 30
0.0
 10
13.958808
 20
13.29001
 30
0.0
 10
14.138808
 20
13.29001
 30
0.0
 77
   256
340
152
213
-0.0199999999999996
223
0.0
233
0.0
1001
ACAD
1000
DSTYLE
1002
{
1070
   173
1070
     1
1070
     6
1000
_DOTSMALL
1002
}
  0
LINE
  5
154
100
AcDbEntity
  8
R-DOOR-DETL
 62
     3
100
AcDbLine
 10
12.269702
 20
17.324014
 30
0.0
 11
12.192323
 21
17.379252
 31
0.0
  0
LINE
  5
155
100
AcDbEntity
  8
R-DOOR-DETL
 62
     3
100
AcDbLine
 10
12.192323
 20
17.379252
 30
0.0
 11
12.067323
 21
17.285502
 31
0.0
  0
LINE
  5
156
100
AcDbEntity
  8
R-DOOR-DETL
 62
     3
100
AcDbLine
 10
11.942323
 20
17.379252
 30
0.0
 11
11.879823
 21
17.285502
 31
0.0
  0
LINE
  5
157
100
AcDbEntity
  8
R-DOOR-DETL
 62
     3
100
AcDbLine
 10
11.879823
 20
17.285502
 30
0.0
 11
11.784276
 21
17.315604
 31
0.0
  0
LINE
  5
158
100
AcDbEntity
  8
R-DOOR-DETL
 62
     3
100
AcDbLine
 10
12.067323
 20
17.285502
 30
0.0
 11
11.942323
 21
17.379252
 31
0.0
  0
ARC
  5
159
100
AcDbEntity
  8
R-DOOR-DETL
  6
CONTINUOUS
 62
     3
100
AcDbCircle
 10
11.580231
 20
14.14735
 30
0.0
 40
0.04
100
AcDbArc
 50
90.0
 51
156.0
  0
LINE
  5
15A
100
AcDbEntity
  8
R-DOOR-DETL
  6
CONTINUOUS
 62
     3
100
AcDbLine
 10
11.725146
 20
14.18735
 30
0.0
 11
11.580231
 21
14.18735
 31
0.0
  0
ARC
  5
15B
100
AcDbEntity
  8
R-DOOR-DETL
  6
CONTINUOUS
 62
     3
100
AcDbCircle
 10
11.725146
 20
14.197193
 30
0.0
 40
0.009843
100
AcDbArc
 50
270.0
 51
0.0
  0
LINE
  5
15C
100
AcDbEntity
  8
R-DOOR-DETL
  6
CONTINUOUS
 62
     3
100
AcDbLine
 10
11.734989
 20
14.266405
 30
0.0
 11
11.734989
 21
14.197193
 31
0.0
  0
ARC
  5
15D
100
AcDbEntity
  8
R-DOOR-DETL
  6
CONTINUOUS
 62
     3
100
AcDbCircle
 10
11.724989
 20
14.266405
 30
0.0
 40
0.01
100
AcDbArc
 50
360.0
 51
90.0
  0
LINE
  5
15E
100
AcDbEntity
  8
R-DOOR-DETL
  6
CONTINUOUS
 62
     3
100
AcDbLine
 10
11.559231
 20
14.276405
 30
0.0
 11
11.724989
 21
14.276405
 31
0.0
  0
ARC
  5
15F
100
AcDbEntity
  8
R-DOOR-DETL
  6
CONTINUOUS
 62
     3
100
AcDbCircle
 10
11.559231
 20
14.182405
 30
0.0
 40
0.094
100
AcDbArc
 50
90.0
 51
153.0
  0
ARC
  5
160
100
AcDbEntity
  8
R-DOOR-DETL
  6
CONTINUOUS
 62
     3
100
AcDbCircle
 10
12.496892
 20
14.182405
 30
0.0
 40
0.094
100
AcDbArc
 50
27.0
 51
90.0
  0
LINE
  5
161
100
AcDbEntity
  8
R-DOOR-DETL
  6
CONTINUOUS
 62
     3
100
AcDbLine
 10
12.331134
 20
14.276405
 30
0.0
 11
12.496892
 21
14.276405
 31
0.0
  0
ARC
  5
162
100
AcDbEntity
  8
R-DOOR-DETL
  6
CONTINUOUS
 62
     3
100
AcDbCircle
 10
12.331134
 20
14.266405
 30
0.0
 40
0.01
100
AcDbArc
 50
90.0
 51
180.0
  0
LINE
  5
163
100
AcDbEntity
  8
R-DOOR-DETL
  6
CONTINUOUS
 62
     3
100
AcDbLine
 10
12.321134
 20
14.197193
 30
0.0
 11
12.321134
 21
14.266405
 31
0.0
  0
ARC
  5
164
100
AcDbEntity
  8
R-DOOR-DETL
  6
CONTINUOUS
 62
     3
100
AcDbCircle
 10
12.330977
 20
14.197193
 30
0.0
 40
0.009842
100
AcDbArc
 50
180.0
 51
270.0
  0
LINE
  5
165
100
AcDbEntity
  8
R-DOOR-DETL
  6
CONTINUOUS
 62
     3
100
AcDbLine
 10
12.475892
 20
14.18735
 30
0.0
 11
12.330977
 21
14.18735
 31
0.0
  0
ARC
  5
166
100
AcDbEntity
  8
R-DOOR-DETL
  6
CONTINUOUS
 62
     3
100
AcDbCircle
 10
12.475892
 20
14.14735
 30
0.0
 40
0.04
100
AcDbArc
 50
24.0
 51
90.0
  0
LINE
  5
167
100
AcDbEntity
  8
R-DOOR-DETL
  6
CONTINUOUS
 62
     3
100
AcDbLine
 10
11.288427
 20
13.549753
 30
0.0
 11
11.574042
 21
13.055052
 31
0.0
  0
ARC
  5
168
100
AcDbEntity
  8
R-DOOR-DETL
  6
CONTINUOUS
 62
     3
100
AcDbCircle
 10
11.323068
 20
13.569753
 30
0.0
 40
0.04
100
AcDbArc
 50
156.0
 51
210.0
  0
ARC
  5
169
100
AcDbEntity
  8
R-DOOR-DETL
  6
CONTINUOUS
 62
     3
100
AcDbCircle
 10
11.191069
 20
13.459848
 30
0.0
 40
0.094
100
AcDbArc
 50
153.0
 51
180.0
  0
POINT
  5
16A
100
AcDbEntity
  8
DEFPOINTS
  6
BYBLOCK
 62
     0
100
AcDbPoint
 10
11.778061
 20
13.243713
 30
0.0
  0
LINE
  5
16B
100
AcDbEntity
  8
R-DOOR-DETL
 62
     3
100
AcDbLine
 10
12.216776
 20
13.243713
 30
0.0
 11
11.841776
 21
13.243713
 31
0.0
  0
LINE
  5
16C
100
AcDbEntity
  8
R-DOOR-DETL
 62
     3
100
AcDbLine
 10
12.274276
 20
13.243713
 30
0.0
 11
11.784276
 21
13.243713
 31
0.0
  0
LINE
  5
16D
100
AcDbEntity
  8
R-DOOR-DETL
  6
CONTINUOUS
 62
     3
100
AcDbLine
 10
11.574042
 20
13.055052
 30
0.0
 11
11.578061
 21
13.048091
 31
0.0
  0
ARC
  5
16E
100
AcDbEntity
  8
R-DOOR-DETL
  6
CONTINUOUS
 62
     3
100
AcDbCircle
 10
12.865054
 20
13.459848
 30
0.0
 40
0.094
100
AcDbArc
 50
0.0
 51
27.0
  0
ARC
  5
16F
100
AcDbEntity
  8
R-DOOR-DETL
  6
CONTINUOUS
 62
     3
100
AcDbCircle
 10
12.733055
 20
13.569753
 30
0.0
 40
0.04
100
AcDbArc
 50
330.0
 51
24.0
  0
LINE
  5
170
100
AcDbEntity
  8
R-DOOR-DETL
  6
CONTINUOUS
 62
     3
100
AcDbLine
 10
12.482081
 20
13.055052
 30
0.0
 11
12.767696
 21
13.549753
 31
0.0
  0
ARC
  5
171
100
AcDbEntity
  8
R-DOOR-DETL
  6
CONTINUOUS
 62
     3
100
AcDbCircle
 10
12.508061
 20
13.040052
 30
0.0
 40
0.03
100
AcDbArc
 50
150.0
 51
180.0
  0
LINE
  5
172
100
AcDbEntity
  8
R-DOOR-DETL
  6
CONTINUOUS
 62
     3
100
AcDbLine
 10
12.478061
 20
12.606117
 30
0.0
 11
12.478061
 21
13.040052
 31
0.0
  0
LINE
  5
173
100
AcDbEntity
  8
R-DOOR-DETL
  6
CONTINUOUS
 62
     3
100
AcDbLine
 10
11.578061
 20
13.040052
 30
0.0
 11
11.578061
 21
12.606117
 31
0.0
  0
ARC
  5
174
100
AcDbEntity
  8
R-DOOR-DETL
  6
CONTINUOUS
 62
     3
100
AcDbCircle
 10
11.548061
 20
13.040052
 30
0.0
 40
0.03
100
AcDbArc
 50
0.0
 51
30.0
  0
LWPOLYLINE
  5
175
100
AcDbEntity
  8
R-DOOR-DETL
  6
CONTINUOUS
 62
     3
100
AcDbPolyline
 90
        4
 70
     1
 43
0.0
 10
12.059859
 20
13.193713
 10
12.309859
 20
13.193713
 10
12.309859
 20
13.243713
 10
12.059859
 20
13.243713
  0
LINE
  5
176
100
AcDbEntity
  8
R-DOOR-DETL
  6
CONTINUOUS
 62
     3
100
AcDbLine
 10
12.275155
 20
12.913442
 30
0.0
 11
12.275155
 21
12.788442
 31
0.0
  0
LWPOLYLINE
  5
177
100
AcDbEntity
  8
R-DOOR-DETL
  6
CONTINUOUS
 62
     3
100
AcDbPolyline
 90
        4
 70
     1
 43
0.0
 10
11.994118
 20
13.193713
 10
11.744118
 20
13.193713
 10
11.744118
 20
13.243713
 10
11.994118
 20
13.243713
  0
LINE
  5
178
100
AcDbEntity
  8
R-DOOR-DETL
  6
CONTINUOUS
 62
     3
100
AcDbLine
 10
11.775155
 20
12.913442
 30
0.0
 11
11.775155
 21
12.788442
 31
0.0
  0
LINE
  5
179
100
AcDbEntity
  8
R-DOOR-DETL
  6
CONTINUOUS
 62
     3
100
AcDbLine
 10
12.275155
 20
12.788442
 30
0.0
 11
11.775155
 21
12.788442
 31
0.0
  0
LINE
  5
17A
100
AcDbEntity
  8
R-DOOR-DETL
  6
CONTINUOUS
 62
     3
100
AcDbLine
 10
12.275155
 20
12.913442
 30
0.0
 11
11.775155
 21
12.913442
 31
0.0
  0
LINE
  5
17B
100
AcDbEntity
  8
R-DOOR-DETL
  6
CONTINUOUS
 62
     3
100
AcDbLine
 10
12.14872
 20
12.800083
 30
0.0
 11
11.90072
 21
12.800083
 31
0.0
  0
LINE
  5
17C
100
AcDbEntity
  8
R-DOOR-DETL
  6
CONTINUOUS
 62
     3
100
AcDbLine
 10
12.14872
 20
12.680083
 30
0.0
 11
11.90072
 21
12.680083
 31
0.0
  0
LINE
  5
17D
100
AcDbEntity
  8
R-DOOR-DETL
  6
CONTINUOUS
 62
     3
100
AcDbLine
 10
12.14872
 20
12.620083
 30
0.0
 11
11.90072
 21
12.620083
 31
0.0
  0
LINE
  5
17E
100
AcDbEntity
  8
R-DOOR-DETL
  6
CONTINUOUS
 62
     3
100
AcDbLine
 10
12.14872
 20
12.740083
 30
0.0
 11
11.90072
 21
12.740083
 31
0.0
  0
LINE
  5
17F
100
AcDbEntity
  8
R-DOOR-DETL
  6
CONTINUOUS
 62
     3
100
AcDbLine
 10
12.11872
 20
12.710083
 30
0.0
 11
11.93072
 21
12.710083
 31
0.0
  0
LINE
  5
180
100
AcDbEntity
  8
R-DOOR-DETL
  6
CONTINUOUS
 62
     3
100
AcDbLine
 10
12.11872
 20
12.590083
 30
0.0
 11
11.93072
 21
12.590083
 31
0.0
  0
LINE
  5
181
100
AcDbEntity
  8
R-DOOR-DETL
  6
CONTINUOUS
 62
     3
100
AcDbLine
 10
12.11872
 20
12.650083
 30
0.0
 11
11.93072
 21
12.650083
 31
0.0
  0
LINE
  5
182
100
AcDbEntity
  8
R-DOOR-DETL
  6
CONTINUOUS
 62
     3
100
AcDbLine
 10
12.11872
 20
12.770083
 30
0.0
 11
11.93072
 21
12.770083
 31
0.0
  0
LINE
  5
183
100
AcDbEntity
  8
R-DOOR-DETL
  6
CONTINUOUS
 62
     3
100
AcDbLine
 10
12.14872
 20
12.860083
 30
0.0
 11
11.90072
 21
12.860083
 31
0.0
  0
LINE
  5
184
100
AcDbEntity
  8
R-DOOR-DETL
  6
CONTINUOUS
 62
     3
100
AcDbLine
 10
12.14872
 20
12.920083
 30
0.0
 11
11.90072
 21
12.920083
 31
0.0
  0
LINE
  5
185
100
AcDbEntity
  8
R-DOOR-DETL
  6
CONTINUOUS
 62
     3
100
AcDbLine
 10
12.11872
 20
12.830083
 30
0.0
 11
11.93072
 21
12.830083
 31
0.0
  0
LINE
  5
186
100
AcDbEntity
  8
R-DOOR-DETL
  6
CONTINUOUS
 62
     3
100
AcDbLine
 10
12.11872
 20
12.890083
 30
0.0
 11
11.93072
 21
12.890083
 31
0.0
  0
LINE
  5
187
100
AcDbEntity
  8
R-DOOR-DETL
  6
CONTINUOUS
 62
     3
100
AcDbLine
 10
12.11872
 20
12.950083
 30
0.0
 11
11.93072
 21
12.950083
 31
0.0
  0
LINE
  5
188
100
AcDbEntity
  8
R-DOOR-DETL
  6
CONTINUOUS
 62
     3
100
AcDbLine
 10
11.543689
 20
14.16362
 30
0.0
 11
11.286526
 21
13.586022
 31
0.0
  0
LINE
  5
189
100
AcDbEntity
  8
R-DOOR-DETL
  6
CONTINUOUS
 62
     3
100
AcDbLine
 10
11.107314
 20
13.502523
 30
0.0
 11
11.475476
 21
14.22508
 31
0.0
  0
LWPOLYLINE
  5
18A
100
AcDbEntity
  8
R-DOOR-DETL
  6
CONTINUOUS
 62
     3
100
AcDbPolyline
 90
       29
 70
     1
 43
0.0
 10
11.877411
 20
12.766713
 10
11.877411
 20
12.651713
 42
-0.414214
 10
11.862411
 20
12.636713
 10
11.710411
 20
12.636713
 42
-0.414214
 10
11.616411
 20
12.730713
 10
11.616411
 20
12.98563
 42
0.136094
 10
11.612126
 20
13.001081
 10
11.334034
 20
13.463904
 42
-0.414214
 10
11.344298
 20
13.50507
 10
11.404299
 20
13.541123
 42
-0.136094
 10
11.41975
 20
13.545408
 10
11.535997
 20
13.545408
 42
0.400921
 10
11.565966
 20
13.574041
 10
11.588358
 20
14.06477
 42
-0.400921
 10
11.628316
 20
14.102947
 10
11.734276
 20
14.102947
 42
-0.843039
 10
11.740837
 20
14.064703
 42
0.317837
 10
11.734276
 20
14.055423
 10
11.734276
 20
13.203556
 42
0.414214
 10
11.744118
 20
13.193713
 10
11.976411
 20
13.193713
 42
-0.414214
 10
11.991411
 20
13.178713
 10
11.991411
 20
13.063713
 42
-0.414214
 10
11.976411
 20
13.048713
 10
11.886411
 20
13.048713
 42
0.414214
 10
11.761411
 20
12.923713
 10
11.761411
 20
12.796713
 42
0.414214
 10
11.776411
 20
12.781713
 10
11.862411
 20
12.781713
 42
-0.414214
  0
LINE
  5
18B
100
AcDbEntity
  8
R-DOOR-DETL
 62
     3
100
AcDbLine
 10
12.033161
 20
17.673975
 30
0.0
 11
12.033161
 21
13.243713
 31
0.0
  0
LINE
  5
18C
100
AcDbEntity
  8
R-DOOR-DETL
 62
     3
100
AcDbLine
 10
12.216776
 20
17.361796
 30
0.0
 11
12.216776
 21
13.243713
 31
0.0
  0
LINE
  5
18D
100
AcDbEntity
  8
R-DOOR-DETL
 62
     3
100
AcDbLine
 10
12.154276
 20
17.350716
 30
0.0
 11
12.154276
 21
13.243713
 31
0.0
  0
LINE
  5
18E
100
AcDbEntity
  8
R-DOOR-DETL
 62
     3
100
AcDbLine
 10
12.091776
 20
17.303841
 30
0.0
 11
12.091776
 21
13.243713
 31
0.0
  0
LINE
  5
18F
100
AcDbEntity
  8
R-DOOR-DETL
 62
     3
100
AcDbLine
 10
11.966776
 20
17.360912
 30
0.0
 11
11.966776
 21
13.243713
 31
0.0
  0
LINE
  5
190
100
AcDbEntity
  8
R-DOOR-DETL
 62
     3
100
AcDbLine
 10
11.904276
 20
17.322181
 30
0.0
 11
11.904276
 21
13.243713
 31
0.0
  0
LINE
  5
191
100
AcDbEntity
  8
R-DOOR-DETL
 62
     3
100
AcDbLine
 10
11.841776
 20
17.297489
 30
0.0
 11
11.841776
 21
13.243713
 31
0.0
  0
LINE
  5
192
100
AcDbEntity
  8
R-DOOR-DETL
 62
     3
100
AcDbLine
 10
11.784276
 20
17.315604
 30
0.0
 11
11.784276
 21
13.243713
 31
0.0
  0
LINE
  5
193
100
AcDbEntity
  8
R-DOOR-DETL
 62
     3
100
AcDbLine
 10
12.269702
 20
17.324014
 30
0.0
 11
12.269702
 21
13.243713
 31
0.0
  0
LINE
  5
194
100
AcDbEntity
  8
R-DOOR-DETL
  6
CONTINUOUS
 62
     3
100
AcDbLine
 10
12.580647
 20
14.22508
 30
0.0
 11
12.948809
 21
13.502523
 31
0.0
  0
LINE
  5
195
100
AcDbEntity
  8
R-DOOR-DETL
  6
CONTINUOUS
 62
     3
100
AcDbLine
 10
12.769597
 20
13.586022
 30
0.0
 11
12.512434
 21
14.16362
 31
0.0
  0
LWPOLYLINE
  5
196
100
AcDbEntity
  8
R-DOOR-DETL
  6
CONTINUOUS
 62
     3
100
AcDbPolyline
 90
       29
 70
     1
 43
0.0
 10
12.176566
 20
12.766713
 10
12.176566
 20
12.651713
 42
0.414214
 10
12.191566
 20
12.636713
 10
12.343566
 20
12.636713
 42
0.414214
 10
12.437566
 20
12.730713
 10
12.437566
 20
12.98563
 42
-0.136094
 10
12.441851
 20
13.001081
 10
12.719944
 20
13.463904
 42
0.414214
 10
12.70968
 20
13.50507
 10
12.649678
 20
13.541123
 42
0.136094
 10
12.634227
 20
13.545408
 10
12.51798
 20
13.545408
 42
-0.400921
 10
12.488011
 20
13.574041
 10
12.46562
 20
14.06477
 42
0.400921
 10
12.425662
 20
14.102947
 10
12.319702
 20
14.102947
 42
0.843039
 10
12.31314
 20
14.064703
 42
-0.317837
 10
12.319702
 20
14.055423
 10
12.319702
 20
13.203556
 42
-0.414214
 10
12.309859
 20
13.193713
 10
12.077566
 20
13.193713
 42
0.414214
 10
12.062566
 20
13.178713
 10
12.062566
 20
13.063713
 42
0.414214
 10
12.077566
 20
13.048713
 10
12.167566
 20
13.048713
 42
-0.414214
 10
12.292566
 20
12.923713
 10
12.292566
 20
12.796713
 42
-0.414214
 10
12.277566
 20
12.781713
 10
12.191566
 20
12.781713
 42
0.414214
  0
LWPOLYLINE
  5
197
100
AcDbEntity
  8
R-DOOR-DETL
  6
CONTINUOUS
 62
     3
100
AcDbPolyline
 90
        4
 70
     1
 43
0.0
 10
12.319702
 20
13.305423
 10
12.319702
 20
14.055423
 10
12.269702
 20
14.055423
 10
12.269702
 20
13.305423
  0
LWPOLYLINE
  5
198
100
AcDbEntity
  8
R-DOOR-DETL
  6
CONTINUOUS
 62
     3
100
AcDbPolyline
 90
        4
 70
     1
 43
0.0
 10
11.734276
 20
13.305423
 10
11.734276
 20
14.055423
 10
11.784276
 20
14.055423
 10
11.784276
 20
13.305423
  0
MTEXT
  5
199
102
{ACAD_REACTORS
330
19C
102
}
100
AcDbEntity
  8
R-DOOR-ANNO
  6
CONTINUOUS
100
AcDbMText
 10
14.248808
 20
24.919079
 30
0.0
 40
0.36
 41
0.0
 71
     4
 72
     1
  1
CLADDING
  7
ROMANS
  0
MTEXT
  5
19A
102
{ACAD_REACTORS
330
19D
102
}
100
AcDbEntity
  8
R-DOOR-ANNO
  6
CONTINUOUS
100
AcDbMText
 10
14.248808
 20
26.796712
 30
0.0
 40
0.36
 41
0.0
 71
     4
 72
     1
  1
SHOE
  7
ROMANS
  0
MTEXT
  5
19B
102
{ACAD_REACTORS
330
19E
102
}
100
AcDbEntity
  8
R-DOOR-ANNO
  6
CONTINUOUS
100
AcDbMText
 10
14.256851
 20
25.635983
 30
0.0
 40
0.36
 41
0.0
 71
     4
 72
     1
  1
GLASS CLAMP
  7
ROMANS
  0
LEADER
  5
19C
100
AcDbEntity
  8
R-DOOR-ANNO
  6
CONTINUOUS
100
AcDbLeader
  3
STANDARD
 73
     0
 74
     0
 75
     1
 40
0.36
 41
2.451429
 76
     3
 10
12.757806
 20
25.606579
 30
0.0
 10
13.958808
 20
24.919079
 30
0.0
 10
14.138808
 20
24.919079
 30
0.0
 77
   256
340
199
213
-0.0199999999999996
223
0.0
233
0.0
1001
ACAD
1000
DSTYLE
1002
{
1070
   173
1070
     1
1070
     6
1000
_DOTSMALL
1002
}
  0
LEADER
  5
19D
100
AcDbEntity
  8
R-DOOR-ANNO
  6
CONTINUOUS
100
AcDbLeader
  3
STANDARD
 73
     0
 74
     0
 75
     1
 40
0.36
 41
1.337143
 76
     3
 10
12.732748
 20
27.484212
 30
0.0
 10
13.958808
 20
26.796712
 30
0.0
 10
14.138808
 20
26.796712
 30
0.0
 77
   256
340
19A
213
-0.0199999999999996
223
0.0
233
0.0
1001
ACAD
1000
DSTYLE
1002
{
1070
   173
1070
     1
1070
     6
1000
_DOTSMALL
1002
}
  0
LEADER
  5
19E
100
AcDbEntity
  8
R-DOOR-ANNO
  6
CONTINUOUS
100
AcDbLeader
  3
STANDARD
 73
     0
 74
     0
 75
     1
 40
0.36
 41
3.634286
 76
     3
 10
12.317224
 20
26.448483
 30
0.0
 10
13.966851
 20
25.635983
 30
0.0
 10
14.146851
 20
25.635983
 30
0.0
 77
   256
340
19B
213
-0.0199999999999996
223
0.0
233
0.0
1001
ACAD
1000
DSTYLE
1002
{
1070
   173
1070
     1
1070
     6
1000
_DOTSMALL
1002
}
  0
LINE
  5
19F
100
AcDbEntity
  8
R-DOOR-DETL
  6
CONTINUOUS
 62
     3
100
AcDbLine
 10
12.619584
 20
28.302022
 30
0.0
 11
11.431584
 21
28.302022
 31
0.0
  0
LINE
  5
1A0
100
AcDbEntity
  8
R-DOOR-DETL
  6
CONTINUOUS
 62
     3
100
AcDbLine
 10
12.708084
 20
28.276022
 30
0.0
 11
11.343084
 21
28.276022
 31
0.0
  0
LINE
  5
1A1
100
AcDbEntity
  8
R-DOOR-DETL
  6
CONTINUOUS
 62
     3
100
AcDbLine
 10
12.479774
 20
28.155565
 30
0.0
 11
12.374642
 21
28.128573
 31
0.0
  0
LINE
  5
1A2
100
AcDbEntity
  8
R-DOOR-DETL
  6
CONTINUOUS
 62
     3
100
AcDbLine
 10
12.555716
 20
28.078014
 30
0.0
 11
12.479774
 21
28.155565
 31
0.0
  0
LINE
  5
1A3
100
AcDbEntity
  8
R-DOOR-DETL
  6
CONTINUOUS
 62
     3
100
AcDbLine
 10
11.611235
 20
28.15904
 30
0.0
 11
11.699456
 21
28.095806
 31
0.0
  0
LINE
  5
1A4
100
AcDbEntity
  8
R-DOOR-DETL
  6
CONTINUOUS
 62
     3
100
AcDbLine
 10
11.512363
 20
28.114255
 30
0.0
 11
11.611235
 21
28.15904
 31
0.0
  0
LINE
  5
1A5
100
AcDbEntity
  8
R-DOOR-DETL
  6
CONTINUOUS
 62
     3
100
AcDbLine
 10
12.079855
 20
28.145022
 30
0.0
 11
11.971313
 21
28.145022
 31
0.0
  0
LWPOLYLINE
  5
1A6
100
AcDbEntity
  8
R-DOOR-DETL
  6
CONTINUOUS
 62
     3
100
AcDbPolyline
 90
       29
 70
     1
 43
0.0
 10
11.873918
 20
26.783127
 10
11.873918
 20
26.898127
 42
0.414214
 10
11.858918
 20
26.913127
 10
11.706918
 20
26.913127
 42
0.414214
 10
11.612918
 20
26.819127
 10
11.612918
 20
26.56421
 42
-0.136094
 10
11.608633
 20
26.548759
 10
11.330541
 20
26.085936
 42
0.414214
 10
11.340805
 20
26.04477
 10
11.400807
 20
26.008717
 42
0.136094
 10
11.416258
 20
26.004432
 10
11.532505
 20
26.004432
 42
-0.400921
 10
11.562474
 20
25.975799
 10
11.584865
 20
25.48507
 42
0.400921
 10
11.624823
 20
25.446893
 10
11.730783
 20
25.446893
 42
0.843039
 10
11.737345
 20
25.485137
 42
-0.317837
 10
11.730783
 20
25.494417
 10
11.730783
 20
26.346284
 42
-0.414214
 10
11.740625
 20
26.356127
 10
11.972918
 20
26.356127
 42
0.414214
 10
11.987918
 20
26.371127
 10
11.987918
 20
26.486127
 42
0.414214
 10
11.972918
 20
26.501127
 10
11.882918
 20
26.501127
 42
-0.414214
 10
11.757918
 20
26.626127
 10
11.757918
 20
26.753127
 42
-0.414214
 10
11.772918
 20
26.768127
 10
11.858918
 20
26.768127
 42
0.414214
  0
LWPOLYLINE
  5
1A7
100
AcDbEntity
  8
R-DOOR-DETL
  6
CONTINUOUS
 62
     3
100
AcDbPolyline
 90
       21
 70
     1
 43
0.0
 10
11.896474
 20
27.390525
 42
0.939516
 10
11.980686
 20
27.441104
 42
-2.169752
 10
12.070482
 20
27.441104
 42
0.939516
 10
12.154693
 20
27.390525
 42
0.106196
 10
12.17983
 20
27.451393
 42
-0.362414
 10
12.209345
 20
27.476022
 10
12.497872
 20
27.476022
 42
-0.414214
 10
12.528872
 20
27.445022
 10
12.528872
 20
27.284979
 42
0.564167
 10
12.600977
 20
27.241415
 42
-1.903207
 10
12.61157
 20
27.144729
 42
0.226984
 10
12.570688
 20
27.156318
 10
12.025584
 20
27.156318
 10
11.480479
 20
27.156318
 42
0.226984
 10
11.439597
 20
27.144729
 42
-1.903207
 10
11.450191
 20
27.241415
 42
0.564167
 10
11.522295
 20
27.284979
 10
11.522295
 20
27.445022
 42
-0.414214
 10
11.553295
 20
27.476022
 10
11.841823
 20
27.476022
 42
-0.362414
 10
11.871338
 20
27.451393
 42
0.106196
  0
LINE
  5
1A8
100
AcDbEntity
  8
R-DOOR-DETL
  6
CONTINUOUS
 62
     3
100
AcDbLine
 10
12.708084
 20
27.726022
 30
0.0
 11
11.343084
 21
27.726022
 31
0.0
  0
LINE
  5
1A9
100
AcDbEntity
  8
R-DOOR-DETL
  6
CONTINUOUS
 62
     3
100
AcDbLine
 10
12.708084
 20
27.851022
 30
0.0
 11
11.343084
 21
27.851022
 31
0.0
  0
LINE
  5
1AA
100
AcDbEntity
  8
R-DOOR-DETL
100
AcDbLine
 10
12.027781
 20
26.306127
 30
0.0
 11
12.027781
 21
21.902833
 31
0.0
  0
LINE
  5
1AB
100
AcDbEntity
  8
R-DOOR-DETL
 62
     3
100
AcDbLine
 10
12.272781
 20
26.306127
 30
0.0
 11
12.272781
 21
22.280867
 31
0.0
  0
POINT
  5
1AC
100
AcDbEntity
  8
DEFPOINTS
  6
BYBLOCK
 62
     0
100
AcDbPoint
 10
11.650584
 20
26.306022
 30
0.0
  0
LINE
  5
1AD
100
AcDbEntity
  8
R-DOOR-DETL
 62
     3
100
AcDbLine
 10
11.782781
 20
26.306127
 30
0.0
 11
12.272781
 21
26.306127
 31
0.0
  0
LINE
  5
1AE
100
AcDbEntity
  8
R-DOOR-DETL
 62
     3
100
AcDbLine
 10
11.840281
 20
26.306127
 30
0.0
 11
12.215281
 21
26.306127
 31
0.0
  0
LINE
  5
1AF
100
AcDbEntity
  8
R-DOOR-DETL
 62
     3
100
AcDbLine
 10
12.177234
 20
22.31034
 30
0.0
 11
12.270783
 21
22.280867
 31
0.0
  0
LINE
  5
1B0
100
AcDbEntity
  8
R-DOOR-DETL
 62
     3
100
AcDbLine
 10
12.114734
 20
22.21659
 30
0.0
 11
12.177234
 21
22.31034
 31
0.0
  0
LINE
  5
1B1
100
AcDbEntity
  8
R-DOOR-DETL
 62
     3
100
AcDbLine
 10
11.864734
 20
22.21659
 30
0.0
 11
11.989734
 21
22.31034
 31
0.0
  0
LINE
  5
1B2
100
AcDbEntity
  8
R-DOOR-DETL
 62
     3
100
AcDbLine
 10
11.780783
 20
22.276519
 30
0.0
 11
11.864734
 21
22.21659
 31
0.0
  0
LINE
  5
1B3
100
AcDbEntity
  8
R-DOOR-DETL
 62
     3
100
AcDbLine
 10
11.989734
 20
22.31034
 30
0.0
 11
12.114734
 21
22.21659
 31
0.0
  0
LINE
  5
1B4
100
AcDbEntity
  8
R-DOOR-DETL
 62
     3
100
AcDbLine
 10
12.215281
 20
22.298353
 30
0.0
 11
12.215281
 21
26.306127
 31
0.0
  0
LINE
  5
1B5
100
AcDbEntity
  8
R-DOOR-DETL
 62
     3
100
AcDbLine
 10
11.780783
 20
22.276519
 30
0.0
 11
11.780783
 21
26.306127
 31
0.0
  0
LINE
  5
1B6
100
AcDbEntity
  8
R-DOOR-DETL
 62
     3
100
AcDbLine
 10
12.152781
 20
22.273661
 30
0.0
 11
12.152781
 21
26.306127
 31
0.0
  0
LINE
  5
1B7
100
AcDbEntity
  8
R-DOOR-DETL
 62
     3
100
AcDbLine
 10
12.090281
 20
22.23493
 30
0.0
 11
12.090281
 21
26.306127
 31
0.0
  0
LINE
  5
1B8
100
AcDbEntity
  8
R-DOOR-DETL
 62
     3
100
AcDbLine
 10
11.965281
 20
22.292001
 30
0.0
 11
11.965281
 21
26.306127
 31
0.0
  0
LINE
  5
1B9
100
AcDbEntity
  8
R-DOOR-DETL
 62
     3
100
AcDbLine
 10
11.902781
 20
22.245126
 30
0.0
 11
11.902781
 21
26.306127
 31
0.0
  0
LINE
  5
1BA
100
AcDbEntity
  8
R-DOOR-DETL
 62
     3
100
AcDbLine
 10
11.840281
 20
22.234046
 30
0.0
 11
11.840281
 21
26.306127
 31
0.0
  0
LINE
  5
1BB
100
AcDbEntity
  8
R-DOOR-DETL
 62
     3
100
AcDbLine
 10
12.270783
 20
26.306127
 30
0.0
 11
11.780783
 21
26.306127
 31
0.0
  0
LINE
  5
1BC
100
AcDbEntity
  8
R-DOOR-DETL
  6
CONTINUOUS
 62
     3
100
AcDbLine
 10
12.134125
 20
28.051022
 30
0.0
 11
12.079855
 21
27.957022
 31
0.0
  0
LINE
  5
1BD
100
AcDbEntity
  8
R-DOOR-DETL
  6
CONTINUOUS
 62
     3
100
AcDbLine
 10
12.421393
 20
27.946479
 30
0.0
 11
12.345451
 21
28.02403
 31
0.0
  0
LINE
  5
1BE
100
AcDbEntity
  8
R-DOOR-DETL
  6
CONTINUOUS
 62
     3
100
AcDbLine
 10
12.526525
 20
27.973471
 30
0.0
 11
12.421393
 21
27.946479
 31
0.0
  0
LINE
  5
1BF
100
AcDbEntity
  8
R-DOOR-DETL
 62
     3
100
AcDbLine
 10
12.280566
 20
26.632486
 30
0.0
 11
12.280566
 21
26.757486
 31
0.0
  0
LWPOLYLINE
  5
1C0
100
AcDbEntity
  8
R-DOOR-DETL
 62
     3
100
AcDbPolyline
 90
        4
 70
     1
 43
0.0
 10
12.062939
 20
26.356127
 10
12.312939
 20
26.356127
 10
12.312939
 20
26.306127
 10
12.062939
 20
26.306127
  0
LWPOLYLINE
  5
1C1
100
AcDbEntity
  8
R-DOOR-DETL
 62
     3
100
AcDbPolyline
 90
        4
 70
     1
 43
0.0
 10
12.322781
 20
26.244417
 10
12.322781
 20
25.494417
 10
12.272781
 20
25.494417
 10
12.272781
 20
26.244417
  0
LWPOLYLINE
  5
1C2
100
AcDbEntity
  8
R-DOOR-DETL
  6
CONTINUOUS
 62
     3
100
AcDbPolyline
 90
       29
 70
     1
 43
0.0
 10
12.179646
 20
26.783127
 10
12.179646
 20
26.898127
 42
-0.414214
 10
12.194646
 20
26.913127
 10
12.346646
 20
26.913127
 42
-0.414214
 10
12.440646
 20
26.819127
 10
12.440646
 20
26.56421
 42
0.136094
 10
12.444931
 20
26.548759
 10
12.723023
 20
26.085936
 42
-0.414214
 10
12.712759
 20
26.04477
 10
12.652758
 20
26.008717
 42
-0.136094
 10
12.637306
 20
26.004432
 10
12.521059
 20
26.004432
 42
0.400921
 10
12.49109
 20
25.975799
 10
12.468699
 20
25.48507
 42
-0.400921
 10
12.428741
 20
25.446893
 10
12.322781
 20
25.446893
 42
-0.843039
 10
12.31622
 20
25.485137
 42
0.317837
 10
12.322781
 20
25.494417
 10
12.322781
 20
26.346284
 42
0.414214
 10
12.312939
 20
26.356127
 10
12.080646
 20
26.356127
 42
-0.414214
 10
12.065646
 20
26.371127
 10
12.065646
 20
26.486127
 42
-0.414214
 10
12.080646
 20
26.501127
 10
12.170646
 20
26.501127
 42
0.414214
 10
12.295646
 20
26.626127
 10
12.295646
 20
26.753127
 42
0.414214
 10
12.280646
 20
26.768127
 10
12.194646
 20
26.768127
 42
-0.414214
  0
LINE
  5
1C3
100
AcDbEntity
  8
R-DOOR-DETL
  6
CONTINUOUS
 62
     3
100
AcDbLine
 10
11.917042
 20
28.051022
 30
0.0
 11
11.971313
 21
27.957022
 31
0.0
  0
LINE
  5
1C4
100
AcDbEntity
  8
R-DOOR-DETL
  6
CONTINUOUS
 62
     3
100
AcDbLine
 10
11.501712
 20
28.006237
 30
0.0
 11
11.589932
 21
27.943004
 31
0.0
  0
LINE
  5
1C5
100
AcDbEntity
  8
R-DOOR-DETL
  6
CONTINUOUS
 62
     3
100
AcDbLine
 10
11.589932
 20
27.943004
 30
0.0
 11
11.688804
 21
27.987788
 31
0.0
  0
LINE
  5
1C6
100
AcDbEntity
  8
R-DOOR-DETL
 62
     3
100
AcDbLine
 10
11.780566
 20
26.632486
 30
0.0
 11
11.780566
 21
26.757486
 31
0.0
  0
LWPOLYLINE
  5
1C7
100
AcDbEntity
  8
R-DOOR-DETL
 62
     3
100
AcDbPolyline
 90
        4
 70
     1
 43
0.0
 10
11.985862
 20
26.356127
 10
11.735862
 20
26.356127
 10
11.735862
 20
26.306127
 10
11.985862
 20
26.306127
  0
LWPOLYLINE
  5
1C8
100
AcDbEntity
  8
R-DOOR-DETL
 62
     3
100
AcDbPolyline
 90
        4
 70
     1
 43
0.0
 10
11.730783
 20
26.244417
 10
11.730783
 20
25.494417
 10
11.780783
 20
25.494417
 10
11.780783
 20
26.244417
  0
LINE
  5
1C9
100
AcDbEntity
  8
R-DOOR-DETL
 62
     3
100
AcDbLine
 10
11.780566
 20
26.632486
 30
0.0
 11
12.280566
 21
26.632486
 31
0.0
  0
LINE
  5
1CA
100
AcDbEntity
  8
R-DOOR-DETL
 62
     3
100
AcDbLine
 10
11.780566
 20
26.757486
 30
0.0
 11
12.280566
 21
26.757486
 31
0.0
  0
LINE
  5
1CB
100
AcDbEntity
  8
R-DOOR-DETL
 62
     3
100
AcDbLine
 10
11.936566
 20
26.602352
 30
0.0
 11
12.124566
 21
26.602352
 31
0.0
  0
LINE
  5
1CC
100
AcDbEntity
  8
R-DOOR-DETL
 62
     3
100
AcDbLine
 10
11.936566
 20
26.662352
 30
0.0
 11
12.124566
 21
26.662352
 31
0.0
  0
LINE
  5
1CD
100
AcDbEntity
  8
R-DOOR-DETL
 62
     3
100
AcDbLine
 10
11.936566
 20
26.722352
 30
0.0
 11
12.124566
 21
26.722352
 31
0.0
  0
LINE
  5
1CE
100
AcDbEntity
  8
R-DOOR-DETL
 62
     3
100
AcDbLine
 10
11.936566
 20
26.782352
 30
0.0
 11
12.124566
 21
26.782352
 31
0.0
  0
LINE
  5
1CF
100
AcDbEntity
  8
R-DOOR-DETL
  6
CONTINUOUS
 62
     3
100
AcDbLine
 10
11.936566
 20
26.842352
 30
0.0
 11
12.124566
 21
26.842352
 31
0.0
  0
LINE
  5
1D0
100
AcDbEntity
  8
R-DOOR-DETL
 62
     3
100
AcDbLine
 10
11.906566
 20
26.632352
 30
0.0
 11
12.154566
 21
26.632352
 31
0.0
  0
LINE
  5
1D1
100
AcDbEntity
  8
R-DOOR-DETL
 62
     3
100
AcDbLine
 10
11.906566
 20
26.692352
 30
0.0
 11
12.154566
 21
26.692352
 31
0.0
  0
LINE
  5
1D2
100
AcDbEntity
  8
R-DOOR-DETL
 62
     3
100
AcDbLine
 10
11.906566
 20
26.812352
 30
0.0
 11
12.154566
 21
26.812352
 31
0.0
  0
LINE
  5
1D3
100
AcDbEntity
  8
R-DOOR-DETL
  6
CONTINUOUS
 62
     3
100
AcDbLine
 10
11.906566
 20
26.872352
 30
0.0
 11
12.154566
 21
26.872352
 31
0.0
  0
LINE
  5
1D4
100
AcDbEntity
  8
R-DOOR-DETL
 62
     3
100
AcDbLine
 10
11.906566
 20
26.752352
 30
0.0
 11
12.154566
 21
26.752352
 31
0.0
  0
LINE
  5
1D5
100
AcDbEntity
  8
R-DOOR-DETL
  6
CONTINUOUS
 62
     3
100
AcDbLine
 10
12.079855
 20
27.957022
 30
0.0
 11
11.971313
 21
27.957022
 31
0.0
  0
LINE
  5
1D6
100
AcDbEntity
  8
R-DOOR-DETL
  6
CONTINUOUS
 62
     3
100
AcDbLine
 10
11.936566
 20
26.902352
 30
0.0
 11
12.124566
 21
26.902352
 31
0.0
  0
LINE
  5
1D7
100
AcDbEntity
  8
R-DOOR-DETL
  6
CONTINUOUS
 62
     3
100
AcDbLine
 10
11.936566
 20
26.962352
 30
0.0
 11
12.124566
 21
26.962352
 31
0.0
  0
LINE
  5
1D8
100
AcDbEntity
  8
R-DOOR-DETL
  6
CONTINUOUS
 62
     3
100
AcDbLine
 10
11.906566
 20
26.932352
 30
0.0
 11
12.154566
 21
26.932352
 31
0.0
  0
LINE
  5
1D9
100
AcDbEntity
  8
R-DOOR-DETL
  6
CONTINUOUS
 62
     3
100
AcDbLine
 10
11.906566
 20
26.992352
 30
0.0
 11
12.154566
 21
26.992352
 31
0.0
  0
CIRCLE
  5
1DA
100
AcDbEntity
  8
R-DOOR-DETL
  6
CONTINUOUS
 62
     3
100
AcDbCircle
 10
11.600584
 20
28.051022
 30
0.0
 40
0.1625
  0
CIRCLE
  5
1DB
100
AcDbEntity
  8
R-DOOR-DETL
  6
CONTINUOUS
 62
     3
100
AcDbCircle
 10
11.600584
 20
28.051022
 30
0.0
 40
0.1875
  0
LWPOLYLINE
  5
1DC
100
AcDbEntity
  8
R-DOOR-DETL
  6
CONTINUOUS
 62
     3
100
AcDbPolyline
 90
       32
 70
     1
 43
0.0
 10
11.345584
 20
28.287022
 10
11.345584
 20
28.017225
 42
-0.414214
 10
11.330584
 20
28.002225
 10
11.264591
 20
28.002225
 42
0.414214
 10
11.249591
 20
27.987225
 10
11.249591
 20
27.757022
 42
0.414214
 10
11.280591
 20
27.726022
 10
11.424203
 20
27.726022
 42
0.267949
 10
11.45105
 20
27.741522
 10
11.556764
 20
27.924623
 42
0.40146
 10
11.546576
 20
27.966267
 42
-3.430162
 10
11.654591
 20
27.966267
 42
0.40146
 10
11.644404
 20
27.924623
 10
11.750117
 20
27.741522
 42
0.267949
 10
11.776964
 20
27.726022
 10
12.274203
 20
27.726022
 42
0.267949
 10
12.30105
 20
27.741522
 10
12.406764
 20
27.924623
 42
0.40146
 10
12.396576
 20
27.966267
 42
-3.430162
 10
12.504591
 20
27.966267
 42
0.40146
 10
12.494404
 20
27.924623
 10
12.600117
 20
27.741522
 42
0.267949
 10
12.626964
 20
27.726022
 10
12.770576
 20
27.726022
 42
0.414214
 10
12.801576
 20
27.757022
 10
12.801576
 20
27.987225
 42
0.414214
 10
12.786576
 20
28.002225
 10
12.720584
 20
28.002225
 42
-0.414214
 10
12.705584
 20
28.017225
 10
12.705584
 20
28.287022
 42
0.414214
 10
12.690584
 20
28.302022
 10
11.360584
 20
28.302022
 42
0.414214
  0
LINE
  5
1DD
100
AcDbEntity
  8
R-DOOR-DETL
  6
CONTINUOUS
 62
     3
100
AcDbLine
 10
11.343084
 20
28.276022
 30
0.0
 11
11.343084
 21
27.726022
 31
0.0
  0
LINE
  5
1DE
100
AcDbEntity
  8
R-DOOR-DETL
  6
CONTINUOUS
 62
     3
100
AcDbLine
 10
12.555716
 20
28.078014
 30
0.0
 11
12.526525
 21
27.973471
 31
0.0
  0
LINE
  5
1DF
100
AcDbEntity
  8
R-DOOR-DETL
  6
CONTINUOUS
 62
     3
100
AcDbLine
 10
12.079855
 20
28.145022
 30
0.0
 11
12.134125
 21
28.051022
 31
0.0
  0
LINE
  5
1E0
100
AcDbEntity
  8
R-DOOR-DETL
  6
CONTINUOUS
 62
     3
100
AcDbLine
 10
12.374642
 20
28.128573
 30
0.0
 11
12.345451
 21
28.02403
 31
0.0
  0
LINE
  5
1E1
100
AcDbEntity
  8
R-DOOR-DETL
  6
CONTINUOUS
 62
     3
100
AcDbLine
 10
12.708084
 20
28.276022
 30
0.0
 11
12.708084
 21
27.726022
 31
0.0
  0
CIRCLE
  5
1E2
100
AcDbEntity
  8
R-DOOR-DETL
  6
CONTINUOUS
 62
     3
100
AcDbCircle
 10
12.450584
 20
28.051022
 30
0.0
 40
0.1875
  0
CIRCLE
  5
1E3
100
AcDbEntity
  8
R-DOOR-DETL
  6
CONTINUOUS
 62
     3
100
AcDbCircle
 10
12.450584
 20
28.051022
 30
0.0
 40
0.1625
  0
LINE
  5
1E4
100
AcDbEntity
  8
R-DOOR-DETL
  6
CONTINUOUS
 62
     3
100
AcDbLine
 10
11.971313
 20
28.145022
 30
0.0
 11
11.917042
 21
28.051022
 31
0.0
  0
LINE
  5
1E5
100
AcDbEntity
  8
R-DOOR-DETL
  6
CONTINUOUS
 62
     3
100
AcDbLine
 10
11.688804
 20
27.987788
 30
0.0
 11
11.699456
 21
28.095806
 31
0.0
  0
LINE
  5
1E6
100
AcDbEntity
  8
R-DOOR-DETL
  6
CONTINUOUS
 62
     3
100
AcDbLine
 10
11.501712
 20
28.006237
 30
0.0
 11
11.512363
 21
28.114255
 31
0.0
  0
CIRCLE
  5
1E7
100
AcDbEntity
  8
R-DOOR-DETL
  6
CONTINUOUS
 62
     3
100
AcDbCircle
 10
12.025584
 20
28.051022
 30
0.0
 40
0.1875
  0
CIRCLE
  5
1E8
100
AcDbEntity
  8
R-DOOR-DETL
  6
CONTINUOUS
 62
     3
100
AcDbCircle
 10
12.025584
 20
28.051022
 30
0.0
 40
0.1625
  0
LINE
  5
1E9
100
AcDbEntity
  8
R-DOOR-DETL
 62
     3
100
AcDbLine
 10
14.306834
 20
29.556022
 30
0.0
 11
14.356834
 21
29.556022
 31
0.0
  0
LINE
  5
1EA
100
AcDbEntity
  8
R-DOOR-DETL
 62
     3
100
AcDbLine
 10
14.301055
 20
29.606022
 30
0.0
 11
14.301055
 21
29.556022
 31
0.0
  0
LINE
  5
1EB
100
AcDbEntity
  8
R-DOOR-DETL
 62
     3
100
AcDbLine
 10
14.356834
 20
31.387272
 30
0.0
 11
14.356834
 21
29.556022
 31
0.0
  0
LINE
  5
1EC
100
AcDbEntity
  8
R-DOOR-DETL
 62
     3
100
AcDbLine
 10
14.306834
 20
31.387272
 30
0.0
 11
14.306834
 21
29.556022
 31
0.0
  0
LINE
  5
1ED
100
AcDbEntity
  8
R-DOOR-DETL
 62
     3
100
AcDbLine
 10
13.856834
 20
31.418522
 30
0.0
 11
14.275584
 21
31.418522
 31
0.0
  0
LINE
  5
1EE
100
AcDbEntity
  8
R-DOOR-DETL
 62
     3
100
AcDbLine
 10
13.856834
 20
31.468522
 30
0.0
 11
14.275584
 21
31.468522
 31
0.0
  0
LINE
  5
1EF
100
AcDbEntity
  8
R-DOOR-DETL
 62
     3
100
AcDbLine
 10
13.856834
 20
31.418522
 30
0.0
 11
13.856834
 21
31.468522
 31
0.0
  0
ARC
  5
1F0
100
AcDbEntity
  8
R-DOOR-DETL
 62
     3
100
AcDbCircle
 10
14.275584
 20
31.387272
 30
0.0
 40
0.08125
100
AcDbArc
 50
0.0
 51
90.0
  0
ARC
  5
1F1
100
AcDbEntity
  8
R-DOOR-DETL
 62
     3
100
AcDbCircle
 10
14.275584
 20
31.387272
 30
0.0
 40
0.03125
100
AcDbArc
 50
0.0
 51
90.0
  0
ARC
  5
1F2
100
AcDbEntity
  8
R-DOOR-DETL
  6
CONTINUOUS
 62
     3
100
AcDbCircle
 10
11.516185
 20
29.143832
 30
0.0
 40
0.0625
100
AcDbArc
 50
90.0
 51
178.0
  0
LINE
  5
1F3
100
AcDbEntity
  8
R-DOOR-DETL
  6
CONTINUOUS
 62
     3
100
AcDbLine
 10
12.619584
 20
28.512022
 30
0.0
 11
11.431584
 21
28.512022
 31
0.0
  0
LINE
  5
1F4
100
AcDbEntity
  8
R-DOOR-DETL
  6
CONTINUOUS
 62
     3
100
AcDbLine
 10
11.431584
 20
28.512022
 30
0.0
 11
11.453723
 21
29.146013
 31
0.0
  0
LINE
  5
1F5
100
AcDbEntity
  8
R-DOOR-DETL
  6
CONTINUOUS
 62
     3
100
AcDbLine
 10
12.537384
 20
29.441022
 30
0.0
 11
12.537384
 21
29.556022
 31
0.0
  0
LINE
  5
1F6
100
AcDbEntity
  8
R-DOOR-DETL
  6
CONTINUOUS
 62
     3
100
AcDbLine
 10
12.143584
 20
29.556022
 30
0.0
 11
12.143584
 21
29.491022
 31
0.0
  0
LINE
  5
1F7
100
AcDbEntity
  8
R-DOOR-DETL
  6
CONTINUOUS
 62
     3
100
AcDbLine
 10
12.125584
 20
29.556022
 30
0.0
 11
12.125584
 21
29.518638
 31
0.0
  0
LINE
  5
1F8
100
AcDbEntity
  8
R-DOOR-DETL
  6
CONTINUOUS
 62
     3
100
AcDbLine
 10
12.125584
 20
29.518638
 30
0.0
 11
12.218084
 21
29.441022
 31
0.0
  0
LINE
  5
1F9
100
AcDbEntity
  8
R-DOOR-DETL
  6
CONTINUOUS
 62
     3
100
AcDbLine
 10
12.193584
 20
29.441022
 30
0.0
 11
12.143584
 21
29.491022
 31
0.0
  0
LINE
  5
1FA
100
AcDbEntity
  8
R-DOOR-DETL
  6
CONTINUOUS
 62
     3
100
AcDbLine
 10
12.525584
 20
29.206332
 30
0.0
 11
12.525584
 21
29.302022
 31
0.0
  0
ARC
  5
1FB
100
AcDbEntity
  8
R-DOOR-DETL
  6
CONTINUOUS
 62
     3
100
AcDbCircle
 10
12.534982
 20
29.143832
 30
0.0
 40
0.0625
100
AcDbArc
 50
2.0
 51
90.0
  0
LINE
  5
1FC
100
AcDbEntity
  8
R-DOOR-DETL
  6
CONTINUOUS
 62
     3
100
AcDbLine
 10
12.619584
 20
28.512022
 30
0.0
 11
12.597444
 21
29.146013
 31
0.0
  0
ARC
  5
1FD
100
AcDbEntity
  8
R-DOOR-DETL
  6
CONTINUOUS
 62
     3
100
AcDbCircle
 10
5.961003
 20
29.098522
 30
0.0
 40
6.359855
100
AcDbArc
 50
355.490859
 51
3.087068
  0
LINE
  5
1FE
100
AcDbEntity
  8
R-DOOR-DETL
  6
CONTINUOUS
 62
     3
100
AcDbLine
 10
11.857584
 20
29.441022
 30
0.0
 11
11.907584
 21
29.491022
 31
0.0
  0
LINE
  5
1FF
100
AcDbEntity
  8
R-DOOR-DETL
  6
CONTINUOUS
 62
     3
100
AcDbLine
 10
11.925584
 20
29.518638
 30
0.0
 11
11.833084
 21
29.441022
 31
0.0
  0
POINT
  5
200
100
AcDbEntity
  8
R-DOOR-DETL
  6
CONTINUOUS
 62
     3
100
AcDbPoint
 10
11.857584
 20
29.441022
 30
0.0
  0
LINE
  5
201
100
AcDbEntity
  8
R-DOOR-DETL
  6
CONTINUOUS
 62
     3
100
AcDbLine
 10
11.907584
 20
29.556022
 30
0.0
 11
11.907584
 21
29.491022
 31
0.0
  0
LINE
  5
202
100
AcDbEntity
  8
R-DOOR-DETL
  6
CONTINUOUS
 62
     3
100
AcDbLine
 10
11.925584
 20
29.556022
 30
0.0
 11
11.925584
 21
29.518638
 31
0.0
  0
POINT
  5
203
100
AcDbEntity
  8
R-DOOR-DETL
  6
CONTINUOUS
 62
     3
100
AcDbPoint
 10
11.907584
 20
29.491022
 30
0.0
  0
POINT
  5
204
100
AcDbEntity
  8
R-DOOR-DETL
  6
CONTINUOUS
 62
     3
100
AcDbPoint
 10
11.907584
 20
29.491022
 30
0.0
  0
LINE
  5
205
100
AcDbEntity
  8
R-DOOR-DETL
  6
CONTINUOUS
 62
     3
100
AcDbLine
 10
11.513784
 20
29.441022
 30
0.0
 11
11.513784
 21
29.556022
 31
0.0
  0
LINE
  5
206
100
AcDbEntity
  8
R-DOOR-DETL
  6
CONTINUOUS
 62
     3
100
AcDbLine
 10
11.525584
 20
29.206332
 30
0.0
 11
11.525584
 21
29.302022
 31
0.0
  0
ARC
  5
207
100
AcDbEntity
  8
R-DOOR-DETL
  6
CONTINUOUS
 62
     3
100
AcDbCircle
 10
18.090164
 20
29.098522
 30
0.0
 40
6.359855
100
AcDbArc
 50
176.912932
 51
184.509141
  0
LINE
  5
208
100
AcDbEntity
  8
R-DOOR-DETL
  6
CONTINUOUS
 62
     3
100
AcDbLine
 10
11.749994
 20
28.598522
 30
0.0
 11
12.301174
 21
28.598522
 31
0.0
  0
LINE
  5
209
100
AcDbEntity
  8
R-DOOR-DETL
  6
CONTINUOUS
 62
     3
100
AcDbLine
 10
11.513784
 20
29.556022
 30
0.0
 11
12.537384
 21
29.556022
 31
0.0
  0
LINE
  5
20A
100
AcDbEntity
  8
R-DOOR-DETL
  6
CONTINUOUS
 62
     3
100
AcDbLine
 10
11.513784
 20
29.441022
 30
0.0
 11
12.537384
 21
29.441022
 31
0.0
  0
LINE
  5
20B
100
AcDbEntity
  8
R-DOOR-DETL
  6
CONTINUOUS
 62
     3
100
AcDbLine
 10
11.739538
 20
29.441022
 30
0.0
 11
12.31163
 21
29.441022
 31
0.0
  0
LINE
  5
20C
100
AcDbEntity
  8
R-DOOR-DETL
  6
CONTINUOUS
 62
     3
100
AcDbLine
 10
12.534982
 20
29.206332
 30
0.0
 11
11.516185
 21
29.206332
 31
0.0
  0
LINE
  5
20D
100
AcDbEntity
  8
R-DOOR-DETL
  6
CONTINUOUS
 62
     3
100
AcDbLine
 10
12.525584
 20
29.302022
 30
0.0
 11
11.525584
 21
29.302022
 31
0.0
  0
LINE
  5
20E
100
AcDbEntity
  8
R-DOOR-DETL
  6
CONTINUOUS
 62
     3
100
AcDbLine
 10
12.125584
 20
29.518638
 30
0.0
 11
11.925584
 21
29.518638
 31
0.0
  0
LWPOLYLINE
  5
20F
100
AcDbEntity
  8
R-DOOR-DETL
 62
     3
100
AcDbPolyline
 90
        4
 70
     1
 43
0.0
 10
12.275584
 20
29.606022
 10
12.275584
 20
29.668522
 10
11.775584
 20
29.668522
 10
11.775584
 20
29.606022
  0
LWPOLYLINE
  5
210
100
AcDbEntity
  8
R-DOOR-DETL
 62
     3
100
AcDbPolyline
 90
        4
 70
     1
 43
0.0
 10
13.759885
 20
29.606022
 10
13.759885
 20
29.668522
 10
13.259885
 20
29.668522
 10
13.259885
 20
29.606022
  0
ENDBLK
  5
212
100
AcDbEntity
  8
0
100
AcDbBlockEnd
  0
BLOCK
  5
6FB
100
AcDbEntity
  8
0
100
AcDbBlockBegin
  2
*D15
 70
     1
 10
0.0
 20
0.0
 30
0.0
  3
*D15
  1

  0
LINE
  5
6FC
100
AcDbEntity
  8
0
  6
BYBLOCK
 62
     0
100
AcDbLine
 10
7.651939
 20
11.230616
 30
0.0
 11
2.583528
 21
11.230616
 31
0.0
  0
LINE
  5
6FD
100
AcDbEntity
  8
0
  6
BYBLOCK
 62
     0
100
AcDbLine
 10
4.901939
 20
16.343116
 30
0.0
 11
2.583528
 21
16.343116
 31
0.0
  0
LINE
  5
6FE
100
AcDbEntity
  8
0
  6
BYBLOCK
 62
     0
100
AcDbLine
 10
2.943528
 20
11.590616
 30
0.0
 11
2.943528
 21
13.151866
 31
0.0
  0
LINE
  5
6FF
100
AcDbEntity
  8
0
  6
BYBLOCK
 62
     0
100
AcDbLine
 10
2.943528
 20
15.983116
 30
0.0
 11
2.943528
 21
14.471866
 31
0.0
  0
SOLID
  5
700
100
AcDbEntity
  8
0
  6
BYBLOCK
 62
     0
100
AcDbTrace
 10
2.883528
 20
11.590616
 30
0.0
 11
3.003528
 21
11.590616
 31
0.0
 12
2.943528
 22
11.230616
 32
0.0
 13
2.943528
 23
11.230616
 33
0.0
  0
SOLID
  5
701
100
AcDbEntity
  8
0
  6
BYBLOCK
 62
     0
100
AcDbTrace
 10
2.883528
 20
15.983116
 30
0.0
 11
3.003528
 21
15.983116
 31
0.0
 12
2.943528
 22
16.343116
 32
0.0
 13
2.943528
 23
16.343116
 33
0.0
  0
MTEXT
  5
702
100
AcDbEntity
  8
0
  6
BYBLOCK
 62
     0
100
AcDbMText
 10
2.943528
 20
13.811866
 30
0.0
 40
0.36
 41
0.0
 71
     5
 72
     1
  1
\A1;5{\H1.000000x;\S1/8;}" [130mm]
  7
ROMNAS
  0
POINT
  5
703
100
AcDbEntity
  8
DEFPOINTS
  6
BYBLOCK
 62
     0
100
AcDbPoint
 10
7.776939
 20
11.230616
 30
0.0
  0
POINT
  5
704
100
AcDbEntity
  8
DEFPOINTS
  6
BYBLOCK
 62
     0
100
AcDbPoint
 10
5.026939
 20
16.343116
 30
0.0
  0
POINT
  5
705
100
AcDbEntity
  8
DEFPOINTS
  6
BYBLOCK
 62
     0
100
AcDbPoint
 10
2.943528
 20
16.343116
 30
0.0
  0
ENDBLK
  5
706
100
AcDbEntity
  8
0
100
AcDbBlockEnd
  0
BLOCK
  5
707
100
AcDbEntity
  8
0
100
AcDbBlockBegin
  2
*D16
 70
     1
 10
0.0
 20
0.0
 30
0.0
  3
*D16
  1

  0
LINE
  5
708
100
AcDbEntity
  8
0
  6
BYBLOCK
 62
     0
100
AcDbLine
 10
10.483189
 20
14.480616
 30
0.0
 11
14.655975
 21
14.480616
 31
0.0
  0
LINE
  5
709
100
AcDbEntity
  8
0
  6
BYBLOCK
 62
     0
100
AcDbLine
 10
9.14541
 20
14.230616
 30
0.0
 11
14.655975
 21
14.230616
 31
0.0
  0
LINE
  5
70A
100
AcDbEntity
  8
0
  6
BYBLOCK
 62
     0
100
AcDbLine
 10
14.295975
 20
14.840616
 30
0.0
 11
14.295975
 21
15.200616
 31
0.0
  0
LINE
  5
70B
100
AcDbEntity
  8
0
  6
BYBLOCK
 62
     0
100
AcDbLine
 10
14.295975
 20
13.870616
 30
0.0
 11
14.295975
 21
13.066688
 31
0.0
  0
LINE
  5
70C
100
AcDbEntity
  8
0
  6
BYBLOCK
 62
     0
100
AcDbLine
 10
14.295975
 20
13.066688
 30
0.0
 11
13.935975
 21
13.066688
 31
0.0
  0
SOLID
  5
70D
100
AcDbEntity
  8
0
  6
BYBLOCK
 62
     0
100
AcDbTrace
 10
14.235975
 20
14.840616
 30
0.0
 11
14.355975
 21
14.840616
 31
0.0
 12
14.295975
 22
14.480616
 32
0.0
 13
14.295975
 23
14.480616
 33
0.0
  0
SOLID
  5
70E
100
AcDbEntity
  8
0
  6
BYBLOCK
 62
     0
100
AcDbTrace
 10
14.235975
 20
13.870616
 30
0.0
 11
14.355975
 21
13.870616
 31
0.0
 12
14.295975
 22
14.230616
 32
0.0
 13
14.295975
 23
14.230616
 33
0.0
  0
MTEXT
  5
70F
100
AcDbEntity
  8
0
  6
BYBLOCK
 62
     0
100
AcDbMText
 10
12.418832
 20
13.066688
 30
0.0
 40
0.36
 41
0.0
 71
     5
 72
     1
  1
\A1;{\H1.000000x;\S1/4;}" [6mm]
  7
ROMNAS
  0
POINT
  5
710
100
AcDbEntity
  8
DEFPOINTS
  6
BYBLOCK
 62
     0
100
AcDbPoint
 10
10.358189
 20
14.480616
 30
0.0
  0
POINT
  5
711
100
AcDbEntity
  8
DEFPOINTS
  6
BYBLOCK
 62
     0
100
AcDbPoint
 10
9.02041
 20
14.230616
 30
0.0
  0
POINT
  5
712
100
AcDbEntity
  8
DEFPOINTS
  6
BYBLOCK
 62
     0
100
AcDbPoint
 10
14.295975
 20
14.230616
 30
0.0
  0
ENDBLK
  5
713
100
AcDbEntity
  8
0
100
AcDbBlockEnd
  0
BLOCK
  5
531
100
AcDbEntity
  8
0
100
AcDbBlockBegin
  2
A$C6BE867F4
 70
     0
 10
0.0
 20
0.0
 30
0.0
  3
A$C6BE867F4
  1

  0
MTEXT
  5
52C
100
AcDbEntity
  8
0
 62
     4
100
AcDbMText
 10
2.434972
 20
2.319778
 30
0.0
 40
0.274008
 41
6.855394
 71
     1
 72
     5
  1
\fArial|b1|i0|c0|p34;DOOR RAIL SYSTEM
  0
LWPOLYLINE
  5
52D
100
AcDbEntity
  8
0
 62
     4
100
AcDbPolyline
 90
        2
 70
     0
 43
0.030704
 10
0.137665
 20
1.940905
 10
6.158597
 20
1.940905
  0
MTEXT
  5
52E
100
AcDbEntity
  8
0
 62
     4
100
AcDbMText
 10
0.152731
 20
1.682964
 30
0.0
 40
0.242751
 41
6.068763
 71
     1
 72
     5
  1
\fArial|b1|i1|c0|p34;C.R. Laurence Architectural Products
  0
MTEXT
  5
52F
100
AcDbEntity
  8
0
 62
     4
100
AcDbMText
 10
0.157672
 20
1.238797
 30
0.0
 40
0.191898
 41
6.0133
 71
     1
 72
     5
  1
\fArial|b0|i1|c0|p34;Phone Orders (800) 421-6144\PFax Orders     (800) 262-3299\PWWW.CRLAURENCE.COM\PPatent Pending
  0
INSERT
  5
530
100
AcDbEntity
  8
0
 62
     4
100
AcDbBlockReference
  2
A$C2189253D
 10
0.143797
 20
2.032527
 30
0.0
 41
2.535564
 42
2.535564
 43
2.535564
  0
ENDBLK
  5
532
100
AcDbEntity
  8
0
100
AcDbBlockEnd
  0
BLOCK
  5
535
100
AcDbEntity
  8
0
100
AcDbBlockBegin
  2
A$C0E897680
 70
     0
 10
0.0
 20
0.0
 30
0.0
  3
A$C0E897680
  1

  0
INSERT
  5
534
100
AcDbEntity
  8
0
100
AcDbBlockReference
  2
A$C6BE867F4
 10
0.0
 20
0.0
 30
0.0
  0
ENDBLK
  5
536
100
AcDbEntity
  8
0
100
AcDbBlockEnd
  0
BLOCK
  5
539
100
AcDbEntity
  8
0
100
AcDbBlockBegin
  2
A$C60D73A4C
 70
     0
 10
0.0
 20
0.0
 30
0.0
  3
A$C60D73A4C
  1

  0
INSERT
  5
538
100
AcDbEntity
  8
R-DOOR-DETL
100
AcDbBlockReference
  2
A$C0E897680
 10
0.0
 20
0.0
 30
0.0
  0
ENDBLK
  5
53A
100
AcDbEntity
  8
0
100
AcDbBlockEnd
  0
BLOCK
  5
53D
100
AcDbEntity
  8
0
100
AcDbBlockBegin
  2
A$C74654F65
 70
     0
 10
0.0
 20
0.0
 30
0.0
  3
A$C74654F65
  1

  0
INSERT
  5
53C
100
AcDbEntity
  8
R-DOOR-ANNO
100
AcDbBlockReference
  2
A$C60D73A4C
 10
0.0
 20
0.0
 30
0.0
  0
ENDBLK
  5
53E
100
AcDbEntity
  8
0
100
AcDbBlockEnd
  0
BLOCK
  5
542
100
AcDbEntity
  8
0
100
AcDbBlockBegin
  2
A$C5C3203C0
 70
     0
 10
0.0
 20
0.0
 30
0.0
  3
A$C5C3203C0
  1

  0
INSERT
  5
540
100
AcDbEntity
  8
0
100
AcDbBlockReference
  2
A$C74654F65
 10
0.0
 20
0.0
 30
0.0
  0
LWPOLYLINE
  5
541
100
AcDbEntity
  8
R-DOOR-DETL
 62
     3
100
AcDbPolyline
 90
       44
 70
     1
 43
0.0
 10
8.446574
 20
3.238789
 10
7.562443
 20
3.238789
 42
-0.414214
 10
7.502443
 20
3.298789
 10
7.502443
 20
4.578789
 42
-0.414214
 10
7.562443
 20
4.638789
 10
8.029443
 20
4.638789
 42
0.414214
 10
8.044443
 20
4.653789
 10
8.044443
 20
4.773789
 42
0.414214
 10
8.029443
 20
4.788789
 10
7.392443
 20
4.788789
 42
0.414214
 10
7.377443
 20
4.773789
 10
7.377443
 20
3.323789
 42
-0.414214
 10
7.317443
 20
3.263789
 10
6.602443
 20
3.263789
 10
5.887443
 20
3.263789
 42
-0.414214
 10
5.827443
 20
3.323789
 10
5.827443
 20
4.773789
 42
0.414214
 10
5.812443
 20
4.788789
 10
5.175443
 20
4.788789
 42
0.414214
 10
5.160443
 20
4.773789
 10
5.160443
 20
4.653789
 42
0.414214
 10
5.175443
 20
4.638789
 10
5.642443
 20
4.638789
 42
-0.414214
 10
5.702443
 20
4.578789
 10
5.702443
 20
3.298789
 42
-0.414214
 10
5.642443
 20
3.238789
 10
4.758312
 20
3.238789
 42
-0.352947
 10
4.743652
 20
3.250609
 42
0.593528
 10
4.701543
 20
3.262987
 10
4.656487
 20
3.217931
 42
0.668179
 10
4.670629
 20
3.183789
 10
4.688627
 20
3.183789
 42
-0.668179
 10
4.695698
 20
3.166718
 10
4.676304
 20
3.147325
 42
0.668179
 10
4.67984
 20
3.138789
 10
6.602443
 20
3.138789
 10
8.525046
 20
3.138789
 42
0.668179
 10
8.528581
 20
3.147325
 10
8.509188
 20
3.166718
 42
-0.668179
 10
8.516259
 20
3.183789
 10
8.534257
 20
3.183789
 42
0.668179
 10
8.548399
 20
3.217931
 10
8.503343
 20
3.262987
 42
0.593528
 10
8.461233
 20
3.250609
 42
-0.352947
  0
ENDBLK
  5
543
100
AcDbEntity
  8
0
100
AcDbBlockEnd
  0
BLOCK
  5
552
100
AcDbEntity
  8
0
100
AcDbBlockBegin
  2
A$C216638AD
 70
     0
 10
0.0
 20
0.0
 30
0.0
  3
A$C216638AD
  1

  0
LWPOLYLINE
  5
551
100
AcDbEntity
  8
0
 62
     3
100
AcDbPolyline
 90
       20
 70
     1
 43
0.0
 10
1.963805
 20
0.0
 10
0.029202
 20
0.0
 42
-0.668179
 10
0.025666
 20
0.008536
 10
0.04506
 20
0.027929
 42
0.668179
 10
0.037989
 20
0.045
 10
0.019991
 20
0.045
 42
-0.668179
 10
0.005849
 20
0.079142
 10
0.050905
 20
0.124198
 42
-0.668179
 10
0.093583
 20
0.106521
 10
0.093583
 20
0.082
 10
1.963805
 20
0.082
 10
3.834027
 20
0.082
 10
3.834027
 20
0.106521
 42
-0.668179
 10
3.876705
 20
0.124198
 10
3.921761
 20
0.079142
 42
-0.668179
 10
3.907619
 20
0.045
 10
3.889621
 20
0.045
 42
0.668179
 10
3.88255
 20
0.027929
 10
3.901943
 20
0.008536
 42
-0.668179
 10
3.898408
 20
0.0
  0
ENDBLK
  5
553
100
AcDbEntity
  8
0
100
AcDbBlockEnd
  0
BLOCK
  5
64A
100
AcDbEntity
  8
0
100
AcDbBlockBegin
  2
A$C71464D1B
 70
     0
 10
0.0
 20
0.0
 30
0.0
  3
A$C71464D1B
  1

  0
ARC
  5
5C9
100
AcDbEntity
  8
GREEN
  6
CONTINUOUS
100
AcDbCircle
 39
1.0
 10
1.216321
 20
1.207379
 30
0.0
 40
0.009167
100
AcDbArc
 50
252.745313
 51
1.373158
  0
LINE
  5
5CA
100
AcDbEntity
  8
GREEN
  6
CONTINUOUS
100
AcDbLine
 39
1.0
 10
1.225486
 20
1.542098
 30
0.0
 11
1.225486
 21
1.207598
 31
0.0
  0
ARC
  5
5CB
100
AcDbEntity
  8
GREEN
  6
CONTINUOUS
100
AcDbCircle
 39
1.0
 10
1.198276
 20
1.551216
 30
0.0
 40
0.028697
100
AcDbArc
 50
341.47451
 51
98.091202
  0
LINE
  5
5CC
100
AcDbEntity
  8
GREEN
  6
CONTINUOUS
100
AcDbLine
 39
1.0
 10
1.15302
 20
1.591895
 30
0.0
 11
1.194237
 21
1.579627
 31
0.0
  0
ARC
  5
5CD
100
AcDbEntity
  8
GREEN
  6
CONTINUOUS
100
AcDbCircle
 39
1.0
 10
1.15302
 20
1.59752
 30
0.0
 40
0.005625
100
AcDbArc
 50
90.0
 51
270.0
  0
LINE
  5
5CE
100
AcDbEntity
  8
GREEN
  6
CONTINUOUS
100
AcDbLine
 39
1.0
 10
1.161145
 20
1.603145
 30
0.0
 11
1.15302
 21
1.603145
 31
0.0
  0
LINE
  5
5CF
100
AcDbEntity
  8
GREEN
  6
CONTINUOUS
100
AcDbLine
 39
1.0
 10
1.184082
 20
1.613821
 30
0.0
 11
1.161145
 21
1.603145
 31
0.0
  0
LINE
  5
5D0
100
AcDbEntity
  8
GREEN
  6
CONTINUOUS
100
AcDbLine
 39
1.0
 10
1.177446
 20
1.616915
 30
0.0
 11
1.184082
 21
1.613821
 31
0.0
  0
ARC
  5
5D1
100
AcDbEntity
  8
GREEN
  6
CONTINUOUS
100
AcDbCircle
 39
1.0
 10
1.17956
 20
1.621447
 30
0.0
 40
0.005
100
AcDbArc
 50
90.0
 51
245.0
  0
LINE
  5
5D2
100
AcDbEntity
  8
GREEN
  6
CONTINUOUS
100
AcDbLine
 39
1.0
 10
1.24264
 20
1.590027
 30
0.0
 11
1.17956
 21
1.626447
 31
0.0
  0
ARC
  5
5D3
100
AcDbEntity
  8
GREEN
  6
CONTINUOUS
100
AcDbCircle
 39
1.0
 10
1.234866
 20
1.582253
 30
0.0
 40
0.010994
100
AcDbArc
 50
15.0
 51
45.0
  0
LINE
  5
5D4
100
AcDbEntity
  8
GREEN
  6
CONTINUOUS
100
AcDbLine
 39
1.0
 10
1.245486
 20
1.151348
 30
0.0
 11
1.245486
 21
1.585098
 31
0.0
  0
LINE
  5
5D5
100
AcDbEntity
  8
GREEN
  6
CONTINUOUS
100
AcDbLine
 39
1.0
 10
0.271207
 20
1.713848
 30
0.0
 11
1.245486
 21
1.151348
 31
0.0
  0
LINE
  5
5D6
100
AcDbEntity
  8
GREEN
  6
CONTINUOUS
100
AcDbLine
 39
1.0
 10
0.271207
 20
2.147598
 30
0.0
 11
0.271207
 21
1.713848
 31
0.0
  0
ARC
  5
5D7
100
AcDbEntity
  8
GREEN
  6
CONTINUOUS
100
AcDbCircle
 39
1.0
 10
0.274957
 20
2.147598
 30
0.0
 40
0.00375
100
AcDbArc
 50
90.0
 51
180.0
  0
LINE
  5
5D8
100
AcDbEntity
  8
GREEN
  6
CONTINUOUS
100
AcDbLine
 39
1.0
 10
0.337465
 20
2.114357
 30
0.0
 11
0.274957
 21
2.151348
 31
0.0
  0
ARC
  5
5D9
100
AcDbEntity
  8
GREEN
  6
CONTINUOUS
100
AcDbCircle
 39
1.0
 10
0.334965
 20
2.110026
 30
0.0
 40
0.005
100
AcDbArc
 50
265.0
 51
60.0
  0
LINE
  5
5DA
100
AcDbEntity
  8
GREEN
  6
CONTINUOUS
100
AcDbLine
 39
1.0
 10
0.327235
 20
2.105684
 30
0.0
 11
0.334529
 21
2.105045
 31
0.0
  0
LINE
  5
5DB
100
AcDbEntity
  8
GREEN
  6
CONTINUOUS
100
AcDbLine
 39
1.0
 10
0.32242
 20
2.0956
 30
0.0
 11
0.327235
 21
2.105684
 31
0.0
  0
LINE
  5
5DC
100
AcDbEntity
  8
GREEN
  6
CONTINUOUS
100
AcDbLine
 39
1.0
 10
0.329457
 20
2.08222
 30
0.0
 11
0.32242
 21
2.0956
 31
0.0
  0
ARC
  5
5DD
100
AcDbEntity
  8
GREEN
  6
CONTINUOUS
100
AcDbCircle
 39
1.0
 10
0.326644
 20
2.077349
 30
0.0
 40
0.005625
100
AcDbArc
 50
240.0
 51
60.0
  0
LINE
  5
5DE
100
AcDbEntity
  8
GREEN
  6
CONTINUOUS
100
AcDbLine
 39
1.0
 10
0.298568
 20
2.095884
 30
0.0
 11
0.323832
 21
2.072478
 31
0.0
  0
ARC
  5
5DF
100
AcDbEntity
  8
GREEN
  6
CONTINUOUS
100
AcDbCircle
 39
1.0
 10
0.294885
 20
2.095073
 30
0.0
 40
0.003771
100
AcDbArc
 50
12.423788
 51
197.604591
  0
LINE
  5
5E0
100
AcDbEntity
  8
GREEN
  6
CONTINUOUS
100
AcDbLine
 39
1.0
 10
0.291207
 20
1.770098
 30
0.0
 11
0.291291
 21
2.093932
 31
0.0
  0
ARC
  5
5E1
100
AcDbEntity
  8
GREEN
  6
CONTINUOUS
100
AcDbCircle
 39
1.0
 10
0.368846
 20
1.776241
 30
0.0
 40
0.077881
100
AcDbArc
 50
184.523413
 51
238.446514
  0
LINE
  5
5E2
100
AcDbEntity
  8
GREEN
  6
CONTINUOUS
100
AcDbLine
 39
1.0
 10
1.213602
 20
1.198624
 30
0.0
 11
0.328091
 21
1.709874
 31
0.0
  0
LINE
  5
5E3
100
AcDbEntity
  8
0
100
AcDbLine
 10
3.680538
 20
4.410567
 30
0.0
 11
1.180538
 21
1.910567
 31
0.0
  0
LINE
  5
5E4
100
AcDbEntity
  8
GREEN
100
AcDbLine
 10
1.177134
 20
1.625819
 30
0.0
 11
2.297589
 21
2.272714
 31
0.0
  0
LWPOLYLINE
  5
5E5
102
{ACAD_REACTORS
330
5E6
102
}
100
AcDbEntity
  8
1
  6
CONTINUOUS
 62
     5
100
AcDbPolyline
 90
        2
 70
     0
 43
0.0125
 10
1.325545
 20
3.075868
 42
70374.114908
 10
1.325611
 20
3.07586
 42
70374.114908
  0
HATCH
  5
5E6
100
AcDbEntity
  8
2
  6
CONTINUOUS
 62
     9
100
AcDbHatch
 10
0.0
 20
0.0
 30
0.0
210
0.0
220
0.0
230
1.0
  2
SOLID
 70
     1
 71
     1
 91
        2
 92
        7
 72
     1
 73
     1
 93
        5
 10
2.341248760900349
 20
2.08862583924429
 42
0.0
 10
1.654504696789187
 20
1.692133968965332
 42
0.0
 10
1.654504696789187
 20
1.232779794588328
 42
-0.1222318301882052
 10
1.652619178659064
 20
1.225182152808802
 42
0.0
 10
2.315086461825394
 20
1.607657817074205
 42
0.1036486555257608
 97
        5
330
5EB
330
62B
330
625
330
5EF
330
5E5
 92
        7
 72
     1
 73
     1
 93
        4
 10
1.643679379241882
 20
1.33051175899769
 42
0.0
 10
1.550903991622575
 20
1.276947863981511
 42
0.0
 10
1.632429379241882
 20
1.229879159493716
 42
0.5773502691896213
 10
1.643679379241882
 20
1.236374350022099
 42
0.0
 97
        4
330
627
330
624
330
61D
330
62A
 75
     0
 76
     1
 47
0.022773
 98
        2
 10
1.991846
 20
1.676254
 10
1.610136
 20
1.272042
  0
LINE
  5
5E7
100
AcDbEntity
  8
GREEN
100
AcDbLine
 10
1.245486
 20
1.585098
 30
0.0
 11
2.317559
 21
2.20406
 31
0.0
  0
LINE
  5
5E8
100
AcDbEntity
  8
1
  6
CONTINUOUS
100
AcDbLine
 10
1.46594
 20
1.871619
 30
0.0
 11
2.273912
 21
2.338102
 31
0.0
  0
LINE
  5
5E9
100
AcDbEntity
  8
1
  6
CONTINUOUS
100
AcDbLine
 10
1.46594
 20
1.859119
 30
0.0
 11
2.277855
 21
2.327879
 31
0.0
  0
LINE
  5
5EA
100
AcDbEntity
  8
1
  6
CONTINUOUS
 62
     5
100
AcDbLine
 10
1.643679
 20
1.698384
 30
0.0
 11
2.339172
 21
2.099927
 31
0.0
  0
LINE
  5
5EB
102
{ACAD_REACTORS
330
5E6
102
}
100
AcDbEntity
  8
1
  6
CONTINUOUS
 62
     5
100
AcDbLine
 10
1.654505
 20
1.692134
 30
0.0
 11
2.340987
 21
2.088475
 31
0.0
  0
LINE
  5
5EC
100
AcDbEntity
  8
2
  6
CONTINUOUS
 62
     4
100
AcDbLine
 10
1.265315
 20
1.498445
 30
0.0
 11
2.336553
 21
2.116924
 31
0.0
  0
LINE
  5
5ED
100
AcDbEntity
  8
2
  6
CONTINUOUS
 62
     4
100
AcDbLine
 10
1.273975
 20
1.493445
 30
0.0
 11
2.338138
 21
2.10784
 31
0.0
  0
LINE
  5
5EE
100
AcDbEntity
  8
1
  6
CONTINUOUS
 62
     5
100
AcDbLine
 10
1.64638
 20
1.218707
 30
0.0
 11
2.313912
 21
1.604107
 31
0.0
  0
LWPOLYLINE
  5
5EF
102
{ACAD_REACTORS
330
5E6
102
}
100
AcDbEntity
  8
1
  6
CONTINUOUS
 62
     5
100
AcDbPolyline
 90
        2
 70
     0
 43
0.005
 10
1.646108
 20
1.221423
 10
2.31364
 20
1.606823
  0
HATCH
  5
5F0
100
AcDbEntity
  8
1
  6
CONTINUOUS
 62
     5
100
AcDbHatch
 10
0.0
 20
0.0
 30
0.0
210
0.0
220
0.0
230
1.0
  2
SOLID
 70
     1
 71
     0
 91
        7
 92
        7
 72
     1
 73
     1
 93
        4
 10
1.334961986586506
 20
3.074472181989566
 42
0.003817909443379
 10
1.317167685738962
 20
3.076698637605193
 42
0.0
 10
0.2867680150395717
 20
2.481797110353998
 42
0.0
 10
0.297593332586878
 20
2.475547110354
 42
0.0
 97
        0
 92
        7
 72
     0
 73
     1
 93
        4
 10
0.297593332586878
 20
2.475547110354
 10
0.2867680150395717
 20
2.481797110353998
 10
0.2867680150395717
 20
2.158167511766553
 10
0.297593332586878
 20
2.164417511766554
 97
        0
 92
        7
 72
     0
 73
     1
 93
        4
 10
0.4743404816585884
 20
2.444119134032359
 10
0.4743404816585884
 20
2.431619134032359
 10
1.465939568991771
 20
1.865369134032359
 10
1.465939568991771
 20
1.871619134032357
 97
        0
 92
        7
 72
     1
 73
     1
 93
        4
 10
2.27785528874411
 20
2.327878893390661
 42
0.002332807343841
 10
2.273912129014666
 20
2.338102309059408
 42
0.0
 10
1.465939568991771
 20
1.871619134032357
 42
0.0
 10
1.465939568991771
 20
1.859119134032358
 42
0.0
 97
        0
 92
        7
 72
     1
 73
     1
 93
        4
 10
2.340987240676827
 20
2.088474850472842
 42
0.0024685623280776
 10
2.339172493318175
 20
2.099927105596812
 42
0.0
 10
1.643679379241882
 20
1.698383968965334
 42
0.0
 10
1.654504696789189
 20
1.692133968965332
 42
0.0
 97
        0
 92
        7
 72
     1
 73
     1
 93
        8
 10
1.654504696789189
 20
1.692133968965332
 42
0.0
 10
1.643679379241882
 20
1.698383968965334
 42
0.0
 10
1.643679379241882
 20
1.236374350022099
 42
-0.5773502691896262
 10
1.632429379241882
 20
1.229879159493716
 42
0.0
 10
1.548416584825595
 20
1.278383968965332
 42
0.0
 10
1.548416584825595
 20
1.265883968965333
 42
0.0
 10
1.630129696789186
 20
1.218706881776828
 42
0.577350269189633
 10
1.654504696789187
 20
1.232779794588324
 42
0.0
 97
        0
 92
        7
 72
     0
 73
     1
 93
        3
 10
0.4743404816585919
 20
2.431619134032349
 10
1.465939568991771
 20
1.859119134032358
 10
1.465939568991771
 20
1.865369134032359
 97
        0
 75
     0
 76
     1
 47
0.006507
 98
        7
 10
0.310135
 20
2.490348
 10
0.29198
 20
2.461163
 10
0.481425
 20
2.435922
 10
1.540736
 20
1.91075
 10
1.747498
 20
1.754571
 10
1.649815
 20
1.66184
 10
1.434913
 20
1.881466
  0
HATCH
  5
5F1
100
AcDbEntity
  8
1
  6
CONTINUOUS
 62
     5
100
AcDbHatch
 10
0.0
 20
0.0
 30
0.0
210
0.0
220
0.0
230
1.0
  2
SOLID
 70
     1
 71
     0
 91
        7
 92
        7
 72
     1
 73
     1
 93
        4
 10
1.334961986586506
 20
3.074472181989566
 42
0.003817909443379
 10
1.317167685738962
 20
3.076698637605193
 42
0.0
 10
0.2867680150395717
 20
2.481797110353998
 42
0.0
 10
0.2975933325868762
 20
2.475547110354
 42
0.0
 97
        0
 92
        7
 72
     0
 73
     1
 93
        4
 10
0.2975933325868762
 20
2.475547110354
 10
0.2867680150395717
 20
2.481797110353998
 10
0.2867680150395717
 20
2.158167511766553
 10
0.2975933325868762
 20
2.164417511766551
 97
        0
 92
        7
 72
     0
 73
     1
 93
        4
 10
0.4743404816585884
 20
2.444119134032359
 10
0.4743404816585884
 20
2.431619134032359
 10
1.465939568991771
 20
1.865369134032359
 10
1.465939568991771
 20
1.871619134032357
 97
        0
 92
        7
 72
     1
 73
     1
 93
        4
 10
2.277855288744108
 20
2.327878893390661
 42
0.002332807343841
 10
2.273912129014666
 20
2.338102309059408
 42
0.0
 10
1.465939568991771
 20
1.871619134032357
 42
0.0
 10
1.465939568991771
 20
1.859119134032358
 42
0.0
 97
        0
 92
        7
 72
     1
 73
     1
 93
        4
 10
2.340987240676827
 20
2.088474850472842
 42
0.0024685623280776
 10
2.339172493318175
 20
2.099927105596812
 42
0.0
 10
1.643679379241882
 20
1.69838396896533
 42
0.0
 10
1.654504696789189
 20
1.692133968965332
 42
0.0
 97
        0
 92
        7
 72
     1
 73
     1
 93
        8
 10
1.654504696789189
 20
1.692133968965332
 42
0.0
 10
1.643679379241882
 20
1.698383968965334
 42
0.0
 10
1.643679379241882
 20
1.236374350022099
 42
-0.5773502691896262
 10
1.632429379241882
 20
1.229879159493716
 42
0.0
 10
1.548416584825593
 20
1.278383968965332
 42
0.0
 10
1.548416584825593
 20
1.265883968965333
 42
0.0
 10
1.630129696789186
 20
1.218706881776828
 42
0.577350269189633
 10
1.654504696789187
 20
1.232779794588324
 42
0.0
 97
        0
 92
        7
 72
     0
 73
     1
 93
        3
 10
0.4743404816585919
 20
2.431619134032349
 10
1.465939568991771
 20
1.859119134032358
 10
1.465939568991771
 20
1.865369134032359
 97
        0
 75
     0
 76
     1
 47
0.006507
 98
        7
 10
0.310135
 20
2.490348
 10
0.29198
 20
2.461163
 10
0.481425
 20
2.435922
 10
1.540736
 20
1.91075
 10
1.747498
 20
1.754571
 10
1.649815
 20
1.66184
 10
1.434913
 20
1.881466
  0
HATCH
  5
5F2
100
AcDbEntity
  8
2
  6
CONTINUOUS
 62
     9
100
AcDbHatch
 10
0.0
 20
0.0
 30
0.0
210
0.0
220
0.0
230
1.0
  2
SOLID
 70
     1
 71
     0
 91
        1
 92
        7
 72
     1
 73
     1
 93
        8
 10
1.507299039786325
 20
3.038477309686967
 42
0.0
 10
1.505578940726225
 20
3.037484210031589
 42
0.0
 10
1.505703940726226
 20
3.037267703680644
 42
0.0
 10
1.505828940726226
 20
3.037051197329695
 42
0.0
 10
1.505953940726227
 20
3.03683469097875
 42
0.0
 10
0.4768404816585896
 20
2.442675758359385
 42
0.0
 10
1.465939568991771
 20
1.871619134032357
 42
0.0
 10
2.27417364923798
 20
2.338253297830735
 42
0.2330962772361932
 97
        0
 75
     0
 76
     1
 47
0.017346
 98
        1
 10
1.400085
 20
2.516664
  0
MTEXT
  5
5F3
100
AcDbEntity
  8
2
  6
CONTINUOUS
 62
     9
100
AcDbMText
 10
0.249301
 20
0.528487
 30
0.0
 40
0.3855
 41
2.7245
 71
     1
 72
     5
  1
\fArial|b1|i0|c0|p34;\C7;C L A D
  7
ROMANS
  0
LINE
  5
5F4
100
AcDbEntity
  8
0
 62
     3
100
AcDbLine
 10
0.340504
 20
2.111382
 30
0.0
 11
0.985824
 21
1.738806
 31
0.0
  0
LINE
  5
5F5
100
AcDbEntity
  8
0
 62
     3
100
AcDbLine
 10
0.44405
 20
2.027928
 30
0.0
 11
0.344193
 21
2.085581
 31
0.0
  0
HATCH
  5
5F6
100
AcDbEntity
  8
2
  6
CONTINUOUS
 62
     9
100
AcDbHatch
 10
0.0
 20
0.0
 30
0.0
210
0.0
220
0.0
230
1.0
  2
SOLID
 70
     1
 71
     0
 91
        2
 92
       23
 72
     1
 73
     1
 93
       20
 10
1.154022949549975
 20
1.618025181363059
 42
0.0
 10
1.150957870187006
 20
1.612716308177162
 42
0.6681786379192962
 10
1.157988147992549
 20
1.603554271762856
 42
0.0
 10
1.173375115790356
 20
1.607677197358242
 42
0.6681786379192695
 10
1.174581020564843
 20
1.61683695350861
 42
0.0
 10
1.170684361573101
 20
1.619086690626435
 42
-0.6681786379192408
 10
1.171287313960345
 20
1.623666568701619
 42
0.0
 10
1.177910282640144
 20
1.625441187810867
 42
0.6681786379193185
 10
1.178211758833766
 20
1.627731126848459
 42
0.0
 10
0.985823587046795
 20
1.738806489618568
 42
0.0
 10
0.3405041290805641
 20
2.111381852388674
 42
0.668178637919208
 10
0.3386717217977022
 20
2.109975796827566
 42
0.0
 10
0.3404463409069525
 20
2.103352828147766
 42
-0.6681786379193225
 10
0.3367815263412286
 20
2.100540717025548
 42
0.0
 10
0.3328848673494864
 20
2.102790454143374
 42
0.6681786379193126
 10
0.3255552382180404
 20
2.097166231898938
 42
0.0
 10
0.3296781638134263
 20
2.081779264101129
 42
0.6681786379193007
 10
0.3411278590013858
 20
2.080271883133022
 42
0.0
 10
0.3441929383643547
 20
2.085580756318915
 42
0.0
 10
0.4440504954740981
 20
2.027927968840984
 42
0.0
 97
        0
 92
        7
 72
     1
 73
     1
 93
       37
 10
0.2749571104330712
 20
2.151348482812615
 42
0.4142135623731299
 10
0.2712071104330711
 20
2.147598482812618
 42
0.0
 10
0.2712071104330711
 20
1.713848482812618
 42
0.0
 10
1.245485689690562
 20
1.151348482812618
 42
0.0
 10
1.245485689690564
 20
1.585098482812618
 42
0.1316524975873667
 10
1.242640118271427
 20
1.590027157087124
 42
0.0
 10
1.179559502802655
 20
1.626446767408666
 42
0.0376464264871547
 10
1.178809767997819
 20
1.626390237619197
 42
-0.2823673447488831
 10
1.177910282640144
 20
1.625441187810867
 42
0.0
 10
1.175961896292225
 20
1.624919119262397
 42
0.5149511874561723
 10
1.177446411493953
 20
1.616915228473484
 42
0.0
 10
1.184082000595173
 20
1.613821002459214
 42
0.0
 10
1.176582588062228
 20
1.610330616466164
 42
-0.2180320882791709
 10
1.173375115790356
 20
1.607677197358242
 42
0.0
 10
1.167497862459319
 20
1.606102392074479
 42
0.0
 10
1.161144619075672
 20
1.603145457565368
 42
0.0
 10
1.153019619075671
 20
1.603145457565368
 42
1.0
 10
1.153019619075671
 20
1.591895457565367
 42
0.0
 10
1.194237085470804
 20
1.579627050273423
 42
-0.5578319223640622
 10
1.225485689690563
 20
1.542098482812622
 42
0.0
 10
1.225485689690563
 20
1.207598482812617
 42
-0.5129809895031772
 10
1.213601887746609
 20
1.198624117907225
 42
0.0
 10
0.3280909123770233
 20
1.709874117907229
 42
-0.2397239142270584
 10
0.2912071104330707
 20
1.770098482812617
 42
0.0
 10
0.2912911172512995
 20
2.093932161543566
 42
-1.046264757040728
 10
0.2985677067428458
 20
2.095883849382282
 42
0.0
 10
0.3238317985910708
 20
2.072477596263198
 42
0.6309633877406034
 10
0.3322000193817125
 20
2.078229097957553
 42
-0.1798205534880095
 10
0.3296781638134263
 20
2.081779264101129
 42
0.0
 10
0.329667127662816
 20
2.081820451575929
 42
0.0
 10
0.3224203421853193
 20
2.095599860999897
 42
0.0
 10
0.3272354927041512
 20
2.10568356030059
 42
0.0
 10
0.3345291944420179
 20
2.105045444083391
 42
0.293926452988122
 10
0.3393175175962479
 20
2.107565654096077
 42
0.0
 10
0.3386717217977022
 20
2.109975796827566
 42
-0.4565659268922137
 10
0.3397302423431689
 20
2.111540422055838
 42
0.1814616707363846
 10
0.337557630846149
 20
2.114301710090209
 42
0.0
 97
        0
 75
     0
 76
     1
 47
0.011788
 98
        2
 10
0.460522
 20
2.027889
 10
0.310123
 20
2.116297
  0
LINE
  5
5F7
100
AcDbEntity
  8
2
  6
CONTINUOUS
 62
     4
100
AcDbLine
 10
0.45706
 20
2.068193
 30
0.0
 11
0.673566
 21
1.943193
 31
0.0
  0
LINE
  5
5F8
100
AcDbEntity
  8
2
  6
CONTINUOUS
 62
     4
100
AcDbLine
 10
0.45706
 20
2.063193
 30
0.0
 11
0.673566
 21
1.938193
 31
0.0
  0
LINE
  5
5F9
100
AcDbEntity
  8
2
  6
CONTINUOUS
 62
     4
100
AcDbLine
 10
0.997204
 20
2.130046
 30
0.0
 11
0.673566
 21
1.943193
 31
0.0
  0
LINE
  5
5FA
100
AcDbEntity
  8
2
  6
CONTINUOUS
 62
     4
100
AcDbLine
 10
1.001534
 20
2.127546
 30
0.0
 11
0.673566
 21
1.938193
 31
0.0
  0
LINE
  5
5FB
100
AcDbEntity
  8
1
  6
CONTINUOUS
100
AcDbLine
 39
0.05
 10
0.47434
 20
2.444119
 30
0.0
 11
1.46594
 21
1.871619
 31
0.0
  0
LINE
  5
5FC
100
AcDbEntity
  8
1
  6
CONTINUOUS
100
AcDbLine
 39
0.05
 10
0.47434
 20
2.431619
 30
0.0
 11
1.46594
 21
1.859119
 31
0.0
  0
LINE
  5
5FD
100
AcDbEntity
  8
1
  6
CONTINUOUS
100
AcDbLine
 10
0.47434
 20
2.431619
 30
0.0
 11
1.46594
 21
1.865369
 31
0.0
  0
LINE
  5
5FE
100
AcDbEntity
  8
1
  6
CONTINUOUS
 62
     5
100
AcDbLine
 39
0.05
 10
0.47434
 20
2.444119
 30
0.0
 11
1.46594
 21
1.871619
 31
0.0
  0
LINE
  5
5FF
100
AcDbEntity
  8
1
  6
CONTINUOUS
 62
     5
100
AcDbLine
 39
0.05
 10
0.47434
 20
2.431619
 30
0.0
 11
1.46594
 21
1.859119
 31
0.0
  0
LINE
  5
600
100
AcDbEntity
  8
1
  6
CONTINUOUS
100
AcDbLine
 10
0.47434
 20
2.431619
 30
0.0
 11
1.46594
 21
1.865369
 31
0.0
  0
LINE
  5
601
100
AcDbEntity
  8
0
 62
     3
100
AcDbLine
 10
1.154023
 20
1.618025
 30
0.0
 11
0.44405
 21
2.027928
 31
0.0
  0
LINE
  5
602
100
AcDbEntity
  8
2
  6
CONTINUOUS
 62
     4
100
AcDbLine
 10
0.673566
 20
1.943193
 30
0.0
 11
0.673566
 21
1.938193
 31
0.0
  0
LINE
  5
603
100
AcDbEntity
  8
GREEN
100
AcDbLine
 10
1.245486
 20
1.151348
 30
0.0
 11
1.643941
 21
1.381397
 31
0.0
  0
LINE
  5
604
100
AcDbEntity
  8
2
  6
CONTINUOUS
 62
     4
100
AcDbLine
 10
1.273975
 20
1.243445
 30
0.0
 11
1.643941
 21
1.457045
 31
0.0
  0
LINE
  5
605
100
AcDbEntity
  8
2
  6
CONTINUOUS
 62
     4
100
AcDbLine
 10
1.430217
 20
1.880046
 30
0.0
 11
1.106579
 21
1.693193
 31
0.0
  0
LINE
  5
606
100
AcDbEntity
  8
2
  6
CONTINUOUS
 62
     4
100
AcDbLine
 10
1.434547
 20
1.877546
 30
0.0
 11
1.106579
 21
1.688193
 31
0.0
  0
LINE
  5
607
100
AcDbEntity
  8
0
 62
     3
100
AcDbLine
 10
0.985824
 20
1.738806
 30
0.0
 11
1.178212
 21
1.627731
 31
0.0
  0
LINE
  5
608
100
AcDbEntity
  8
2
  6
CONTINUOUS
 62
     4
100
AcDbLine
 10
0.890073
 20
1.818193
 30
0.0
 11
1.106579
 21
1.693193
 31
0.0
  0
LINE
  5
609
100
AcDbEntity
  8
2
  6
CONTINUOUS
 62
     4
100
AcDbLine
 10
0.890073
 20
1.813193
 30
0.0
 11
1.106579
 21
1.688193
 31
0.0
  0
LINE
  5
60A
100
AcDbEntity
  8
2
  6
CONTINUOUS
 62
     4
100
AcDbLine
 10
1.213711
 20
2.005046
 30
0.0
 11
0.890073
 21
1.818193
 31
0.0
  0
LINE
  5
60B
100
AcDbEntity
  8
2
  6
CONTINUOUS
 62
     4
100
AcDbLine
 10
0.890073
 20
1.818193
 30
0.0
 11
0.890073
 21
1.813193
 31
0.0
  0
LINE
  5
60C
100
AcDbEntity
  8
0
 62
     3
100
AcDbLine
 10
1.17791
 20
1.625441
 30
0.0
 11
1.171287
 21
1.623667
 31
0.0
  0
ARC
  5
60D
100
AcDbEntity
  8
0
 62
     3
100
AcDbCircle
 10
1.177587
 20
1.626649
 30
0.0
 40
0.00125
100
AcDbArc
 50
285.0
 51
60.0
  0
LINE
  5
60E
100
AcDbEntity
  8
0
 62
     3
100
AcDbLine
 10
1.150958
 20
1.612716
 30
0.0
 11
1.154023
 21
1.618025
 31
0.0
  0
ARC
  5
60F
100
AcDbEntity
  8
0
 62
     3
100
AcDbCircle
 10
1.156371
 20
1.609591
 30
0.0
 40
0.00625
100
AcDbArc
 50
150.0
 51
285.0
  0
LINE
  5
610
100
AcDbEntity
  8
0
 62
     3
100
AcDbLine
 10
1.173375
 20
1.607677
 30
0.0
 11
1.157988
 21
1.603554
 31
0.0
  0
ARC
  5
611
100
AcDbEntity
  8
0
 62
     3
100
AcDbCircle
 10
1.172081
 20
1.612507
 30
0.0
 40
0.005
100
AcDbArc
 50
285.0
 51
60.0
  0
LINE
  5
612
100
AcDbEntity
  8
0
 62
     3
100
AcDbLine
 10
1.170684
 20
1.619087
 30
0.0
 11
1.174581
 21
1.616837
 31
0.0
  0
ARC
  5
613
100
AcDbEntity
  8
0
 62
     3
100
AcDbCircle
 10
1.171934
 20
1.621252
 30
0.0
 40
0.0025
100
AcDbArc
 50
105.0
 51
240.0
  0
LINE
  5
614
100
AcDbEntity
  8
2
  6
CONTINUOUS
 62
     4
100
AcDbLine
 10
1.265315
 20
1.498445
 30
0.0
 11
1.273975
 21
1.493445
 31
0.0
  0
LINE
  5
615
100
AcDbEntity
  8
2
  6
CONTINUOUS
 62
     4
100
AcDbLine
 10
1.265315
 20
1.248445
 30
0.0
 11
1.273975
 21
1.243445
 31
0.0
  0
LINE
  5
616
100
AcDbEntity
  8
2
  6
CONTINUOUS
 62
     4
100
AcDbLine
 10
1.265315
 20
1.498445
 30
0.0
 11
1.265315
 21
1.248445
 31
0.0
  0
LINE
  5
617
100
AcDbEntity
  8
2
  6
CONTINUOUS
 62
     4
100
AcDbLine
 10
1.273975
 20
1.493445
 30
0.0
 11
1.273975
 21
1.243445
 31
0.0
  0
LINE
  5
618
100
AcDbEntity
  8
2
  6
CONTINUOUS
 62
     4
100
AcDbLine
 10
1.106579
 20
1.693193
 30
0.0
 11
1.106579
 21
1.688193
 31
0.0
  0
LINE
  5
619
100
AcDbEntity
  8
1
  6
CONTINUOUS
100
AcDbLine
 39
0.05
 10
1.46594
 20
1.871619
 30
0.0
 11
1.46594
 21
1.859119
 31
0.0
  0
LINE
  5
61A
100
AcDbEntity
  8
1
  6
CONTINUOUS
 62
     5
100
AcDbLine
 10
1.643679
 20
1.698384
 30
0.0
 11
1.654505
 21
1.692134
 31
0.0
  0
LINE
  5
61B
100
AcDbEntity
  8
1
  6
CONTINUOUS
 62
     5
100
AcDbLine
 10
1.643679
 20
1.698384
 30
0.0
 11
1.654505
 21
1.692134
 31
0.0
  0
ARC
  5
61C
100
AcDbEntity
  8
1
  6
CONTINUOUS
 62
     5
100
AcDbCircle
 10
1.636179
 20
1.236374
 30
0.0
 40
0.0075
100
AcDbArc
 50
240.0
 51
0.0
  0
ARC
  5
61D
102
{ACAD_REACTORS
330
5E6
102
}
100
AcDbEntity
  8
1
  6
CONTINUOUS
 62
     5
100
AcDbCircle
 10
1.636179
 20
1.236374
 30
0.0
 40
0.0075
100
AcDbArc
 50
240.0
 51
0.0
  0
LINE
  5
61E
100
AcDbEntity
  8
1
  6
CONTINUOUS
 62
     5
100
AcDbLine
 10
1.548417
 20
1.278384
 30
0.0
 11
1.548417
 21
1.265884
 31
0.0
  0
LINE
  5
61F
100
AcDbEntity
  8
1
  6
CONTINUOUS
 62
     5
100
AcDbLine
 10
1.548417
 20
1.278384
 30
0.0
 11
1.548417
 21
1.265884
 31
0.0
  0
LINE
  5
620
100
AcDbEntity
  8
1
  6
CONTINUOUS
 62
     5
100
AcDbLine
 10
1.63013
 20
1.218707
 30
0.0
 11
1.548417
 21
1.265884
 31
0.0
  0
LINE
  5
621
100
AcDbEntity
  8
1
  6
CONTINUOUS
 62
     5
100
AcDbLine
 10
1.63013
 20
1.218707
 30
0.0
 11
1.548417
 21
1.265884
 31
0.0
  0
LINE
  5
622
100
AcDbEntity
  8
1
  6
CONTINUOUS
 62
     5
100
AcDbLine
 10
1.632429
 20
1.229879
 30
0.0
 11
1.548417
 21
1.278384
 31
0.0
  0
ARC
  5
623
100
AcDbEntity
  8
1
  6
CONTINUOUS
 62
     5
100
AcDbCircle
 10
1.638255
 20
1.23278
 30
0.0
 40
0.01625
100
AcDbArc
 50
240.0
 51
0.0
  0
LINE
  5
624
102
{ACAD_REACTORS
330
5E6
102
}
100
AcDbEntity
  8
1
  6
CONTINUOUS
 62
     5
100
AcDbLine
 10
1.632429
 20
1.229879
 30
0.0
 11
1.548417
 21
1.278384
 31
0.0
  0
ARC
  5
625
102
{ACAD_REACTORS
330
5E6
102
}
100
AcDbEntity
  8
1
  6
CONTINUOUS
 62
     5
100
AcDbCircle
 10
1.638255
 20
1.23278
 30
0.0
 40
0.01625
100
AcDbArc
 50
240.0
 51
0.0
  0
LINE
  5
626
100
AcDbEntity
  8
1
  6
CONTINUOUS
 62
     5
100
AcDbLine
 10
1.548417
 20
1.278384
 30
0.0
 11
1.643679
 21
1.333384
 31
0.0
  0
LWPOLYLINE
  5
627
102
{ACAD_REACTORS
330
5E6
102
}
100
AcDbEntity
  8
1
  6
CONTINUOUS
 62
     5
100
AcDbPolyline
 90
        2
 70
     0
 43
0.005
 10
1.54968
 20
1.276241
 10
1.644943
 20
1.331241
  0
LINE
  5
628
100
AcDbEntity
  8
1
  6
CONTINUOUS
 62
     5
100
AcDbLine
 10
1.643679
 20
1.236374
 30
0.0
 11
1.643679
 21
1.698384
 31
0.0
  0
LINE
  5
629
100
AcDbEntity
  8
1
  6
CONTINUOUS
 62
     5
100
AcDbLine
 10
1.654505
 20
1.23278
 30
0.0
 11
1.654505
 21
1.692134
 31
0.0
  0
LINE
  5
62A
102
{ACAD_REACTORS
330
5E6
102
}
100
AcDbEntity
  8
1
  6
CONTINUOUS
 62
     5
100
AcDbLine
 10
1.643679
 20
1.236374
 30
0.0
 11
1.643679
 21
1.698384
 31
0.0
  0
LINE
  5
62B
102
{ACAD_REACTORS
330
5E6
102
}
100
AcDbEntity
  8
1
  6
CONTINUOUS
 62
     5
100
AcDbLine
 10
1.654505
 20
1.23278
 30
0.0
 11
1.654505
 21
1.692134
 31
0.0
  0
LINE
  5
62C
100
AcDbEntity
  8
GREEN
100
AcDbLine
 10
0.339453
 20
2.11223
 30
0.0
 11
0.683758
 21
2.311014
 31
0.0
  0
HATCH
  5
62D
100
AcDbEntity
  8
2
  6
CONTINUOUS
 62
     9
100
AcDbHatch
 10
0.0
 20
0.0
 30
0.0
210
0.0
220
0.0
230
1.0
  2
SOLID
 70
     1
 71
     0
 91
        1
 92
        7
 72
     1
 73
     1
 93
        7
 10
0.4743404816585884
 20
2.431619134032359
 42
0.0
 10
0.4743404816585884
 20
2.444119134032359
 42
0.0
 10
1.504965460949488
 20
3.039150743259511
 42
0.0369683020279065
 10
1.335223506809946
 20
3.074623170760965
 42
0.0
 10
0.2975933325868762
 20
2.475547110354
 42
0.0
 10
0.2975933325868762
 20
2.164417511766551
 42
0.0
 10
0.6173702999373348
 20
2.349040829946982
 42
0.0
 97
        0
 75
     0
 76
     1
 47
0.022773
 98
        1
 10
0.447915
 20
2.404975
  0
LINE
  5
62E
100
AcDbEntity
  8
2
  6
CONTINUOUS
 62
     4
100
AcDbLine
 10
0.780698
 20
2.255046
 30
0.0
 11
0.45706
 21
2.068193
 31
0.0
  0
LINE
  5
62F
100
AcDbEntity
  8
1
  6
CONTINUOUS
 62
     5
100
AcDbLine
 10
0.286768
 20
2.481797
 30
0.0
 11
1.317168
 21
3.076699
 31
0.0
  0
LINE
  5
630
100
AcDbEntity
  8
1
  6
CONTINUOUS
100
AcDbLine
 10
0.297593
 20
2.475547
 30
0.0
 11
1.334962
 21
3.074472
 31
0.0
  0
LINE
  5
631
100
AcDbEntity
  8
1
  6
CONTINUOUS
 62
     5
100
AcDbLine
 10
1.504704
 20
3.039
 30
0.0
 11
0.47434
 21
2.444119
 31
0.0
  0
LINE
  5
632
100
AcDbEntity
  8
1
  6
CONTINUOUS
 62
     5
100
AcDbLine
 10
0.286768
 20
2.481797
 30
0.0
 11
1.317168
 21
3.076699
 31
0.0
  0
LINE
  5
633
100
AcDbEntity
  8
1
  6
CONTINUOUS
 62
     5
100
AcDbLine
 10
0.297593
 20
2.475547
 30
0.0
 11
1.334962
 21
3.074472
 31
0.0
  0
LINE
  5
634
100
AcDbEntity
  8
1
  6
CONTINUOUS
 62
     5
100
AcDbLine
 10
0.47559
 20
2.441954
 30
0.0
 11
1.505954
 21
3.036835
 31
0.0
  0
LWPOLYLINE
  5
635
100
AcDbEntity
  8
1
  6
CONTINUOUS
 62
     5
100
AcDbPolyline
 90
        2
 70
     0
 43
0.005
 10
1.505932
 20
3.036821
 10
0.475569
 20
2.44194
  0
LINE
  5
636
100
AcDbEntity
  8
1
  6
CONTINUOUS
 62
     5
100
AcDbLine
 39
0.05
 10
0.47434
 20
2.444119
 30
0.0
 11
0.47434
 21
2.431619
 31
0.0
  0
LINE
  5
637
100
AcDbEntity
  8
1
  6
CONTINUOUS
 62
     5
100
AcDbLine
 39
0.05
 10
0.47434
 20
2.444119
 30
0.0
 11
0.47434
 21
2.431619
 31
0.0
  0
LINE
  5
638
100
AcDbEntity
  8
0
 62
     3
100
AcDbLine
 10
0.344193
 20
2.085581
 30
0.0
 11
0.341128
 21
2.080272
 31
0.0
  0
LINE
  5
639
100
AcDbEntity
  8
GREEN
100
AcDbLine
 10
0.274957
 20
2.151348
 30
0.0
 11
0.617632
 21
2.349192
 31
0.0
  0
ARC
  5
63A
100
AcDbEntity
  8
0
 62
     3
100
AcDbCircle
 10
0.339879
 20
2.110299
 30
0.0
 40
0.00125
100
AcDbArc
 50
60.0
 51
195.0
  0
LINE
  5
63B
100
AcDbEntity
  8
0
 62
     3
100
AcDbLine
 10
0.340446
 20
2.103353
 30
0.0
 11
0.338672
 21
2.109976
 31
0.0
  0
ARC
  5
63C
100
AcDbEntity
  8
0
 62
     3
100
AcDbCircle
 10
0.338032
 20
2.102706
 30
0.0
 40
0.0025
100
AcDbArc
 50
240.0
 51
15.0
  0
LINE
  5
63D
100
AcDbEntity
  8
0
 62
     3
100
AcDbLine
 10
0.332885
 20
2.10279
 30
0.0
 11
0.336782
 21
2.100541
 31
0.0
  0
ARC
  5
63E
100
AcDbEntity
  8
0
 62
     3
100
AcDbCircle
 10
0.330385
 20
2.09846
 30
0.0
 40
0.005
100
AcDbArc
 50
60.0
 51
195.0
  0
LINE
  5
63F
100
AcDbEntity
  8
0
 62
     3
100
AcDbLine
 10
0.329678
 20
2.081779
 30
0.0
 11
0.325555
 21
2.097166
 31
0.0
  0
ARC
  5
640
100
AcDbEntity
  8
0
 62
     3
100
AcDbCircle
 10
0.335715
 20
2.083397
 30
0.0
 40
0.00625
100
AcDbArc
 50
195.0
 51
330.0
  0
LINE
  5
641
100
AcDbEntity
  8
1
  6
CONTINUOUS
 62
     5
100
AcDbLine
 10
0.286768
 20
2.481797
 30
0.0
 11
0.297593
 21
2.475547
 31
0.0
  0
LINE
  5
642
100
AcDbEntity
  8
1
  6
CONTINUOUS
 62
     5
100
AcDbLine
 10
0.286768
 20
2.481797
 30
0.0
 11
0.297593
 21
2.475547
 31
0.0
  0
LINE
  5
643
100
AcDbEntity
  8
1
  6
CONTINUOUS
 62
     5
100
AcDbLine
 10
0.286768
 20
2.158168
 30
0.0
 11
0.286768
 21
2.481797
 31
0.0
  0
LINE
  5
644
100
AcDbEntity
  8
1
  6
CONTINUOUS
 62
     5
100
AcDbLine
 10
0.297593
 20
2.164418
 30
0.0
 11
0.297593
 21
2.475547
 31
0.0
  0
LINE
  5
645
100
AcDbEntity
  8
1
  6
CONTINUOUS
 62
     5
100
AcDbLine
 10
0.286768
 20
2.158168
 30
0.0
 11
0.286768
 21
2.481797
 31
0.0
  0
LINE
  5
646
100
AcDbEntity
  8
1
  6
CONTINUOUS
 62
     5
100
AcDbLine
 10
0.297593
 20
2.164418
 30
0.0
 11
0.297593
 21
2.475547
 31
0.0
  0
LINE
  5
647
100
AcDbEntity
  8
1
  6
CONTINUOUS
 62
     5
100
AcDbLine
 10
0.47434
 20
2.444119
 30
0.0
 11
0.47434
 21
2.431619
 31
0.0
  0
LINE
  5
648
100
AcDbEntity
  8
1
  6
CONTINUOUS
 62
     5
100
AcDbLine
 10
0.47434
 20
2.444119
 30
0.0
 11
0.47434
 21
2.431619
 31
0.0
  0
LINE
  5
649
100
AcDbEntity
  8
2
  6
CONTINUOUS
 62
     4
100
AcDbLine
 10
0.45706
 20
2.068193
 30
0.0
 11
0.45706
 21
2.063193
 31
0.0
  0
ENDBLK
  5
64B
100
AcDbEntity
  8
0
100
AcDbBlockEnd
  0
BLOCK
  5
715
100
AcDbEntity
  8
0
100
AcDbBlockBegin
  2
*D25
 70
     1
 10
0.0
 20
0.0
 30
0.0
  3
*D25
  1

  0
LINE
  5
716
100
AcDbEntity
  8
0
  6
BYBLOCK
 62
     0
100
AcDbLine
 10
9.045019
 20
10.987431
 30
0.0
 11
9.045019
 21
8.450547
 31
0.0
  0
LINE
  5
717
100
AcDbEntity
  8
0
  6
BYBLOCK
 62
     0
100
AcDbLine
 10
7.019967
 20
10.987431
 30
0.0
 11
7.019967
 21
8.450547
 31
0.0
  0
LINE
  5
718
100
AcDbEntity
  8
0
  6
BYBLOCK
 62
     0
100
AcDbLine
 10
8.685019
 20
8.810547
 30
0.0
 11
7.379967
 21
8.810547
 31
0.0
  0
LINE
  5
719
100
AcDbEntity
  8
0
  6
BYBLOCK
 62
     0
100
AcDbLine
 10
7.019967
 20
8.810547
 30
0.0
 11
6.659967
 21
8.810547
 31
0.0
  0
SOLID
  5
71A
100
AcDbEntity
  8
0
  6
BYBLOCK
 62
     0
100
AcDbTrace
 10
8.685019
 20
8.870547
 30
0.0
 11
8.685019
 21
8.750547
 31
0.0
 12
9.045019
 22
8.810547
 32
0.0
 13
9.045019
 23
8.810547
 33
0.0
  0
SOLID
  5
71B
100
AcDbEntity
  8
0
  6
BYBLOCK
 62
     0
100
AcDbTrace
 10
7.379967
 20
8.870547
 30
0.0
 11
7.379967
 21
8.750547
 31
0.0
 12
7.019967
 22
8.810547
 32
0.0
 13
7.019967
 23
8.810547
 33
0.0
  0
MTEXT
  5
71C
100
AcDbEntity
  8
0
  6
BYBLOCK
 62
     0
100
AcDbMText
 10
4.979967
 20
8.810547
 30
0.0
 40
0.36
 41
0.0
 71
     5
 72
     1
  1
\A1;2" [51mm]
  7
ROMNAS
  0
POINT
  5
71D
100
AcDbEntity
  8
DEFPOINTS
  6
BYBLOCK
 62
     0
100
AcDbPoint
 10
9.045019
 20
11.112431
 30
0.0
  0
POINT
  5
71E
100
AcDbEntity
  8
DEFPOINTS
  6
BYBLOCK
 62
     0
100
AcDbPoint
 10
7.019967
 20
11.112431
 30
0.0
  0
POINT
  5
71F
100
AcDbEntity
  8
DEFPOINTS
  6
BYBLOCK
 62
     0
100
AcDbPoint
 10
7.019967
 20
8.810547
 30
0.0
  0
ENDBLK
  5
720
100
AcDbEntity
  8
0
100
AcDbBlockEnd
  0
ENDSEC
  0
SECTION
  2
ENTITIES
  0
LWPOLYLINE
  5
22A
100
AcDbEntity
  8
BORDER
100
AcDbPolyline
 90
        4
 70
     1
 43
0.109866
 10
16.058274
 20
21.375045
 10
0.0
 20
21.375045
 10
0.0
 20
0.0
 10
16.058274
 20
0.0
  0
TEXT
  5
22E
100
AcDbEntity
  8
R-DOOR-ANNO
  6
CONTINUOUS
100
AcDbText
 10
3.550745
 20
4.567529
 30
0.0
 40
0.390625
  1
4" TAPERED DOOR RAIL CLAD
  7
ROMANS
 72
     1
 11
8.015031
 21
4.567529
 31
0.0
100
AcDbText
  0
TEXT
  5
22F
100
AcDbEntity
  8
R-DOOR-ANNO
  6
CONTINUOUS
100
AcDbText
 10
5.150448
 20
4.04902
 30
0.0
 40
0.390625
  1
WITH CLAD HEADER
  7
ROMANS
 72
     1
 11
8.015031
 21
4.04902
 31
0.0
100
AcDbText
  0
TEXT
  5
230
100
AcDbEntity
  8
R-DOOR-ANNO
  6
CONTINUOUS
100
AcDbText
 10
12.001429
 20
4.587794
 30
0.0
 40
0.625
  1

  7
ROMANS
 72
     1
 11
12.001429
 21
4.587794
 31
0.0
100
AcDbText
  0
TEXT
  5
28E
100
AcDbEntity
  8
R-DOOR-ANNO
  6
CONTINUOUS
100
AcDbText
 10
13.102827
 20
0.3125
 30
0.0
 40
0.390625
  1
4TDRCH
  7
ROMANS
100
AcDbText
  0
DIMENSION
  5
290
100
AcDbEntity
  8
R-DOOR-ANNO
  6
CONTINUOUS
100
AcDbDimension
  2
*D15
 10
2.943528
 20
16.343116
 30
0.0
 11
2.943528
 21
13.811866
 31
0.0
 70
   160
  3
STANDARD
100
AcDbAlignedDimension
 13
7.776939
 23
11.230616
 33
0.0
 14
5.026939
 24
16.343116
 34
0.0
 50
90.0
100
AcDbRotatedDimension
1001
ACAD
1000
DSTYLE
1002
{
1070
   270
1070
     4
1070
    40
1040
2.0
1070
     4
1000
mm
1070
   274
1070
     0
1070
   171
1070
     0
1070
   170
1070
     1
1002
}
  0
LINE
  5
293
100
AcDbEntity
  8
R-DOOR-DETL
 62
     3
100
AcDbLine
 10
5.026939
 20
16.343116
 30
0.0
 11
11.026939
 21
16.343116
 31
0.0
  0
HATCH
  5
294
100
AcDbEntity
  8
R-DOOR-PATT
  6
CONTINUOUS
 62
     5
100
AcDbHatch
 10
0.0
 20
0.0
 30
0.0
210
0.0
220
0.0
230
1.0
  2
ANSI31
 70
     0
 71
     0
 91
        1
 92
        7
 72
     0
 73
     1
 93
        4
 10
5.026939141639525
 20
16.34311556523012
 10
11.02693914163952
 20
16.34311556523012
 10
11.02693914163952
 20
18.34311556523012
 10
5.026939141639525
 20
18.34311556523012
 97
        0
 75
     0
 76
     1
 52
180.0
 41
2.5
 77
     0
 78
     1
 53
225.0
 43
-7.822558
 44
-12.786046
 45
0.2209708691207961
 46
-0.2209708691207961
 79
     0
 47
0.011976
 98
        1
 10
8.29974
 20
17.152209
  0
LINE
  5
295
100
AcDbEntity
  8
R-DOOR-DETL
  6
CONTINUOUS
100
AcDbLine
 10
5.776939
 20
16.343116
 30
0.0
 11
10.276939
 21
16.343116
 31
0.0
  0
INSERT
  5
297
100
AcDbEntity
  8
R-DOOR-DETL
 62
     3
100
AcDbBlockReference
  2
A$C262D5DC0
 10
5.776939
 20
14.543116
 30
0.0
  0
LINE
  5
298
100
AcDbEntity
  8
R-DOOR-DETL
 62
     3
100
AcDbLine
 10
10.302411
 20
14.530616
 30
0.0
 11
5.751467
 21
14.530616
 31
0.0
  0
LINE
  5
299
100
AcDbEntity
  8
R-DOOR-DETL
 62
     3
100
AcDbLine
 10
10.302411
 20
14.480616
 30
0.0
 11
5.751467
 21
14.480616
 31
0.0
  0
ARC
  5
29B
100
AcDbEntity
  8
R-DOOR-DETL
 62
     3
100
AcDbCircle
 10
5.776939
 20
16.261866
 30
0.0
 40
0.03125
100
AcDbArc
 50
90.0
 51
180.0
  0
ARC
  5
29C
100
AcDbEntity
  8
R-DOOR-DETL
 62
     3
100
AcDbCircle
 10
5.776939
 20
16.261866
 30
0.0
 40
0.08125
100
AcDbArc
 50
90.0
 51
180.0
  0
LINE
  5
29D
100
AcDbEntity
  8
R-DOOR-DETL
 62
     3
100
AcDbLine
 10
5.745689
 20
14.480616
 30
0.0
 11
5.695689
 21
14.480616
 31
0.0
  0
LINE
  5
29E
100
AcDbEntity
  8
R-DOOR-DETL
 62
     3
100
AcDbLine
 10
5.745689
 20
16.261866
 30
0.0
 11
5.745689
 21
14.480616
 31
0.0
  0
LINE
  5
29F
100
AcDbEntity
  8
R-DOOR-DETL
 62
     3
100
AcDbLine
 10
5.695689
 20
16.261866
 30
0.0
 11
5.695689
 21
14.480616
 31
0.0
  0
LINE
  5
2A0
100
AcDbEntity
  8
R-DOOR-DETL
 62
     3
100
AcDbLine
 10
6.195689
 20
16.293116
 30
0.0
 11
6.195689
 21
16.343116
 31
0.0
  0
LINE
  5
2A1
100
AcDbEntity
  8
R-DOOR-DETL
 62
     3
100
AcDbLine
 10
6.195689
 20
16.293116
 30
0.0
 11
5.776939
 21
16.293116
 31
0.0
  0
LINE
  5
2A2
100
AcDbEntity
  8
R-DOOR-DETL
 62
     3
100
AcDbLine
 10
6.195689
 20
16.343116
 30
0.0
 11
5.776939
 21
16.343116
 31
0.0
  0
LINE
  5
2A3
100
AcDbEntity
  8
R-DOOR-DETL
 62
     3
100
AcDbLine
 10
5.751467
 20
14.530616
 30
0.0
 11
5.751467
 21
14.480616
 31
0.0
  0
LWPOLYLINE
  5
2A4
100
AcDbEntity
  8
R-DOOR-DETL
 62
     3
100
AcDbPolyline
 90
        4
 70
     1
 43
0.0
 10
6.792638
 20
14.530616
 10
6.792638
 20
14.543116
 10
6.292638
 20
14.543116
 10
6.292638
 20
14.530616
  0
LWPOLYLINE
  5
2A7
100
AcDbEntity
  8
R-DOOR-DETL
  6
CONTINUOUS
 62
     3
100
AcDbPolyline
 90
       12
 70
     1
 43
0.0
 10
7.458374
 20
10.251948
 42
0.282029
 10
7.542129
 20
10.200624
 10
7.717887
 20
10.200624
 10
7.717887
 20
10.150624
 10
7.542129
 20
10.150624
 42
-0.282029
 10
7.413824
 20
10.229249
 10
7.030212
 20
10.982128
 42
-0.118358
 10
7.019967
 20
11.024803
 10
7.019967
 20
14.230616
 10
7.069967
 20
14.230616
 10
7.069967
 20
11.036807
 42
0.118358
 10
7.080212
 20
10.994132
  0
LWPOLYLINE
  5
2A8
100
AcDbEntity
  8
R-DOOR-DETL
  6
CONTINUOUS
 62
     3
100
AcDbPolyline
 90
       72
 70
     0
 43
0.0
 10
8.480958
 20
11.421977
 42
-0.131652
 10
8.476939
 20
11.436977
 10
8.476939
 20
11.870912
 42
0.414214
 10
8.416939
 20
11.930912
 10
8.026939
 20
11.930912
 10
7.636939
 20
11.930912
 42
0.414214
 10
7.576939
 20
11.870912
 10
7.576939
 20
11.436977
 42
-0.131652
 10
7.57292
 20
11.421977
 10
7.287305
 20
10.927276
 42
0.240079
 10
7.285404
 20
10.891007
 10
7.542567
 20
10.313409
 42
0.296213
 10
7.579109
 20
10.289679
 10
7.724024
 20
10.289679
 42
-0.414214
 10
7.733867
 20
10.279836
 10
7.733867
 20
10.210624
 42
-0.414214
 10
7.723867
 20
10.200624
 10
7.558108
 20
10.200624
 42
-0.282029
 10
7.474354
 20
10.251948
 10
7.106192
 20
10.974506
 42
-0.118358
 10
7.095947
 20
11.017181
 10
7.095947
 20
14.215616
 42
-0.414214
 10
7.110947
 20
14.230616
 10
7.180947
 20
14.230616
 42
-0.414214
 10
7.195947
 20
14.215616
 10
7.195947
 20
13.835616
 42
0.414214
 10
7.210947
 20
13.820616
 10
7.230947
 20
13.820616
 42
-0.414214
 10
7.245947
 20
13.805616
 10
7.245947
 20
13.151819
 42
0.414214
 10
7.260947
 20
13.136819
 10
7.326939
 20
13.136819
 42
-0.414214
 10
7.341939
 20
13.121819
 10
7.341939
 20
12.951819
 42
-0.414214
 10
7.326939
 20
12.936819
 10
7.260947
 20
12.936819
 42
0.414214
 10
7.245947
 20
12.921819
 10
7.245947
 20
12.680616
 42
0.414214
 10
7.275947
 20
12.650616
 10
8.026939
 20
12.650616
 10
8.777932
 20
12.650616
 42
0.414214
 10
8.807932
 20
12.680616
 10
8.807932
 20
12.921819
 42
0.414214
 10
8.792932
 20
12.936819
 10
8.726939
 20
12.936819
 42
-0.414214
 10
8.711939
 20
12.951819
 10
8.711939
 20
13.121819
 42
-0.414214
 10
8.726939
 20
13.136819
 10
8.792932
 20
13.136819
 42
0.414214
 10
8.807932
 20
13.151819
 10
8.807932
 20
13.805616
 42
-0.414214
 10
8.822932
 20
13.820616
 10
8.842932
 20
13.820616
 42
0.414214
 10
8.857932
 20
13.835616
 10
8.857932
 20
14.215616
 42
-0.414214
 10
8.872932
 20
14.230616
 10
8.942932
 20
14.230616
 42
-0.414214
 10
8.957932
 20
14.215616
 10
8.957932
 20
11.017181
 42
-0.118358
 10
8.947686
 20
10.974506
 10
8.579525
 20
10.251948
 42
-0.282029
 10
8.49577
 20
10.200624
 10
8.330012
 20
10.200624
 42
-0.414214
 10
8.320012
 20
10.210624
 10
8.320012
 20
10.279836
 42
-0.414214
 10
8.329854
 20
10.289679
 10
8.47477
 20
10.289679
 42
0.296213
 10
8.511312
 20
10.313409
 10
8.768475
 20
10.891007
 42
0.240079
 10
8.766574
 20
10.927276
 10
8.480958
 20
11.421977
 10
8.476939
 20
11.428938
  0
LWPOLYLINE
  5
2A9
100
AcDbEntity
  8
R-DOOR-DETL
  6
CONTINUOUS
 62
     3
100
AcDbPolyline
 90
       12
 70
     1
 43
0.0
 10
8.606612
 20
10.251948
 42
-0.282029
 10
8.522858
 20
10.200624
 10
8.347099
 20
10.200624
 10
8.347099
 20
10.150624
 10
8.522858
 20
10.150624
 42
0.282029
 10
8.651163
 20
10.229249
 10
9.034774
 20
10.982128
 42
0.118358
 10
9.045019
 20
11.024803
 10
9.045019
 20
14.230616
 10
8.995019
 20
14.230616
 10
8.995019
 20
11.036807
 42
-0.118358
 10
8.984774
 20
10.994132
  0
DIMENSION
  5
2AA
100
AcDbEntity
  8
R-DOOR-ANNO
  6
CONTINUOUS
100
AcDbDimension
  2
*D16
 10
14.295975
 20
14.230616
 30
0.0
 11
12.418832
 21
13.066688
 31
0.0
 70
   160
  3
STANDARD
100
AcDbAlignedDimension
 13
10.358189
 23
14.480616
 33
0.0
 14
9.02041
 24
14.230616
 34
0.0
 50
90.0
100
AcDbRotatedDimension
1001
ACAD
1000
DSTYLE
1002
{
1070
   270
1070
     4
1070
    40
1040
2.0
1070
     4
1000
mm
1070
   274
1070
     0
1070
   171
1070
     0
1070
   170
1070
     1
1002
}
  0
MTEXT
  5
2F3
102
{ACAD_REACTORS
330
2F6
102
}
100
AcDbEntity
  8
R-DOOR-ANNO
  6
CONTINUOUS
100
AcDbMText
 10
10.750163
 20
9.843673
 30
0.0
 40
0.36
 41
0.0
 71
     4
 72
     1
  1
CLADDING
  7
ROMANS
  0
MTEXT
  5
2F4
102
{ACAD_REACTORS
330
2F7
102
}
100
AcDbEntity
  8
R-DOOR-ANNO
  6
CONTINUOUS
100
AcDbMText
 10
10.750163
 20
11.721306
 30
0.0
 40
0.36
 41
0.0
 71
     4
 72
     1
  1
SHOE
  7
ROMANS
  0
MTEXT
  5
2F5
102
{ACAD_REACTORS
330
2F8
102
}
100
AcDbEntity
  8
R-DOOR-ANNO
  6
CONTINUOUS
100
AcDbMText
 10
10.758207
 20
10.560577
 30
0.0
 40
0.36
 41
0.0
 71
     4
 72
     1
  1
GLASS CLAMP
  7
ROMANS
  0
LEADER
  5
2F6
100
AcDbEntity
  8
R-DOOR-ANNO
  6
CONTINUOUS
100
AcDbLeader
  3
STANDARD
 73
     0
 74
     0
 75
     1
 40
0.36
 41
2.451429
 76
     3
 10
8.759161
 20
10.531173
 30
0.0
 10
10.140163
 20
9.843673
 30
0.0
 10
10.640163
 20
9.843673
 30
0.0
 77
   256
340
2F3
213
-0.0199999999999996
223
0.0
233
0.0
1001
ACAD
1000
DSTYLE
1002
{
1070
   173
1070
     1
1070
     6
1000
_DOTSMALL
1070
    41
1040
0.5
1002
}
  0
LEADER
  5
2F7
100
AcDbEntity
  8
R-DOOR-ANNO
  6
CONTINUOUS
100
AcDbLeader
  3
STANDARD
 73
     0
 74
     0
 75
     1
 40
0.36
 41
1.337143
 76
     3
 10
8.734104
 20
12.408806
 30
0.0
 10
10.140163
 20
11.721306
 30
0.0
 10
10.640163
 20
11.721306
 30
0.0
 77
   256
340
2F4
213
-0.0199999999999996
223
0.0
233
0.0
1001
ACAD
1000
DSTYLE
1002
{
1070
   173
1070
     1
1070
     6
1000
_DOTSMALL
1070
    41
1040
0.5
1002
}
  0
LEADER
  5
2F8
100
AcDbEntity
  8
R-DOOR-ANNO
  6
CONTINUOUS
100
AcDbLeader
  3
STANDARD
 73
     0
 74
     0
 75
     1
 40
0.36
 41
3.634286
 76
     3
 10
8.31858
 20
11.373077
 30
0.0
 10
10.148207
 20
10.560577
 30
0.0
 10
10.648207
 20
10.560577
 30
0.0
 77
   256
340
2F5
213
-0.0199999999999996
223
0.0
233
0.0
1001
ACAD
1000
DSTYLE
1002
{
1070
   173
1070
     1
1070
     6
1000
_DOTSMALL
1070
    41
1040
0.5
1002
}
  0
LINE
  5
2F9
100
AcDbEntity
  8
R-DOOR-DETL
  6
CONTINUOUS
 62
     3
100
AcDbLine
 10
8.620939
 20
13.226616
 30
0.0
 11
7.432939
 21
13.226616
 31
0.0
  0
LINE
  5
2FA
100
AcDbEntity
  8
R-DOOR-DETL
  6
CONTINUOUS
 62
     3
100
AcDbLine
 10
8.709439
 20
13.200616
 30
0.0
 11
7.344439
 21
13.200616
 31
0.0
  0
LINE
  5
2FB
100
AcDbEntity
  8
R-DOOR-DETL
  6
CONTINUOUS
 62
     3
100
AcDbLine
 10
8.481129
 20
13.080159
 30
0.0
 11
8.375997
 21
13.053167
 31
0.0
  0
LINE
  5
2FC
100
AcDbEntity
  8
R-DOOR-DETL
  6
CONTINUOUS
 62
     3
100
AcDbLine
 10
8.557071
 20
13.002608
 30
0.0
 11
8.481129
 21
13.080159
 31
0.0
  0
LINE
  5
2FD
100
AcDbEntity
  8
R-DOOR-DETL
  6
CONTINUOUS
 62
     3
100
AcDbLine
 10
7.612591
 20
13.083634
 30
0.0
 11
7.700811
 21
13.0204
 31
0.0
  0
LINE
  5
2FE
100
AcDbEntity
  8
R-DOOR-DETL
  6
CONTINUOUS
 62
     3
100
AcDbLine
 10
7.513719
 20
13.038849
 30
0.0
 11
7.612591
 21
13.083634
 31
0.0
  0
LINE
  5
2FF
100
AcDbEntity
  8
R-DOOR-DETL
  6
CONTINUOUS
 62
     3
100
AcDbLine
 10
8.08121
 20
13.069616
 30
0.0
 11
7.972668
 21
13.069616
 31
0.0
  0
LWPOLYLINE
  5
300
100
AcDbEntity
  8
R-DOOR-DETL
  6
CONTINUOUS
 62
     3
100
AcDbPolyline
 90
       29
 70
     1
 43
0.0
 10
7.875274
 20
11.707721
 10
7.875274
 20
11.822721
 42
0.414214
 10
7.860274
 20
11.837721
 10
7.708274
 20
11.837721
 42
0.414214
 10
7.614274
 20
11.743721
 10
7.614274
 20
11.488804
 42
-0.136094
 10
7.609989
 20
11.473353
 10
7.331897
 20
11.01053
 42
0.414214
 10
7.34216
 20
10.969364
 10
7.402162
 20
10.933311
 42
0.136094
 10
7.417613
 20
10.929026
 10
7.53386
 20
10.929026
 42
-0.400921
 10
7.563829
 20
10.900393
 10
7.58622
 20
10.409664
 42
0.400921
 10
7.626179
 20
10.371487
 10
7.732138
 20
10.371487
 42
0.843039
 10
7.7387
 20
10.409731
 42
-0.317837
 10
7.732138
 20
10.419011
 10
7.732138
 20
11.270878
 42
-0.414214
 10
7.741981
 20
11.280721
 10
7.974274
 20
11.280721
 42
0.414214
 10
7.989274
 20
11.295721
 10
7.989274
 20
11.410721
 42
0.414214
 10
7.974274
 20
11.425721
 10
7.884274
 20
11.425721
 42
-0.414214
 10
7.759274
 20
11.550721
 10
7.759274
 20
11.677721
 42
-0.414214
 10
7.774274
 20
11.692721
 10
7.860274
 20
11.692721
 42
0.414214
  0
LWPOLYLINE
  5
301
100
AcDbEntity
  8
R-DOOR-DETL
  6
CONTINUOUS
 62
     3
100
AcDbPolyline
 90
       21
 70
     1
 43
0.0
 10
7.89783
 20
12.315119
 42
0.939516
 10
7.982041
 20
12.365698
 42
-2.169752
 10
8.071837
 20
12.365698
 42
0.939516
 10
8.156049
 20
12.315119
 42
0.106196
 10
8.181185
 20
12.375987
 42
-0.362414
 10
8.2107
 20
12.400616
 10
8.499228
 20
12.400616
 42
-0.414214
 10
8.530228
 20
12.369616
 10
8.530228
 20
12.209573
 42
0.564167
 10
8.602332
 20
12.166009
 42
-1.903207
 10
8.612925
 20
12.069323
 42
0.226984
 10
8.572044
 20
12.080912
 10
8.026939
 20
12.080912
 10
7.481835
 20
12.080912
 42
0.226984
 10
7.440953
 20
12.069323
 42
-1.903207
 10
7.451546
 20
12.166009
 42
0.564167
 10
7.523651
 20
12.209573
 10
7.523651
 20
12.369616
 42
-0.414214
 10
7.554651
 20
12.400616
 10
7.843178
 20
12.400616
 42
-0.362414
 10
7.872693
 20
12.375987
 42
0.106196
  0
LINE
  5
302
100
AcDbEntity
  8
R-DOOR-DETL
  6
CONTINUOUS
 62
     3
100
AcDbLine
 10
8.709439
 20
12.650616
 30
0.0
 11
7.344439
 21
12.650616
 31
0.0
  0
LINE
  5
303
100
AcDbEntity
  8
R-DOOR-DETL
  6
CONTINUOUS
 62
     3
100
AcDbLine
 10
8.709439
 20
12.775616
 30
0.0
 11
7.344439
 21
12.775616
 31
0.0
  0
LINE
  5
305
100
AcDbEntity
  8
R-DOOR-DETL
 62
     3
100
AcDbLine
 10
8.274137
 20
11.230721
 30
0.0
 11
8.274137
 21
7.205461
 31
0.0
  0
POINT
  5
306
100
AcDbEntity
  8
DEFPOINTS
  6
BYBLOCK
 62
     0
100
AcDbPoint
 10
7.651939
 20
11.230616
 30
0.0
  0
LINE
  5
307
100
AcDbEntity
  8
R-DOOR-DETL
 62
     3
100
AcDbLine
 10
7.784137
 20
11.230721
 30
0.0
 11
8.274137
 21
11.230721
 31
0.0
  0
LINE
  5
308
100
AcDbEntity
  8
R-DOOR-DETL
 62
     3
100
AcDbLine
 10
7.841637
 20
11.230721
 30
0.0
 11
8.216637
 21
11.230721
 31
0.0
  0
LINE
  5
309
100
AcDbEntity
  8
R-DOOR-DETL
 62
     3
100
AcDbLine
 10
8.17859
 20
7.234934
 30
0.0
 11
8.272138
 21
7.205461
 31
0.0
  0
LINE
  5
30A
100
AcDbEntity
  8
R-DOOR-DETL
 62
     3
100
AcDbLine
 10
8.11609
 20
7.141184
 30
0.0
 11
8.17859
 21
7.234934
 31
0.0
  0
LINE
  5
30B
100
AcDbEntity
  8
R-DOOR-DETL
 62
     3
100
AcDbLine
 10
7.86609
 20
7.141184
 30
0.0
 11
7.99109
 21
7.234934
 31
0.0
  0
LINE
  5
30C
100
AcDbEntity
  8
R-DOOR-DETL
 62
     3
100
AcDbLine
 10
7.782138
 20
7.201113
 30
0.0
 11
7.86609
 21
7.141184
 31
0.0
  0
LINE
  5
30D
100
AcDbEntity
  8
R-DOOR-DETL
 62
     3
100
AcDbLine
 10
7.99109
 20
7.234934
 30
0.0
 11
8.11609
 21
7.141184
 31
0.0
  0
LINE
  5
30E
100
AcDbEntity
  8
R-DOOR-DETL
 62
     3
100
AcDbLine
 10
8.216637
 20
7.222947
 30
0.0
 11
8.216637
 21
11.230721
 31
0.0
  0
LINE
  5
30F
100
AcDbEntity
  8
R-DOOR-DETL
 62
     3
100
AcDbLine
 10
7.782138
 20
7.201113
 30
0.0
 11
7.782138
 21
11.230721
 31
0.0
  0
LINE
  5
310
100
AcDbEntity
  8
R-DOOR-DETL
 62
     3
100
AcDbLine
 10
8.154137
 20
7.198255
 30
0.0
 11
8.154137
 21
11.230721
 31
0.0
  0
LINE
  5
311
100
AcDbEntity
  8
R-DOOR-DETL
 62
     3
100
AcDbLine
 10
8.091637
 20
7.159524
 30
0.0
 11
8.091637
 21
11.230721
 31
0.0
  0
LINE
  5
312
100
AcDbEntity
  8
R-DOOR-DETL
 62
     3
100
AcDbLine
 10
7.966637
 20
7.216594
 30
0.0
 11
7.966637
 21
11.230721
 31
0.0
  0
LINE
  5
313
100
AcDbEntity
  8
R-DOOR-DETL
 62
     3
100
AcDbLine
 10
7.904137
 20
7.169719
 30
0.0
 11
7.904137
 21
11.230721
 31
0.0
  0
LINE
  5
314
100
AcDbEntity
  8
R-DOOR-DETL
 62
     3
100
AcDbLine
 10
7.841637
 20
7.15864
 30
0.0
 11
7.841637
 21
11.230721
 31
0.0
  0
LINE
  5
315
100
AcDbEntity
  8
R-DOOR-DETL
 62
     3
100
AcDbLine
 10
8.272138
 20
11.230721
 30
0.0
 11
7.782138
 21
11.230721
 31
0.0
  0
LINE
  5
316
100
AcDbEntity
  8
R-DOOR-DETL
  6
CONTINUOUS
 62
     3
100
AcDbLine
 10
8.135481
 20
12.975616
 30
0.0
 11
8.08121
 21
12.881616
 31
0.0
  0
LINE
  5
317
100
AcDbEntity
  8
R-DOOR-DETL
  6
CONTINUOUS
 62
     3
100
AcDbLine
 10
8.422749
 20
12.871072
 30
0.0
 11
8.346807
 21
12.948624
 31
0.0
  0
LINE
  5
318
100
AcDbEntity
  8
R-DOOR-DETL
  6
CONTINUOUS
 62
     3
100
AcDbLine
 10
8.527881
 20
12.898064
 30
0.0
 11
8.422749
 21
12.871072
 31
0.0
  0
LINE
  5
319
100
AcDbEntity
  8
R-DOOR-DETL
 62
     3
100
AcDbLine
 10
8.281922
 20
11.55708
 30
0.0
 11
8.281922
 21
11.68208
 31
0.0
  0
LWPOLYLINE
  5
31A
100
AcDbEntity
  8
R-DOOR-DETL
 62
     3
100
AcDbPolyline
 90
        4
 70
     1
 43
0.0
 10
8.064294
 20
11.280721
 10
8.314294
 20
11.280721
 10
8.314294
 20
11.230721
 10
8.064294
 20
11.230721
  0
LWPOLYLINE
  5
31B
100
AcDbEntity
  8
R-DOOR-DETL
 62
     3
100
AcDbPolyline
 90
        4
 70
     1
 43
0.0
 10
8.324137
 20
11.169011
 10
8.324137
 20
10.419011
 10
8.274137
 20
10.419011
 10
8.274137
 20
11.169011
  0
LWPOLYLINE
  5
31C
100
AcDbEntity
  8
R-DOOR-DETL
  6
CONTINUOUS
 62
     3
100
AcDbPolyline
 90
       29
 70
     1
 43
0.0
 10
8.181001
 20
11.707721
 10
8.181001
 20
11.822721
 42
-0.414214
 10
8.196001
 20
11.837721
 10
8.348001
 20
11.837721
 42
-0.414214
 10
8.442001
 20
11.743721
 10
8.442001
 20
11.488804
 42
0.136094
 10
8.446286
 20
11.473353
 10
8.724379
 20
11.01053
 42
-0.414214
 10
8.714115
 20
10.969364
 10
8.654113
 20
10.933311
 42
-0.136094
 10
8.638662
 20
10.929026
 10
8.522415
 20
10.929026
 42
0.400921
 10
8.492446
 20
10.900393
 10
8.470055
 20
10.409664
 42
-0.400921
 10
8.430096
 20
10.371487
 10
8.324137
 20
10.371487
 42
-0.843039
 10
8.317575
 20
10.409731
 42
0.317837
 10
8.324137
 20
10.419011
 10
8.324137
 20
11.270878
 42
0.414214
 10
8.314294
 20
11.280721
 10
8.082001
 20
11.280721
 42
-0.414214
 10
8.067001
 20
11.295721
 10
8.067001
 20
11.410721
 42
-0.414214
 10
8.082001
 20
11.425721
 10
8.172001
 20
11.425721
 42
0.414214
 10
8.297001
 20
11.550721
 10
8.297001
 20
11.677721
 42
0.414214
 10
8.282001
 20
11.692721
 10
8.196001
 20
11.692721
 42
-0.414214
  0
LINE
  5
31D
100
AcDbEntity
  8
R-DOOR-DETL
  6
CONTINUOUS
 62
     3
100
AcDbLine
 10
7.918397
 20
12.975616
 30
0.0
 11
7.972668
 21
12.881616
 31
0.0
  0
LINE
  5
31E
100
AcDbEntity
  8
R-DOOR-DETL
  6
CONTINUOUS
 62
     3
100
AcDbLine
 10
7.503067
 20
12.930831
 30
0.0
 11
7.591288
 21
12.867598
 31
0.0
  0
LINE
  5
31F
100
AcDbEntity
  8
R-DOOR-DETL
  6
CONTINUOUS
 62
     3
100
AcDbLine
 10
7.591288
 20
12.867598
 30
0.0
 11
7.69016
 21
12.912382
 31
0.0
  0
LINE
  5
320
100
AcDbEntity
  8
R-DOOR-DETL
 62
     3
100
AcDbLine
 10
7.781922
 20
11.55708
 30
0.0
 11
7.781922
 21
11.68208
 31
0.0
  0
LWPOLYLINE
  5
321
100
AcDbEntity
  8
R-DOOR-DETL
 62
     3
100
AcDbPolyline
 90
        4
 70
     1
 43
0.0
 10
7.987217
 20
11.280721
 10
7.737217
 20
11.280721
 10
7.737217
 20
11.230721
 10
7.987217
 20
11.230721
  0
LWPOLYLINE
  5
322
100
AcDbEntity
  8
R-DOOR-DETL
 62
     3
100
AcDbPolyline
 90
        4
 70
     1
 43
0.0
 10
7.732138
 20
11.169011
 10
7.732138
 20
10.419011
 10
7.782138
 20
10.419011
 10
7.782138
 20
11.169011
  0
LINE
  5
323
100
AcDbEntity
  8
R-DOOR-DETL
 62
     3
100
AcDbLine
 10
7.781922
 20
11.55708
 30
0.0
 11
8.281922
 21
11.55708
 31
0.0
  0
LINE
  5
324
100
AcDbEntity
  8
R-DOOR-DETL
 62
     3
100
AcDbLine
 10
7.781922
 20
11.68208
 30
0.0
 11
8.281922
 21
11.68208
 31
0.0
  0
LINE
  5
325
100
AcDbEntity
  8
R-DOOR-DETL
 62
     3
100
AcDbLine
 10
7.937922
 20
11.526945
 30
0.0
 11
8.125922
 21
11.526945
 31
0.0
  0
LINE
  5
326
100
AcDbEntity
  8
R-DOOR-DETL
 62
     3
100
AcDbLine
 10
7.937922
 20
11.586945
 30
0.0
 11
8.125922
 21
11.586945
 31
0.0
  0
LINE
  5
327
100
AcDbEntity
  8
R-DOOR-DETL
 62
     3
100
AcDbLine
 10
7.937922
 20
11.646945
 30
0.0
 11
8.125922
 21
11.646945
 31
0.0
  0
LINE
  5
328
100
AcDbEntity
  8
R-DOOR-DETL
 62
     3
100
AcDbLine
 10
7.937922
 20
11.706945
 30
0.0
 11
8.125922
 21
11.706945
 31
0.0
  0
LINE
  5
329
100
AcDbEntity
  8
R-DOOR-DETL
  6
CONTINUOUS
 62
     3
100
AcDbLine
 10
7.937922
 20
11.766945
 30
0.0
 11
8.125922
 21
11.766945
 31
0.0
  0
LINE
  5
32A
100
AcDbEntity
  8
R-DOOR-DETL
 62
     3
100
AcDbLine
 10
7.907922
 20
11.556945
 30
0.0
 11
8.155922
 21
11.556945
 31
0.0
  0
LINE
  5
32B
100
AcDbEntity
  8
R-DOOR-DETL
 62
     3
100
AcDbLine
 10
7.907922
 20
11.616945
 30
0.0
 11
8.155922
 21
11.616945
 31
0.0
  0
LINE
  5
32C
100
AcDbEntity
  8
R-DOOR-DETL
 62
     3
100
AcDbLine
 10
7.907922
 20
11.736945
 30
0.0
 11
8.155922
 21
11.736945
 31
0.0
  0
LINE
  5
32D
100
AcDbEntity
  8
R-DOOR-DETL
  6
CONTINUOUS
 62
     3
100
AcDbLine
 10
7.907922
 20
11.796945
 30
0.0
 11
8.155922
 21
11.796945
 31
0.0
  0
LINE
  5
32E
100
AcDbEntity
  8
R-DOOR-DETL
 62
     3
100
AcDbLine
 10
7.907922
 20
11.676945
 30
0.0
 11
8.155922
 21
11.676945
 31
0.0
  0
LINE
  5
32F
100
AcDbEntity
  8
R-DOOR-DETL
  6
CONTINUOUS
 62
     3
100
AcDbLine
 10
8.08121
 20
12.881616
 30
0.0
 11
7.972668
 21
12.881616
 31
0.0
  0
LINE
  5
330
100
AcDbEntity
  8
R-DOOR-DETL
  6
CONTINUOUS
 62
     3
100
AcDbLine
 10
7.937922
 20
11.826945
 30
0.0
 11
8.125922
 21
11.826945
 31
0.0
  0
LINE
  5
331
100
AcDbEntity
  8
R-DOOR-DETL
  6
CONTINUOUS
 62
     3
100
AcDbLine
 10
7.937922
 20
11.886945
 30
0.0
 11
8.125922
 21
11.886945
 31
0.0
  0
LINE
  5
332
100
AcDbEntity
  8
R-DOOR-DETL
  6
CONTINUOUS
 62
     3
100
AcDbLine
 10
7.907922
 20
11.856945
 30
0.0
 11
8.155922
 21
11.856945
 31
0.0
  0
LINE
  5
333
100
AcDbEntity
  8
R-DOOR-DETL
  6
CONTINUOUS
 62
     3
100
AcDbLine
 10
7.907922
 20
11.916945
 30
0.0
 11
8.155922
 21
11.916945
 31
0.0
  0
CIRCLE
  5
334
100
AcDbEntity
  8
R-DOOR-DETL
  6
CONTINUOUS
 62
     3
100
AcDbCircle
 10
7.601939
 20
12.975616
 30
0.0
 40
0.1625
  0
CIRCLE
  5
335
100
AcDbEntity
  8
R-DOOR-DETL
  6
CONTINUOUS
 62
     3
100
AcDbCircle
 10
7.601939
 20
12.975616
 30
0.0
 40
0.1875
  0
LWPOLYLINE
  5
336
100
AcDbEntity
  8
R-DOOR-DETL
  6
CONTINUOUS
 62
     3
100
AcDbPolyline
 90
       32
 70
     1
 43
0.0
 10
7.346939
 20
13.211616
 10
7.346939
 20
12.941819
 42
-0.414214
 10
7.331939
 20
12.926819
 10
7.265947
 20
12.926819
 42
0.414214
 10
7.250947
 20
12.911819
 10
7.250947
 20
12.681616
 42
0.414214
 10
7.281947
 20
12.650616
 10
7.425559
 20
12.650616
 42
0.267949
 10
7.452405
 20
12.666116
 10
7.558119
 20
12.849217
 42
0.40146
 10
7.547931
 20
12.890861
 42
-3.430162
 10
7.655947
 20
12.890861
 42
0.40146
 10
7.645759
 20
12.849217
 10
7.751473
 20
12.666116
 42
0.267949
 10
7.77832
 20
12.650616
 10
8.275559
 20
12.650616
 42
0.267949
 10
8.302405
 20
12.666116
 10
8.408119
 20
12.849217
 42
0.40146
 10
8.397931
 20
12.890861
 42
-3.430162
 10
8.505947
 20
12.890861
 42
0.40146
 10
8.495759
 20
12.849217
 10
8.601473
 20
12.666116
 42
0.267949
 10
8.62832
 20
12.650616
 10
8.771932
 20
12.650616
 42
0.414214
 10
8.802932
 20
12.681616
 10
8.802932
 20
12.911819
 42
0.414214
 10
8.787932
 20
12.926819
 10
8.721939
 20
12.926819
 42
-0.414214
 10
8.706939
 20
12.941819
 10
8.706939
 20
13.211616
 42
0.414214
 10
8.691939
 20
13.226616
 10
7.361939
 20
13.226616
 42
0.414214
  0
LINE
  5
337
100
AcDbEntity
  8
R-DOOR-DETL
  6
CONTINUOUS
 62
     3
100
AcDbLine
 10
7.344439
 20
13.200616
 30
0.0
 11
7.344439
 21
12.650616
 31
0.0
  0
LINE
  5
338
100
AcDbEntity
  8
R-DOOR-DETL
  6
CONTINUOUS
 62
     3
100
AcDbLine
 10
8.557071
 20
13.002608
 30
0.0
 11
8.527881
 21
12.898064
 31
0.0
  0
LINE
  5
339
100
AcDbEntity
  8
R-DOOR-DETL
  6
CONTINUOUS
 62
     3
100
AcDbLine
 10
8.08121
 20
13.069616
 30
0.0
 11
8.135481
 21
12.975616
 31
0.0
  0
LINE
  5
33A
100
AcDbEntity
  8
R-DOOR-DETL
  6
CONTINUOUS
 62
     3
100
AcDbLine
 10
8.375997
 20
13.053167
 30
0.0
 11
8.346807
 21
12.948624
 31
0.0
  0
LINE
  5
33B
100
AcDbEntity
  8
R-DOOR-DETL
  6
CONTINUOUS
 62
     3
100
AcDbLine
 10
8.709439
 20
13.200616
 30
0.0
 11
8.709439
 21
12.650616
 31
0.0
  0
CIRCLE
  5
33C
100
AcDbEntity
  8
R-DOOR-DETL
  6
CONTINUOUS
 62
     3
100
AcDbCircle
 10
8.451939
 20
12.975616
 30
0.0
 40
0.1875
  0
CIRCLE
  5
33D
100
AcDbEntity
  8
R-DOOR-DETL
  6
CONTINUOUS
 62
     3
100
AcDbCircle
 10
8.451939
 20
12.975616
 30
0.0
 40
0.1625
  0
LINE
  5
33E
100
AcDbEntity
  8
R-DOOR-DETL
  6
CONTINUOUS
 62
     3
100
AcDbLine
 10
7.972668
 20
13.069616
 30
0.0
 11
7.918397
 21
12.975616
 31
0.0
  0
LINE
  5
33F
100
AcDbEntity
  8
R-DOOR-DETL
  6
CONTINUOUS
 62
     3
100
AcDbLine
 10
7.69016
 20
12.912382
 30
0.0
 11
7.700811
 21
13.0204
 31
0.0
  0
LINE
  5
340
100
AcDbEntity
  8
R-DOOR-DETL
  6
CONTINUOUS
 62
     3
100
AcDbLine
 10
7.503067
 20
12.930831
 30
0.0
 11
7.513719
 21
13.038849
 31
0.0
  0
CIRCLE
  5
341
100
AcDbEntity
  8
R-DOOR-DETL
  6
CONTINUOUS
 62
     3
100
AcDbCircle
 10
8.026939
 20
12.975616
 30
0.0
 40
0.1875
  0
CIRCLE
  5
342
100
AcDbEntity
  8
R-DOOR-DETL
  6
CONTINUOUS
 62
     3
100
AcDbCircle
 10
8.026939
 20
12.975616
 30
0.0
 40
0.1625
  0
LINE
  5
343
100
AcDbEntity
  8
R-DOOR-DETL
 62
     3
100
AcDbLine
 10
10.308189
 20
14.480616
 30
0.0
 11
10.358189
 21
14.480616
 31
0.0
  0
LINE
  5
344
100
AcDbEntity
  8
R-DOOR-DETL
 62
     3
100
AcDbLine
 10
10.302411
 20
14.530616
 30
0.0
 11
10.302411
 21
14.480616
 31
0.0
  0
LINE
  5
345
100
AcDbEntity
  8
R-DOOR-DETL
 62
     3
100
AcDbLine
 10
10.358189
 20
16.261866
 30
0.0
 11
10.358189
 21
14.480616
 31
0.0
  0
LINE
  5
346
100
AcDbEntity
  8
R-DOOR-DETL
 62
     3
100
AcDbLine
 10
10.308189
 20
16.261866
 30
0.0
 11
10.308189
 21
14.480616
 31
0.0
  0
LINE
  5
347
100
AcDbEntity
  8
R-DOOR-DETL
 62
     3
100
AcDbLine
 10
9.858189
 20
16.293116
 30
0.0
 11
10.276939
 21
16.293116
 31
0.0
  0
LINE
  5
348
100
AcDbEntity
  8
R-DOOR-DETL
 62
     3
100
AcDbLine
 10
9.858189
 20
16.343116
 30
0.0
 11
10.276939
 21
16.343116
 31
0.0
  0
LINE
  5
349
100
AcDbEntity
  8
R-DOOR-DETL
 62
     3
100
AcDbLine
 10
9.858189
 20
16.293116
 30
0.0
 11
9.858189
 21
16.343116
 31
0.0
  0
ARC
  5
34A
100
AcDbEntity
  8
R-DOOR-DETL
 62
     3
100
AcDbCircle
 10
10.276939
 20
16.261866
 30
0.0
 40
0.08125
100
AcDbArc
 50
0.0
 51
90.0
  0
ARC
  5
34B
100
AcDbEntity
  8
R-DOOR-DETL
 62
     3
100
AcDbCircle
 10
10.276939
 20
16.261866
 30
0.0
 40
0.03125
100
AcDbArc
 50
0.0
 51
90.0
  0
LWPOLYLINE
  5
369
100
AcDbEntity
  8
R-DOOR-DETL
 62
     3
100
AcDbPolyline
 90
        4
 70
     1
 43
0.0
 10
8.276939
 20
14.530616
 10
8.276939
 20
14.543116
 10
7.776939
 20
14.543116
 10
7.776939
 20
14.530616
  0
LWPOLYLINE
  5
36A
100
AcDbEntity
  8
R-DOOR-DETL
 62
     3
100
AcDbPolyline
 90
        4
 70
     1
 43
0.0
 10
9.761241
 20
14.530616
 10
9.761241
 20
14.543116
 10
9.261241
 20
14.543116
 10
9.261241
 20
14.530616
  0
INSERT
  5
545
100
AcDbEntity
  8
0
100
AcDbBlockReference
  2
A$C74654F65
 10
0.176568
 20
0.312157
 30
0.0
  0
INSERT
  5
554
100
AcDbEntity
  8
R-DOOR-ANNO
100
AcDbBlockReference
  2
A$C216638AD
 10
6.063134
 20
14.543116
 30
0.0
  0
ARC
  5
64D
100
AcDbEntity
  8
GREEN
  6
CONTINUOUS
100
AcDbCircle
 39
1.0
 10
13.594056
 20
18.171857
 30
0.0
 40
0.009167
100
AcDbArc
 50
252.745313
 51
1.373158
  0
LINE
  5
64E
100
AcDbEntity
  8
GREEN
  6
CONTINUOUS
100
AcDbLine
 39
1.0
 10
13.603221
 20
18.506576
 30
0.0
 11
13.603221
 21
18.172076
 31
0.0
  0
ARC
  5
64F
100
AcDbEntity
  8
GREEN
  6
CONTINUOUS
100
AcDbCircle
 39
1.0
 10
13.576011
 20
18.515694
 30
0.0
 40
0.028697
100
AcDbArc
 50
341.47451
 51
98.091202
  0
LINE
  5
650
100
AcDbEntity
  8
GREEN
  6
CONTINUOUS
100
AcDbLine
 39
1.0
 10
13.530755
 20
18.556373
 30
0.0
 11
13.571972
 21
18.544105
 31
0.0
  0
ARC
  5
651
100
AcDbEntity
  8
GREEN
  6
CONTINUOUS
100
AcDbCircle
 39
1.0
 10
13.530755
 20
18.561998
 30
0.0
 40
0.005625
100
AcDbArc
 50
90.0
 51
270.0
  0
LINE
  5
652
100
AcDbEntity
  8
GREEN
  6
CONTINUOUS
100
AcDbLine
 39
1.0
 10
13.53888
 20
18.567623
 30
0.0
 11
13.530755
 21
18.567623
 31
0.0
  0
LINE
  5
653
100
AcDbEntity
  8
GREEN
  6
CONTINUOUS
100
AcDbLine
 39
1.0
 10
13.561817
 20
18.578299
 30
0.0
 11
13.53888
 21
18.567623
 31
0.0
  0
LINE
  5
654
100
AcDbEntity
  8
GREEN
  6
CONTINUOUS
100
AcDbLine
 39
1.0
 10
13.555182
 20
18.581393
 30
0.0
 11
13.561817
 21
18.578299
 31
0.0
  0
ARC
  5
655
100
AcDbEntity
  8
GREEN
  6
CONTINUOUS
100
AcDbCircle
 39
1.0
 10
13.557295
 20
18.585925
 30
0.0
 40
0.005
100
AcDbArc
 50
90.0
 51
245.0
  0
LINE
  5
656
100
AcDbEntity
  8
GREEN
  6
CONTINUOUS
100
AcDbLine
 39
1.0
 10
13.620375
 20
18.554505
 30
0.0
 11
13.557295
 21
18.590925
 31
0.0
  0
ARC
  5
657
100
AcDbEntity
  8
GREEN
  6
CONTINUOUS
100
AcDbCircle
 39
1.0
 10
13.612601
 20
18.546731
 30
0.0
 40
0.010994
100
AcDbArc
 50
15.0
 51
45.0
  0
LINE
  5
658
100
AcDbEntity
  8
GREEN
  6
CONTINUOUS
100
AcDbLine
 39
1.0
 10
13.623221
 20
18.115826
 30
0.0
 11
13.623221
 21
18.549576
 31
0.0
  0
LINE
  5
659
100
AcDbEntity
  8
GREEN
  6
CONTINUOUS
100
AcDbLine
 39
1.0
 10
12.648942
 20
18.678326
 30
0.0
 11
13.623221
 21
18.115826
 31
0.0
  0
LINE
  5
65A
100
AcDbEntity
  8
GREEN
  6
CONTINUOUS
100
AcDbLine
 39
1.0
 10
12.648942
 20
19.112076
 30
0.0
 11
12.648942
 21
18.678326
 31
0.0
  0
ARC
  5
65B
100
AcDbEntity
  8
GREEN
  6
CONTINUOUS
100
AcDbCircle
 39
1.0
 10
12.652692
 20
19.112076
 30
0.0
 40
0.00375
100
AcDbArc
 50
90.0
 51
180.0
  0
LINE
  5
65C
100
AcDbEntity
  8
GREEN
  6
CONTINUOUS
100
AcDbLine
 39
1.0
 10
12.7152
 20
19.078834
 30
0.0
 11
12.652692
 21
19.115826
 31
0.0
  0
ARC
  5
65D
100
AcDbEntity
  8
GREEN
  6
CONTINUOUS
100
AcDbCircle
 39
1.0
 10
12.7127
 20
19.074504
 30
0.0
 40
0.005
100
AcDbArc
 50
265.0
 51
60.0
  0
LINE
  5
65E
100
AcDbEntity
  8
GREEN
  6
CONTINUOUS
100
AcDbLine
 39
1.0
 10
12.704971
 20
19.070161
 30
0.0
 11
12.712264
 21
19.069523
 31
0.0
  0
LINE
  5
65F
100
AcDbEntity
  8
GREEN
  6
CONTINUOUS
100
AcDbLine
 39
1.0
 10
12.700156
 20
19.060078
 30
0.0
 11
12.704971
 21
19.070161
 31
0.0
  0
LINE
  5
660
100
AcDbEntity
  8
GREEN
  6
CONTINUOUS
100
AcDbLine
 39
1.0
 10
12.707192
 20
19.046698
 30
0.0
 11
12.700156
 21
19.060078
 31
0.0
  0
ARC
  5
661
100
AcDbEntity
  8
GREEN
  6
CONTINUOUS
100
AcDbCircle
 39
1.0
 10
12.70438
 20
19.041827
 30
0.0
 40
0.005625
100
AcDbArc
 50
240.0
 51
60.0
  0
LINE
  5
662
100
AcDbEntity
  8
GREEN
  6
CONTINUOUS
100
AcDbLine
 39
1.0
 10
12.676303
 20
19.060362
 30
0.0
 11
12.701567
 21
19.036955
 31
0.0
  0
ARC
  5
663
100
AcDbEntity
  8
GREEN
  6
CONTINUOUS
100
AcDbCircle
 39
1.0
 10
12.672621
 20
19.059551
 30
0.0
 40
0.003771
100
AcDbArc
 50
12.423788
 51
197.604591
  0
LINE
  5
664
100
AcDbEntity
  8
GREEN
  6
CONTINUOUS
100
AcDbLine
 39
1.0
 10
12.668942
 20
18.734576
 30
0.0
 11
12.669026
 21
19.05841
 31
0.0
  0
ARC
  5
665
100
AcDbEntity
  8
GREEN
  6
CONTINUOUS
100
AcDbCircle
 39
1.0
 10
12.746581
 20
18.740719
 30
0.0
 40
0.077881
100
AcDbArc
 50
184.523413
 51
238.446514
  0
LINE
  5
666
100
AcDbEntity
  8
GREEN
  6
CONTINUOUS
100
AcDbLine
 39
1.0
 10
13.591337
 20
18.163102
 30
0.0
 11
12.705826
 21
18.674352
 31
0.0
  0
LINE
  5
668
100
AcDbEntity
  8
GREEN
100
AcDbLine
 10
13.554869
 20
18.590297
 30
0.0
 11
14.675325
 21
19.237192
 31
0.0
  0
LWPOLYLINE
  5
669
102
{ACAD_REACTORS
330
66A
102
}
100
AcDbEntity
  8
1
  6
CONTINUOUS
 62
     5
100
AcDbPolyline
 90
        2
 70
     0
 43
0.0125
 10
13.70328
 20
20.040346
 42
70374.114908
 10
13.703346
 20
20.040338
 42
70374.114908
  0
HATCH
  5
66A
100
AcDbEntity
  8
2
  6
CONTINUOUS
 62
     9
100
AcDbHatch
 10
0.0
 20
0.0
 30
0.0
210
0.0
220
0.0
230
1.0
  2
SOLID
 70
     1
 71
     1
 91
        2
 92
        7
 72
     1
 73
     1
 93
        5
 10
14.71898401955072
 20
19.0531037360204
 42
0.0
 10
14.03223995543956
 20
18.65661186574144
 42
0.0
 10
14.03223995543956
 20
18.19725769136444
 42
-0.1222318301882052
 10
14.03035443730944
 20
18.18966004958491
 42
0.0
 10
14.69282172047577
 20
18.57213571385032
 42
0.1036486555257608
 97
        5
330
66F
330
6AF
330
6A9
330
673
330
669
 92
        7
 72
     1
 73
     1
 93
        4
 10
14.02141463789225
 20
18.2949896557738
 42
0.0
 10
13.92863925027295
 20
18.24142576075763
 42
0.0
 10
14.01016463789225
 20
18.19435705626983
 42
0.5773502691896213
 10
14.02141463789225
 20
18.20085224679821
 42
0.0
 97
        4
330
6AB
330
6A8
330
6A1
330
6AE
 75
     0
 76
     1
 47
0.022773
 98
        2
 10
14.369581
 20
18.640732
 10
13.987871
 20
18.23652
  0
LINE
  5
66B
100
AcDbEntity
  8
GREEN
100
AcDbLine
 10
13.623221
 20
18.549576
 30
0.0
 11
14.695294
 21
19.168538
 31
0.0
  0
LINE
  5
66C
100
AcDbEntity
  8
1
  6
CONTINUOUS
100
AcDbLine
 10
13.843675
 20
18.836097
 30
0.0
 11
14.651647
 21
19.30258
 31
0.0
  0
LINE
  5
66D
100
AcDbEntity
  8
1
  6
CONTINUOUS
100
AcDbLine
 10
13.843675
 20
18.823597
 30
0.0
 11
14.655591
 21
19.292357
 31
0.0
  0
LINE
  5
66E
100
AcDbEntity
  8
1
  6
CONTINUOUS
 62
     5
100
AcDbLine
 10
14.021415
 20
18.662862
 30
0.0
 11
14.716908
 21
19.064405
 31
0.0
  0
LINE
  5
66F
102
{ACAD_REACTORS
330
66A
102
}
100
AcDbEntity
  8
1
  6
CONTINUOUS
 62
     5
100
AcDbLine
 10
14.03224
 20
18.656612
 30
0.0
 11
14.718722
 21
19.052953
 31
0.0
  0
LINE
  5
670
100
AcDbEntity
  8
2
  6
CONTINUOUS
 62
     4
100
AcDbLine
 10
13.64305
 20
18.462923
 30
0.0
 11
14.714288
 21
19.081402
 31
0.0
  0
LINE
  5
671
100
AcDbEntity
  8
2
  6
CONTINUOUS
 62
     4
100
AcDbLine
 10
13.65171
 20
18.457923
 30
0.0
 11
14.715873
 21
19.072317
 31
0.0
  0
LINE
  5
672
100
AcDbEntity
  8
1
  6
CONTINUOUS
 62
     5
100
AcDbLine
 10
14.024115
 20
18.183185
 30
0.0
 11
14.691647
 21
18.568585
 31
0.0
  0
LWPOLYLINE
  5
673
102
{ACAD_REACTORS
330
66A
102
}
100
AcDbEntity
  8
1
  6
CONTINUOUS
 62
     5
100
AcDbPolyline
 90
        2
 70
     0
 43
0.005
 10
14.023843
 20
18.185901
 10
14.691375
 20
18.571301
  0
HATCH
  5
674
100
AcDbEntity
  8
1
  6
CONTINUOUS
 62
     5
100
AcDbHatch
 10
0.0
 20
0.0
 30
0.0
210
0.0
220
0.0
230
1.0
  2
SOLID
 70
     1
 71
     0
 91
        7
 92
        7
 72
     1
 73
     1
 93
        4
 10
13.71269724523688
 20
20.03895007876568
 42
0.003817909443379
 10
13.69490294438933
 20
20.04117653438131
 42
0.0
 10
12.66450327368994
 20
19.44627500713011
 42
0.0
 10
12.67532859123725
 20
19.44002500713011
 42
0.0
 97
        0
 92
        7
 72
     0
 73
     1
 93
        4
 10
12.67532859123725
 20
19.44002500713011
 10
12.66450327368994
 20
19.44627500713011
 10
12.66450327368994
 20
19.12264540854267
 10
12.67532859123725
 20
19.12889540854267
 97
        0
 92
        7
 72
     0
 73
     1
 93
        4
 10
12.85207574030896
 20
19.40859703080847
 10
12.85207574030896
 20
19.39609703080847
 10
13.84367482764214
 20
18.82984703080847
 10
13.84367482764214
 20
18.83609703080847
 97
        0
 92
        7
 72
     1
 73
     1
 93
        4
 10
14.65559054739448
 20
19.29235679016677
 42
0.002332807343841
 10
14.65164738766504
 20
19.30258020583552
 42
0.0
 10
13.84367482764214
 20
18.83609703080847
 42
0.0
 10
13.84367482764214
 20
18.82359703080847
 42
0.0
 97
        0
 92
        7
 72
     1
 73
     1
 93
        4
 10
14.7187224993272
 20
19.05295274724895
 42
0.0024685623280776
 10
14.71690775196855
 20
19.06440500237293
 42
0.0
 10
14.02141463789225
 20
18.66286186574145
 42
0.0
 10
14.03223995543956
 20
18.65661186574144
 42
0.0
 97
        0
 92
        7
 72
     1
 73
     1
 93
        8
 10
14.03223995543956
 20
18.65661186574144
 42
0.0
 10
14.02141463789225
 20
18.66286186574145
 42
0.0
 10
14.02141463789225
 20
18.20085224679821
 42
-0.5773502691896262
 10
14.01016463789225
 20
18.19435705626983
 42
0.0
 10
13.92615184347597
 20
18.24286186574145
 42
0.0
 10
13.92615184347597
 20
18.23036186574145
 42
0.0
 10
14.00786495543956
 20
18.18318477855294
 42
0.577350269189633
 10
14.03223995543956
 20
18.19725769136444
 42
0.0
 97
        0
 92
        7
 72
     0
 73
     1
 93
        3
 10
12.85207574030896
 20
19.39609703080846
 10
13.84367482764214
 20
18.82359703080847
 10
13.84367482764214
 20
18.82984703080847
 97
        0
 75
     0
 76
     1
 47
0.006507
 98
        7
 10
12.687871
 20
19.454826
 10
12.669715
 20
19.425641
 10
12.859161
 20
19.4004
 10
13.918471
 20
18.875228
 10
14.125233
 20
18.719049
 10
14.02755
 20
18.626318
 10
13.812648
 20
18.845944
  0
HATCH
  5
675
100
AcDbEntity
  8
1
  6
CONTINUOUS
 62
     5
100
AcDbHatch
 10
0.0
 20
0.0
 30
0.0
210
0.0
220
0.0
230
1.0
  2
SOLID
 70
     1
 71
     0
 91
        7
 92
        7
 72
     1
 73
     1
 93
        4
 10
13.71269724523688
 20
20.03895007876568
 42
0.003817909443379
 10
13.69490294438933
 20
20.04117653438131
 42
0.0
 10
12.66450327368994
 20
19.44627500713011
 42
0.0
 10
12.67532859123725
 20
19.44002500713011
 42
0.0
 97
        0
 92
        7
 72
     0
 73
     1
 93
        4
 10
12.67532859123725
 20
19.44002500713011
 10
12.66450327368994
 20
19.44627500713011
 10
12.66450327368994
 20
19.12264540854267
 10
12.67532859123725
 20
19.12889540854266
 97
        0
 92
        7
 72
     0
 73
     1
 93
        4
 10
12.85207574030896
 20
19.40859703080847
 10
12.85207574030896
 20
19.39609703080847
 10
13.84367482764214
 20
18.82984703080847
 10
13.84367482764214
 20
18.83609703080847
 97
        0
 92
        7
 72
     1
 73
     1
 93
        4
 10
14.65559054739448
 20
19.29235679016677
 42
0.002332807343841
 10
14.65164738766504
 20
19.30258020583552
 42
0.0
 10
13.84367482764214
 20
18.83609703080847
 42
0.0
 10
13.84367482764214
 20
18.82359703080847
 42
0.0
 97
        0
 92
        7
 72
     1
 73
     1
 93
        4
 10
14.7187224993272
 20
19.05295274724895
 42
0.0024685623280776
 10
14.71690775196855
 20
19.06440500237293
 42
0.0
 10
14.02141463789225
 20
18.66286186574144
 42
0.0
 10
14.03223995543956
 20
18.65661186574144
 42
0.0
 97
        0
 92
        7
 72
     1
 73
     1
 93
        8
 10
14.03223995543956
 20
18.65661186574144
 42
0.0
 10
14.02141463789225
 20
18.66286186574145
 42
0.0
 10
14.02141463789225
 20
18.20085224679821
 42
-0.5773502691896262
 10
14.01016463789225
 20
18.19435705626983
 42
0.0
 10
13.92615184347596
 20
18.24286186574145
 42
0.0
 10
13.92615184347596
 20
18.23036186574145
 42
0.0
 10
14.00786495543956
 20
18.18318477855294
 42
0.577350269189633
 10
14.03223995543956
 20
18.19725769136444
 42
0.0
 97
        0
 92
        7
 72
     0
 73
     1
 93
        3
 10
12.85207574030896
 20
19.39609703080846
 10
13.84367482764214
 20
18.82359703080847
 10
13.84367482764214
 20
18.82984703080847
 97
        0
 75
     0
 76
     1
 47
0.006507
 98
        7
 10
12.687871
 20
19.454826
 10
12.669715
 20
19.425641
 10
12.859161
 20
19.4004
 10
13.918471
 20
18.875228
 10
14.125233
 20
18.719049
 10
14.02755
 20
18.626318
 10
13.812648
 20
18.845944
  0
HATCH
  5
676
100
AcDbEntity
  8
2
  6
CONTINUOUS
 62
     9
100
AcDbHatch
 10
0.0
 20
0.0
 30
0.0
210
0.0
220
0.0
230
1.0
  2
SOLID
 70
     1
 71
     0
 91
        1
 92
        7
 72
     1
 73
     1
 93
        8
 10
13.8850342984367
 20
20.00295520646308
 42
0.0
 10
13.8833141993766
 20
20.0019621068077
 42
0.0
 10
13.8834391993766
 20
20.00174560045676
 42
0.0
 10
13.8835641993766
 20
20.00152909410581
 42
0.0
 10
13.8836891993766
 20
20.00131258775486
 42
0.0
 10
12.85457574030896
 20
19.4071536551355
 42
0.0
 10
13.84367482764214
 20
18.83609703080847
 42
0.0
 10
14.65190890788835
 20
19.30273119460685
 42
0.2330962772361932
 97
        0
 75
     0
 76
     1
 47
0.017346
 98
        1
 10
13.77782
 20
19.481142
  0
MTEXT
  5
677
100
AcDbEntity
  8
2
  6
CONTINUOUS
 62
     9
100
AcDbMText
 10
12.627037
 20
17.492965
 30
0.0
 40
0.3855
 41
2.7245
 71
     1
 72
     5
  1
\fArial|b1|i0|c0|p34;\C7;C L A D
  7
ROMANS
  0
LINE
  5
678
100
AcDbEntity
  8
0
 62
     3
100
AcDbLine
 10
12.718239
 20
19.07586
 30
0.0
 11
13.363559
 21
18.703284
 31
0.0
  0
LINE
  5
679
100
AcDbEntity
  8
0
 62
     3
100
AcDbLine
 10
12.821786
 20
18.992406
 30
0.0
 11
12.721928
 21
19.050059
 31
0.0
  0
HATCH
  5
67A
100
AcDbEntity
  8
2
  6
CONTINUOUS
 62
     9
100
AcDbHatch
 10
0.0
 20
0.0
 30
0.0
210
0.0
220
0.0
230
1.0
  2
SOLID
 70
     1
 71
     0
 91
        2
 92
       23
 72
     1
 73
     1
 93
       20
 10
13.53175820820035
 20
18.58250307813917
 42
0.0
 10
13.52869312883738
 20
18.57719420495327
 42
0.6681786379192962
 10
13.53572340664292
 20
18.56803216853897
 42
0.0
 10
13.55111037444073
 20
18.57215509413435
 42
0.6681786379192695
 10
13.55231627921521
 20
18.58131485028472
 42
0.0
 10
13.54841962022347
 20
18.58356458740255
 42
-0.6681786379192408
 10
13.54902257261072
 20
18.58814446547773
 42
0.0
 10
13.55564554129052
 20
18.58991908458698
 42
0.6681786379193185
 10
13.55594701748414
 20
18.59220902362457
 42
0.0
 10
13.36355884569717
 20
18.70328438639468
 42
0.0
 10
12.71823938773094
 20
19.07585974916479
 42
0.668178637919208
 10
12.71640698044807
 20
19.07445369360368
 42
0.0
 10
12.71818159955732
 20
19.06783072492388
 42
-0.6681786379193225
 10
12.7145167849916
 20
19.06501861380166
 42
0.0
 10
12.71062012599986
 20
19.06726835091949
 42
0.6681786379193126
 10
12.70329049686841
 20
19.06164412867505
 42
0.0
 10
12.7074134224638
 20
19.04625716087724
 42
0.6681786379193007
 10
12.71886311765176
 20
19.04474977990913
 42
0.0
 10
12.72192819701473
 20
19.05005865309503
 42
0.0
 10
12.82178575412447
 20
18.9924058656171
 42
0.0
 97
        0
 92
        7
 72
     1
 73
     1
 93
       37
 10
12.65269236908344
 20
19.11582637958873
 42
0.4142135623731299
 10
12.64894236908344
 20
19.11207637958873
 42
0.0
 10
12.64894236908344
 20
18.67832637958873
 42
0.0
 10
13.62322094834093
 20
18.11582637958873
 42
0.0
 10
13.62322094834094
 20
18.54957637958873
 42
0.1316524975873667
 10
13.6203753769218
 20
18.55450505386324
 42
0.0
 10
13.55729476145303
 20
18.59092466418478
 42
0.0376464264871547
 10
13.55654502664819
 20
18.59086813439531
 42
-0.2823673447488831
 10
13.55564554129052
 20
18.58991908458698
 42
0.0
 10
13.5536971549426
 20
18.58939701603851
 42
0.5149511874561723
 10
13.55518167014432
 20
18.5813931252496
 42
0.0
 10
13.56181725924554
 20
18.57829889923533
 42
0.0
 10
13.5543178467126
 20
18.57480851324228
 42
-0.2180320882791709
 10
13.55111037444073
 20
18.57215509413435
 42
0.0
 10
13.54523312110969
 20
18.57058028885059
 42
0.0
 10
13.53887987772604
 20
18.56762335434148
 42
0.0
 10
13.53075487772604
 20
18.56762335434148
 42
1.0
 10
13.53075487772604
 20
18.55637335434148
 42
0.0
 10
13.57197234412118
 20
18.54410494704954
 42
-0.5578319223640622
 10
13.60322094834093
 20
18.50657637958874
 42
0.0
 10
13.60322094834093
 20
18.17207637958873
 42
-0.5129809895031772
 10
13.59133714639698
 20
18.16310201468334
 42
0.0
 10
12.70582617102739
 20
18.67435201468334
 42
-0.2397239142270584
 10
12.66894236908344
 20
18.73457637958873
 42
0.0
 10
12.66902637590167
 20
19.05841005831968
 42
-1.046264757040728
 10
12.67630296539322
 20
19.0603617461584
 42
0.0
 10
12.70156705724144
 20
19.03695549303931
 42
0.6309633877406034
 10
12.70993527803208
 20
19.04270699473367
 42
-0.1798205534880095
 10
12.7074134224638
 20
19.04625716087724
 42
0.0
 10
12.70740238631319
 20
19.04629834835204
 42
0.0
 10
12.70015560083569
 20
19.06007775777601
 42
0.0
 10
12.70497075135452
 20
19.0701614570767
 42
0.0
 10
12.71226445309239
 20
19.0695233408595
 42
0.293926452988122
 10
12.71705277624662
 20
19.07204355087219
 42
0.0
 10
12.71640698044807
 20
19.07445369360368
 42
-0.4565659268922137
 10
12.71746550099354
 20
19.07601831883195
 42
0.1814616707363846
 10
12.71529288949652
 20
19.07877960686632
 42
0.0
 97
        0
 75
     0
 76
     1
 47
0.011788
 98
        2
 10
12.838257
 20
18.992367
 10
12.687858
 20
19.080775
  0
LINE
  5
67B
100
AcDbEntity
  8
2
  6
CONTINUOUS
 62
     4
100
AcDbLine
 10
12.834795
 20
19.032671
 30
0.0
 11
13.051301
 21
18.907671
 31
0.0
  0
LINE
  5
67C
100
AcDbEntity
  8
2
  6
CONTINUOUS
 62
     4
100
AcDbLine
 10
12.834795
 20
19.027671
 30
0.0
 11
13.051301
 21
18.902671
 31
0.0
  0
LINE
  5
67D
100
AcDbEntity
  8
2
  6
CONTINUOUS
 62
     4
100
AcDbLine
 10
13.374939
 20
19.094523
 30
0.0
 11
13.051301
 21
18.907671
 31
0.0
  0
LINE
  5
67E
100
AcDbEntity
  8
2
  6
CONTINUOUS
 62
     4
100
AcDbLine
 10
13.37927
 20
19.092023
 30
0.0
 11
13.051301
 21
18.902671
 31
0.0
  0
LINE
  5
67F
100
AcDbEntity
  8
1
  6
CONTINUOUS
100
AcDbLine
 39
0.05
 10
12.852076
 20
19.408597
 30
0.0
 11
13.843675
 21
18.836097
 31
0.0
  0
LINE
  5
680
100
AcDbEntity
  8
1
  6
CONTINUOUS
100
AcDbLine
 39
0.05
 10
12.852076
 20
19.396097
 30
0.0
 11
13.843675
 21
18.823597
 31
0.0
  0
LINE
  5
681
100
AcDbEntity
  8
1
  6
CONTINUOUS
100
AcDbLine
 10
12.852076
 20
19.396097
 30
0.0
 11
13.843675
 21
18.829847
 31
0.0
  0
LINE
  5
682
100
AcDbEntity
  8
1
  6
CONTINUOUS
 62
     5
100
AcDbLine
 39
0.05
 10
12.852076
 20
19.408597
 30
0.0
 11
13.843675
 21
18.836097
 31
0.0
  0
LINE
  5
683
100
AcDbEntity
  8
1
  6
CONTINUOUS
 62
     5
100
AcDbLine
 39
0.05
 10
12.852076
 20
19.396097
 30
0.0
 11
13.843675
 21
18.823597
 31
0.0
  0
LINE
  5
684
100
AcDbEntity
  8
1
  6
CONTINUOUS
100
AcDbLine
 10
12.852076
 20
19.396097
 30
0.0
 11
13.843675
 21
18.829847
 31
0.0
  0
LINE
  5
685
100
AcDbEntity
  8
0
 62
     3
100
AcDbLine
 10
13.531758
 20
18.582503
 30
0.0
 11
12.821786
 21
18.992406
 31
0.0
  0
LINE
  5
686
100
AcDbEntity
  8
2
  6
CONTINUOUS
 62
     4
100
AcDbLine
 10
13.051301
 20
18.907671
 30
0.0
 11
13.051301
 21
18.902671
 31
0.0
  0
LINE
  5
687
100
AcDbEntity
  8
GREEN
100
AcDbLine
 10
13.623221
 20
18.115826
 30
0.0
 11
14.021676
 21
18.345875
 31
0.0
  0
LINE
  5
688
100
AcDbEntity
  8
2
  6
CONTINUOUS
 62
     4
100
AcDbLine
 10
13.65171
 20
18.207923
 30
0.0
 11
14.021676
 21
18.421522
 31
0.0
  0
LINE
  5
689
100
AcDbEntity
  8
2
  6
CONTINUOUS
 62
     4
100
AcDbLine
 10
13.807952
 20
18.844523
 30
0.0
 11
13.484314
 21
18.657671
 31
0.0
  0
LINE
  5
68A
100
AcDbEntity
  8
2
  6
CONTINUOUS
 62
     4
100
AcDbLine
 10
13.812282
 20
18.842023
 30
0.0
 11
13.484314
 21
18.652671
 31
0.0
  0
LINE
  5
68B
100
AcDbEntity
  8
0
 62
     3
100
AcDbLine
 10
13.363559
 20
18.703284
 30
0.0
 11
13.555947
 21
18.592209
 31
0.0
  0
LINE
  5
68C
100
AcDbEntity
  8
2
  6
CONTINUOUS
 62
     4
100
AcDbLine
 10
13.267808
 20
18.782671
 30
0.0
 11
13.484314
 21
18.657671
 31
0.0
  0
LINE
  5
68D
100
AcDbEntity
  8
2
  6
CONTINUOUS
 62
     4
100
AcDbLine
 10
13.267808
 20
18.777671
 30
0.0
 11
13.484314
 21
18.652671
 31
0.0
  0
LINE
  5
68E
100
AcDbEntity
  8
2
  6
CONTINUOUS
 62
     4
100
AcDbLine
 10
13.591446
 20
18.969523
 30
0.0
 11
13.267808
 21
18.782671
 31
0.0
  0
LINE
  5
68F
100
AcDbEntity
  8
2
  6
CONTINUOUS
 62
     4
100
AcDbLine
 10
13.267808
 20
18.782671
 30
0.0
 11
13.267808
 21
18.777671
 31
0.0
  0
LINE
  5
690
100
AcDbEntity
  8
0
 62
     3
100
AcDbLine
 10
13.555646
 20
18.589919
 30
0.0
 11
13.549023
 21
18.588144
 31
0.0
  0
ARC
  5
691
100
AcDbEntity
  8
0
 62
     3
100
AcDbCircle
 10
13.555322
 20
18.591126
 30
0.0
 40
0.00125
100
AcDbArc
 50
285.0
 51
60.0
  0
LINE
  5
692
100
AcDbEntity
  8
0
 62
     3
100
AcDbLine
 10
13.528693
 20
18.577194
 30
0.0
 11
13.531758
 21
18.582503
 31
0.0
  0
ARC
  5
693
100
AcDbEntity
  8
0
 62
     3
100
AcDbCircle
 10
13.534106
 20
18.574069
 30
0.0
 40
0.00625
100
AcDbArc
 50
150.0
 51
285.0
  0
LINE
  5
694
100
AcDbEntity
  8
0
 62
     3
100
AcDbLine
 10
13.55111
 20
18.572155
 30
0.0
 11
13.535723
 21
18.568032
 31
0.0
  0
ARC
  5
695
100
AcDbEntity
  8
0
 62
     3
100
AcDbCircle
 10
13.549816
 20
18.576985
 30
0.0
 40
0.005
100
AcDbArc
 50
285.0
 51
60.0
  0
LINE
  5
696
100
AcDbEntity
  8
0
 62
     3
100
AcDbLine
 10
13.54842
 20
18.583565
 30
0.0
 11
13.552316
 21
18.581315
 31
0.0
  0
ARC
  5
697
100
AcDbEntity
  8
0
 62
     3
100
AcDbCircle
 10
13.54967
 20
18.58573
 30
0.0
 40
0.0025
100
AcDbArc
 50
105.0
 51
240.0
  0
LINE
  5
698
100
AcDbEntity
  8
2
  6
CONTINUOUS
 62
     4
100
AcDbLine
 10
13.64305
 20
18.462923
 30
0.0
 11
13.65171
 21
18.457923
 31
0.0
  0
LINE
  5
699
100
AcDbEntity
  8
2
  6
CONTINUOUS
 62
     4
100
AcDbLine
 10
13.64305
 20
18.212923
 30
0.0
 11
13.65171
 21
18.207923
 31
0.0
  0
LINE
  5
69A
100
AcDbEntity
  8
2
  6
CONTINUOUS
 62
     4
100
AcDbLine
 10
13.64305
 20
18.462923
 30
0.0
 11
13.64305
 21
18.212923
 31
0.0
  0
LINE
  5
69B
100
AcDbEntity
  8
2
  6
CONTINUOUS
 62
     4
100
AcDbLine
 10
13.65171
 20
18.457923
 30
0.0
 11
13.65171
 21
18.207923
 31
0.0
  0
LINE
  5
69C
100
AcDbEntity
  8
2
  6
CONTINUOUS
 62
     4
100
AcDbLine
 10
13.484314
 20
18.657671
 30
0.0
 11
13.484314
 21
18.652671
 31
0.0
  0
LINE
  5
69D
100
AcDbEntity
  8
1
  6
CONTINUOUS
100
AcDbLine
 39
0.05
 10
13.843675
 20
18.836097
 30
0.0
 11
13.843675
 21
18.823597
 31
0.0
  0
LINE
  5
69E
100
AcDbEntity
  8
1
  6
CONTINUOUS
 62
     5
100
AcDbLine
 10
14.021415
 20
18.662862
 30
0.0
 11
14.03224
 21
18.656612
 31
0.0
  0
LINE
  5
69F
100
AcDbEntity
  8
1
  6
CONTINUOUS
 62
     5
100
AcDbLine
 10
14.021415
 20
18.662862
 30
0.0
 11
14.03224
 21
18.656612
 31
0.0
  0
ARC
  5
6A0
100
AcDbEntity
  8
1
  6
CONTINUOUS
 62
     5
100
AcDbCircle
 10
14.013915
 20
18.200852
 30
0.0
 40
0.0075
100
AcDbArc
 50
240.0
 51
0.0
  0
ARC
  5
6A1
102
{ACAD_REACTORS
330
66A
102
}
100
AcDbEntity
  8
1
  6
CONTINUOUS
 62
     5
100
AcDbCircle
 10
14.013915
 20
18.200852
 30
0.0
 40
0.0075
100
AcDbArc
 50
240.0
 51
0.0
  0
LINE
  5
6A2
100
AcDbEntity
  8
1
  6
CONTINUOUS
 62
     5
100
AcDbLine
 10
13.926152
 20
18.242862
 30
0.0
 11
13.926152
 21
18.230362
 31
0.0
  0
LINE
  5
6A3
100
AcDbEntity
  8
1
  6
CONTINUOUS
 62
     5
100
AcDbLine
 10
13.926152
 20
18.242862
 30
0.0
 11
13.926152
 21
18.230362
 31
0.0
  0
LINE
  5
6A4
100
AcDbEntity
  8
1
  6
CONTINUOUS
 62
     5
100
AcDbLine
 10
14.007865
 20
18.183185
 30
0.0
 11
13.926152
 21
18.230362
 31
0.0
  0
LINE
  5
6A5
100
AcDbEntity
  8
1
  6
CONTINUOUS
 62
     5
100
AcDbLine
 10
14.007865
 20
18.183185
 30
0.0
 11
13.926152
 21
18.230362
 31
0.0
  0
LINE
  5
6A6
100
AcDbEntity
  8
1
  6
CONTINUOUS
 62
     5
100
AcDbLine
 10
14.010165
 20
18.194357
 30
0.0
 11
13.926152
 21
18.242862
 31
0.0
  0
ARC
  5
6A7
100
AcDbEntity
  8
1
  6
CONTINUOUS
 62
     5
100
AcDbCircle
 10
14.01599
 20
18.197258
 30
0.0
 40
0.01625
100
AcDbArc
 50
240.0
 51
0.0
  0
LINE
  5
6A8
102
{ACAD_REACTORS
330
66A
102
}
100
AcDbEntity
  8
1
  6
CONTINUOUS
 62
     5
100
AcDbLine
 10
14.010165
 20
18.194357
 30
0.0
 11
13.926152
 21
18.242862
 31
0.0
  0
ARC
  5
6A9
102
{ACAD_REACTORS
330
66A
102
}
100
AcDbEntity
  8
1
  6
CONTINUOUS
 62
     5
100
AcDbCircle
 10
14.01599
 20
18.197258
 30
0.0
 40
0.01625
100
AcDbArc
 50
240.0
 51
0.0
  0
LINE
  5
6AA
100
AcDbEntity
  8
1
  6
CONTINUOUS
 62
     5
100
AcDbLine
 10
13.926152
 20
18.242862
 30
0.0
 11
14.021415
 21
18.297862
 31
0.0
  0
LWPOLYLINE
  5
6AB
102
{ACAD_REACTORS
330
66A
102
}
100
AcDbEntity
  8
1
  6
CONTINUOUS
 62
     5
100
AcDbPolyline
 90
        2
 70
     0
 43
0.005
 10
13.927415
 20
18.240719
 10
14.022678
 20
18.295719
  0
LINE
  5
6AC
100
AcDbEntity
  8
1
  6
CONTINUOUS
 62
     5
100
AcDbLine
 10
14.021415
 20
18.200852
 30
0.0
 11
14.021415
 21
18.662862
 31
0.0
  0
LINE
  5
6AD
100
AcDbEntity
  8
1
  6
CONTINUOUS
 62
     5
100
AcDbLine
 10
14.03224
 20
18.197258
 30
0.0
 11
14.03224
 21
18.656612
 31
0.0
  0
LINE
  5
6AE
102
{ACAD_REACTORS
330
66A
102
}
100
AcDbEntity
  8
1
  6
CONTINUOUS
 62
     5
100
AcDbLine
 10
14.021415
 20
18.200852
 30
0.0
 11
14.021415
 21
18.662862
 31
0.0
  0
LINE
  5
6AF
102
{ACAD_REACTORS
330
66A
102
}
100
AcDbEntity
  8
1
  6
CONTINUOUS
 62
     5
100
AcDbLine
 10
14.03224
 20
18.197258
 30
0.0
 11
14.03224
 21
18.656612
 31
0.0
  0
LINE
  5
6B0
100
AcDbEntity
  8
GREEN
100
AcDbLine
 10
12.717189
 20
19.076707
 30
0.0
 11
13.061493
 21
19.275492
 31
0.0
  0
HATCH
  5
6B1
100
AcDbEntity
  8
2
  6
CONTINUOUS
 62
     9
100
AcDbHatch
 10
0.0
 20
0.0
 30
0.0
210
0.0
220
0.0
230
1.0
  2
SOLID
 70
     1
 71
     0
 91
        1
 92
        7
 72
     1
 73
     1
 93
        7
 10
12.85207574030896
 20
19.39609703080847
 42
0.0
 10
12.85207574030896
 20
19.40859703080847
 42
0.0
 10
13.88270071959986
 20
20.00362864003562
 42
0.0369683020279065
 10
13.71295876546032
 20
20.03910106753708
 42
0.0
 10
12.67532859123725
 20
19.44002500713011
 42
0.0
 10
12.67532859123725
 20
19.12889540854266
 42
0.0
 10
12.99510555858771
 20
19.31351872672309
 42
0.0
 97
        0
 75
     0
 76
     1
 47
0.022773
 98
        1
 10
12.82565
 20
19.369452
  0
LINE
  5
6B2
100
AcDbEntity
  8
2
  6
CONTINUOUS
 62
     4
100
AcDbLine
 10
13.158433
 20
19.219523
 30
0.0
 11
12.834795
 21
19.032671
 31
0.0
  0
LINE
  5
6B3
100
AcDbEntity
  8
1
  6
CONTINUOUS
 62
     5
100
AcDbLine
 10
12.664503
 20
19.446275
 30
0.0
 11
13.694903
 21
20.041177
 31
0.0
  0
LINE
  5
6B4
100
AcDbEntity
  8
1
  6
CONTINUOUS
100
AcDbLine
 10
12.675329
 20
19.440025
 30
0.0
 11
13.712697
 21
20.03895
 31
0.0
  0
LINE
  5
6B5
100
AcDbEntity
  8
1
  6
CONTINUOUS
 62
     5
100
AcDbLine
 10
13.882439
 20
20.003478
 30
0.0
 11
12.852076
 21
19.408597
 31
0.0
  0
LINE
  5
6B6
100
AcDbEntity
  8
1
  6
CONTINUOUS
 62
     5
100
AcDbLine
 10
12.664503
 20
19.446275
 30
0.0
 11
13.694903
 21
20.041177
 31
0.0
  0
LINE
  5
6B7
100
AcDbEntity
  8
1
  6
CONTINUOUS
 62
     5
100
AcDbLine
 10
12.675329
 20
19.440025
 30
0.0
 11
13.712697
 21
20.03895
 31
0.0
  0
LINE
  5
6B8
100
AcDbEntity
  8
1
  6
CONTINUOUS
 62
     5
100
AcDbLine
 10
12.853326
 20
19.406432
 30
0.0
 11
13.883689
 21
20.001313
 31
0.0
  0
LWPOLYLINE
  5
6B9
100
AcDbEntity
  8
1
  6
CONTINUOUS
 62
     5
100
AcDbPolyline
 90
        2
 70
     0
 43
0.005
 10
13.883668
 20
20.001299
 10
12.853304
 20
19.406418
  0
LINE
  5
6BA
100
AcDbEntity
  8
1
  6
CONTINUOUS
 62
     5
100
AcDbLine
 39
0.05
 10
12.852076
 20
19.408597
 30
0.0
 11
12.852076
 21
19.396097
 31
0.0
  0
LINE
  5
6BB
100
AcDbEntity
  8
1
  6
CONTINUOUS
 62
     5
100
AcDbLine
 39
0.05
 10
12.852076
 20
19.408597
 30
0.0
 11
12.852076
 21
19.396097
 31
0.0
  0
LINE
  5
6BC
100
AcDbEntity
  8
0
 62
     3
100
AcDbLine
 10
12.721928
 20
19.050059
 30
0.0
 11
12.718863
 21
19.04475
 31
0.0
  0
LINE
  5
6BD
100
AcDbEntity
  8
GREEN
100
AcDbLine
 10
12.652692
 20
19.115826
 30
0.0
 11
12.995367
 21
19.31367
 31
0.0
  0
ARC
  5
6BE
100
AcDbEntity
  8
0
 62
     3
100
AcDbCircle
 10
12.717614
 20
19.074777
 30
0.0
 40
0.00125
100
AcDbArc
 50
60.0
 51
195.0
  0
LINE
  5
6BF
100
AcDbEntity
  8
0
 62
     3
100
AcDbLine
 10
12.718182
 20
19.067831
 30
0.0
 11
12.716407
 21
19.074454
 31
0.0
  0
ARC
  5
6C0
100
AcDbEntity
  8
0
 62
     3
100
AcDbCircle
 10
12.715767
 20
19.067184
 30
0.0
 40
0.0025
100
AcDbArc
 50
240.0
 51
15.0
  0
LINE
  5
6C1
100
AcDbEntity
  8
0
 62
     3
100
AcDbLine
 10
12.71062
 20
19.067268
 30
0.0
 11
12.714517
 21
19.065019
 31
0.0
  0
ARC
  5
6C2
100
AcDbEntity
  8
0
 62
     3
100
AcDbCircle
 10
12.70812
 20
19.062938
 30
0.0
 40
0.005
100
AcDbArc
 50
60.0
 51
195.0
  0
LINE
  5
6C3
100
AcDbEntity
  8
0
 62
     3
100
AcDbLine
 10
12.707413
 20
19.046257
 30
0.0
 11
12.70329
 21
19.061644
 31
0.0
  0
ARC
  5
6C4
100
AcDbEntity
  8
0
 62
     3
100
AcDbCircle
 10
12.71345
 20
19.047875
 30
0.0
 40
0.00625
100
AcDbArc
 50
195.0
 51
330.0
  0
LINE
  5
6C5
100
AcDbEntity
  8
1
  6
CONTINUOUS
 62
     5
100
AcDbLine
 10
12.664503
 20
19.446275
 30
0.0
 11
12.675329
 21
19.440025
 31
0.0
  0
LINE
  5
6C6
100
AcDbEntity
  8
1
  6
CONTINUOUS
 62
     5
100
AcDbLine
 10
12.664503
 20
19.446275
 30
0.0
 11
12.675329
 21
19.440025
 31
0.0
  0
LINE
  5
6C7
100
AcDbEntity
  8
1
  6
CONTINUOUS
 62
     5
100
AcDbLine
 10
12.664503
 20
19.122645
 30
0.0
 11
12.664503
 21
19.446275
 31
0.0
  0
LINE
  5
6C8
100
AcDbEntity
  8
1
  6
CONTINUOUS
 62
     5
100
AcDbLine
 10
12.675329
 20
19.128895
 30
0.0
 11
12.675329
 21
19.440025
 31
0.0
  0
LINE
  5
6C9
100
AcDbEntity
  8
1
  6
CONTINUOUS
 62
     5
100
AcDbLine
 10
12.664503
 20
19.122645
 30
0.0
 11
12.664503
 21
19.446275
 31
0.0
  0
LINE
  5
6CA
100
AcDbEntity
  8
1
  6
CONTINUOUS
 62
     5
100
AcDbLine
 10
12.675329
 20
19.128895
 30
0.0
 11
12.675329
 21
19.440025
 31
0.0
  0
LINE
  5
6CB
100
AcDbEntity
  8
1
  6
CONTINUOUS
 62
     5
100
AcDbLine
 10
12.852076
 20
19.408597
 30
0.0
 11
12.852076
 21
19.396097
 31
0.0
  0
LINE
  5
6CC
100
AcDbEntity
  8
1
  6
CONTINUOUS
 62
     5
100
AcDbLine
 10
12.852076
 20
19.408597
 30
0.0
 11
12.852076
 21
19.396097
 31
0.0
  0
LINE
  5
6CD
100
AcDbEntity
  8
2
  6
CONTINUOUS
 62
     4
100
AcDbLine
 10
12.834795
 20
19.032671
 30
0.0
 11
12.834795
 21
19.027671
 31
0.0
  0
DIMENSION
  5
721
100
AcDbEntity
  8
0
100
AcDbDimension
  2
*D25
 10
7.019967
 20
8.810547
 30
0.0
 11
4.979967
 21
8.810547
 31
0.0
 70
    32
  3
STANDARD
100
AcDbAlignedDimension
 13
9.045019
 23
11.112431
 33
0.0
 14
7.019967
 24
11.112431
 34
0.0
100
AcDbRotatedDimension
1001
ACAD
1000
DSTYLE
1002
{
1070
   270
1070
     4
1070
    40
1040
2.0
1070
     4
1000
mm
1070
   274
1070
     0
1070
   171
1070
     0
1070
   170
1070
     1
1002
}
  0
ENDSEC
  0
SECTION
  2
OBJECTS
  0
DICTIONARY
  5
C
100
AcDbDictionary
  3
ACAD_GROUP
350
D
  3
ACAD_MLINESTYLE
350
1B
  0
DICTIONARY
  5
D
102
{ACAD_REACTORS
330
C
102
}
100
AcDbDictionary
  0
DICTIONARY
  5
1B
102
{ACAD_REACTORS
330
C
102
}
100
AcDbDictionary
  3
STANDARD
350
1C
  0
MLINESTYLE
  5
1C
102
{ACAD_REACTORS
330
1B
102
}
100
AcDbMlineStyle
  2
STANDARD
 70
     0
  3

 62
   256
 51
90.0
 52
90.0
 71
     2
 49
0.5
 62
   256
  6
BYLAYER
 49
-0.5
 62
   256
  6
BYLAYER
  0
ENDSEC
  0
EOF
