  0
SECTION
  2
HEADER
  9
$ACADVER
  1
AC1014
  9
$ACADMAINTVER
 70
     9
  9
$DWGCODEPAGE
  3
ANSI_1252
  9
$INSBASE
 10
0.0
 20
0.0
 30
0.0
  9
$EXTMIN
 10
0.0
 20
0.0
 30
0.0
  9
$EXTMAX
 10
25.693238
 20
34.200072
 30
0.0
  9
$LIMMIN
 10
0.0
 20
0.0
  9
$LIMMAX
 10
25.693238
 20
34.200072
  9
$ORTHOMODE
 70
     1
  9
$REGENMODE
 70
     1
  9
$FILLMODE
 70
     1
  9
$QTEXTMODE
 70
     0
  9
$MIRRTEXT
 70
     1
  9
$DRAGMODE
 70
     2
  9
$LTSCALE
 40
1.0
  9
$OSMODE
 70
    55
  9
$ATTMODE
 70
     1
  9
$TEXTSIZE
 40
0.2
  9
$TRACEWID
 40
0.05
  9
$TEXTSTYLE
  7
STANDARD
  9
$CLAYER
  8
R-DOOR-ANNO
  9
$CELTYPE
  6
BYLAYER
  9
$CECOLOR
 62
   256
  9
$CELTSCALE
 40
1.0
  9
$DELOBJ
 70
     1
  9
$DISPSILH
 70
     0
  9
$DIMSCALE
 40
2.0
  9
$DIMASZ
 40
0.18
  9
$DIMEXO
 40
0.0625
  9
$DIMDLI
 40
0.38
  9
$DIMRND
 40
0.0
  9
$DIMDLE
 40
0.0
  9
$DIMEXE
 40
0.18
  9
$DIMTP
 40
0.0
  9
$DIMTM
 40
0.0
  9
$DIMTXT
 40
0.18
  9
$DIMCEN
 40
0.09
  9
$DIMTSZ
 40
0.0
  9
$DIMTOL
 70
     0
  9
$DIMLIM
 70
     0
  9
$DIMTIH
 70
     1
  9
$DIMTOH
 70
     1
  9
$DIMSE1
 70
     0
  9
$DIMSE2
 70
     0
  9
$DIMTAD
 70
     0
  9
$DIMZIN
 70
     0
  9
$DIMBLK
  1

  9
$DIMASO
 70
     1
  9
$DIMSHO
 70
     1
  9
$DIMPOST
  1
"
  9
$DIMAPOST
  1
mm
  9
$DIMALT
 70
     1
  9
$DIMALTD
 70
     0
  9
$DIMALTF
 40
25.4
  9
$DIMLFAC
 40
1.0
  9
$DIMTOFL
 70
     0
  9
$DIMTVP
 40
0.0
  9
$DIMTIX
 70
     0
  9
$DIMSOXD
 70
     0
  9
$DIMSAH
 70
     0
  9
$DIMBLK1
  1

  9
$DIMBLK2
  1

  9
$DIMSTYLE
  2
STANDARD
  9
$DIMCLRD
 70
     0
  9
$DIMCLRE
 70
     0
  9
$DIMCLRT
 70
     0
  9
$DIMTFAC
 40
1.0
  9
$DIMGAP
 40
0.09
  9
$DIMJUST
 70
     0
  9
$DIMSD1
 70
     0
  9
$DIMSD2
 70
     0
  9
$DIMTOLJ
 70
     1
  9
$DIMTZIN
 70
     0
  9
$DIMALTZ
 70
     0
  9
$DIMALTTZ
 70
     0
  9
$DIMFIT
 70
     3
  9
$DIMUPT
 70
     1
  9
$DIMUNIT
 70
     4
  9
$DIMDEC
 70
     4
  9
$DIMTDEC
 70
     4
  9
$DIMALTU
 70
     2
  9
$DIMALTTD
 70
     0
  9
$DIMTXSTY
  7
STANDARD
  9
$DIMAUNIT
 70
     0
  9
$LUNITS
 70
     2
  9
$LUPREC
 70
     4
  9
$SKETCHINC
 40
0.1
  9
$FILLETRAD
 40
0.5
  9
$AUNITS
 70
     0
  9
$AUPREC
 70
     4
  9
$MENU
  1
.
  9
$ELEVATION
 40
0.0
  9
$PELEVATION
 40
0.0
  9
$THICKNESS
 40
0.0
  9
$LIMCHECK
 70
     0
  9
$BLIPMODE
 70
     0
  9
$CHAMFERA
 40
0.5
  9
$CHAMFERB
 40
0.5
  9
$CHAMFERC
 40
1.0
  9
$CHAMFERD
 40
0.0
  9
$SKPOLY
 70
     0
  9
$TDCREATE
 40
2451963.307817269
  9
$TDUPDATE
 40
2452145.590162777
  9
$TDINDWG
 40
0.1192444676
  9
$TDUSRTIMER
 40
0.1192444676
  9
$USRTIMER
 70
     1
  9
$ANGBASE
 50
0.0
  9
$ANGDIR
 70
     0
  9
$PDMODE
 70
     0
  9
$PDSIZE
 40
0.0
  9
$PLINEWID
 40
0.0
  9
$COORDS
 70
     0
  9
$SPLFRAME
 70
     0
  9
$SPLINETYPE
 70
     6
  9
$SPLINESEGS
 70
     8
  9
$ATTDIA
 70
     0
  9
$ATTREQ
 70
     1
  9
$HANDLING
 70
     1
  9
$HANDSEED
  5
346
  9
$SURFTAB1
 70
     6
  9
$SURFTAB2
 70
     6
  9
$SURFTYPE
 70
     6
  9
$SURFU
 70
     6
  9
$SURFV
 70
     6
  9
$UCSNAME
  2

  9
$UCSORG
 10
0.0
 20
0.0
 30
0.0
  9
$UCSXDIR
 10
1.0
 20
0.0
 30
0.0
  9
$UCSYDIR
 10
0.0
 20
1.0
 30
0.0
  9
$PUCSNAME
  2

  9
$PUCSORG
 10
0.0
 20
0.0
 30
0.0
  9
$PUCSXDIR
 10
1.0
 20
0.0
 30
0.0
  9
$PUCSYDIR
 10
0.0
 20
1.0
 30
0.0
  9
$USERI1
 70
     0
  9
$USERI2
 70
     0
  9
$USERI3
 70
     0
  9
$USERI4
 70
     0
  9
$USERI5
 70
     0
  9
$USERR1
 40
0.0
  9
$USERR2
 40
0.0
  9
$USERR3
 40
0.0
  9
$USERR4
 40
0.0
  9
$USERR5
 40
0.0
  9
$WORLDVIEW
 70
     1
  9
$SHADEDGE
 70
     3
  9
$SHADEDIF
 70
    70
  9
$TILEMODE
 70
     1
  9
$MAXACTVP
 70
    48
  9
$PINSBASE
 10
0.0
 20
0.0
 30
0.0
  9
$PLIMCHECK
 70
     0
  9
$PEXTMIN
 10
1.000000E+20
 20
1.000000E+20
 30
1.000000E+20
  9
$PEXTMAX
 10
-1.000000E+20
 20
-1.000000E+20
 30
-1.000000E+20
  9
$PLIMMIN
 10
0.0
 20
0.0
  9
$PLIMMAX
 10
12.0
 20
9.0
  9
$UNITMODE
 70
     0
  9
$VISRETAIN
 70
     1
  9
$PLINEGEN
 70
     0
  9
$PSLTSCALE
 70
     1
  9
$TREEDEPTH
 70
  3020
  9
$PICKSTYLE
 70
     1
  9
$CMLSTYLE
  2
STANDARD
  9
$CMLJUST
 70
     0
  9
$CMLSCALE
 40
1.0
  9
$PROXYGRAPHICS
 70
     1
  9
$MEASUREMENT
 70
     0
  0
ENDSEC
  0
SECTION
  2
CLASSES
  0
CLASS
  1
HATCH
  2
AcDbHatch
  3
"ACAD_SEDONA"
 90
        0
280
     0
281
     1
  0
CLASS
  1
LWPOLYLINE
  2
AcDbPolyline
  3
"AutoCAD"
 90
        0
280
     0
281
     1
  0
ENDSEC
  0
SECTION
  2
TABLES
  0
TABLE
  2
VPORT
  5
8
100
AcDbSymbolTable
 70
     2
  0
VPORT
  5
345
100
AcDbSymbolTableRecord
100
AcDbViewportTableRecord
  2
*ACTIVE
 70
     0
 10
0.0
 20
0.0
 11
1.0
 21
1.0
 12
14.387539
 22
17.013855
 13
0.0
 23
0.0
 14
0.5
 24
0.5
 15
0.5
 25
0.5
 16
0.0
 26
0.0
 36
1.0
 17
0.0
 27
0.0
 37
0.0
 40
34.860307
 41
1.709738
 42
50.0
 43
0.0
 44
0.0
 50
0.0
 51
0.0
 71
     0
 72
   100
 73
     1
 74
     1
 75
     0
 76
     0
 77
     0
 78
     0
  0
ENDTAB
  0
TABLE
  2
LTYPE
  5
5
100
AcDbSymbolTable
 70
     1
  0
LTYPE
  5
12
100
AcDbSymbolTableRecord
100
AcDbLinetypeTableRecord
  2
BYBLOCK
 70
     0
  3

 72
    65
 73
     0
 40
0.0
  0
LTYPE
  5
13
100
AcDbSymbolTableRecord
100
AcDbLinetypeTableRecord
  2
BYLAYER
 70
     0
  3

 72
    65
 73
     0
 40
0.0
  0
LTYPE
  5
14
100
AcDbSymbolTableRecord
100
AcDbLinetypeTableRecord
  2
CONTINUOUS
 70
     0
  3
Solid line
 72
    65
 73
     0
 40
0.0
  0
ENDTAB
  0
TABLE
  2
LAYER
  5
2
100
AcDbSymbolTable
 70
     8
  0
LAYER
  5
E
100
AcDbSymbolTableRecord
100
AcDbLayerTableRecord
  2
0
 70
     0
 62
     7
  6
CONTINUOUS
  0
LAYER
  5
69
100
AcDbSymbolTableRecord
100
AcDbLayerTableRecord
  2
DEFPOINTS
 70
     0
 62
     7
  6
CONTINUOUS
  0
LAYER
  5
6A
100
AcDbSymbolTableRecord
100
AcDbLayerTableRecord
  2
BOARDER
 70
     0
 62
     7
  6
CONTINUOUS
  0
LAYER
  5
6B
100
AcDbSymbolTableRecord
100
AcDbLayerTableRecord
  2
R-DOOR-ANNO
 70
     0
 62
     7
  6
CONTINUOUS
  0
LAYER
  5
6C
100
AcDbSymbolTableRecord
100
AcDbLayerTableRecord
  2
R-DOOR-PATT
 70
     0
 62
     5
  6
CONTINUOUS
  0
LAYER
  5
6D
100
AcDbSymbolTableRecord
100
AcDbLayerTableRecord
  2
R-DOOR-DETL
 70
     0
 62
     3
  6
CONTINUOUS
  0
LAYER
  5
6E
100
AcDbSymbolTableRecord
100
AcDbLayerTableRecord
  2
4-2
 70
     0
 62
     7
  6
CONTINUOUS
  0
LAYER
  5
2EB
100
AcDbSymbolTableRecord
100
AcDbLayerTableRecord
  2
EXTRUSION
 70
     0
 62
     3
  6
CONTINUOUS
  0
ENDTAB
  0
TABLE
  2
STYLE
  5
3
100
AcDbSymbolTable
 70
     2
  0
STYLE
  5
F
100
AcDbSymbolTableRecord
100
AcDbTextStyleTableRecord
  2
STANDARD
 70
     0
 40
0.0
 41
1.0
 50
0.0
 71
     0
 42
0.2
  3
txt
  4

  0
STYLE
  5
6F
100
AcDbSymbolTableRecord
100
AcDbTextStyleTableRecord
  2
ROMANS
 70
     0
 40
0.0
 41
1.0
 50
0.0
 71
     0
 42
0.5
  3
romans
  4

  0
ENDTAB
  0
TABLE
  2
VIEW
  5
6
100
AcDbSymbolTable
 70
     0
  0
ENDTAB
  0
TABLE
  2
UCS
  5
7
100
AcDbSymbolTable
 70
     0
  0
ENDTAB
  0
TABLE
  2
APPID
  5
9
100
AcDbSymbolTable
 70
     1
  0
APPID
  5
10
100
AcDbSymbolTableRecord
100
AcDbRegAppTableRecord
  2
ACAD
 70
     0
  0
ENDTAB
  0
TABLE
  2
DIMSTYLE
  5
A
100
AcDbSymbolTable
 70
     2
  0
DIMSTYLE
105
1D
102
{ACAD_REACTORS
330
2B7
330
2D5
102
}
100
AcDbSymbolTableRecord
100
AcDbDimStyleTableRecord
  2
STANDARD
 70
     0
  3
"
  4

  5

  6

  7

 40
1.0
 41
0.18
 42
0.0625
 43
0.38
 44
0.18
 45
0.0
 46
0.0
 47
0.0
 48
0.0
140
0.18
141
0.09
142
0.0
143
25.4
144
1.0
145
0.0
146
1.0
147
0.09
 71
     0
 72
     0
 73
     1
 74
     1
 75
     0
 76
     0
 77
     0
 78
     0
170
     0
171
     2
172
     0
173
     0
174
     0
175
     0
176
     0
177
     0
178
     0
270
     2
271
     4
272
     4
273
     2
274
     2
340
F
275
     0
280
     0
281
     0
282
     0
283
     1
284
     0
285
     0
286
     0
287
     3
288
     0
  0
DIMSTYLE
105
70
102
{ACAD_REACTORS
330
74
330
73
330
84
330
99
330
B0
102
}
100
AcDbSymbolTableRecord
100
AcDbDimStyleTableRecord
  2
ROMANS
 70
     0
  3

  4

  5

  6

  7

 40
1.0
 41
0.18
 42
0.0625
 43
0.38
 44
0.18
 45
0.0
 46
0.0
 47
0.0
 48
0.0
140
0.18
141
0.09
142
0.0
143
25.4
144
1.0
145
0.0
146
1.0
147
0.09
 71
     0
 72
     0
 73
     1
 74
     1
 75
     0
 76
     0
 77
     0
 78
     0
170
     0
171
     2
172
     0
173
     0
174
     0
175
     0
176
     0
177
     0
178
     0
270
     7
271
     4
272
     4
273
     2
274
     2
340
6F
275
     0
280
     0
281
     0
282
     0
283
     1
284
     0
285
     0
286
     0
287
     3
288
     0
  0
ENDTAB
  0
TABLE
  2
BLOCK_RECORD
  5
1
100
AcDbSymbolTable
 70
    19
  0
BLOCK_RECORD
  5
18
100
AcDbSymbolTableRecord
100
AcDbBlockTableRecord
  2
*MODEL_SPACE
  0
BLOCK_RECORD
  5
15
100
AcDbSymbolTableRecord
100
AcDbBlockTableRecord
  2
*PAPER_SPACE
  0
BLOCK_RECORD
  5
20
100
AcDbSymbolTableRecord
100
AcDbBlockTableRecord
  2
A$C2189253D
  0
BLOCK_RECORD
  5
24
100
AcDbSymbolTableRecord
100
AcDbBlockTableRecord
  2
A$C21405640
  0
BLOCK_RECORD
  5
2C
100
AcDbSymbolTableRecord
100
AcDbBlockTableRecord
  2
_DOTSMALL
  0
BLOCK_RECORD
  5
71
100
AcDbSymbolTableRecord
100
AcDbBlockTableRecord
  2
A$C091872DD
  0
BLOCK_RECORD
  5
E4
100
AcDbSymbolTableRecord
100
AcDbBlockTableRecord
  2
*D4
  0
BLOCK_RECORD
  5
178
100
AcDbSymbolTableRecord
100
AcDbBlockTableRecord
  2
A$C6BE867F4
  0
BLOCK_RECORD
  5
180
100
AcDbSymbolTableRecord
100
AcDbBlockTableRecord
  2
A$C0E897680
  0
BLOCK_RECORD
  5
184
100
AcDbSymbolTableRecord
100
AcDbBlockTableRecord
  2
A$C60D73A4C
  0
BLOCK_RECORD
  5
188
100
AcDbSymbolTableRecord
100
AcDbBlockTableRecord
  2
A$C74654F65
  0
BLOCK_RECORD
  5
18C
100
AcDbSymbolTableRecord
100
AcDbBlockTableRecord
  2
A$C5FA07A05
  0
BLOCK_RECORD
  5
190
100
AcDbSymbolTableRecord
100
AcDbBlockTableRecord
  2
A$C46F93324
  0
BLOCK_RECORD
  5
206
100
AcDbSymbolTableRecord
100
AcDbBlockTableRecord
  2
*D11
  0
BLOCK_RECORD
  5
213
100
AcDbSymbolTableRecord
100
AcDbBlockTableRecord
  2
*D12
  0
BLOCK_RECORD
  5
220
100
AcDbSymbolTableRecord
100
AcDbBlockTableRecord
  2
*D13
  0
BLOCK_RECORD
  5
22E
100
AcDbSymbolTableRecord
100
AcDbBlockTableRecord
  2
*D14
  0
BLOCK_RECORD
  5
28A
100
AcDbSymbolTableRecord
100
AcDbBlockTableRecord
  2
A$C433421F4
  0
BLOCK_RECORD
  5
2AA
100
AcDbSymbolTableRecord
100
AcDbBlockTableRecord
  2
*D16
  0
BLOCK_RECORD
  5
2C8
100
AcDbSymbolTableRecord
100
AcDbBlockTableRecord
  2
*D17
  0
BLOCK_RECORD
  5
2EC
100
AcDbSymbolTableRecord
100
AcDbBlockTableRecord
  2
A$C10EA48EA
  0
ENDTAB
  0
ENDSEC
  0
SECTION
  2
BLOCKS
  0
BLOCK
  5
19
100
AcDbEntity
  8
0
100
AcDbBlockBegin
  2
*MODEL_SPACE
 70
     0
 10
0.0
 20
0.0
 30
0.0
  3
*MODEL_SPACE
  1

  0
ENDBLK
  5
1A
100
AcDbEntity
  8
0
100
AcDbBlockEnd
  0
BLOCK
  5
16
100
AcDbEntity
 67
     1
  8
0
100
AcDbBlockBegin
  2
*PAPER_SPACE
 70
     0
 10
0.0
 20
0.0
 30
0.0
  3
*PAPER_SPACE
  1

  0
ENDBLK
  5
17
100
AcDbEntity
 67
     1
  8
0
100
AcDbBlockEnd
  0
BLOCK
  5
22
100
AcDbEntity
  8
0
100
AcDbBlockBegin
  2
A$C2189253D
 70
     0
 10
0.0
 20
0.0
 30
0.0
  3
A$C2189253D
  1

  0
HATCH
  5
21
100
AcDbEntity
  8
BOARDER
  6
CONTINUOUS
 62
     4
100
AcDbHatch
 10
0.0
 20
0.0
 30
0.0
210
0.0
220
0.0
230
1.0
  2
ANSI31
 70
     0
 71
     0
 91
        3
 92
        7
 72
     1
 73
     1
 93
        8
 10
0.1273646403742585
 20
0.2547293417921961
 42
1.0
 10
0.1273646403742585
 20
0.0000000027943585
 42
0.0
 10
0.2547293098731842
 20
0.000000002794359
 42
0.0
 10
0.2547293098731842
 20
0.1198050709874456
 42
0.0
 10
0.1273646403742585
 20
0.1198050709874452
 42
-1.0
 10
0.1273646403742585
 20
0.1349242735991094
 42
0.0
 10
0.2547293098731842
 20
0.1349242735991099
 42
0.0
 10
0.2547293098731842
 20
0.2547293417921961
 42
0.0
 97
        0
 92
        7
 72
     1
 73
     1
 93
       12
 10
0.2729453093314724
 20
0.2547293417921956
 42
0.0
 10
0.2729453093314742
 20
0.0000000027943585
 42
0.0
 10
0.3927503775245586
 20
0.0000000027943585
 42
0.0
 10
0.3927503775245586
 20
0.1273646722932775
 42
-1.0
 10
0.4078695801362234
 20
0.1273646722932775
 42
0.0
 10
0.4078695801362234
 20
0.0000000027943581
 42
0.0
 10
0.5276746483293114
 20
0.0000000027943576
 42
0.0
 10
0.5276746483293114
 20
0.1106172266293384
 42
0.4142135623730797
 10
0.5109272026653731
 20
0.1273646722932775
 42
0.4142135623730875
 10
0.5276746483293114
 20
0.1441121179572162
 42
0.0
 10
0.5276746483293114
 20
0.2379818961282574
 42
0.4142135623731106
 10
0.5109272026653713
 20
0.2547293417921961
 42
0.0
 97
        0
 92
        7
 72
     0
 73
     1
 93
        6
 10
0.5458906477876049
 20
0.2547293417921961
 10
0.5458906477876031
 20
0.0000000027943576
 10
0.8006199867854384
 20
0.0000000027943581
 10
0.8006199867854402
 20
0.127364672293278
 10
0.6732553172865199
 20
0.1273646722932771
 10
0.6732553172865181
 20
0.2547293417921961
 97
        0
 75
     0
 76
     1
 52
0.0
 41
0.040373
 77
     0
 78
     1
 53
45.0
 43
-7.406223
 44
-1.968858
 45
-0.0035684948455219
 46
0.0035684948455219
 79
     0
 47
0.0009
 98
        3
 10
0.137804
 20
0.196439
 10
0.137804
 20
0.196439
 10
0.137804
 20
0.196439
  0
ENDBLK
  5
23
100
AcDbEntity
  8
0
100
AcDbBlockEnd
  0
BLOCK
  5
2A
100
AcDbEntity
  8
0
100
AcDbBlockBegin
  2
A$C21405640
 70
     0
 10
0.0
 20
0.0
 30
0.0
  3
A$C21405640
  1

  0
MTEXT
  5
25
100
AcDbEntity
  8
0
100
AcDbMText
 10
0.504549
 20
2.99683
 30
0.0
 40
0.614073
 41
19.242589
 71
     1
 72
     5
  1
\fArial|b0|i1|c0|p34;Phone Orders (800) 421-6144\PFax Orders     (800) 262-3299\PWWW.CRLAURENCE.COM
  0
MTEXT
  5
26
100
AcDbEntity
  8
0
100
AcDbMText
 10
7.702431
 20
6.455969
 30
0.0
 40
0.876824
 41
21.937261
 71
     1
 72
     5
  1
\fArial|b1|i0|c0|p34;DOOR RAIL SYSTEM
  0
LWPOLYLINE
  5
27
100
AcDbEntity
  8
0
100
AcDbPolyline
 90
        2
 70
     0
 43
0.098252
 10
0.440527
 20
5.243578
 10
19.707511
 20
5.243578
  0
MTEXT
  5
28
100
AcDbEntity
  8
0
100
AcDbMText
 10
0.488738
 20
4.418164
 30
0.0
 40
0.776802
 41
19.420041
 71
     1
 72
     5
  1
\fArial|b1|i1|c0|p34;C.R. Laurence Architectural Products
  0
INSERT
  5
29
100
AcDbEntity
  8
0
 62
     7
100
AcDbBlockReference
  2
A$C2189253D
 10
0.460151
 20
5.536767
 30
0.0
 41
8.113806
 42
8.113806
 43
8.113806
  0
ENDBLK
  5
2B
100
AcDbEntity
  8
0
100
AcDbBlockEnd
  0
BLOCK
  5
31
100
AcDbEntity
  8
0
100
AcDbBlockBegin
  2
_DOTSMALL
 70
     0
 10
0.0
 20
0.0
 30
0.0
  3
_DOTSMALL
  1

  0
POLYLINE
  5
2D
100
AcDbEntity
  8
0
  6
BYBLOCK
 62
     0
100
AcDb2dPolyline
 66
     1
 10
0.0
 20
0.0
 30
0.0
 70
     1
 40
0.5
 41
0.5
  0
VERTEX
  5
2E
100
AcDbEntity
  8
0
  6
BYBLOCK
 62
     0
100
AcDbVertex
100
AcDb2dVertex
 10
-0.0625
 20
0.0
 30
0.0
 42
1.0
  0
VERTEX
  5
2F
100
AcDbEntity
  8
0
  6
BYBLOCK
 62
     0
100
AcDbVertex
100
AcDb2dVertex
 10
0.0625
 20
0.0
 30
0.0
 42
1.0
  0
SEQEND
  5
30
100
AcDbEntity
  8
0
  6
BYBLOCK
 62
     0
  0
ENDBLK
  5
32
100
AcDbEntity
  8
0
100
AcDbBlockEnd
  0
BLOCK
  5
A7
100
AcDbEntity
  8
0
100
AcDbBlockBegin
  2
A$C091872DD
 70
     0
 10
0.0
 20
0.0
 30
0.0
  3
A$C091872DD
  1

  0
LWPOLYLINE
  5
72
100
AcDbEntity
  8
R-DOOR-ANNO
 62
     7
100
AcDbPolyline
 90
        4
 70
     1
 43
0.175785
 10
25.78113
 20
34.287965
 10
0.087893
 20
34.287965
 10
0.087893
 20
0.087893
 10
25.78113
 20
0.087893
  0
DIMENSION
  5
73
100
AcDbEntity
  8
R-DOOR-ANNO
 62
     7
100
AcDbDimension
  2
*D11
 10
20.485102
 20
29.196024
 30
0.0
 11
20.485102
 21
18.925767
 31
0.0
 70
    32
  1
CLEAR \POPENING
  3
ROMANS
100
AcDbAlignedDimension
 13
15.619188
 23
8.65551
 33
0.0
 14
15.619188
 24
29.196024
 34
0.0
 50
90.0
100
AcDbRotatedDimension
1001
ACAD
1000
DSTYLE
1002
{
1070
   270
1070
     7
1070
    40
1040
2.0
1002
}
  0
DIMENSION
  5
74
100
AcDbEntity
  8
R-DOOR-ANNO
 62
     7
100
AcDbDimension
  2
*D12
 10
6.527106
 20
9.70251
 30
0.0
 11
6.527106
 21
18.924517
 31
0.0
 70
    32
  1
GLASS\PCLEAR OPENING\PLESS 2 1/8"\P(54mm)
  3
ROMANS
100
AcDbAlignedDimension
 13
12.369188
 23
28.146524
 33
0.0
 14
12.304188
 24
9.70251
 34
0.0
 50
90.0
100
AcDbRotatedDimension
1001
ACAD
1000
DSTYLE
1002
{
1070
   270
1070
     7
1070
    40
1040
2.0
1002
}
  0
TEXT
  5
75
100
AcDbEntity
  8
R-DOOR-ANNO
100
AcDbText
 10
4.316791
 20
4.912045
 30
0.0
 40
0.52
  1
 TOP AND BOTTOM-CLAD OR NON CLAD
  7
ROMANS
 72
     1
 11
12.673934
 21
4.912045
 31
0.0
100
AcDbText
  0
MTEXT
  5
76
102
{ACAD_REACTORS
330
79
102
}
100
AcDbEntity
  8
R-DOOR-ANNO
  6
CONTINUOUS
100
AcDbMText
 10
15.667557
 20
10.843694
 30
0.0
 40
0.36
 41
0.0
 71
     4
 72
     1
  1
SETTING BLOCK
  7
ROMANS
  0
MTEXT
  5
77
102
{ACAD_REACTORS
330
7A
102
}
100
AcDbEntity
  8
R-DOOR-ANNO
  6
CONTINUOUS
100
AcDbMText
 10
15.902477
 20
11.583528
 30
0.0
 40
0.36
 41
0.0
 71
     4
 72
     1
  1
CLADDING
  7
ROMANS
  0
INSERT
  5
78
100
AcDbEntity
  8
R-DOOR-ANNO
100
AcDbBlockReference
  2
A$C21405640
 10
0.348297
 20
0.439707
 30
0.0
 41
0.5
 42
0.5
 43
0.5
  0
LEADER
  5
79
100
AcDbEntity
  8
R-DOOR-ANNO
  6
CONTINUOUS
100
AcDbLeader
  3
STANDARD
 73
     0
 74
     0
 75
     1
 40
0.36
 41
4.097143
 76
     3
 10
12.865582
 20
9.198483
 30
0.0
 10
15.057557
 20
10.843694
 30
0.0
 10
15.557557
 20
10.843694
 30
0.0
 77
   256
340
76
213
-0.0199999999999996
223
0.0
233
0.0
1001
ACAD
1000
DSTYLE
1002
{
1070
   173
1070
     1
1070
     6
1000
_DOTSMALL
1070
    41
1040
0.5
1002
}
  0
LEADER
  5
7A
100
AcDbEntity
  8
R-DOOR-ANNO
  6
CONTINUOUS
100
AcDbLeader
  3
STANDARD
 73
     0
 74
     0
 75
     1
 40
0.36
 41
2.451429
 76
     3
 10
13.50299
 20
10.24041
 30
0.0
 10
15.292477
 20
11.583528
 30
0.0
 10
15.792477
 20
11.583528
 30
0.0
 77
   256
340
77
213
-0.0199999999999996
223
0.0
233
0.0
1001
ACAD
1000
DSTYLE
1002
{
1070
   173
1070
     1
1070
     6
1000
_DOTSMALL
1070
    41
1040
0.5
1002
}
  0
LINE
  5
7B
100
AcDbEntity
  8
R-DOOR-DETL
100
AcDbLine
 10
12.369188
 20
14.778844
 30
0.0
 11
12.369188
 21
9.70251
 31
0.0
  0
LINE
  5
7C
100
AcDbEntity
  8
R-DOOR-DETL
100
AcDbLine
 10
12.854614
 20
14.772651
 30
0.0
 11
12.854614
 21
9.70251
 31
0.0
  0
LINE
  5
7D
100
AcDbEntity
  8
R-DOOR-DETL
100
AcDbLine
 10
12.677672
 20
14.819709
 30
0.0
 11
12.677672
 21
9.70251
 31
0.0
  0
LINE
  5
7E
100
AcDbEntity
  8
R-DOOR-DETL
100
AcDbLine
 10
12.552672
 20
14.762639
 30
0.0
 11
12.552672
 21
9.70251
 31
0.0
  0
LINE
  5
7F
100
AcDbEntity
  8
R-DOOR-DETL
100
AcDbLine
 10
12.490172
 20
14.809514
 30
0.0
 11
12.490172
 21
9.70251
 31
0.0
  0
LINE
  5
80
100
AcDbEntity
  8
R-DOOR-DETL
100
AcDbLine
 10
12.427672
 20
14.820593
 30
0.0
 11
12.427672
 21
9.70251
 31
0.0
  0
LINE
  5
81
100
AcDbEntity
  8
R-DOOR-DETL
100
AcDbLine
 10
12.802672
 20
14.756286
 30
0.0
 11
12.802672
 21
9.70251
 31
0.0
  0
LINE
  5
82
100
AcDbEntity
  8
R-DOOR-DETL
100
AcDbLine
 10
12.740172
 20
14.780978
 30
0.0
 11
12.740172
 21
9.70251
 31
0.0
  0
LINE
  5
83
100
AcDbEntity
  8
R-DOOR-DETL
100
AcDbLine
 10
12.611286
 20
15.08242
 30
0.0
 11
12.611286
 21
9.70251
 31
0.0
  0
DIMENSION
  5
84
100
AcDbEntity
  8
R-DOOR-ANNO
 62
     7
100
AcDbDimension
  2
*D13
 10
6.526295
 20
8.65551
 30
0.0
 11
4.957723
 21
7.93551
 31
0.0
 70
   160
  1
<>\P(27mm)
  3
ROMANS
100
AcDbAlignedDimension
 13
12.179188
 23
9.70251
 33
0.0
 14
9.619188
 24
8.65551
 34
0.0
 50
90.0
100
AcDbRotatedDimension
1001
ACAD
1000
DSTYLE
1002
{
1070
   270
1070
     7
1070
    40
1040
2.0
1002
}
  0
HATCH
  5
85
100
AcDbEntity
  8
R-DOOR-PATT
  6
CONTINUOUS
 62
     5
100
AcDbHatch
 10
0.0
 20
0.0
 30
0.0
210
0.0
220
0.0
230
1.0
  2
ANSI31
 70
     0
 71
     0
 91
        1
 92
        7
 72
     0
 73
     1
 93
        4
 10
15.61918807682803
 20
8.655510457036932
 10
9.619188076828031
 20
8.655510457036932
 10
9.619188076828031
 20
6.655510457036932
 10
15.61918807682803
 20
6.655510457036932
 97
        0
 75
     0
 76
     1
 52
180.0
 41
2.5
 77
     0
 78
     1
 53
225.0
 43
-301.943975
 44
-21.628766
 45
0.2209708691207961
 46
-0.2209708691207961
 79
     0
 47
0.011976
 98
        1
 10
12.346387
 20
7.846417
  0
TEXT
  5
86
100
AcDbEntity
  8
R-DOOR-ANNO
100
AcDbText
 10
10.306508
 20
5.819397
 30
0.0
 40
0.52
  1
U-CHANNEL
  7
ROMANS
 72
     1
 11
12.683651
 21
5.819397
 31
0.0
100
AcDbText
  0
LWPOLYLINE
  5
87
100
AcDbEntity
  8
R-DOOR-DETL
  6
CONTINUOUS
 62
     3
100
AcDbPolyline
 90
        4
 70
     1
 43
0.0
 10
12.934188
 20
9.57751
 10
12.934188
 20
9.70251
 10
12.304188
 20
9.70251
 10
12.304188
 20
9.57751
  0
LWPOLYLINE
  5
88
100
AcDbEntity
  8
R-DOOR-DETL
  6
CONTINUOUS
 62
     3
100
AcDbPolyline
 90
       10
 70
     1
 43
0.0
 10
12.684188
 20
9.45251
 10
12.554188
 20
9.45251
 42
0.414214
 10
12.429188
 20
9.32751
 10
12.429188
 20
8.76751
 10
12.304188
 20
8.76751
 10
12.304188
 20
9.57751
 10
12.934188
 20
9.57751
 10
12.934188
 20
8.76751
 10
12.809188
 20
8.76751
 10
12.809188
 20
9.32751
 42
0.414214
  0
LWPOLYLINE
  5
89
100
AcDbEntity
  8
R-DOOR-DETL
  6
CONTINUOUS
 62
     3
100
AcDbPolyline
 90
       85
 70
     1
 43
0.0
 10
13.064891
 20
8.818254
 10
13.094188
 20
8.76751
 10
13.259188
 20
8.76751
 42
0.414214
 10
13.319188
 20
8.82751
 10
13.319188
 20
9.507837
 42
-0.198912
 10
13.22813
 20
9.495849
 10
13.243659
 20
9.553805
 42
3.732051
 10
13.201233
 20
9.596231
 10
13.143277
 20
9.580702
 42
-0.668179
 10
13.319188
 20
9.715683
 10
13.319188
 20
10.15651
 42
0.414214
 10
13.304188
 20
10.17151
 10
13.270188
 20
10.17151
 42
0.414214
 10
13.255188
 20
10.15651
 10
13.255188
 20
10.062948
 42
-0.217649
 10
13.250006
 20
10.051608
 10
13.145545
 20
9.96117
 42
-0.180309
 10
13.135727
 20
9.95751
 10
13.009188
 20
9.95751
 42
-0.414214
 10
12.994188
 20
9.97251
 10
12.994188
 20
10.19251
 42
-0.414214
 10
13.009188
 20
10.20751
 10
13.042188
 20
10.20751
 42
-1.0
 10
13.042188
 20
10.17151
 10
13.024188
 20
10.17151
 10
13.051825
 20
10.029642
 42
0.358921
 10
13.066548
 20
10.01751
 10
13.113363
 20
10.01751
 42
0.180309
 10
13.123181
 20
10.02117
 10
13.190006
 20
10.079024
 42
0.217649
 10
13.195188
 20
10.090365
 10
13.195188
 20
10.17151
 10
13.160188
 20
10.17151
 10
13.211284
 20
10.26001
 42
-0.267949
 10
13.224274
 20
10.26751
 10
13.416188
 20
10.26751
 42
-0.414214
 10
13.431188
 20
10.25251
 10
13.431188
 20
8.67051
 42
-0.414214
 10
13.416188
 20
8.65551
 10
11.822188
 20
8.65551
 42
-0.414214
 10
11.807188
 20
8.67051
 10
11.807188
 20
10.25251
 42
-0.414214
 10
11.822188
 20
10.26751
 10
12.014102
 20
10.26751
 42
-0.267949
 10
12.027093
 20
10.26001
 10
12.078188
 20
10.17151
 10
12.043188
 20
10.17151
 10
12.043188
 20
10.090365
 42
0.217649
 10
12.04837
 20
10.079024
 10
12.115195
 20
10.02117
 42
0.180309
 10
12.125013
 20
10.01751
 10
12.171828
 20
10.01751
 42
0.358921
 10
12.186551
 20
10.029642
 10
12.214188
 20
10.17151
 10
12.196188
 20
10.17151
 42
-1.0
 10
12.196188
 20
10.20751
 10
12.229188
 20
10.20751
 42
-0.414214
 10
12.244188
 20
10.19251
 10
12.244188
 20
9.97251
 42
-0.414214
 10
12.229188
 20
9.95751
 10
12.102649
 20
9.95751
 42
-0.180309
 10
12.092831
 20
9.96117
 10
11.98837
 20
10.051608
 42
-0.217649
 10
11.983188
 20
10.062948
 10
11.983188
 20
10.15651
 42
0.414214
 10
11.968188
 20
10.17151
 10
11.934188
 20
10.17151
 42
0.414214
 10
11.919188
 20
10.15651
 10
11.919188
 20
9.715683
 42
-0.668179
 10
12.095099
 20
9.580702
 10
12.037144
 20
9.596231
 42
3.732051
 10
11.994717
 20
9.553805
 10
12.010246
 20
9.495849
 42
-0.198912
 10
11.919188
 20
9.507837
 10
11.919188
 20
8.82751
 42
0.414214
 10
11.979188
 20
8.76751
 10
12.144188
 20
8.76751
 10
12.173485
 20
8.818254
 42
-0.57735
 10
12.254891
 20
8.818254
 10
12.284188
 20
8.76751
 10
12.609188
 20
8.76751
 10
12.619188
 20
8.75751
 10
12.629188
 20
8.76751
 10
12.954188
 20
8.76751
 10
12.983485
 20
8.818254
 42
-0.57735
  0
LWPOLYLINE
  5
8A
100
AcDbEntity
  8
R-DOOR-DETL
  6
CONTINUOUS
 62
     3
100
AcDbPolyline
 90
       28
 70
     1
 43
0.0
 10
13.156742
 20
10.070607
 10
13.227633
 20
10.147972
 42
-1.0
 10
13.238692
 20
10.137838
 10
13.161201
 20
10.053271
 42
-0.210277
 10
13.150142
 20
10.048405
 10
13.090342
 20
10.048405
 42
-0.210277
 10
13.079283
 20
10.053271
 10
13.001791
 20
10.137838
 42
-1.0
 10
13.012851
 20
10.147972
 10
13.079149
 20
10.075619
 10
13.058426
 20
10.198424
 42
0.41637
 10
13.04103
 20
10.2107
 10
12.997137
 20
10.20296
 42
0.36397
 10
12.984742
 20
10.188188
 10
12.984742
 20
9.996006
 42
-0.767327
 10
12.867624
 20
9.964624
 10
12.808521
 20
10.066992
 42
-1.0
 10
12.835368
 20
10.082492
 10
12.885742
 20
9.995242
 10
12.885742
 20
10.265116
 42
0.36397
 10
12.873346
 20
10.279888
 10
12.707203
 20
10.309184
 42
-1.0
 10
12.713281
 20
10.343652
 10
12.885742
 20
10.313242
 10
13.207742
 20
10.313242
 42
-0.414214
 10
13.222742
 20
10.298242
 10
13.222742
 20
10.281242
 10
13.156742
 20
10.281242
  0
LINE
  5
8B
100
AcDbEntity
  8
0
100
AcDbLine
 10
9.619188
 20
8.65551
 30
0.0
 11
15.619188
 21
8.65551
 31
0.0
  0
LWPOLYLINE
  5
8C
100
AcDbEntity
  8
R-DOOR-DETL
  6
CONTINUOUS
 62
     3
100
AcDbPolyline
 90
       28
 70
     1
 43
0.0
 10
12.081634
 20
10.070607
 10
12.010743
 20
10.147972
 42
1.0
 10
11.999684
 20
10.137838
 10
12.077175
 20
10.053271
 42
0.210277
 10
12.088235
 20
10.048405
 10
12.148034
 20
10.048405
 42
0.210277
 10
12.159093
 20
10.053271
 10
12.236585
 20
10.137838
 42
1.0
 10
12.225526
 20
10.147972
 10
12.159227
 20
10.075619
 10
12.17995
 20
10.198424
 42
-0.41637
 10
12.197346
 20
10.2107
 10
12.241239
 20
10.20296
 42
-0.36397
 10
12.253634
 20
10.188188
 10
12.253634
 20
9.996006
 42
0.767327
 10
12.370753
 20
9.964624
 10
12.429855
 20
10.066992
 42
1.0
 10
12.403008
 20
10.082492
 10
12.352634
 20
9.995242
 10
12.352634
 20
10.265116
 42
-0.36397
 10
12.36503
 20
10.279888
 10
12.531173
 20
10.309184
 42
1.0
 10
12.525096
 20
10.343652
 10
12.352634
 20
10.313242
 10
12.030634
 20
10.313242
 42
0.414214
 10
12.015634
 20
10.298242
 10
12.015634
 20
10.281242
 10
12.081634
 20
10.281242
  0
REGION
  5
8D
100
AcDbEntity
  8
R-DOOR-DETL
  6
CONTINUOUS
100
AcDbModelerGeometry
 70
     1
  1
loo ki n o          
  1
h J1410(1 nn ^ \VL lqo QK mk K*: R>- nm njejienh moom 
  1
rn fqfffffffffffffffj:rooh n:rono 
  1
=0;& {rn {n {rn {rn |
  1
3*2/ {rn {rn {m {o |
  1
,7:33 {rn {rn {rn {l {rn {n |
  1
9><: {rn {rn {k {m {rn {j 90-(>-; ;0*=3: 0*+ |
  1
300/ {rn {rn {i {l |
  1
/3>1:r,*-9><: {rn nlqkolinglnijooioj fqfjiohjfooghiiimk o o o n n o o 90-(>-;@) V V V V |
  1
<0:;8: {rn {h {g {rn {f -:):-,:; {k {rn |
  1
<0:;8: {rn {no {i {rn {nn 90-(>-; {k {rn |
  1
<0:;8: {rn {i {nm {rn {nl -:):-,:; {k {rn |
  1
:;8: {rn {nk {nj {i {ni 90-(>-; |
  1
<0:;8: {rn {nh {h {rn {ng -:):-,:; {k {rn |
  1
:;8: {rn {nk {nf {h {mo 90-(>-; |
  1
<0:;8: {rn {g {mn {rn {mm -:):-,:; {k {rn |
  1
:;8: {rn {nj {ml {g {mk 90-(>-; |
  1
):-+:' {rn {f {mj |
  1
):-+:' {rn {f {mi |
  1
,+->687+r<*-): {rn nlqkgjnomniolnilii noqmjhjnojmifhlhjl o kqkljjikmklliihilj:ronj rn o V V |
  1
<0:;8: {rn {mh {no {rn {mg -:):-,:; {k {rn |
  1
:;8: {rn {mf {nf {no {lo 90-(>-; |
  1
):-+:' {rn {ng {ln |
  1
:336/,:r<*-): {rn nlqkmjnomniolnilik noqmjhjnojmifhlhjl o o o n oqoioooooooooooommhk o o n V V |
  1
<0:;8: {rn {nm {mh {rn {lm -:):-,:; {k {rn |
  1
:;8: {rn {ml {ll {nm {lk 90-(>-; |
  1
):-+:' {rn {nl {lj |
  1
,+->687+r<*-): {rn nlqkgjnomniolnilii gqijjjggijfnkiifkk o rn o o V V |
  1
/061+ {rn nlqkgjnomniolnilii noqmjhjnojmifhlhjl o |
  1
/061+ {rn nlqkgjnomniolnilii gqijjjggijfnkiifkk o |
  1
<0:;8: {rn {mn {nh {rn {li -:):-,:; {k {rn |
  1
:;8: {rn {lh {mf {nh {lg 90-(>-; |
  1
):-+:' {rn {mg {lf |
  1
,+->687+r<*-): {rn nlqmmmflkmolgfion noqlnhjnojmifhlhji o n o o V V |
  1
/061+ {rn nlqkmjnomniolnilik noqlnhjnojmifhlhji o |
  1
:;8: {rn {ll {ko {mn {kn 90-(>-; |
  1
):-+:' {rn {mm {km |
  1
,+->687+r<*-): {rn nlqkljnomniolnilif gqijjjggijfnkiifkk o o n o V V |
  1
/061+ {rn nlqkljnomniolnilif gqijjjggijfnkiifkk o |
  1
:;8: {rn {ko {lh {mh {kl 90-(>-; |
  1
):-+:' {rn {li {kk |
  1
,+->687+r<*-): {rn nlqmmmflkmolgfion noqmihjnojmifhlhkk o o n o V V |
  1
/061+ {rn nlqmmmflkmolgfion noqlnhjnojmifhlhji o |
  1
):-+:' {rn {lm {kj |
  1
:336/,:r<*-): {rn nlqkmjnomniolnilik noqmjhjnojmifhlhjl o o o n oqonoooooooooooojnni o o n V V |
  1
/061+ {rn nlqkljnomniolnilif noqmjhjnojmifhlhjl o |
  1
,+->687+r<*-): {rn nlqkmjnomniolnilik noqmihjnojmifhlhkk o rn o o V V |
  1
/061+ {rn nlqmmmflkmolgfion noqmihjnojmifhlhkk o |
  1
/061+ {rn nlqkmjnomniolnilik noqmihjnojmifhlhkk o |
  0
LWPOLYLINE
  5
8E
100
AcDbEntity
  8
R-DOOR-DETL
100
AcDbPolyline
 90
        6
 70
     0
 43
0.0
 10
12.369188
 20
14.778844
 10
12.452124
 20
14.838049
 10
12.577124
 20
14.744299
 10
12.702124
 20
14.838049
 10
12.764624
 20
14.744299
 10
12.854614
 20
14.772651
  0
TEXT
  5
8F
100
AcDbEntity
  8
R-DOOR-ANNO
 62
     7
100
AcDbText
 10
21.604456
 20
0.587893
 30
0.0
 40
0.52
  1
STYLE 42
  7
ROMANS
100
AcDbText
  0
TEXT
  5
90
100
AcDbEntity
  8
4-2
 62
     4
100
AcDbText
 10
15.175421
 20
33.238728
 30
0.0
 40
0.35
  1
NOTE:
100
AcDbText
  0
TEXT
  5
91
100
AcDbEntity
  8
4-2
 62
     4
100
AcDbText
 10
15.175421
 20
32.655394
 30
0.0
 40
0.35
  1
DIMENSIONS ARE THE SAME FOR
100
AcDbText
  0
TEXT
  5
92
100
AcDbEntity
  8
4-2
 62
     4
100
AcDbText
 10
15.175421
 20
32.072061
 30
0.0
 40
0.35
  1
CLAD AND NON CLAD U-CHANNELS.
100
AcDbText
  0
MTEXT
  5
93
102
{ACAD_REACTORS
330
94
102
}
100
AcDbEntity
  8
R-DOOR-ANNO
  6
CONTINUOUS
100
AcDbMText
 10
15.864195
 20
26.50426
 30
0.0
 40
0.36
 41
0.0
 71
     4
 72
     1
  1
CLADDING
  7
ROMANS
  0
LEADER
  5
94
100
AcDbEntity
  8
R-DOOR-ANNO
  6
CONTINUOUS
100
AcDbLeader
  3
STANDARD
 73
     0
 74
     0
 75
     1
 40
0.36
 41
2.451429
 76
     3
 10
13.510976
 20
27.810981
 30
0.0
 10
15.254195
 20
26.50426
 30
0.0
 10
15.754195
 20
26.50426
 30
0.0
 77
   256
340
93
213
-0.0199999999999996
223
0.0
233
0.0
1001
ACAD
1000
DSTYLE
1002
{
1070
   173
1070
     1
1070
     6
1000
_DOTSMALL
1070
    41
1040
0.5
1002
}
  0
LWPOLYLINE
  5
95
100
AcDbEntity
  8
R-DOOR-DETL
  6
CONTINUOUS
 62
     3
100
AcDbPolyline
 90
       28
 70
     1
 43
0.0
 10
12.081634
 20
27.780927
 10
12.010743
 20
27.703563
 42
-1.0
 10
11.999684
 20
27.713697
 10
12.077175
 20
27.798264
 42
-0.210277
 10
12.088235
 20
27.80313
 10
12.148034
 20
27.80313
 42
-0.210277
 10
12.159093
 20
27.798264
 10
12.236585
 20
27.713697
 42
-1.0
 10
12.225526
 20
27.703563
 10
12.159227
 20
27.775915
 10
12.17995
 20
27.653111
 42
0.41637
 10
12.197346
 20
27.640834
 10
12.241239
 20
27.648574
 42
0.36397
 10
12.253634
 20
27.663346
 10
12.253634
 20
27.855528
 42
-0.767327
 10
12.370753
 20
27.88691
 10
12.429855
 20
27.784542
 42
-1.0
 10
12.403008
 20
27.769042
 10
12.352634
 20
27.856292
 10
12.352634
 20
27.586418
 42
0.36397
 10
12.36503
 20
27.571646
 10
12.531173
 20
27.542351
 42
-1.0
 10
12.525096
 20
27.507882
 10
12.352634
 20
27.538292
 10
12.030634
 20
27.538292
 42
-0.414214
 10
12.015634
 20
27.553292
 10
12.015634
 20
27.570292
 10
12.081634
 20
27.570292
  0
LWPOLYLINE
  5
96
100
AcDbEntity
  8
R-DOOR-DETL
  6
CONTINUOUS
 62
     3
100
AcDbPolyline
 90
       28
 70
     1
 43
0.0
 10
13.156742
 20
27.780927
 10
13.227633
 20
27.703563
 42
1.0
 10
13.238692
 20
27.713697
 10
13.161201
 20
27.798264
 42
0.210277
 10
13.150142
 20
27.80313
 10
13.090342
 20
27.80313
 42
0.210277
 10
13.079283
 20
27.798264
 10
13.001791
 20
27.713697
 42
1.0
 10
13.012851
 20
27.703563
 10
13.079149
 20
27.775915
 10
13.058426
 20
27.653111
 42
-0.41637
 10
13.04103
 20
27.640834
 10
12.997137
 20
27.648574
 42
-0.36397
 10
12.984742
 20
27.663346
 10
12.984742
 20
27.855528
 42
0.767327
 10
12.867624
 20
27.88691
 10
12.808521
 20
27.784542
 42
1.0
 10
12.835368
 20
27.769042
 10
12.885742
 20
27.856292
 10
12.885742
 20
27.586418
 42
-0.36397
 10
12.873346
 20
27.571646
 10
12.707203
 20
27.542351
 42
1.0
 10
12.713281
 20
27.507882
 10
12.885742
 20
27.538292
 10
13.207742
 20
27.538292
 42
0.414214
 10
13.222742
 20
27.553292
 10
13.222742
 20
27.570292
 10
13.156742
 20
27.570292
  0
LWPOLYLINE
  5
97
100
AcDbEntity
  8
R-DOOR-DETL
  6
CONTINUOUS
 62
     3
100
AcDbPolyline
 90
       85
 70
     1
 43
0.0
 10
13.064891
 20
29.03328
 10
13.094188
 20
29.084024
 10
13.259188
 20
29.084024
 42
-0.414214
 10
13.319188
 20
29.024024
 10
13.319188
 20
28.343697
 42
0.198912
 10
13.22813
 20
28.355685
 10
13.243659
 20
28.29773
 42
-3.732051
 10
13.201233
 20
28.255303
 10
13.143277
 20
28.270832
 42
0.668179
 10
13.319188
 20
28.135851
 10
13.319188
 20
27.695024
 42
-0.414214
 10
13.304188
 20
27.680024
 10
13.270188
 20
27.680024
 42
-0.414214
 10
13.255188
 20
27.695024
 10
13.255188
 20
27.788586
 42
0.217649
 10
13.250006
 20
27.799927
 10
13.145545
 20
27.890364
 42
0.180309
 10
13.135727
 20
27.894024
 10
13.009188
 20
27.894024
 42
0.414214
 10
12.994188
 20
27.879024
 10
12.994188
 20
27.659024
 42
0.414214
 10
13.009188
 20
27.644024
 10
13.042188
 20
27.644024
 42
1.0
 10
13.042188
 20
27.680024
 10
13.024188
 20
27.680024
 10
13.051825
 20
27.821892
 42
-0.358921
 10
13.066548
 20
27.834024
 10
13.113363
 20
27.834024
 42
-0.180309
 10
13.123181
 20
27.830364
 10
13.190006
 20
27.77251
 42
-0.217649
 10
13.195188
 20
27.76117
 10
13.195188
 20
27.680024
 10
13.160188
 20
27.680024
 10
13.211284
 20
27.591524
 42
0.267949
 10
13.224274
 20
27.584024
 10
13.416188
 20
27.584024
 42
0.414214
 10
13.431188
 20
27.599024
 10
13.431188
 20
29.181024
 42
0.414214
 10
13.416188
 20
29.196024
 10
11.822188
 20
29.196024
 42
0.414214
 10
11.807188
 20
29.181024
 10
11.807188
 20
27.599024
 42
0.414214
 10
11.822188
 20
27.584024
 10
12.014102
 20
27.584024
 42
0.267949
 10
12.027093
 20
27.591524
 10
12.078188
 20
27.680024
 10
12.043188
 20
27.680024
 10
12.043188
 20
27.76117
 42
-0.217649
 10
12.04837
 20
27.77251
 10
12.115195
 20
27.830364
 42
-0.180309
 10
12.125013
 20
27.834024
 10
12.171828
 20
27.834024
 42
-0.358921
 10
12.186551
 20
27.821892
 10
12.214188
 20
27.680024
 10
12.196188
 20
27.680024
 42
1.0
 10
12.196188
 20
27.644024
 10
12.229188
 20
27.644024
 42
0.414214
 10
12.244188
 20
27.659024
 10
12.244188
 20
27.879024
 42
0.414214
 10
12.229188
 20
27.894024
 10
12.102649
 20
27.894024
 42
0.180309
 10
12.092831
 20
27.890364
 10
11.98837
 20
27.799927
 42
0.217649
 10
11.983188
 20
27.788586
 10
11.983188
 20
27.695024
 42
-0.414214
 10
11.968188
 20
27.680024
 10
11.934188
 20
27.680024
 42
-0.414214
 10
11.919188
 20
27.695024
 10
11.919188
 20
28.135851
 42
0.668179
 10
12.095099
 20
28.270832
 10
12.037144
 20
28.255303
 42
-3.732051
 10
11.994717
 20
28.29773
 10
12.010246
 20
28.355685
 42
0.198912
 10
11.919188
 20
28.343697
 10
11.919188
 20
29.024024
 42
-0.414214
 10
11.979188
 20
29.084024
 10
12.144188
 20
29.084024
 10
12.173485
 20
29.03328
 42
0.57735
 10
12.254891
 20
29.03328
 10
12.284188
 20
29.084024
 10
12.609188
 20
29.084024
 10
12.619188
 20
29.094024
 10
12.629188
 20
29.084024
 10
12.954188
 20
29.084024
 10
12.983485
 20
29.03328
 42
0.57735
  0
REGION
  5
98
100
AcDbEntity
  8
R-DOOR-DETL
  6
CONTINUOUS
100
AcDbModelerGeometry
 70
     1
  1
loo ki n o          
  1
h J1410(1 nn ^ \VL lqo QK mk K*: R>- nm njejieng moom 
  1
rn fqfffffffffffffffj:rooh n:rono 
  1
=0;& {rn {n {rn {rn |
  1
3*2/ {rn {rn {m {o |
  1
,7:33 {rn {rn {rn {l {rn {n |
  1
9><: {rn {rn {k {m {rn {j 90-(>-; ;0*=3: 0*+ |
  1
300/ {rn {rn {i {l |
  1
/3>1:r,*-9><: {rn nlqkolinglnijooioj mhqgfjkjgkgognklkg o o o n n o o -:):-,:@) V V V V |
  1
<0:;8: {rn {h {g {rn {f 90-(>-; {k {rn |
  1
<0:;8: {rn {no {i {rn {nn 90-(>-; {k {rn |
  1
<0:;8: {rn {i {nm {rn {nl -:):-,:; {k {rn |
  1
:;8: {rn {nk {nj {i {ni 90-(>-; |
  1
<0:;8: {rn {nh {h {rn {ng 90-(>-; {k {rn |
  1
:;8: {rn {nj {nf {h {mo 90-(>-; |
  1
<0:;8: {rn {g {mn {rn {mm 90-(>-; {k {rn |
  1
:;8: {rn {nk {ml {g {mk 90-(>-; |
  1
):-+:' {rn {f {mj |
  1
):-+:' {rn {f {mi |
  1
,+->687+r<*-): {rn nlqkgjnomniolnilii mhqjfkomlgjkhnhmjh o kqkljjikmklliihilj:ronj n o V V |
  1
<0:;8: {rn {mh {no {rn {mg 90-(>-; {k {rn |
  1
:;8: {rn {nf {mf {no {lo 90-(>-; |
  1
):-+:' {rn {nn {ln |
  1
,+->687+r<*-): {rn nlqkgjnomniolnilii mfqnfjfkjhmmjkklm o rn o o V V |
  1
<0:;8: {rn {nm {mh {rn {lm 90-(>-; {k {rn |
  1
:;8: {rn {ll {ml {nm {lk 90-(>-; |
  1
):-+:' {rn {mm {lj |
  1
:336/,:r<*-): {rn nlqkmjnomniolnilik mhqjfkomlgjkhnhmjh o o o rn oqoioooooooooooommhk o o n V V |
  1
/061+ {rn nlqkgjnomniolnilii mhqjfkomlgjkhnhmjh o |
  1
/061+ {rn nlqkgjnomniolnilii mfqnfjfkjhmmjkklm o |
  1
<0:;8: {rn {mn {nh {rn {li 90-(>-; {k {rn |
  1
:;8: {rn {mf {lh {nh {lg 90-(>-; |
  1
):-+:' {rn {ng {lf |
  1
,+->687+r<*-): {rn nlqkljnomniolnilif mfqnfjfkjhmmjkklm o o rn o V V |
  1
/061+ {rn nlqkljnomniolnilif mfqnfjfkjhmmjkklm o |
  1
:;8: {rn {ko {ll {mn {kn 90-(>-; |
  1
):-+:' {rn {lm {km |
  1
,+->687+r<*-): {rn nlqmmmflkmolgfion mhqjlkomlgjkhnhmjj o n o o V V |
  1
/061+ {rn nlqkmjnomniolnilik mhqjlkomlgjkhnhmjj o |
  1
:;8: {rn {lh {ko {mh {kl 90-(>-; |
  1
):-+:' {rn {mg {kk |
  1
:336/,:r<*-): {rn nlqkmjnomniolnilik mhqjfkomlgjkhnhmjh o o o rn oqonoooooooooooojnni o o n V V |
  1
/061+ {rn nlqkljnomniolnilif mhqjfkomlgjkhnhmjh o |
  1
):-+:' {rn {li {kj |
  1
,+->687+r<*-): {rn nlqmmmflkmolgfion mhqjgkomlgjkhnhmii o o rn o V V |
  1
/061+ {rn nlqmmmflkmolgfion mhqjlkomlgjkhnhmjj o |
  1
,+->687+r<*-): {rn nlqkmjnomniolnilik mhqjgkomlgjkhnhmii o rn o o V V |
  1
/061+ {rn nlqkmjnomniolnilik mhqjgkomlgjkhnhmii o |
  1
/061+ {rn nlqmmmflkmolgfion mhqjgkomlgjkhnhmii o |
  0
DIMENSION
  5
99
100
AcDbEntity
  8
R-DOOR-ANNO
 62
     7
100
AcDbDimension
  2
*D14
 10
6.526295
 20
28.146524
 30
0.0
 11
4.957723
 21
27.426524
 31
0.0
 70
   160
  1
<>\P(27mm)
  3
ROMANS
100
AcDbAlignedDimension
 13
9.619188
 23
29.196024
 33
0.0
 14
12.244188
 24
28.146524
 34
0.0
 50
90.0
100
AcDbRotatedDimension
1001
ACAD
1000
DSTYLE
1002
{
1070
   270
1070
     7
1070
    40
1040
2.0
1002
}
  0
LINE
  5
9A
100
AcDbEntity
  8
R-DOOR-DETL
100
AcDbLine
 10
12.369188
 20
23.07019
 30
0.0
 11
12.369188
 21
28.146524
 31
0.0
  0
LINE
  5
9B
100
AcDbEntity
  8
R-DOOR-DETL
100
AcDbLine
 10
12.740172
 20
23.068056
 30
0.0
 11
12.740172
 21
28.146524
 31
0.0
  0
LINE
  5
9C
100
AcDbEntity
  8
R-DOOR-DETL
100
AcDbLine
 10
12.802672
 20
23.092748
 30
0.0
 11
12.802672
 21
28.146524
 31
0.0
  0
LINE
  5
9D
100
AcDbEntity
  8
R-DOOR-DETL
100
AcDbLine
 10
12.427672
 20
23.028441
 30
0.0
 11
12.427672
 21
28.146524
 31
0.0
  0
LINE
  5
9E
100
AcDbEntity
  8
R-DOOR-DETL
100
AcDbLine
 10
12.490172
 20
23.039521
 30
0.0
 11
12.490172
 21
28.146524
 31
0.0
  0
LINE
  5
9F
100
AcDbEntity
  8
R-DOOR-DETL
100
AcDbLine
 10
12.552672
 20
23.086396
 30
0.0
 11
12.552672
 21
28.146524
 31
0.0
  0
LINE
  5
A0
100
AcDbEntity
  8
R-DOOR-DETL
100
AcDbLine
 10
12.677672
 20
23.029325
 30
0.0
 11
12.677672
 21
28.146524
 31
0.0
  0
LINE
  5
A1
100
AcDbEntity
  8
R-DOOR-DETL
100
AcDbLine
 10
12.854614
 20
23.076384
 30
0.0
 11
12.854614
 21
28.146524
 31
0.0
  0
LINE
  5
A2
100
AcDbEntity
  8
R-DOOR-DETL
100
AcDbLine
 10
12.611286
 20
22.766614
 30
0.0
 11
12.611286
 21
28.146524
 31
0.0
  0
LWPOLYLINE
  5
A3
100
AcDbEntity
  8
R-DOOR-DETL
100
AcDbPolyline
 90
        6
 70
     0
 43
0.0
 10
12.369188
 20
23.07019
 10
12.452124
 20
23.010985
 10
12.577124
 20
23.104735
 10
12.702124
 20
23.010985
 10
12.764624
 20
23.104735
 10
12.854614
 20
23.076384
  0
HATCH
  5
A4
100
AcDbEntity
  8
R-DOOR-PATT
  6
CONTINUOUS
 62
     5
100
AcDbHatch
 10
0.0
 20
0.0
 30
0.0
210
0.0
220
0.0
230
1.0
  2
ANSI31
 70
     0
 71
     0
 91
        1
 92
        7
 72
     0
 73
     1
 93
        4
 10
15.61918807682803
 20
29.19602392465411
 10
9.619188076828031
 20
29.19602392465411
 10
9.619188076828031
 20
31.19602392465411
 10
15.61918807682803
 20
31.19602392465411
 97
        0
 75
     0
 76
     1
 52
180.0
 41
2.5
 77
     0
 78
     1
 53
225.0
 43
-301.943975
 44
-10.088253
 45
0.2209708691207961
 46
-0.2209708691207961
 79
     0
 47
0.011976
 98
        1
 10
12.346387
 20
30.005117
  0
LINE
  5
A5
100
AcDbEntity
  8
R-DOOR-DETL
100
AcDbLine
 10
12.369188
 20
28.146524
 30
0.0
 11
12.854614
 21
28.146524
 31
0.0
  0
LINE
  5
A6
100
AcDbEntity
  8
R-DOOR-DETL
 62
     3
100
AcDbLine
 10
9.619188
 20
29.196024
 30
0.0
 11
15.619188
 21
29.196024
 31
0.0
  0
ENDBLK
  5
A8
100
AcDbEntity
  8
0
100
AcDbBlockEnd
  0
BLOCK
  5
23C
100
AcDbEntity
  8
0
100
AcDbBlockBegin
  2
*D4
 70
     1
 10
0.0
 20
0.0
 30
0.0
  3
*D4
  1

  0
LINE
  5
23D
100
AcDbEntity
  8
0
  6
BYBLOCK
 62
     0
100
AcDbLine
 10
17.83566
 20
11.401952
 30
0.0
 11
22.936575
 21
11.401952
 31
0.0
  0
LINE
  5
23E
100
AcDbEntity
  8
0
  6
BYBLOCK
 62
     0
100
AcDbLine
 10
17.83566
 20
31.942465
 30
0.0
 11
22.936575
 21
31.942465
 31
0.0
  0
LINE
  5
23F
100
AcDbEntity
  8
0
  6
BYBLOCK
 62
     0
100
AcDbLine
 10
22.576575
 20
11.761952
 30
0.0
 11
22.576575
 21
21.012208
 31
0.0
  0
LINE
  5
240
100
AcDbEntity
  8
0
  6
BYBLOCK
 62
     0
100
AcDbLine
 10
22.576575
 20
31.582465
 30
0.0
 11
22.576575
 21
22.332208
 31
0.0
  0
SOLID
  5
241
100
AcDbEntity
  8
0
  6
BYBLOCK
 62
     0
100
AcDbTrace
 10
22.516575
 20
11.761952
 30
0.0
 11
22.636575
 21
11.761952
 31
0.0
 12
22.576575
 22
11.401952
 32
0.0
 13
22.576575
 23
11.401952
 33
0.0
  0
SOLID
  5
242
100
AcDbEntity
  8
0
  6
BYBLOCK
 62
     0
100
AcDbTrace
 10
22.516575
 20
31.582465
 30
0.0
 11
22.636575
 21
31.582465
 31
0.0
 12
22.576575
 22
31.942465
 32
0.0
 13
22.576575
 23
31.942465
 33
0.0
  0
MTEXT
  5
243
100
AcDbEntity
  8
0
  6
BYBLOCK
 62
     0
100
AcDbMText
 10
22.576575
 20
21.672208
 30
0.0
 40
0.36
 41
0.0
 71
     5
 72
     1
  1
\A1;CLEAR \POPENING
  7
ROMANS
  0
POINT
  5
244
100
AcDbEntity
  8
DEFPOINTS
  6
BYBLOCK
 62
     0
100
AcDbPoint
 10
17.71066
 20
11.401952
 30
0.0
  0
POINT
  5
245
100
AcDbEntity
  8
DEFPOINTS
  6
BYBLOCK
 62
     0
100
AcDbPoint
 10
17.71066
 20
31.942465
 30
0.0
  0
POINT
  5
246
100
AcDbEntity
  8
DEFPOINTS
  6
BYBLOCK
 62
     0
100
AcDbPoint
 10
22.576575
 20
31.942465
 30
0.0
  0
ENDBLK
  5
247
100
AcDbEntity
  8
0
100
AcDbBlockEnd
  0
BLOCK
  5
17E
100
AcDbEntity
  8
0
100
AcDbBlockBegin
  2
A$C6BE867F4
 70
     0
 10
0.0
 20
0.0
 30
0.0
  3
A$C6BE867F4
  1

  0
MTEXT
  5
179
100
AcDbEntity
  8
0
 62
     4
100
AcDbMText
 10
2.434972
 20
2.319778
 30
0.0
 40
0.274008
 41
6.855394
 71
     1
 72
     5
  1
\fArial|b1|i0|c0|p34;DOOR RAIL SYSTEM
  0
LWPOLYLINE
  5
17A
100
AcDbEntity
  8
0
 62
     4
100
AcDbPolyline
 90
        2
 70
     0
 43
0.030704
 10
0.137665
 20
1.940905
 10
6.158597
 20
1.940905
  0
MTEXT
  5
17B
100
AcDbEntity
  8
0
 62
     4
100
AcDbMText
 10
0.152731
 20
1.682964
 30
0.0
 40
0.242751
 41
6.068763
 71
     1
 72
     5
  1
\fArial|b1|i1|c0|p34;C.R. Laurence Architectural Products
  0
MTEXT
  5
17C
100
AcDbEntity
  8
0
 62
     4
100
AcDbMText
 10
0.157672
 20
1.238797
 30
0.0
 40
0.191898
 41
6.0133
 71
     1
 72
     5
  1
\fArial|b0|i1|c0|p34;Phone Orders (800) 421-6144\PFax Orders     (800) 262-3299\PWWW.CRLAURENCE.COM\PPatent Pending
  0
INSERT
  5
17D
100
AcDbEntity
  8
0
 62
     4
100
AcDbBlockReference
  2
A$C2189253D
 10
0.143797
 20
2.032527
 30
0.0
 41
2.535564
 42
2.535564
 43
2.535564
  0
ENDBLK
  5
17F
100
AcDbEntity
  8
0
100
AcDbBlockEnd
  0
BLOCK
  5
182
100
AcDbEntity
  8
0
100
AcDbBlockBegin
  2
A$C0E897680
 70
     0
 10
0.0
 20
0.0
 30
0.0
  3
A$C0E897680
  1

  0
INSERT
  5
181
100
AcDbEntity
  8
0
100
AcDbBlockReference
  2
A$C6BE867F4
 10
0.0
 20
0.0
 30
0.0
  0
ENDBLK
  5
183
100
AcDbEntity
  8
0
100
AcDbBlockEnd
  0
BLOCK
  5
186
100
AcDbEntity
  8
0
100
AcDbBlockBegin
  2
A$C60D73A4C
 70
     0
 10
0.0
 20
0.0
 30
0.0
  3
A$C60D73A4C
  1

  0
INSERT
  5
185
100
AcDbEntity
  8
R-DOOR-DETL
100
AcDbBlockReference
  2
A$C0E897680
 10
0.0
 20
0.0
 30
0.0
  0
ENDBLK
  5
187
100
AcDbEntity
  8
0
100
AcDbBlockEnd
  0
BLOCK
  5
18A
100
AcDbEntity
  8
0
100
AcDbBlockBegin
  2
A$C74654F65
 70
     0
 10
0.0
 20
0.0
 30
0.0
  3
A$C74654F65
  1

  0
INSERT
  5
189
100
AcDbEntity
  8
R-DOOR-ANNO
100
AcDbBlockReference
  2
A$C60D73A4C
 10
0.0
 20
0.0
 30
0.0
  0
ENDBLK
  5
18B
100
AcDbEntity
  8
0
100
AcDbBlockEnd
  0
BLOCK
  5
18E
100
AcDbEntity
  8
0
100
AcDbBlockBegin
  2
A$C5FA07A05
 70
     0
 10
0.0
 20
0.0
 30
0.0
  3
A$C5FA07A05
  1

  0
INSERT
  5
18D
100
AcDbEntity
  8
0
100
AcDbBlockReference
  2
A$C74654F65
 10
0.0
 20
0.0
 30
0.0
  0
ENDBLK
  5
18F
100
AcDbEntity
  8
0
100
AcDbBlockEnd
  0
BLOCK
  5
192
100
AcDbEntity
  8
0
100
AcDbBlockBegin
  2
A$C46F93324
 70
     0
 10
0.0
 20
0.0
 30
0.0
  3
A$C46F93324
  1

  0
INSERT
  5
191
100
AcDbEntity
  8
0
100
AcDbBlockReference
  2
A$C5FA07A05
 10
0.0
 20
0.0
 30
0.0
 41
1.5
 42
1.5
 43
1.5
  0
ENDBLK
  5
193
100
AcDbEntity
  8
0
100
AcDbBlockEnd
  0
BLOCK
  5
207
100
AcDbEntity
  8
0
100
AcDbBlockBegin
  2
*D11
 70
     1
 10
0.0
 20
0.0
 30
0.0
  3
*D11
  1

  0
LINE
  5
208
100
AcDbEntity
  8
0
  6
BYBLOCK
 62
     0
100
AcDbLine
 10
15.744188
 20
8.65551
 30
0.0
 11
20.845102
 21
8.65551
 31
0.0
  0
LINE
  5
209
100
AcDbEntity
  8
0
  6
BYBLOCK
 62
     0
100
AcDbLine
 10
15.744188
 20
29.196024
 30
0.0
 11
20.845102
 21
29.196024
 31
0.0
  0
LINE
  5
20A
100
AcDbEntity
  8
0
  6
BYBLOCK
 62
     0
100
AcDbLine
 10
20.485102
 20
9.01551
 30
0.0
 11
20.485102
 21
18.265767
 31
0.0
  0
LINE
  5
20B
100
AcDbEntity
  8
0
  6
BYBLOCK
 62
     0
100
AcDbLine
 10
20.485102
 20
28.836024
 30
0.0
 11
20.485102
 21
19.585767
 31
0.0
  0
SOLID
  5
20C
100
AcDbEntity
  8
0
  6
BYBLOCK
 62
     0
100
AcDbTrace
 10
20.425102
 20
9.01551
 30
0.0
 11
20.545102
 21
9.01551
 31
0.0
 12
20.485102
 22
8.65551
 32
0.0
 13
20.485102
 23
8.65551
 33
0.0
  0
SOLID
  5
20D
100
AcDbEntity
  8
0
  6
BYBLOCK
 62
     0
100
AcDbTrace
 10
20.425102
 20
28.836024
 30
0.0
 11
20.545102
 21
28.836024
 31
0.0
 12
20.485102
 22
29.196024
 32
0.0
 13
20.485102
 23
29.196024
 33
0.0
  0
MTEXT
  5
20E
100
AcDbEntity
  8
0
  6
BYBLOCK
 62
     0
100
AcDbMText
 10
20.485102
 20
18.925767
 30
0.0
 40
0.36
 41
0.0
 71
     5
 72
     1
  1
\A1;CLEAR \POPENING
  7
ROMANS
  0
POINT
  5
20F
100
AcDbEntity
  8
DEFPOINTS
  6
BYBLOCK
 62
     0
100
AcDbPoint
 10
15.619188
 20
8.65551
 30
0.0
  0
POINT
  5
210
100
AcDbEntity
  8
DEFPOINTS
  6
BYBLOCK
 62
     0
100
AcDbPoint
 10
15.619188
 20
29.196024
 30
0.0
  0
POINT
  5
211
100
AcDbEntity
  8
DEFPOINTS
  6
BYBLOCK
 62
     0
100
AcDbPoint
 10
20.485102
 20
29.196024
 30
0.0
  0
ENDBLK
  5
212
100
AcDbEntity
  8
0
100
AcDbBlockEnd
  0
BLOCK
  5
214
100
AcDbEntity
  8
0
100
AcDbBlockBegin
  2
*D12
 70
     1
 10
0.0
 20
0.0
 30
0.0
  3
*D12
  1

  0
LINE
  5
215
100
AcDbEntity
  8
0
  6
BYBLOCK
 62
     0
100
AcDbLine
 10
12.244188
 20
28.146524
 30
0.0
 11
6.167106
 21
28.146524
 31
0.0
  0
LINE
  5
216
100
AcDbEntity
  8
0
  6
BYBLOCK
 62
     0
100
AcDbLine
 10
12.179188
 20
9.70251
 30
0.0
 11
6.167106
 21
9.70251
 31
0.0
  0
LINE
  5
217
100
AcDbEntity
  8
0
  6
BYBLOCK
 62
     0
100
AcDbLine
 10
6.527106
 20
27.786524
 30
0.0
 11
6.527106
 21
20.313089
 31
0.0
  0
LINE
  5
218
100
AcDbEntity
  8
0
  6
BYBLOCK
 62
     0
100
AcDbLine
 10
6.527106
 20
10.06251
 30
0.0
 11
6.527106
 21
17.535946
 31
0.0
  0
SOLID
  5
219
100
AcDbEntity
  8
0
  6
BYBLOCK
 62
     0
100
AcDbTrace
 10
6.467106
 20
27.786524
 30
0.0
 11
6.587106
 21
27.786524
 31
0.0
 12
6.527106
 22
28.146524
 32
0.0
 13
6.527106
 23
28.146524
 33
0.0
  0
SOLID
  5
21A
100
AcDbEntity
  8
0
  6
BYBLOCK
 62
     0
100
AcDbTrace
 10
6.467106
 20
10.06251
 30
0.0
 11
6.587106
 21
10.06251
 31
0.0
 12
6.527106
 22
9.70251
 32
0.0
 13
6.527106
 23
9.70251
 33
0.0
  0
MTEXT
  5
21B
100
AcDbEntity
  8
0
  6
BYBLOCK
 62
     0
100
AcDbMText
 10
6.527106
 20
18.924517
 30
0.0
 40
0.36
 41
0.0
 71
     5
 72
     1
  1
\A1;GLASS\PCLEAR OPENING\PLESS 2 1/8"\P(54mm)
  7
ROMANS
  0
POINT
  5
21C
100
AcDbEntity
  8
DEFPOINTS
  6
BYBLOCK
 62
     0
100
AcDbPoint
 10
12.369188
 20
28.146524
 30
0.0
  0
POINT
  5
21D
100
AcDbEntity
  8
DEFPOINTS
  6
BYBLOCK
 62
     0
100
AcDbPoint
 10
12.304188
 20
9.70251
 30
0.0
  0
POINT
  5
21E
100
AcDbEntity
  8
DEFPOINTS
  6
BYBLOCK
 62
     0
100
AcDbPoint
 10
6.527106
 20
9.70251
 30
0.0
  0
ENDBLK
  5
21F
100
AcDbEntity
  8
0
100
AcDbBlockEnd
  0
BLOCK
  5
221
100
AcDbEntity
  8
0
100
AcDbBlockBegin
  2
*D13
 70
     1
 10
0.0
 20
0.0
 30
0.0
  3
*D13
  1

  0
LINE
  5
222
100
AcDbEntity
  8
0
  6
BYBLOCK
 62
     0
100
AcDbLine
 10
12.054188
 20
9.70251
 30
0.0
 11
6.166295
 21
9.70251
 31
0.0
  0
LINE
  5
223
100
AcDbEntity
  8
0
  6
BYBLOCK
 62
     0
100
AcDbLine
 10
9.494188
 20
8.65551
 30
0.0
 11
6.166295
 21
8.65551
 31
0.0
  0
LINE
  5
224
100
AcDbEntity
  8
0
  6
BYBLOCK
 62
     0
100
AcDbLine
 10
6.526295
 20
10.06251
 30
0.0
 11
6.526295
 21
10.42251
 31
0.0
  0
LINE
  5
225
100
AcDbEntity
  8
0
  6
BYBLOCK
 62
     0
100
AcDbLine
 10
6.526295
 20
8.29551
 30
0.0
 11
6.526295
 21
7.93551
 31
0.0
  0
LINE
  5
226
100
AcDbEntity
  8
0
  6
BYBLOCK
 62
     0
100
AcDbLine
 10
6.526295
 20
7.93551
 30
0.0
 11
6.166295
 21
7.93551
 31
0.0
  0
SOLID
  5
227
100
AcDbEntity
  8
0
  6
BYBLOCK
 62
     0
100
AcDbTrace
 10
6.466295
 20
10.06251
 30
0.0
 11
6.586295
 21
10.06251
 31
0.0
 12
6.526295
 22
9.70251
 32
0.0
 13
6.526295
 23
9.70251
 33
0.0
  0
SOLID
  5
228
100
AcDbEntity
  8
0
  6
BYBLOCK
 62
     0
100
AcDbTrace
 10
6.466295
 20
8.29551
 30
0.0
 11
6.586295
 21
8.29551
 31
0.0
 12
6.526295
 22
8.65551
 32
0.0
 13
6.526295
 23
8.65551
 33
0.0
  0
MTEXT
  5
229
100
AcDbEntity
  8
0
  6
BYBLOCK
 62
     0
100
AcDbMText
 10
4.957723
 20
7.93551
 30
0.0
 40
0.36
 41
0.0
 71
     5
 72
     1
  1
\A1;1 1/16\P(27mm)
  7
ROMANS
  0
POINT
  5
22A
100
AcDbEntity
  8
DEFPOINTS
  6
BYBLOCK
 62
     0
100
AcDbPoint
 10
12.179188
 20
9.70251
 30
0.0
  0
POINT
  5
22B
100
AcDbEntity
  8
DEFPOINTS
  6
BYBLOCK
 62
     0
100
AcDbPoint
 10
9.619188
 20
8.65551
 30
0.0
  0
POINT
  5
22C
100
AcDbEntity
  8
DEFPOINTS
  6
BYBLOCK
 62
     0
100
AcDbPoint
 10
6.526295
 20
8.65551
 30
0.0
  0
ENDBLK
  5
22D
100
AcDbEntity
  8
0
100
AcDbBlockEnd
  0
BLOCK
  5
22F
100
AcDbEntity
  8
0
100
AcDbBlockBegin
  2
*D14
 70
     1
 10
0.0
 20
0.0
 30
0.0
  3
*D14
  1

  0
LINE
  5
230
100
AcDbEntity
  8
0
  6
BYBLOCK
 62
     0
100
AcDbLine
 10
9.494188
 20
29.196024
 30
0.0
 11
6.166295
 21
29.196024
 31
0.0
  0
LINE
  5
231
100
AcDbEntity
  8
0
  6
BYBLOCK
 62
     0
100
AcDbLine
 10
12.119188
 20
28.146524
 30
0.0
 11
6.166295
 21
28.146524
 31
0.0
  0
LINE
  5
232
100
AcDbEntity
  8
0
  6
BYBLOCK
 62
     0
100
AcDbLine
 10
6.526295
 20
29.556024
 30
0.0
 11
6.526295
 21
29.916024
 31
0.0
  0
LINE
  5
233
100
AcDbEntity
  8
0
  6
BYBLOCK
 62
     0
100
AcDbLine
 10
6.526295
 20
27.786524
 30
0.0
 11
6.526295
 21
27.426524
 31
0.0
  0
LINE
  5
234
100
AcDbEntity
  8
0
  6
BYBLOCK
 62
     0
100
AcDbLine
 10
6.526295
 20
27.426524
 30
0.0
 11
6.166295
 21
27.426524
 31
0.0
  0
SOLID
  5
235
100
AcDbEntity
  8
0
  6
BYBLOCK
 62
     0
100
AcDbTrace
 10
6.466295
 20
29.556024
 30
0.0
 11
6.586295
 21
29.556024
 31
0.0
 12
6.526295
 22
29.196024
 32
0.0
 13
6.526295
 23
29.196024
 33
0.0
  0
SOLID
  5
236
100
AcDbEntity
  8
0
  6
BYBLOCK
 62
     0
100
AcDbTrace
 10
6.466295
 20
27.786524
 30
0.0
 11
6.586295
 21
27.786524
 31
0.0
 12
6.526295
 22
28.146524
 32
0.0
 13
6.526295
 23
28.146524
 33
0.0
  0
MTEXT
  5
237
100
AcDbEntity
  8
0
  6
BYBLOCK
 62
     0
100
AcDbMText
 10
4.957723
 20
27.426524
 30
0.0
 40
0.36
 41
0.0
 71
     5
 72
     1
  1
\A1;1 1/16\P(27mm)
  7
ROMANS
  0
POINT
  5
238
100
AcDbEntity
  8
DEFPOINTS
  6
BYBLOCK
 62
     0
100
AcDbPoint
 10
9.619188
 20
29.196024
 30
0.0
  0
POINT
  5
239
100
AcDbEntity
  8
DEFPOINTS
  6
BYBLOCK
 62
     0
100
AcDbPoint
 10
12.244188
 20
28.146524
 30
0.0
  0
POINT
  5
23A
100
AcDbEntity
  8
DEFPOINTS
  6
BYBLOCK
 62
     0
100
AcDbPoint
 10
6.526295
 20
28.146524
 30
0.0
  0
ENDBLK
  5
23B
100
AcDbEntity
  8
0
100
AcDbBlockEnd
  0
BLOCK
  5
295
100
AcDbEntity
  8
0
100
AcDbBlockBegin
  2
A$C433421F4
 70
     0
 10
0.0
 20
0.0
 30
0.0
  3
A$C433421F4
  1

  0
LINE
  5
28B
100
AcDbEntity
  8
R-DOOR-ANNO
100
AcDbLine
 10
3.154888
 20
0.993017
 30
0.0
 11
3.112969
 21
0.897275
 31
0.0
  0
LINE
  5
28C
100
AcDbEntity
  8
R-DOOR-ANNO
100
AcDbLine
 10
3.095004
 20
0.993017
 30
0.0
 11
3.053086
 21
0.897275
 31
0.0
  0
TEXT
  5
28D
100
AcDbEntity
  8
R-DOOR-ANNO
 62
     0
100
AcDbText
 10
0.690214
 20
0.669488
 30
0.0
 40
0.315
  1
LESS 
100
AcDbText
  0
TEXT
  5
28E
100
AcDbEntity
  8
R-DOOR-ANNO
100
AcDbText
 10
2.175729
 20
0.710621
 30
0.0
 40
0.3
  1
6
100
AcDbText
  0
TEXT
  5
28F
100
AcDbEntity
  8
R-DOOR-ANNO
 62
     0
100
AcDbText
 10
1.05
 20
0.0
 30
0.0
 40
0.315
  1
[165mm]
100
AcDbText
  0
LINE
  5
290
100
AcDbEntity
  8
R-DOOR-ANNO
100
AcDbLine
 10
2.544988
 20
0.848675
 30
0.0
 11
2.884447
 21
0.848675
 31
0.0
  0
TEXT
  5
291
100
AcDbEntity
  8
R-DOOR-ANNO
100
AcDbText
 10
2.64173
 20
0.496296
 30
0.0
 40
0.27
  1
2
100
AcDbText
  0
TEXT
  5
292
100
AcDbEntity
  8
R-DOOR-ANNO
 62
     0
100
AcDbText
 10
0.0
 20
1.338976
 30
0.0
 40
0.315
  1
CLEAR OPENING
100
AcDbText
  0
TEXT
  5
293
100
AcDbEntity
  8
R-DOOR-ANNO
 62
     0
100
AcDbText
 10
1.2075
 20
1.863976
 30
0.0
 40
0.315
  1
GLASS 
100
AcDbText
  0
TEXT
  5
294
100
AcDbEntity
  8
R-DOOR-ANNO
100
AcDbText
 10
2.688322
 20
0.946296
 30
0.0
 40
0.27
  1
1
100
AcDbText
  0
ENDBLK
  5
296
100
AcDbEntity
  8
0
100
AcDbBlockEnd
  0
BLOCK
  5
2AB
100
AcDbEntity
  8
0
100
AcDbBlockBegin
  2
*D16
 70
     1
 10
0.0
 20
0.0
 30
0.0
  3
*D16
  1

  0
LINE
  5
2AC
100
AcDbEntity
  8
0
  6
BYBLOCK
 62
     0
100
AcDbLine
 10
9.406296
 20
29.108131
 30
0.0
 11
5.867469
 21
29.108131
 31
0.0
  0
LINE
  5
2AD
100
AcDbEntity
  8
0
  6
BYBLOCK
 62
     0
100
AcDbLine
 10
12.156296
 20
28.058631
 30
0.0
 11
5.867469
 21
28.058631
 31
0.0
  0
LINE
  5
2AE
100
AcDbEntity
  8
0
  6
BYBLOCK
 62
     0
100
AcDbLine
 10
6.227469
 20
29.468131
 30
0.0
 11
6.227469
 21
29.828131
 31
0.0
  0
LINE
  5
2AF
100
AcDbEntity
  8
0
  6
BYBLOCK
 62
     0
100
AcDbLine
 10
6.227469
 20
27.698631
 30
0.0
 11
6.227469
 21
27.338631
 31
0.0
  0
SOLID
  5
2B0
100
AcDbEntity
  8
0
  6
BYBLOCK
 62
     0
100
AcDbTrace
 10
6.167469
 20
29.468131
 30
0.0
 11
6.287469
 21
29.468131
 31
0.0
 12
6.227469
 22
29.108131
 32
0.0
 13
6.227469
 23
29.108131
 33
0.0
  0
SOLID
  5
2B1
100
AcDbEntity
  8
0
  6
BYBLOCK
 62
     0
100
AcDbTrace
 10
6.167469
 20
27.698631
 30
0.0
 11
6.287469
 21
27.698631
 31
0.0
 12
6.227469
 22
28.058631
 32
0.0
 13
6.227469
 23
28.058631
 33
0.0
  0
MTEXT
  5
2B2
100
AcDbEntity
  8
0
  6
BYBLOCK
 62
     0
100
AcDbMText
 10
6.227469
 20
28.583381
 30
0.0
 40
0.36
 41
0.0
 71
     5
 72
     1
  1
\A1;1{\H1.000000x;\S1/16;}"" [27mm]
  0
POINT
  5
2B3
100
AcDbEntity
  8
DEFPOINTS
  6
BYBLOCK
 62
     0
100
AcDbPoint
 10
9.531296
 20
29.108131
 30
0.0
  0
POINT
  5
2B4
100
AcDbEntity
  8
DEFPOINTS
  6
BYBLOCK
 62
     0
100
AcDbPoint
 10
12.281296
 20
28.058631
 30
0.0
  0
POINT
  5
2B5
100
AcDbEntity
  8
DEFPOINTS
  6
BYBLOCK
 62
     0
100
AcDbPoint
 10
6.227469
 20
28.058631
 30
0.0
  0
ENDBLK
  5
2B6
100
AcDbEntity
  8
0
100
AcDbBlockEnd
  0
BLOCK
  5
32F
100
AcDbEntity
  8
0
100
AcDbBlockBegin
  2
*D17
 70
     1
 10
0.0
 20
0.0
 30
0.0
  3
*D17
  1

  0
LINE
  5
330
100
AcDbEntity
  8
0
  6
BYBLOCK
 62
     0
100
AcDbLine
 10
12.091296
 20
9.348991
 30
0.0
 11
5.874788
 21
9.348991
 31
0.0
  0
LINE
  5
331
100
AcDbEntity
  8
0
  6
BYBLOCK
 62
     0
100
AcDbLine
 10
9.406296
 20
9.111991
 30
0.0
 11
5.874788
 21
9.111991
 31
0.0
  0
LINE
  5
332
100
AcDbEntity
  8
0
  6
BYBLOCK
 62
     0
100
AcDbLine
 10
6.234788
 20
9.708991
 30
0.0
 11
6.234788
 21
10.068991
 31
0.0
  0
LINE
  5
333
100
AcDbEntity
  8
0
  6
BYBLOCK
 62
     0
100
AcDbLine
 10
6.234788
 20
8.751991
 30
0.0
 11
6.234788
 21
7.847768
 31
0.0
  0
LINE
  5
334
100
AcDbEntity
  8
0
  6
BYBLOCK
 62
     0
100
AcDbLine
 10
6.234788
 20
7.847768
 30
0.0
 11
5.874788
 21
7.847768
 31
0.0
  0
SOLID
  5
335
100
AcDbEntity
  8
0
  6
BYBLOCK
 62
     0
100
AcDbTrace
 10
6.174788
 20
9.708991
 30
0.0
 11
6.294788
 21
9.708991
 31
0.0
 12
6.234788
 22
9.348991
 32
0.0
 13
6.234788
 23
9.348991
 33
0.0
  0
SOLID
  5
336
100
AcDbEntity
  8
0
  6
BYBLOCK
 62
     0
100
AcDbTrace
 10
6.174788
 20
8.751991
 30
0.0
 11
6.294788
 21
8.751991
 31
0.0
 12
6.234788
 22
9.111991
 32
0.0
 13
6.234788
 23
9.111991
 33
0.0
  0
MTEXT
  5
337
100
AcDbEntity
  8
0
  6
BYBLOCK
 62
     0
100
AcDbMText
 10
4.374788
 20
7.847768
 30
0.0
 40
0.36
 41
0.0
 71
     5
 72
     1
  1
\A1;{\H1.000000x;\S1/4;}"" [6mm]
  0
POINT
  5
338
100
AcDbEntity
  8
DEFPOINTS
  6
BYBLOCK
 62
     0
100
AcDbPoint
 10
12.216296
 20
9.348991
 30
0.0
  0
POINT
  5
339
100
AcDbEntity
  8
DEFPOINTS
  6
BYBLOCK
 62
     0
100
AcDbPoint
 10
9.531296
 20
9.111991
 30
0.0
  0
POINT
  5
33A
100
AcDbEntity
  8
DEFPOINTS
  6
BYBLOCK
 62
     0
100
AcDbPoint
 10
6.234788
 20
9.111991
 30
0.0
  0
ENDBLK
  5
33B
100
AcDbEntity
  8
0
100
AcDbBlockEnd
  0
BLOCK
  5
2EE
100
AcDbEntity
  8
0
100
AcDbBlockBegin
  2
A$C10EA48EA
 70
     0
 10
0.0
 20
0.0
 30
0.0
  3
A$C10EA48EA
  1

  0
LWPOLYLINE
  5
2ED
100
AcDbEntity
  8
0
100
AcDbPolyline
 90
       69
 70
     1
 43
0.0
 10
1.244637
 20
0.450132
 42
0.358921
 10
1.25936
 20
0.438
 10
1.306175
 20
0.438
 42
0.180309
 10
1.315993
 20
0.44166
 10
1.382818
 20
0.499514
 42
0.217649
 10
1.388
 20
0.510854
 10
1.388
 20
0.592
 10
1.353
 20
0.592
 10
1.404095
 20
0.6805
 42
-0.267949
 10
1.417086
 20
0.688
 10
1.609
 20
0.688
 42
-0.414214
 10
1.624
 20
0.673
 10
1.624
 20
0.015
 42
-0.414214
 10
1.609
 20
0.0
 10
0.015
 20
0.0
 42
-0.414214
 10
0.0
 20
0.015
 10
0.0
 20
0.673
 42
-0.414214
 10
0.015
 20
0.688
 10
0.206914
 20
0.688
 42
-0.267949
 10
0.219904
 20
0.6805
 10
0.271
 20
0.592
 10
0.236
 20
0.592
 10
0.236
 20
0.510854
 42
0.217649
 10
0.241182
 20
0.499514
 10
0.308007
 20
0.44166
 42
0.180309
 10
0.317825
 20
0.438
 10
0.36464
 20
0.438
 42
0.358921
 10
0.379363
 20
0.450132
 10
0.407
 20
0.592
 10
0.389
 20
0.592
 42
-1.0
 10
0.389
 20
0.628
 10
0.422
 20
0.628
 42
-0.414214
 10
0.437
 20
0.613
 10
0.437
 20
0.393
 42
-0.414214
 10
0.422
 20
0.378
 10
0.232
 20
0.378
 42
3.732051
 10
0.202
 20
0.326038
 10
0.226772
 20
0.283132
 42
-0.441135
 10
0.222304
 20
0.269053
 42
-0.20984
 10
0.125846
 20
0.267231
 42
0.535184
 10
0.112
 20
0.258
 10
0.112
 20
0.172
 42
0.414214
 10
0.172
 20
0.112
 10
0.337
 20
0.112
 10
0.366297
 20
0.162744
 42
-0.57735
 10
0.447703
 20
0.162744
 10
0.477
 20
0.112
 10
0.802
 20
0.112
 10
0.812
 20
0.102
 10
0.822
 20
0.112
 10
1.147
 20
0.112
 10
1.176297
 20
0.162744
 42
-0.57735
 10
1.257703
 20
0.162744
 10
1.287
 20
0.112
 10
1.452
 20
0.112
 42
0.414214
 10
1.512
 20
0.172
 10
1.512
 20
0.258
 42
0.535184
 10
1.498154
 20
0.267231
 42
-0.20984
 10
1.401696
 20
0.269053
 42
-0.441135
 10
1.397228
 20
0.283132
 10
1.422
 20
0.326038
 42
3.732051
 10
1.392
 20
0.378
 10
1.202
 20
0.378
 42
-0.414214
 10
1.187
 20
0.393
 10
1.187
 20
0.613
 42
-0.414214
 10
1.202
 20
0.628
 10
1.235
 20
0.628
 42
-1.0
 10
1.235
 20
0.592
 10
1.217
 20
0.592
  0
ENDBLK
  5
2EF
100
AcDbEntity
  8
0
100
AcDbBlockEnd
  0
ENDSEC
  0
SECTION
  2
ENTITIES
  0
DIMENSION
  5
B0
100
AcDbEntity
  8
R-DOOR-ANNO
 62
     7
100
AcDbDimension
  2
*D4
 10
20.39721
 20
29.652505
 30
0.0
 11
20.39721
 21
19.382248
 31
0.0
 12
-2.179365
 22
-2.289961
 32
0.0
 70
    32
  1
CLEAR \POPENING
  3
ROMANS
100
AcDbAlignedDimension
 13
15.531296
 23
9.111991
 33
0.0
 14
15.531296
 24
29.652505
 34
0.0
 50
90.0
100
AcDbRotatedDimension
1001
ACAD
1000
DSTYLE
1002
{
1070
   270
1070
     7
1070
    40
1040
2.0
1002
}
  0
TEXT
  5
B2
100
AcDbEntity
  8
R-DOOR-ANNO
100
AcDbText
 10
5.826042
 20
5.11267
 30
0.0
 40
0.52
  1
SHALLOW U-CHANNEL AT BOTTOM
  7
ROMANS
 72
     1
 11
12.586042
 21
5.11267
 31
0.0
100
AcDbText
  0
MTEXT
  5
B3
102
{ACAD_REACTORS
330
B6
102
}
100
AcDbEntity
  8
R-DOOR-ANNO
  6
CONTINUOUS
100
AcDbMText
 10
15.579665
 20
10.255753
 30
0.0
 40
0.36
 41
0.0
 71
     4
 72
     1
  1
1/8" SETTING\PBLOCK
  7
ROMANS
  0
MTEXT
  5
B4
102
{ACAD_REACTORS
330
B7
102
}
100
AcDbEntity
  8
R-DOOR-ANNO
  6
CONTINUOUS
100
AcDbMText
 10
15.814584
 20
11.540185
 30
0.0
 40
0.36
 41
0.0
 71
     4
 72
     1
  1
CLADDING
  7
ROMANS
  0
LEADER
  5
B6
100
AcDbEntity
  8
R-DOOR-ANNO
  6
CONTINUOUS
100
AcDbLeader
  3
STANDARD
 73
     0
 74
     0
 75
     1
 40
1.028571
 41
3.6
 76
     3
 10
12.777689
 20
9.298291
 30
0.0
 10
14.969665
 20
10.255753
 30
0.0
 10
15.469665
 20
10.255753
 30
0.0
 77
   256
340
B3
213
-0.0199999999999996
223
0.0
233
0.0
1001
ACAD
1000
DSTYLE
1002
{
1070
   173
1070
     1
1070
     6
1000
_DOTSMALL
1070
    41
1040
0.5
1002
}
  0
LEADER
  5
B7
100
AcDbEntity
  8
R-DOOR-ANNO
  6
CONTINUOUS
100
AcDbLeader
  3
STANDARD
 73
     0
 74
     0
 75
     1
 40
0.36
 41
2.451429
 76
     3
 10
13.415097
 20
9.823042
 30
0.0
 10
15.204584
 20
11.540185
 30
0.0
 10
15.704584
 20
11.540185
 30
0.0
 77
   256
340
B4
213
-0.0199999999999996
223
0.0
233
0.0
1001
ACAD
1000
DSTYLE
1002
{
1070
   173
1070
     1
1070
     6
1000
_DOTSMALL
1070
    41
1040
0.5
1002
}
  0
LINE
  5
B8
100
AcDbEntity
  8
R-DOOR-DETL
100
AcDbLine
 10
12.281296
 20
15.235325
 30
0.0
 11
12.281296
 21
9.348991
 31
0.0
  0
LINE
  5
B9
100
AcDbEntity
  8
R-DOOR-DETL
100
AcDbLine
 10
12.766722
 20
15.229132
 30
0.0
 11
12.766722
 21
9.348991
 31
0.0
  0
LINE
  5
BA
100
AcDbEntity
  8
R-DOOR-DETL
100
AcDbLine
 10
12.589779
 20
15.27619
 30
0.0
 11
12.589779
 21
9.348991
 31
0.0
  0
LINE
  5
BB
100
AcDbEntity
  8
R-DOOR-DETL
100
AcDbLine
 10
12.464779
 20
15.219119
 30
0.0
 11
12.464779
 21
9.348991
 31
0.0
  0
LINE
  5
BC
100
AcDbEntity
  8
R-DOOR-DETL
100
AcDbLine
 10
12.402279
 20
15.265994
 30
0.0
 11
12.402279
 21
9.348991
 31
0.0
  0
LINE
  5
BD
100
AcDbEntity
  8
R-DOOR-DETL
100
AcDbLine
 10
12.339779
 20
15.277074
 30
0.0
 11
12.339779
 21
9.348991
 31
0.0
  0
LINE
  5
BE
100
AcDbEntity
  8
R-DOOR-DETL
100
AcDbLine
 10
12.714779
 20
15.212767
 30
0.0
 11
12.714779
 21
9.348991
 31
0.0
  0
LINE
  5
BF
100
AcDbEntity
  8
R-DOOR-DETL
100
AcDbLine
 10
12.652279
 20
15.237459
 30
0.0
 11
12.652279
 21
9.348991
 31
0.0
  0
HATCH
  5
C2
100
AcDbEntity
  8
R-DOOR-PATT
  6
CONTINUOUS
 62
     5
100
AcDbHatch
 10
0.0
 20
0.0
 30
0.0
210
0.0
220
0.0
230
1.0
  2
ANSI31
 70
     0
 71
     0
 91
        1
 92
        7
 72
     0
 73
     1
 93
        4
 10
15.53129554947657
 20
9.111991233487799
 10
9.53129554947657
 20
9.111991233487799
 10
9.53129554947657
 20
7.111991233487799
 10
15.53129554947657
 20
7.111991233487799
 97
        0
 75
     0
 76
     1
 52
180.0
 41
2.5
 77
     0
 78
     1
 53
225.0
 43
-302.031867
 44
-21.172285
 45
0.2209708691207961
 46
-0.2209708691207961
 79
     0
 47
0.011976
 98
        1
 10
12.258494
 20
8.302898
  0
TEXT
  5
C3
100
AcDbEntity
  8
R-DOOR-ANNO
100
AcDbText
 10
7.457663
 20
6.020023
 30
0.0
 40
0.52
  1
U-CHANNEL AT TOP WITH
  7
ROMANS
 72
     1
 11
12.595759
 21
6.020023
 31
0.0
100
AcDbText
  0
LWPOLYLINE
  5
C4
100
AcDbEntity
  8
R-DOOR-DETL
  6
CONTINUOUS
 62
     3
100
AcDbPolyline
 90
        4
 70
     1
 43
0.0
 10
12.846296
 20
9.223991
 10
12.846296
 20
9.348991
 10
12.216296
 20
9.348991
 10
12.216296
 20
9.223991
  0
LWPOLYLINE
  5
C7
100
AcDbEntity
  8
R-DOOR-DETL
  6
CONTINUOUS
 62
     3
100
AcDbPolyline
 90
       28
 70
     1
 43
0.0
 10
13.068849
 20
9.598258
 10
13.13974
 20
9.675622
 42
-1.0
 10
13.1508
 20
9.665488
 10
13.073308
 20
9.580921
 42
-0.210277
 10
13.062249
 20
9.576055
 10
13.002449
 20
9.576055
 42
-0.210277
 10
12.99139
 20
9.580921
 10
12.913899
 20
9.665488
 42
-1.0
 10
12.924958
 20
9.675622
 10
12.991257
 20
9.60327
 10
12.970534
 20
9.726074
 42
0.41637
 10
12.953138
 20
9.73835
 10
12.909245
 20
9.730611
 42
0.36397
 10
12.896849
 20
9.715839
 10
12.896849
 20
9.523656
 42
-0.767327
 10
12.779731
 20
9.492274
 10
12.720629
 20
9.594643
 42
-1.0
 10
12.747475
 20
9.610143
 10
12.797849
 20
9.522893
 10
12.797849
 20
9.792766
 42
0.36397
 10
12.785454
 20
9.807538
 10
12.61931
 20
9.836834
 42
-1.0
 10
12.625388
 20
9.871302
 10
12.797849
 20
9.840893
 10
13.119849
 20
9.840893
 42
-0.414214
 10
13.134849
 20
9.825893
 10
13.134849
 20
9.808893
 10
13.068849
 20
9.808893
  0
LINE
  5
C8
100
AcDbEntity
  8
0
100
AcDbLine
 10
9.531296
 20
9.111991
 30
0.0
 11
15.531296
 21
9.111991
 31
0.0
  0
LWPOLYLINE
  5
C9
100
AcDbEntity
  8
R-DOOR-DETL
  6
CONTINUOUS
 62
     3
100
AcDbPolyline
 90
       28
 70
     1
 43
0.0
 10
11.993742
 20
9.598258
 10
11.922851
 20
9.675622
 42
1.0
 10
11.911792
 20
9.665488
 10
11.989283
 20
9.580921
 42
0.210277
 10
12.000342
 20
9.576055
 10
12.060142
 20
9.576055
 42
0.210277
 10
12.071201
 20
9.580921
 10
12.148692
 20
9.665488
 42
1.0
 10
12.137633
 20
9.675622
 10
12.071334
 20
9.60327
 10
12.092058
 20
9.726074
 42
-0.41637
 10
12.109453
 20
9.73835
 10
12.153347
 20
9.730611
 42
-0.36397
 10
12.165742
 20
9.715839
 10
12.165742
 20
9.523656
 42
0.767327
 10
12.28286
 20
9.492274
 10
12.341962
 20
9.594643
 42
1.0
 10
12.315116
 20
9.610143
 10
12.264742
 20
9.522893
 10
12.264742
 20
9.792766
 42
-0.36397
 10
12.277137
 20
9.807538
 10
12.443281
 20
9.836834
 42
1.0
 10
12.437203
 20
9.871302
 10
12.264742
 20
9.840893
 10
11.942742
 20
9.840893
 42
0.414214
 10
11.927742
 20
9.825893
 10
11.927742
 20
9.808893
 10
11.993742
 20
9.808893
  0
LWPOLYLINE
  5
CB
100
AcDbEntity
  8
R-DOOR-DETL
100
AcDbPolyline
 90
        6
 70
     0
 43
0.0
 10
12.281296
 20
15.235325
 10
12.364232
 20
15.29453
 10
12.489232
 20
15.20078
 10
12.614232
 20
15.29453
 10
12.676732
 20
15.20078
 10
12.766722
 20
15.229132
  0
TEXT
  5
CC
100
AcDbEntity
  8
R-DOOR-ANNO
 62
     7
100
AcDbText
 10
21.516563
 20
0.5
 30
0.0
 40
0.52
  1
STYLE 41
  7
ROMANS
100
AcDbText
  0
TEXT
  5
CD
100
AcDbEntity
  8
4-2
 62
     4
100
AcDbText
 10
15.087529
 20
33.150835
 30
0.0
 40
0.35
  1
NOTE:
100
AcDbText
  0
TEXT
  5
CE
100
AcDbEntity
  8
4-2
 62
     4
100
AcDbText
 10
15.087529
 20
32.567502
 30
0.0
 40
0.35
  1
DIMENSIONS ARE THE SAME FOR
100
AcDbText
  0
TEXT
  5
CF
100
AcDbEntity
  8
4-2
 62
     4
100
AcDbText
 10
15.087529
 20
31.984168
 30
0.0
 40
0.35
  1
CLAD AND NON CLAD U-CHANNELS.
100
AcDbText
  0
MTEXT
  5
D0
102
{ACAD_REACTORS
330
D1
102
}
100
AcDbEntity
  8
R-DOOR-ANNO
  6
CONTINUOUS
100
AcDbMText
 10
15.776302
 20
26.960741
 30
0.0
 40
0.36
 41
0.0
 71
     4
 72
     1
  1
CLADDING
  7
ROMANS
  0
LEADER
  5
D1
100
AcDbEntity
  8
R-DOOR-ANNO
  6
CONTINUOUS
100
AcDbLeader
  3
STANDARD
 73
     0
 74
     0
 75
     1
 40
0.36
 41
2.451429
 76
     3
 10
13.423083
 20
28.267462
 30
0.0
 10
15.166302
 20
26.960741
 30
0.0
 10
15.666302
 20
26.960741
 30
0.0
 77
   256
340
D0
213
-0.0199999999999996
223
0.0
233
0.0
1001
ACAD
1000
DSTYLE
1002
{
1070
   173
1070
     1
1070
     6
1000
_DOTSMALL
1070
    41
1040
0.5
1002
}
  0
LWPOLYLINE
  5
D2
100
AcDbEntity
  8
R-DOOR-DETL
  6
CONTINUOUS
 62
     3
100
AcDbPolyline
 90
       28
 70
     1
 43
0.0
 10
11.993742
 20
28.237408
 10
11.922851
 20
28.160044
 42
-1.0
 10
11.911792
 20
28.170177
 10
11.989283
 20
28.254744
 42
-0.210277
 10
12.000342
 20
28.259611
 10
12.060142
 20
28.259611
 42
-0.210277
 10
12.071201
 20
28.254744
 10
12.148692
 20
28.170177
 42
-1.0
 10
12.137633
 20
28.160044
 10
12.071334
 20
28.232396
 10
12.092058
 20
28.109591
 42
0.41637
 10
12.109453
 20
28.097315
 10
12.153347
 20
28.105055
 42
0.36397
 10
12.165742
 20
28.119827
 10
12.165742
 20
28.312009
 42
-0.767327
 10
12.28286
 20
28.343391
 10
12.341962
 20
28.241023
 42
-1.0
 10
12.315116
 20
28.225523
 10
12.264742
 20
28.312773
 10
12.264742
 20
28.042899
 42
0.36397
 10
12.277137
 20
28.028127
 10
12.443281
 20
27.998831
 42
-1.0
 10
12.437203
 20
27.964363
 10
12.264742
 20
27.994773
 10
11.942742
 20
27.994773
 42
-0.414214
 10
11.927742
 20
28.009773
 10
11.927742
 20
28.026773
 10
11.993742
 20
28.026773
  0
LWPOLYLINE
  5
D3
100
AcDbEntity
  8
R-DOOR-DETL
  6
CONTINUOUS
 62
     3
100
AcDbPolyline
 90
       28
 70
     1
 43
0.0
 10
13.068849
 20
28.237408
 10
13.13974
 20
28.160044
 42
1.0
 10
13.1508
 20
28.170177
 10
13.073308
 20
28.254744
 42
0.210277
 10
13.062249
 20
28.259611
 10
13.002449
 20
28.259611
 42
0.210277
 10
12.99139
 20
28.254744
 10
12.913899
 20
28.170177
 42
1.0
 10
12.924958
 20
28.160044
 10
12.991257
 20
28.232396
 10
12.970534
 20
28.109591
 42
-0.41637
 10
12.953138
 20
28.097315
 10
12.909245
 20
28.105055
 42
-0.36397
 10
12.896849
 20
28.119827
 10
12.896849
 20
28.312009
 42
0.767327
 10
12.779731
 20
28.343391
 10
12.720629
 20
28.241023
 42
1.0
 10
12.747475
 20
28.225523
 10
12.797849
 20
28.312773
 10
12.797849
 20
28.042899
 42
-0.36397
 10
12.785454
 20
28.028127
 10
12.61931
 20
27.998831
 42
1.0
 10
12.625388
 20
27.964363
 10
12.797849
 20
27.994773
 10
13.119849
 20
27.994773
 42
0.414214
 10
13.134849
 20
28.009773
 10
13.134849
 20
28.026773
 10
13.068849
 20
28.026773
  0
LWPOLYLINE
  5
D4
100
AcDbEntity
  8
R-DOOR-DETL
  6
CONTINUOUS
 62
     3
100
AcDbPolyline
 90
       85
 70
     1
 43
0.0
 10
12.976999
 20
29.489761
 10
13.006296
 20
29.540505
 10
13.171296
 20
29.540505
 42
-0.414214
 10
13.231296
 20
29.480505
 10
13.231296
 20
28.800178
 42
0.198912
 10
13.140237
 20
28.812166
 10
13.155766
 20
28.75421
 42
-3.732051
 10
13.11334
 20
28.711784
 10
13.055384
 20
28.727313
 42
0.668179
 10
13.231296
 20
28.592332
 10
13.231296
 20
28.151505
 42
-0.414214
 10
13.216296
 20
28.136505
 10
13.182296
 20
28.136505
 42
-0.414214
 10
13.167296
 20
28.151505
 10
13.167296
 20
28.245067
 42
0.217649
 10
13.162114
 20
28.256408
 10
13.057653
 20
28.346845
 42
0.180309
 10
13.047835
 20
28.350505
 10
12.921296
 20
28.350505
 42
0.414214
 10
12.906296
 20
28.335505
 10
12.906296
 20
28.115505
 42
0.414214
 10
12.921296
 20
28.100505
 10
12.954296
 20
28.100505
 42
1.0
 10
12.954296
 20
28.136505
 10
12.936296
 20
28.136505
 10
12.963932
 20
28.278373
 42
-0.358921
 10
12.978655
 20
28.290505
 10
13.02547
 20
28.290505
 42
-0.180309
 10
13.035289
 20
28.286845
 10
13.102114
 20
28.228991
 42
-0.217649
 10
13.107296
 20
28.217651
 10
13.107296
 20
28.136505
 10
13.072296
 20
28.136505
 10
13.123391
 20
28.048005
 42
0.267949
 10
13.136381
 20
28.040505
 10
13.328296
 20
28.040505
 42
0.414214
 10
13.343296
 20
28.055505
 10
13.343296
 20
29.637505
 42
0.414214
 10
13.328296
 20
29.652505
 10
11.734296
 20
29.652505
 42
0.414214
 10
11.719296
 20
29.637505
 10
11.719296
 20
28.055505
 42
0.414214
 10
11.734296
 20
28.040505
 10
11.92621
 20
28.040505
 42
0.267949
 10
11.9392
 20
28.048005
 10
11.990296
 20
28.136505
 10
11.955296
 20
28.136505
 10
11.955296
 20
28.217651
 42
-0.217649
 10
11.960477
 20
28.228991
 10
12.027303
 20
28.286845
 42
-0.180309
 10
12.037121
 20
28.290505
 10
12.083936
 20
28.290505
 42
-0.358921
 10
12.098659
 20
28.278373
 10
12.126296
 20
28.136505
 10
12.108296
 20
28.136505
 42
1.0
 10
12.108296
 20
28.100505
 10
12.141296
 20
28.100505
 42
0.414214
 10
12.156296
 20
28.115505
 10
12.156296
 20
28.335505
 42
0.414214
 10
12.141296
 20
28.350505
 10
12.014756
 20
28.350505
 42
0.180309
 10
12.004938
 20
28.346845
 10
11.900477
 20
28.256408
 42
0.217649
 10
11.895296
 20
28.245067
 10
11.895296
 20
28.151505
 42
-0.414214
 10
11.880296
 20
28.136505
 10
11.846296
 20
28.136505
 42
-0.414214
 10
11.831296
 20
28.151505
 10
11.831296
 20
28.592332
 42
0.668179
 10
12.007207
 20
28.727313
 10
11.949251
 20
28.711784
 42
-3.732051
 10
11.906825
 20
28.75421
 10
11.922354
 20
28.812166
 42
0.198912
 10
11.831296
 20
28.800178
 10
11.831296
 20
29.480505
 42
-0.414214
 10
11.891296
 20
29.540505
 10
12.056296
 20
29.540505
 10
12.085592
 20
29.489761
 42
0.57735
 10
12.166999
 20
29.489761
 10
12.196296
 20
29.540505
 10
12.521296
 20
29.540505
 10
12.531296
 20
29.550505
 10
12.541296
 20
29.540505
 10
12.866296
 20
29.540505
 10
12.895592
 20
29.489761
 42
0.57735
  0
REGION
  5
D5
100
AcDbEntity
  8
R-DOOR-DETL
  6
CONTINUOUS
100
AcDbModelerGeometry
 70
     1
  1
loo ki n o          
  1
h J1410(1 nn ^ \VL lqo QK mk K*: R>- nm njejieng moom 
  1
rn fqfffffffffffffffj:rooh n:rono 
  1
=0;& {rn {n {rn {rn |
  1
3*2/ {rn {rn {m {o |
  1
,7:33 {rn {rn {rn {l {rn {n |
  1
9><: {rn {rn {k {m {rn {j 90-(>-; ;0*=3: 0*+ |
  1
300/ {rn {rn {i {l |
  1
/3>1:r,*-9><: {rn nlqlnjhmjhgfnkfnkj mgqljnflfmjhmijmnj o o o n n o o -:):-,:@) V V V V |
  1
<0:;8: {rn {h {g {rn {f 90-(>-; {k {rn |
  1
<0:;8: {rn {no {i {rn {nn 90-(>-; {k {rn |
  1
<0:;8: {rn {i {nm {rn {nl -:):-,:; {k {rn |
  1
:;8: {rn {nk {nj {i {ni 90-(>-; |
  1
<0:;8: {rn {nh {h {rn {ng 90-(>-; {k {rn |
  1
:;8: {rn {nj {nf {h {mo 90-(>-; |
  1
<0:;8: {rn {g {mn {rn {mm 90-(>-; {k {rn |
  1
:;8: {rn {nk {ml {g {mk 90-(>-; |
  1
):-+:' {rn {f {mj |
  1
):-+:' {rn {f {mi |
  1
,+->687+r<*-): {rn nlqlfhmofilmfikfoi mgqojojokilnnignmk o kqkljjikmklliihilj:ronj n o V V |
  1
<0:;8: {rn {mh {no {rn {mg 90-(>-; {k {rn |
  1
:;8: {rn {nf {mf {no {lo 90-(>-; |
  1
):-+:' {rn {nn {ln |
  1
,+->687+r<*-): {rn nlqlfhmofilmfikfoi mfqijmkmikfgffjngh o rn o o V V |
  1
<0:;8: {rn {nm {mh {rn {lm 90-(>-; {k {rn |
  1
:;8: {rn {ll {ml {nm {lk 90-(>-; |
  1
):-+:' {rn {mm {lj |
  1
:336/,:r<*-): {rn nlqllhmofilmfikfol mgqojojokilnnignmk o o o rn oqoioooooooooooommhk o o n V V |
  1
/061+ {rn nlqlfhmofilmfikfoi mgqojojokilnnignmk o |
  1
/061+ {rn nlqlfhmofilmfikfoi mfqijmkmikfgffjngh o |
  1
<0:;8: {rn {mn {nh {rn {li 90-(>-; {k {rn |
  1
:;8: {rn {mf {lh {nh {lg 90-(>-; |
  1
):-+:' {rn {ng {lf |
  1
,+->687+r<*-): {rn nlqlkhmofilmfikfog mfqijmkmikfgffjngh o o rn o V V |
  1
/061+ {rn nlqlkhmofilmfikfog mfqijmkmikfgffjngh o |
  1
:;8: {rn {ko {ll {mn {kn 90-(>-; |
  1
):-+:' {rn {lm {km |
  1
,+->687+r<*-): {rn nlqnljoknihijkkjkf mhqffojokilnnignmm o n o o V V |
  1
/061+ {rn nlqllhmofilmfikfol mhqffojokilnnignmm o |
  1
:;8: {rn {lh {ko {mh {kl 90-(>-; |
  1
):-+:' {rn {mg {kk |
  1
:336/,:r<*-): {rn nlqllhmofilmfikfol mgqojojokilnnignmk o o o rn oqonoooooooooooojnni o o n V V |
  1
/061+ {rn nlqlkhmofilmfikfog mgqojojokilnnignmk o |
  1
):-+:' {rn {li {kj |
  1
,+->687+r<*-): {rn nlqnljoknihijkkjkf mgqokojokilnnignll o o rn o V V |
  1
/061+ {rn nlqnljoknihijkkjkf mhqffojokilnnignmm o |
  1
,+->687+r<*-): {rn nlqllhmofilmfikfol mgqokojokilnnignll o rn o o V V |
  1
/061+ {rn nlqllhmofilmfikfol mgqokojokilnnignll o |
  1
/061+ {rn nlqnljoknihijkkjkf mgqokojokilnnignll o |
  0
LINE
  5
D7
100
AcDbEntity
  8
R-DOOR-DETL
100
AcDbLine
 10
12.281296
 20
23.526671
 30
0.0
 11
12.281296
 21
28.603005
 31
0.0
  0
LINE
  5
D8
100
AcDbEntity
  8
R-DOOR-DETL
100
AcDbLine
 10
12.652279
 20
23.524537
 30
0.0
 11
12.652279
 21
28.603005
 31
0.0
  0
LINE
  5
D9
100
AcDbEntity
  8
R-DOOR-DETL
100
AcDbLine
 10
12.714779
 20
23.549229
 30
0.0
 11
12.714779
 21
28.603005
 31
0.0
  0
LINE
  5
DA
100
AcDbEntity
  8
R-DOOR-DETL
100
AcDbLine
 10
12.339779
 20
23.484922
 30
0.0
 11
12.339779
 21
28.603005
 31
0.0
  0
LINE
  5
DB
100
AcDbEntity
  8
R-DOOR-DETL
100
AcDbLine
 10
12.402279
 20
23.496002
 30
0.0
 11
12.402279
 21
28.603005
 31
0.0
  0
LINE
  5
DC
100
AcDbEntity
  8
R-DOOR-DETL
100
AcDbLine
 10
12.464779
 20
23.542877
 30
0.0
 11
12.464779
 21
28.603005
 31
0.0
  0
LINE
  5
DD
100
AcDbEntity
  8
R-DOOR-DETL
100
AcDbLine
 10
12.589779
 20
23.485806
 30
0.0
 11
12.589779
 21
28.603005
 31
0.0
  0
LINE
  5
DE
100
AcDbEntity
  8
R-DOOR-DETL
100
AcDbLine
 10
12.766722
 20
23.532864
 30
0.0
 11
12.766722
 21
28.603005
 31
0.0
  0
LWPOLYLINE
  5
E0
100
AcDbEntity
  8
R-DOOR-DETL
100
AcDbPolyline
 90
        6
 70
     0
 43
0.0
 10
12.281296
 20
23.526671
 10
12.364232
 20
23.467466
 10
12.489232
 20
23.561216
 10
12.614232
 20
23.467466
 10
12.676732
 20
23.561216
 10
12.766722
 20
23.532864
  0
HATCH
  5
E1
100
AcDbEntity
  8
R-DOOR-PATT
  6
CONTINUOUS
 62
     5
100
AcDbHatch
 10
0.0
 20
0.0
 30
0.0
210
0.0
220
0.0
230
1.0
  2
ANSI31
 70
     0
 71
     0
 91
        1
 92
        7
 72
     0
 73
     1
 93
        4
 10
15.53129554947657
 20
29.65250470110497
 10
9.53129554947657
 20
29.65250470110497
 10
9.53129554947657
 20
31.65250470110497
 10
15.53129554947657
 20
31.65250470110497
 97
        0
 75
     0
 76
     1
 52
180.0
 41
2.5
 77
     0
 78
     1
 53
225.0
 43
-302.031867
 44
-9.631772
 45
0.2209708691207961
 46
-0.2209708691207961
 79
     0
 47
0.011976
 98
        1
 10
12.258494
 20
30.461598
  0
LINE
  5
E2
100
AcDbEntity
  8
R-DOOR-DETL
100
AcDbLine
 10
12.281296
 20
28.603005
 30
0.0
 11
12.766722
 21
28.603005
 31
0.0
  0
LINE
  5
E3
100
AcDbEntity
  8
R-DOOR-DETL
 62
     3
100
AcDbLine
 10
9.531296
 20
29.652505
 30
0.0
 11
15.531296
 21
29.652505
 31
0.0
  0
LINE
  5
16C
100
AcDbEntity
  8
R-DOOR-ANNO
 62
     7
100
AcDbLine
 10
25.693238
 20
34.200072
 30
0.0
 11
0.0
 21
34.200072
 31
0.0
  0
LINE
  5
16D
100
AcDbEntity
  8
R-DOOR-ANNO
 62
     7
100
AcDbLine
 10
0.0
 20
34.200072
 30
0.0
 11
0.0
 21
0.0
 31
0.0
  0
LINE
  5
16E
100
AcDbEntity
  8
R-DOOR-ANNO
 62
     7
100
AcDbLine
 10
0.0
 20
0.0
 30
0.0
 11
25.693238
 21
0.0
 31
0.0
  0
LINE
  5
16F
100
AcDbEntity
  8
R-DOOR-ANNO
 62
     7
100
AcDbLine
 10
25.693238
 20
0.0
 30
0.0
 11
25.693238
 21
34.200072
 31
0.0
  0
INSERT
  5
19D
100
AcDbEntity
  8
0
100
AcDbBlockReference
  2
A$C46F93324
 10
0.094551
 20
0.278302
 30
0.0
  0
LINE
  5
2A0
100
AcDbEntity
  8
R-DOOR-ANNO
 62
     7
100
AcDbLine
 10
7.557675
 20
19.248047
 30
0.0
 11
7.510517
 21
19.140338
 31
0.0
  0
LINE
  5
2A1
100
AcDbEntity
  8
R-DOOR-ANNO
 62
     7
100
AcDbLine
 10
7.473175
 20
19.248047
 30
0.0
 11
7.426016
 21
19.140338
 31
0.0
  0
TEXT
  5
2A2
100
AcDbEntity
  8
R-DOOR-ANNO
 62
     7
100
AcDbText
 10
4.619331
 20
18.852858
 30
0.0
 40
0.354375
  1
LESS 
100
AcDbText
  0
TEXT
  5
2A3
100
AcDbEntity
  8
R-DOOR-ANNO
 62
     7
100
AcDbText
 10
6.290536
 20
18.899133
 30
0.0
 40
0.3375
  1
1
100
AcDbText
  0
TEXT
  5
2A4
100
AcDbEntity
  8
R-DOOR-ANNO
 62
     7
100
AcDbText
 10
5.024091
 20
18.099684
 30
0.0
 40
0.354375
  1
[33mm]
100
AcDbText
  0
LINE
  5
2A5
100
AcDbEntity
  8
R-DOOR-ANNO
 62
     7
100
AcDbLine
 10
6.780179
 20
19.054443
 30
0.0
 11
7.16207
 21
19.054443
 31
0.0
  0
TEXT
  5
2A6
100
AcDbEntity
  8
R-DOOR-ANNO
 62
     7
100
AcDbText
 10
6.814787
 20
18.658017
 30
0.0
 40
0.30375
  1
16
100
AcDbText
  0
TEXT
  5
2A7
100
AcDbEntity
  8
R-DOOR-ANNO
 62
     7
100
AcDbText
 10
3.842841
 20
19.606032
 30
0.0
 40
0.354375
  1
CLEAR OPENING
100
AcDbText
  0
TEXT
  5
2A8
100
AcDbEntity
  8
R-DOOR-ANNO
 62
     7
100
AcDbText
 10
5.201278
 20
20.196657
 30
0.0
 40
0.354375
  1
GLASS 
100
AcDbText
  0
TEXT
  5
2A9
100
AcDbEntity
  8
R-DOOR-ANNO
 62
     7
100
AcDbText
 10
6.867203
 20
19.164267
 30
0.0
 40
0.30375
  1
5
100
AcDbText
  0
DIMENSION
  5
2B7
100
AcDbEntity
  8
R-DOOR-ANNO
100
AcDbDimension
  2
*D16
 10
6.227469
 20
28.603005
 30
0.0
 11
6.227469
 21
29.127755
 31
0.0
 12
0.0
 22
0.544373
 32
0.0
 70
   160
  3
STANDARD
100
AcDbAlignedDimension
 13
9.531296
 23
29.652505
 33
0.0
 14
12.281296
 24
28.603005
 34
0.0
 50
90.0
100
AcDbRotatedDimension
1001
ACAD
1000
DSTYLE
1002
{
1070
   288
1070
     1
1070
   270
1070
     4
1070
    40
1040
2.0
1070
     4
1000
mm
1070
   274
1070
     0
1070
   171
1070
     0
1070
   170
1070
     1
1002
}
  0
DIMENSION
  5
2D5
100
AcDbEntity
  8
R-DOOR-ANNO
100
AcDbDimension
  2
*D17
 10
6.234788
 20
9.111991
 30
0.0
 11
4.374788
 21
7.847768
 31
0.0
 70
   160
  3
STANDARD
100
AcDbAlignedDimension
 13
12.216296
 23
9.348991
 33
0.0
 14
9.531296
 24
9.111991
 34
0.0
 50
90.0
100
AcDbRotatedDimension
1001
ACAD
1000
DSTYLE
1002
{
1070
   288
1070
     1
1070
   270
1070
     4
1070
    40
1040
2.0
1070
     4
1000
mm
1070
   274
1070
     0
1070
   171
1070
     0
1070
   170
1070
     1
1002
}
  0
LINE
  5
2D6
100
AcDbEntity
  8
R-DOOR-ANNO
100
AcDbLine
 10
6.227469
 20
27.883005
 30
0.0
 11
6.227469
 21
21.165032
 31
0.0
  0
LINE
  5
2D7
100
AcDbEntity
  8
R-DOOR-ANNO
100
AcDbLine
 10
6.234788
 20
10.068991
 30
0.0
 11
6.234788
 21
17.604162
 31
0.0
  0
TEXT
  5
2E2
100
AcDbEntity
  8
R-DOOR-ANNO
100
AcDbText
 10
8.549851
 20
4.228063
 30
0.0
 40
0.52
  1
CLAD OR NON CLAD
  7
ROMANS
 72
     1
 11
12.586042
 21
4.228063
 31
0.0
100
AcDbText
  0
INSERT
  5
2F0
100
AcDbEntity
  8
R-DOOR-DETL
100
AcDbBlockReference
  2
A$C10EA48EA
 10
11.719296
 20
9.111991
 30
0.0
  0
LINE
  5
2F4
100
AcDbEntity
  8
R-DOOR-ANNO
100
AcDbLine
 10
13.39721
 20
9.789991
 30
0.0
 11
13.39721
 21
9.111991
 31
0.0
  0
ARC
  5
2F5
100
AcDbEntity
  8
R-DOOR-ANNO
100
AcDbCircle
 10
13.33721
 20
9.789991
 30
0.0
 40
0.06
100
AcDbArc
 50
0.0
 51
90.0
  0
LINE
  5
2F7
100
AcDbEntity
  8
R-DOOR-ANNO
100
AcDbLine
 10
13.135042
 20
9.849991
 30
0.0
 11
13.33721
 21
9.849991
 31
0.0
  0
LINE
  5
2F8
100
AcDbEntity
  8
R-DOOR-ANNO
100
AcDbLine
 10
13.34721
 20
9.111991
 30
0.0
 11
13.34721
 21
9.789991
 31
0.0
  0
LINE
  5
2F9
100
AcDbEntity
  8
R-DOOR-ANNO
100
AcDbLine
 10
13.135042
 20
9.799991
 30
0.0
 11
13.135042
 21
9.849991
 31
0.0
  0
ARC
  5
2FA
100
AcDbEntity
  8
R-DOOR-ANNO
100
AcDbCircle
 10
13.33721
 20
9.789991
 30
0.0
 40
0.01
100
AcDbArc
 50
0.0
 51
90.0
  0
LINE
  5
2FB
100
AcDbEntity
  8
R-DOOR-ANNO
100
AcDbLine
 10
13.33721
 20
9.799991
 30
0.0
 11
13.135042
 21
9.799991
 31
0.0
  0
ENDSEC
  0
SECTION
  2
OBJECTS
  0
DICTIONARY
  5
C
100
AcDbDictionary
  3
ACAD_GROUP
350
D
  3
ACAD_MLINESTYLE
350
1B
  0
DICTIONARY
  5
D
102
{ACAD_REACTORS
330
C
102
}
100
AcDbDictionary
  0
DICTIONARY
  5
1B
102
{ACAD_REACTORS
330
C
102
}
100
AcDbDictionary
  3
STANDARD
350
1C
  0
MLINESTYLE
  5
1C
102
{ACAD_REACTORS
330
1B
102
}
100
AcDbMlineStyle
  2
STANDARD
 70
     0
  3

 62
   256
 51
90.0
 52
90.0
 71
     2
 49
0.5
 62
   256
  6
BYLAYER
 49
-0.5
 62
   256
  6
BYLAYER
  0
ENDSEC
  0
EOF
