  0
SECTION
  2
HEADER
  9
$ACADVER
  1
AC1014
  9
$ACADMAINTVER
 70
     9
  9
$DWGCODEPAGE
  3
ANSI_1252
  9
$INSBASE
 10
0.0
 20
0.0
 30
0.0
  9
$EXTMIN
 10
0.0
 20
0.0
 30
0.0
  9
$EXTMAX
 10
25.693238
 20
34.200072
 30
1.8
  9
$LIMMIN
 10
0.0
 20
0.0
  9
$LIMMAX
 10
25.693238
 20
34.200072
  9
$ORTHOMODE
 70
     1
  9
$REGENMODE
 70
     1
  9
$FILLMODE
 70
     1
  9
$QTEXTMODE
 70
     0
  9
$MIRRTEXT
 70
     1
  9
$DRAGMODE
 70
     2
  9
$LTSCALE
 40
1.0
  9
$OSMODE
 70
    55
  9
$ATTMODE
 70
     1
  9
$TEXTSIZE
 40
0.2
  9
$TRACEWID
 40
0.05
  9
$TEXTSTYLE
  7
STANDARD
  9
$CLAYER
  8
0
  9
$CELTYPE
  6
BYLAYER
  9
$CECOLOR
 62
   256
  9
$CELTSCALE
 40
1.0
  9
$DELOBJ
 70
     1
  9
$DISPSILH
 70
     0
  9
$DIMSCALE
 40
2.0
  9
$DIMASZ
 40
0.18
  9
$DIMEXO
 40
0.0625
  9
$DIMDLI
 40
0.38
  9
$DIMRND
 40
0.0
  9
$DIMDLE
 40
0.0
  9
$DIMEXE
 40
0.18
  9
$DIMTP
 40
0.0
  9
$DIMTM
 40
0.0
  9
$DIMTXT
 40
0.18
  9
$DIMCEN
 40
0.09
  9
$DIMTSZ
 40
0.0
  9
$DIMTOL
 70
     0
  9
$DIMLIM
 70
     0
  9
$DIMTIH
 70
     1
  9
$DIMTOH
 70
     1
  9
$DIMSE1
 70
     0
  9
$DIMSE2
 70
     0
  9
$DIMTAD
 70
     0
  9
$DIMZIN
 70
     0
  9
$DIMBLK
  1

  9
$DIMASO
 70
     1
  9
$DIMSHO
 70
     1
  9
$DIMPOST
  1

  9
$DIMAPOST
  1
mm
  9
$DIMALT
 70
     1
  9
$DIMALTD
 70
     0
  9
$DIMALTF
 40
25.4
  9
$DIMLFAC
 40
1.0
  9
$DIMTOFL
 70
     0
  9
$DIMTVP
 40
0.0
  9
$DIMTIX
 70
     0
  9
$DIMSOXD
 70
     0
  9
$DIMSAH
 70
     0
  9
$DIMBLK1
  1

  9
$DIMBLK2
  1

  9
$DIMSTYLE
  2
STANDARD
  9
$DIMCLRD
 70
     0
  9
$DIMCLRE
 70
     0
  9
$DIMCLRT
 70
     0
  9
$DIMTFAC
 40
1.0
  9
$DIMGAP
 40
0.09
  9
$DIMJUST
 70
     0
  9
$DIMSD1
 70
     0
  9
$DIMSD2
 70
     0
  9
$DIMTOLJ
 70
     1
  9
$DIMTZIN
 70
     0
  9
$DIMALTZ
 70
     0
  9
$DIMALTTZ
 70
     0
  9
$DIMFIT
 70
     3
  9
$DIMUPT
 70
     1
  9
$DIMUNIT
 70
     4
  9
$DIMDEC
 70
     4
  9
$DIMTDEC
 70
     4
  9
$DIMALTU
 70
     2
  9
$DIMALTTD
 70
     0
  9
$DIMTXSTY
  7
STANDARD
  9
$DIMAUNIT
 70
     0
  9
$LUNITS
 70
     2
  9
$LUPREC
 70
     4
  9
$SKETCHINC
 40
0.1
  9
$FILLETRAD
 40
0.5
  9
$AUNITS
 70
     0
  9
$AUPREC
 70
     0
  9
$MENU
  1
.
  9
$ELEVATION
 40
0.0
  9
$PELEVATION
 40
0.0
  9
$THICKNESS
 40
0.0
  9
$LIMCHECK
 70
     0
  9
$BLIPMODE
 70
     0
  9
$CHAMFERA
 40
0.5
  9
$CHAMFERB
 40
0.5
  9
$CHAMFERC
 40
1.0
  9
$CHAMFERD
 40
0.0
  9
$SKPOLY
 70
     0
  9
$TDCREATE
 40
2451963.556799224
  9
$TDUPDATE
 40
2452102.573237107
  9
$TDINDWG
 40
0.0271918750
  9
$TDUSRTIMER
 40
0.0271918750
  9
$USRTIMER
 70
     1
  9
$ANGBASE
 50
0.0
  9
$ANGDIR
 70
     0
  9
$PDMODE
 70
     0
  9
$PDSIZE
 40
0.0
  9
$PLINEWID
 40
0.0
  9
$COORDS
 70
     1
  9
$SPLFRAME
 70
     0
  9
$SPLINETYPE
 70
     6
  9
$SPLINESEGS
 70
     8
  9
$ATTDIA
 70
     0
  9
$ATTREQ
 70
     1
  9
$HANDLING
 70
     1
  9
$HANDSEED
  5
75E
  9
$SURFTAB1
 70
     6
  9
$SURFTAB2
 70
     6
  9
$SURFTYPE
 70
     6
  9
$SURFU
 70
     6
  9
$SURFV
 70
     6
  9
$UCSNAME
  2
SM-TEMP
  9
$UCSORG
 10
0.0
 20
0.0
 30
0.0
  9
$UCSXDIR
 10
1.0
 20
0.0
 30
0.0
  9
$UCSYDIR
 10
0.0
 20
1.0
 30
0.0
  9
$PUCSNAME
  2

  9
$PUCSORG
 10
0.0
 20
0.0
 30
0.0
  9
$PUCSXDIR
 10
1.0
 20
0.0
 30
0.0
  9
$PUCSYDIR
 10
0.0
 20
1.0
 30
0.0
  9
$USERI1
 70
     0
  9
$USERI2
 70
     0
  9
$USERI3
 70
     0
  9
$USERI4
 70
     0
  9
$USERI5
 70
     0
  9
$USERR1
 40
0.0
  9
$USERR2
 40
0.0
  9
$USERR3
 40
0.0
  9
$USERR4
 40
0.0
  9
$USERR5
 40
0.0
  9
$WORLDVIEW
 70
     1
  9
$SHADEDGE
 70
     3
  9
$SHADEDIF
 70
    70
  9
$TILEMODE
 70
     1
  9
$MAXACTVP
 70
    48
  9
$PINSBASE
 10
0.0
 20
0.0
 30
0.0
  9
$PLIMCHECK
 70
     0
  9
$PEXTMIN
 10
1.000000E+20
 20
1.000000E+20
 30
1.000000E+20
  9
$PEXTMAX
 10
-1.000000E+20
 20
-1.000000E+20
 30
-1.000000E+20
  9
$PLIMMIN
 10
0.0
 20
0.0
  9
$PLIMMAX
 10
12.0
 20
9.0
  9
$UNITMODE
 70
     0
  9
$VISRETAIN
 70
     1
  9
$PLINEGEN
 70
     0
  9
$PSLTSCALE
 70
     1
  9
$TREEDEPTH
 70
  3020
  9
$PICKSTYLE
 70
     1
  9
$CMLSTYLE
  2
STANDARD
  9
$CMLJUST
 70
     0
  9
$CMLSCALE
 40
1.0
  9
$PROXYGRAPHICS
 70
     1
  9
$MEASUREMENT
 70
     0
  0
ENDSEC
  0
SECTION
  2
CLASSES
  0
CLASS
  1
HATCH
  2
AcDbHatch
  3
"ACAD_SEDONA"
 90
        0
280
     0
281
     1
  0
CLASS
  1
LWPOLYLINE
  2
AcDbPolyline
  3
"AutoCAD"
 90
        0
280
     0
281
     1
  0
ENDSEC
  0
SECTION
  2
TABLES
  0
TABLE
  2
VPORT
  5
8
100
AcDbSymbolTable
 70
     1
  0
VPORT
  5
756
100
AcDbSymbolTableRecord
100
AcDbViewportTableRecord
  2
*ACTIVE
 70
     0
 10
0.0
 20
0.0
 11
1.0
 21
1.0
 12
12.847095
 22
17.100338
 13
0.0
 23
0.0
 14
0.5
 24
0.5
 15
0.5
 25
0.5
 16
0.0
 26
0.0
 36
1.0
 17
0.0
 27
0.0
 37
0.0
 40
34.563764
 41
1.74735
 42
50.0
 43
0.0
 44
0.0
 50
0.0
 51
0.0
 71
     0
 72
   100
 73
     1
 74
     1
 75
     0
 76
     0
 77
     0
 78
     0
  0
ENDTAB
  0
TABLE
  2
LTYPE
  5
5
100
AcDbSymbolTable
 70
     4
  0
LTYPE
  5
12
100
AcDbSymbolTableRecord
100
AcDbLinetypeTableRecord
  2
BYBLOCK
 70
     0
  3

 72
    65
 73
     0
 40
0.0
  0
LTYPE
  5
13
100
AcDbSymbolTableRecord
100
AcDbLinetypeTableRecord
  2
BYLAYER
 70
     0
  3

 72
    65
 73
     0
 40
0.0
  0
LTYPE
  5
14
100
AcDbSymbolTableRecord
100
AcDbLinetypeTableRecord
  2
CONTINUOUS
 70
     0
  3
Solid line
 72
    65
 73
     0
 40
0.0
  0
LTYPE
  5
4EB
100
AcDbSymbolTableRecord
100
AcDbLinetypeTableRecord
  2
HIDDEN
 70
     0
  3
Hidden __ __ __ __ __ __ __ __ __ __ __ __ __ _
 72
    65
 73
     2
 40
0.375
 49
0.25
 74
     0
 49
-0.125
 74
     0
  0
LTYPE
  5
6A7
100
AcDbSymbolTableRecord
100
AcDbLinetypeTableRecord
  2
DASHED2
 70
     0
  3
_ _ _ _ _ _ _ _ _ _ _ _ _ _ _ _ _ _ _ _ _ _ _ _
 72
    65
 73
     2
 40
0.375
 49
0.25
 74
     0
 49
-0.125
 74
     0
  0
LTYPE
  5
6A8
100
AcDbSymbolTableRecord
100
AcDbLinetypeTableRecord
  2
HIDDEN2
 70
     0
  3
Hidden (.5x) _ _ _ _ _ _ _ _ _ _ _ _ _ _ _ _ _
 72
    65
 73
     2
 40
0.1875
 49
0.125
 74
     0
 49
-0.0625
 74
     0
  0
ENDTAB
  0
TABLE
  2
LAYER
  5
2
100
AcDbSymbolTable
 70
    14
  0
LAYER
  5
E
100
AcDbSymbolTableRecord
100
AcDbLayerTableRecord
  2
0
 70
     0
 62
     7
  6
CONTINUOUS
  0
LAYER
  5
6E
100
AcDbSymbolTableRecord
100
AcDbLayerTableRecord
  2
DEFPOINTS
 70
     0
 62
     7
  6
CONTINUOUS
  0
LAYER
  5
6F
100
AcDbSymbolTableRecord
100
AcDbLayerTableRecord
  2
BOARDER
 70
     0
 62
     7
  6
CONTINUOUS
  0
LAYER
  5
70
100
AcDbSymbolTableRecord
100
AcDbLayerTableRecord
  2
R-DOOR-ANNO
 70
     0
 62
     7
  6
CONTINUOUS
  0
LAYER
  5
71
100
AcDbSymbolTableRecord
100
AcDbLayerTableRecord
  2
R-DOOR-PATT
 70
     0
 62
     5
  6
CONTINUOUS
  0
LAYER
  5
72
100
AcDbSymbolTableRecord
100
AcDbLayerTableRecord
  2
R-DOOR-DETL
 70
     0
 62
     3
  6
CONTINUOUS
  0
LAYER
  5
73
100
AcDbSymbolTableRecord
100
AcDbLayerTableRecord
  2
4-2
 70
     0
 62
     7
  6
CONTINUOUS
  0
LAYER
  5
2EF
100
AcDbSymbolTableRecord
100
AcDbLayerTableRecord
  2
6
 70
     0
 62
     6
  6
CONTINUOUS
  0
LAYER
  5
2F0
100
AcDbSymbolTableRecord
100
AcDbLayerTableRecord
  2
DIMN
 70
     0
 62
     4
  6
CONTINUOUS
  0
LAYER
  5
2F1
100
AcDbSymbolTableRecord
100
AcDbLayerTableRecord
  2
EXTRUSION
 70
     0
 62
     3
  6
CONTINUOUS
  0
LAYER
  5
4EC
100
AcDbSymbolTableRecord
100
AcDbLayerTableRecord
  2
1
 70
     0
 62
     1
  6
CONTINUOUS
  0
LAYER
  5
4ED
100
AcDbSymbolTableRecord
100
AcDbLayerTableRecord
  2
2
 70
     0
 62
     2
  6
HIDDEN
  0
LAYER
  5
4EE
100
AcDbSymbolTableRecord
100
AcDbLayerTableRecord
  2
GREEN
 70
     0
 62
     3
  6
CONTINUOUS
  0
LAYER
  5
6A9
100
AcDbSymbolTableRecord
100
AcDbLayerTableRecord
  2
DIM
 70
     0
 62
     4
  6
CONTINUOUS
  0
ENDTAB
  0
TABLE
  2
STYLE
  5
3
100
AcDbSymbolTable
 70
     2
  0
STYLE
  5
F
100
AcDbSymbolTableRecord
100
AcDbTextStyleTableRecord
  2
STANDARD
 70
     0
 40
0.0
 41
1.0
 50
0.0
 71
     0
 42
0.2
  3
txt
  4

  0
STYLE
  5
74
100
AcDbSymbolTableRecord
100
AcDbTextStyleTableRecord
  2
ROMANS
 70
     0
 40
0.0
 41
1.0
 50
0.0
 71
     0
 42
0.5
  3
romans
  4

  0
ENDTAB
  0
TABLE
  2
VIEW
  5
6
100
AcDbSymbolTable
 70
     0
  0
ENDTAB
  0
TABLE
  2
UCS
  5
7
100
AcDbSymbolTable
 70
     0
  0
ENDTAB
  0
TABLE
  2
APPID
  5
9
100
AcDbSymbolTable
 70
     1
  0
APPID
  5
10
100
AcDbSymbolTableRecord
100
AcDbRegAppTableRecord
  2
ACAD
 70
     0
  0
ENDTAB
  0
TABLE
  2
DIMSTYLE
  5
A
100
AcDbSymbolTable
 70
     2
  0
DIMSTYLE
105
1D
102
{ACAD_REACTORS
330
DC
330
735
330
744
330
755
102
}
100
AcDbSymbolTableRecord
100
AcDbDimStyleTableRecord
  2
STANDARD
 70
     0
  3

  4

  5

  6

  7

 40
1.0
 41
0.18
 42
0.0625
 43
0.38
 44
0.18
 45
0.0
 46
0.0
 47
0.0
 48
0.0
140
0.18
141
0.09
142
0.0
143
25.4
144
1.0
145
0.0
146
1.0
147
0.09
 71
     0
 72
     0
 73
     1
 74
     1
 75
     0
 76
     0
 77
     0
 78
     0
170
     0
171
     2
172
     0
173
     0
174
     0
175
     0
176
     0
177
     0
178
     0
270
     6
271
     4
272
     4
273
     2
274
     2
340
F
275
     0
280
     0
281
     0
282
     0
283
     1
284
     0
285
     0
286
     0
287
     3
288
     0
  0
DIMSTYLE
105
1B5
100
AcDbSymbolTableRecord
100
AcDbDimStyleTableRecord
  2
ROMANS
 70
     0
  3

  4

  5

  6

  7

 40
2.0
 41
0.18
 42
0.0625
 43
0.38
 44
0.18
 45
0.0
 46
0.0
 47
0.0
 48
0.0
140
0.18
141
0.0
142
0.0
143
25.4
144
1.0
145
0.0
146
1.0
147
0.09
 71
     0
 72
     0
 73
     1
 74
     1
 75
     0
 76
     0
 77
     0
 78
     0
170
     0
171
     2
172
     0
173
     0
174
     0
175
     0
176
     0
177
     0
178
     0
270
     2
271
     4
272
     4
273
     2
274
     2
340
74
275
     0
280
     0
281
     0
282
     0
283
     1
284
     0
285
     0
286
     0
287
     3
288
     0
  0
ENDTAB
  0
TABLE
  2
BLOCK_RECORD
  5
1
100
AcDbSymbolTable
 70
    46
  0
BLOCK_RECORD
  5
18
100
AcDbSymbolTableRecord
100
AcDbBlockTableRecord
  2
*MODEL_SPACE
  0
BLOCK_RECORD
  5
15
100
AcDbSymbolTableRecord
100
AcDbBlockTableRecord
  2
*PAPER_SPACE
  0
BLOCK_RECORD
  5
20
100
AcDbSymbolTableRecord
100
AcDbBlockTableRecord
  2
A$C2189253D
  0
BLOCK_RECORD
  5
24
100
AcDbSymbolTableRecord
100
AcDbBlockTableRecord
  2
A$C21405640
  0
BLOCK_RECORD
  5
2C
100
AcDbSymbolTableRecord
100
AcDbBlockTableRecord
  2
_DOTSMALL
  0
BLOCK_RECORD
  5
33
100
AcDbSymbolTableRecord
100
AcDbBlockTableRecord
  2
S
  0
BLOCK_RECORD
  5
39
100
AcDbSymbolTableRecord
100
AcDbBlockTableRecord
  2
*D4
  0
BLOCK_RECORD
  5
46
100
AcDbSymbolTableRecord
100
AcDbBlockTableRecord
  2
*D5
  0
BLOCK_RECORD
  5
54
100
AcDbSymbolTableRecord
100
AcDbBlockTableRecord
  2
*D6
  0
BLOCK_RECORD
  5
61
100
AcDbSymbolTableRecord
100
AcDbBlockTableRecord
  2
*D7
  0
BLOCK_RECORD
  5
75
100
AcDbSymbolTableRecord
100
AcDbBlockTableRecord
  2
A$C413D41A7
  0
BLOCK_RECORD
  5
13C
100
AcDbSymbolTableRecord
100
AcDbBlockTableRecord
  2
*D10
  0
BLOCK_RECORD
  5
1A9
100
AcDbSymbolTableRecord
100
AcDbBlockTableRecord
  2
A$C6BE867F4
  0
BLOCK_RECORD
  5
1B1
100
AcDbSymbolTableRecord
100
AcDbBlockTableRecord
  2
A$C0E897680
  0
BLOCK_RECORD
  5
1B6
100
AcDbSymbolTableRecord
100
AcDbBlockTableRecord
  2
A$C60D73A4C
  0
BLOCK_RECORD
  5
1C3
100
AcDbSymbolTableRecord
100
AcDbBlockTableRecord
  2
A$C74654F65
  0
BLOCK_RECORD
  5
1C7
100
AcDbSymbolTableRecord
100
AcDbBlockTableRecord
  2
A$C5FA07A05
  0
BLOCK_RECORD
  5
1CB
100
AcDbSymbolTableRecord
100
AcDbBlockTableRecord
  2
A$C46F93324
  0
BLOCK_RECORD
  5
2BA
100
AcDbSymbolTableRecord
100
AcDbBlockTableRecord
  2
*D20
  0
BLOCK_RECORD
  5
2C7
100
AcDbSymbolTableRecord
100
AcDbBlockTableRecord
  2
*D21
  0
BLOCK_RECORD
  5
2D5
100
AcDbSymbolTableRecord
100
AcDbBlockTableRecord
  2
*D22
  0
BLOCK_RECORD
  5
2E2
100
AcDbSymbolTableRecord
100
AcDbBlockTableRecord
  2
*D23
  0
BLOCK_RECORD
  5
2F2
100
AcDbSymbolTableRecord
100
AcDbBlockTableRecord
  2
A$C59AD7358
  0
BLOCK_RECORD
  5
4EF
100
AcDbSymbolTableRecord
100
AcDbBlockTableRecord
  2
A$C0F445EDA
  0
BLOCK_RECORD
  5
5FF
100
AcDbSymbolTableRecord
100
AcDbBlockTableRecord
  2
*D26
  0
BLOCK_RECORD
  5
60C
100
AcDbSymbolTableRecord
100
AcDbBlockTableRecord
  2
*D27
  0
BLOCK_RECORD
  5
619
100
AcDbSymbolTableRecord
100
AcDbBlockTableRecord
  2
*D28
  0
BLOCK_RECORD
  5
626
100
AcDbSymbolTableRecord
100
AcDbBlockTableRecord
  2
*D29
  0
BLOCK_RECORD
  5
633
100
AcDbSymbolTableRecord
100
AcDbBlockTableRecord
  2
*D30
  0
BLOCK_RECORD
  5
640
100
AcDbSymbolTableRecord
100
AcDbBlockTableRecord
  2
*D31
  0
BLOCK_RECORD
  5
64D
100
AcDbSymbolTableRecord
100
AcDbBlockTableRecord
  2
*D32
  0
BLOCK_RECORD
  5
656
100
AcDbSymbolTableRecord
100
AcDbBlockTableRecord
  2
*D33
  0
BLOCK_RECORD
  5
65F
100
AcDbSymbolTableRecord
100
AcDbBlockTableRecord
  2
*D34
  0
BLOCK_RECORD
  5
668
100
AcDbSymbolTableRecord
100
AcDbBlockTableRecord
  2
*D35
  0
BLOCK_RECORD
  5
675
100
AcDbSymbolTableRecord
100
AcDbBlockTableRecord
  2
*D36
  0
BLOCK_RECORD
  5
682
100
AcDbSymbolTableRecord
100
AcDbBlockTableRecord
  2
*D37
  0
BLOCK_RECORD
  5
690
100
AcDbSymbolTableRecord
100
AcDbBlockTableRecord
  2
*D38
  0
BLOCK_RECORD
  5
69E
100
AcDbSymbolTableRecord
100
AcDbBlockTableRecord
  2
*D39
  0
BLOCK_RECORD
  5
6AA
100
AcDbSymbolTableRecord
100
AcDbBlockTableRecord
  2
A$C49867FE7
  0
BLOCK_RECORD
  5
70B
100
AcDbSymbolTableRecord
100
AcDbBlockTableRecord
  2
A$C433421F4
  0
BLOCK_RECORD
  5
718
100
AcDbSymbolTableRecord
100
AcDbBlockTableRecord
  2
A$C7D362BF5
  0
BLOCK_RECORD
  5
728
100
AcDbSymbolTableRecord
100
AcDbBlockTableRecord
  2
*D43
  0
BLOCK_RECORD
  5
737
100
AcDbSymbolTableRecord
100
AcDbBlockTableRecord
  2
*D44
  0
BLOCK_RECORD
  5
747
100
AcDbSymbolTableRecord
100
AcDbBlockTableRecord
  2
*D45
  0
ENDTAB
  0
ENDSEC
  0
SECTION
  2
BLOCKS
  0
BLOCK
  5
19
100
AcDbEntity
  8
0
100
AcDbBlockBegin
  2
*MODEL_SPACE
 70
     0
 10
0.0
 20
0.0
 30
0.0
  3
*MODEL_SPACE
  1

  0
ENDBLK
  5
1A
100
AcDbEntity
  8
0
100
AcDbBlockEnd
  0
BLOCK
  5
16
100
AcDbEntity
 67
     1
  8
0
100
AcDbBlockBegin
  2
*PAPER_SPACE
 70
     0
 10
0.0
 20
0.0
 30
0.0
  3
*PAPER_SPACE
  1

  0
ENDBLK
  5
17
100
AcDbEntity
 67
     1
  8
0
100
AcDbBlockEnd
  0
BLOCK
  5
22
100
AcDbEntity
  8
0
100
AcDbBlockBegin
  2
A$C2189253D
 70
     0
 10
0.0
 20
0.0
 30
0.0
  3
A$C2189253D
  1

  0
HATCH
  5
21
100
AcDbEntity
  8
BOARDER
  6
CONTINUOUS
 62
     4
100
AcDbHatch
 10
0.0
 20
0.0
 30
0.0
210
0.0
220
0.0
230
1.0
  2
ANSI31
 70
     0
 71
     0
 91
        3
 92
        7
 72
     1
 73
     1
 93
        8
 10
0.1273646403742585
 20
0.2547293417921961
 42
1.0
 10
0.1273646403742585
 20
0.0000000027943585
 42
0.0
 10
0.2547293098731842
 20
0.000000002794359
 42
0.0
 10
0.2547293098731842
 20
0.1198050709874456
 42
0.0
 10
0.1273646403742585
 20
0.1198050709874452
 42
-1.0
 10
0.1273646403742585
 20
0.1349242735991094
 42
0.0
 10
0.2547293098731842
 20
0.1349242735991099
 42
0.0
 10
0.2547293098731842
 20
0.2547293417921961
 42
0.0
 97
        0
 92
        7
 72
     1
 73
     1
 93
       12
 10
0.2729453093314724
 20
0.2547293417921956
 42
0.0
 10
0.2729453093314742
 20
0.0000000027943585
 42
0.0
 10
0.3927503775245586
 20
0.0000000027943585
 42
0.0
 10
0.3927503775245586
 20
0.1273646722932775
 42
-1.0
 10
0.4078695801362234
 20
0.1273646722932775
 42
0.0
 10
0.4078695801362234
 20
0.0000000027943581
 42
0.0
 10
0.5276746483293114
 20
0.0000000027943576
 42
0.0
 10
0.5276746483293114
 20
0.1106172266293384
 42
0.4142135623730797
 10
0.5109272026653731
 20
0.1273646722932775
 42
0.4142135623730875
 10
0.5276746483293114
 20
0.1441121179572162
 42
0.0
 10
0.5276746483293114
 20
0.2379818961282574
 42
0.4142135623731106
 10
0.5109272026653713
 20
0.2547293417921961
 42
0.0
 97
        0
 92
        7
 72
     0
 73
     1
 93
        6
 10
0.5458906477876049
 20
0.2547293417921961
 10
0.5458906477876031
 20
0.0000000027943576
 10
0.8006199867854384
 20
0.0000000027943581
 10
0.8006199867854402
 20
0.127364672293278
 10
0.6732553172865199
 20
0.1273646722932771
 10
0.6732553172865181
 20
0.2547293417921961
 97
        0
 75
     0
 76
     1
 52
0.0
 41
0.040373
 77
     0
 78
     1
 53
45.0
 43
-7.406223
 44
-1.968858
 45
-0.0035684948455219
 46
0.0035684948455219
 79
     0
 47
0.0009
 98
        3
 10
0.137804
 20
0.196439
 10
0.137804
 20
0.196439
 10
0.137804
 20
0.196439
  0
ENDBLK
  5
23
100
AcDbEntity
  8
0
100
AcDbBlockEnd
  0
BLOCK
  5
2A
100
AcDbEntity
  8
0
100
AcDbBlockBegin
  2
A$C21405640
 70
     0
 10
0.0
 20
0.0
 30
0.0
  3
A$C21405640
  1

  0
MTEXT
  5
25
100
AcDbEntity
  8
0
100
AcDbMText
 10
0.504549
 20
2.99683
 30
0.0
 40
0.614073
 41
19.242589
 71
     1
 72
     5
  1
\fArial|b0|i1|c0|p34;Phone Orders (800) 421-6144\PFax Orders     (800) 262-3299\PWWW.CRLAURENCE.COM
  0
MTEXT
  5
26
100
AcDbEntity
  8
0
100
AcDbMText
 10
7.702431
 20
6.455969
 30
0.0
 40
0.876824
 41
21.937261
 71
     1
 72
     5
  1
\fArial|b1|i0|c0|p34;DOOR RAIL SYSTEM
  0
LWPOLYLINE
  5
27
100
AcDbEntity
  8
0
100
AcDbPolyline
 90
        2
 70
     0
 43
0.098252
 10
0.440527
 20
5.243578
 10
19.707511
 20
5.243578
  0
MTEXT
  5
28
100
AcDbEntity
  8
0
100
AcDbMText
 10
0.488738
 20
4.418164
 30
0.0
 40
0.776802
 41
19.420041
 71
     1
 72
     5
  1
\fArial|b1|i1|c0|p34;C.R. Laurence Architectural Products
  0
INSERT
  5
29
100
AcDbEntity
  8
0
 62
     7
100
AcDbBlockReference
  2
A$C2189253D
 10
0.460151
 20
5.536767
 30
0.0
 41
8.113806
 42
8.113806
 43
8.113806
  0
ENDBLK
  5
2B
100
AcDbEntity
  8
0
100
AcDbBlockEnd
  0
BLOCK
  5
31
100
AcDbEntity
  8
0
100
AcDbBlockBegin
  2
_DOTSMALL
 70
     0
 10
0.0
 20
0.0
 30
0.0
  3
_DOTSMALL
  1

  0
POLYLINE
  5
2D
100
AcDbEntity
  8
0
  6
BYBLOCK
 62
     0
100
AcDb2dPolyline
 66
     1
 10
0.0
 20
0.0
 30
0.0
 70
     1
 40
0.5
 41
0.5
  0
VERTEX
  5
2E
100
AcDbEntity
  8
0
  6
BYBLOCK
 62
     0
100
AcDbVertex
100
AcDb2dVertex
 10
-0.0625
 20
0.0
 30
0.0
 42
1.0
  0
VERTEX
  5
2F
100
AcDbEntity
  8
0
  6
BYBLOCK
 62
     0
100
AcDbVertex
100
AcDb2dVertex
 10
0.0625
 20
0.0
 30
0.0
 42
1.0
  0
SEQEND
  5
30
100
AcDbEntity
  8
0
  6
BYBLOCK
 62
     0
  0
ENDBLK
  5
32
100
AcDbEntity
  8
0
100
AcDbBlockEnd
  0
BLOCK
  5
37
100
AcDbEntity
  8
0
100
AcDbBlockBegin
  2
S
 70
     0
 10
0.0
 20
0.0
 30
0.0
  3
S
  1

  0
LEADER
  5
34
100
AcDbEntity
  8
R-DOOR-ANNO
  6
CONTINUOUS
100
AcDbLeader
  3
STANDARD
 40
0.36
 41
4.097143
 76
     2
 10
-0.619047
 20
0.375
 30
0.0
 10
-4.170291
 20
-1.218199
 30
0.0
 77
   256
211
-1.0
221
0.0
231
0.0
213
0.0199999999999996
223
0.0
233
0.0
1001
ACAD
1000
DSTYLE
1002
{
1070
   173
1070
     1
1070
     6
1000
_DOTSMALL
1070
    41
1040
0.5
1002
}
  0
MTEXT
  5
35
100
AcDbEntity
  8
R-DOOR-ANNO
  6
CONTINUOUS
100
AcDbMText
 10
-6.659506
 20
-1.189862
 30
0.0
 40
0.36
 41
0.0
 71
     4
 72
     1
  1
SADDLE
  7
ROMANS
  0
LWPOLYLINE
  5
36
100
AcDbEntity
  8
R-DOOR-ANNO
  6
CONTINUOUS
100
AcDbPolyline
 90
        2
 70
     0
 43
0.0
 10
-4.170291
 20
-1.218199
 10
-4.670291
 20
-1.218199
  0
ENDBLK
  5
38
100
AcDbEntity
  8
0
100
AcDbBlockEnd
  0
BLOCK
  5
44
100
AcDbEntity
  8
0
100
AcDbBlockBegin
  2
*D4
 70
     1
 10
0.0
 20
0.0
 30
0.0
  3
*D4
  1

  0
LINE
  5
3A
100
AcDbEntity
  8
0
  6
BYBLOCK
 62
     0
100
AcDbLine
 10
15.873044
 20
26.969568
 30
0.0
 11
22.382031
 21
26.969568
 31
0.0
  0
LINE
  5
3B
100
AcDbEntity
  8
0
  6
BYBLOCK
 62
     0
100
AcDbLine
 10
15.852345
 20
9.907943
 30
0.0
 11
22.382031
 21
9.907943
 31
0.0
  0
LINE
  5
3C
100
AcDbEntity
  8
0
  6
BYBLOCK
 62
     0
100
AcDbLine
 10
22.022031
 20
26.609568
 30
0.0
 11
22.022031
 21
18.798755
 31
0.0
  0
LINE
  5
3D
100
AcDbEntity
  8
0
  6
BYBLOCK
 62
     0
100
AcDbLine
 10
22.022031
 20
10.267943
 30
0.0
 11
22.022031
 21
18.078755
 31
0.0
  0
SOLID
  5
3E
100
AcDbEntity
  8
0
  6
BYBLOCK
 62
     0
100
AcDbTrace
 10
21.962031
 20
26.609568
 30
0.0
 11
22.082031
 21
26.609568
 31
0.0
 12
22.022031
 22
26.969568
 32
0.0
 13
22.022031
 23
26.969568
 33
0.0
  0
SOLID
  5
3F
100
AcDbEntity
  8
0
  6
BYBLOCK
 62
     0
100
AcDbTrace
 10
21.962031
 20
10.267943
 30
0.0
 11
22.082031
 21
10.267943
 31
0.0
 12
22.022031
 22
9.907943
 32
0.0
 13
22.022031
 23
9.907943
 33
0.0
  0
MTEXT
  5
40
100
AcDbEntity
  8
0
  6
BYBLOCK
 62
     0
100
AcDbMText
 10
22.022031
 20
18.438755
 30
0.0
 40
0.36
 41
0.0
 71
     5
 72
     1
  1
\A1;CLEAR OPENING
  0
POINT
  5
41
100
AcDbEntity
  8
DEFPOINTS
  6
BYBLOCK
 62
     0
100
AcDbPoint
 10
15.748044
 20
26.969568
 30
0.0
  0
POINT
  5
42
100
AcDbEntity
  8
DEFPOINTS
  6
BYBLOCK
 62
     0
100
AcDbPoint
 10
15.727345
 20
9.907943
 30
0.0
  0
POINT
  5
43
100
AcDbEntity
  8
DEFPOINTS
  6
BYBLOCK
 62
     0
100
AcDbPoint
 10
22.022031
 20
9.907943
 30
0.0
  0
ENDBLK
  5
45
100
AcDbEntity
  8
0
100
AcDbBlockEnd
  0
BLOCK
  5
52
100
AcDbEntity
  8
0
100
AcDbBlockBegin
  2
*D5
 70
     1
 10
0.0
 20
0.0
 30
0.0
  3
*D5
  1

  0
LINE
  5
47
100
AcDbEntity
  8
0
  6
BYBLOCK
 62
     0
100
AcDbLine
 10
12.373044
 20
25.920068
 30
0.0
 11
5.342314
 21
25.920068
 31
0.0
  0
LINE
  5
48
100
AcDbEntity
  8
0
  6
BYBLOCK
 62
     0
100
AcDbLine
 10
10.02221
 20
26.969568
 30
0.0
 11
5.342314
 21
26.969568
 31
0.0
  0
LINE
  5
49
100
AcDbEntity
  8
0
  6
BYBLOCK
 62
     0
100
AcDbLine
 10
5.702314
 20
25.560068
 30
0.0
 11
5.702314
 21
25.200068
 31
0.0
  0
LINE
  5
4A
100
AcDbEntity
  8
0
  6
BYBLOCK
 62
     0
100
AcDbLine
 10
5.702314
 20
27.329568
 30
0.0
 11
5.702314
 21
27.689568
 31
0.0
  0
LINE
  5
4B
100
AcDbEntity
  8
0
  6
BYBLOCK
 62
     0
100
AcDbLine
 10
5.702314
 20
27.689568
 30
0.0
 11
6.062314
 21
27.689568
 31
0.0
  0
SOLID
  5
4C
100
AcDbEntity
  8
0
  6
BYBLOCK
 62
     0
100
AcDbTrace
 10
5.642314
 20
25.560068
 30
0.0
 11
5.762314
 21
25.560068
 31
0.0
 12
5.702314
 22
25.920068
 32
0.0
 13
5.702314
 23
25.920068
 33
0.0
  0
SOLID
  5
4D
100
AcDbEntity
  8
0
  6
BYBLOCK
 62
     0
100
AcDbTrace
 10
5.642314
 20
27.329568
 30
0.0
 11
5.762314
 21
27.329568
 31
0.0
 12
5.702314
 22
26.969568
 32
0.0
 13
5.702314
 23
26.969568
 33
0.0
  0
MTEXT
  5
4E
100
AcDbEntity
  8
0
  6
BYBLOCK
 62
     0
100
AcDbMText
 10
7.142314
 20
27.689568
 30
0.0
 40
0.36
 41
0.0
 71
     5
 72
     1
  1
\A1;1 1/16\P[27mm]
  0
POINT
  5
4F
100
AcDbEntity
  8
DEFPOINTS
  6
BYBLOCK
 62
     0
100
AcDbPoint
 10
12.498044
 20
25.920068
 30
0.0
  0
POINT
  5
50
100
AcDbEntity
  8
DEFPOINTS
  6
BYBLOCK
 62
     0
100
AcDbPoint
 10
10.14721
 20
26.969568
 30
0.0
  0
POINT
  5
51
100
AcDbEntity
  8
DEFPOINTS
  6
BYBLOCK
 62
     0
100
AcDbPoint
 10
5.702314
 20
26.969568
 30
0.0
  0
ENDBLK
  5
53
100
AcDbEntity
  8
0
100
AcDbBlockEnd
  0
BLOCK
  5
5F
100
AcDbEntity
  8
0
100
AcDbBlockBegin
  2
*D6
 70
     1
 10
0.0
 20
0.0
 30
0.0
  3
*D6
  1

  0
LINE
  5
55
100
AcDbEntity
  8
0
  6
BYBLOCK
 62
     0
100
AcDbLine
 10
12.21833
 20
25.917369
 30
0.0
 11
5.3426
 21
25.917369
 31
0.0
  0
LINE
  5
56
100
AcDbEntity
  8
0
  6
BYBLOCK
 62
     0
100
AcDbLine
 10
12.270428
 20
15.534794
 30
0.0
 11
5.3426
 21
15.534794
 31
0.0
  0
LINE
  5
57
100
AcDbEntity
  8
0
  6
BYBLOCK
 62
     0
100
AcDbLine
 10
5.7026
 20
25.557369
 30
0.0
 11
5.7026
 21
21.986081
 31
0.0
  0
LINE
  5
58
100
AcDbEntity
  8
0
  6
BYBLOCK
 62
     0
100
AcDbLine
 10
5.7026
 20
15.894794
 30
0.0
 11
5.7026
 21
19.466081
 31
0.0
  0
SOLID
  5
59
100
AcDbEntity
  8
0
  6
BYBLOCK
 62
     0
100
AcDbTrace
 10
5.6426
 20
25.557369
 30
0.0
 11
5.7626
 21
25.557369
 31
0.0
 12
5.7026
 22
25.917369
 32
0.0
 13
5.7026
 23
25.917369
 33
0.0
  0
SOLID
  5
5A
100
AcDbEntity
  8
0
  6
BYBLOCK
 62
     0
100
AcDbTrace
 10
5.6426
 20
15.894794
 30
0.0
 11
5.7626
 21
15.894794
 31
0.0
 12
5.7026
 22
15.534794
 32
0.0
 13
5.7026
 23
15.534794
 33
0.0
  0
MTEXT
  5
5B
100
AcDbEntity
  8
0
  6
BYBLOCK
 62
     0
100
AcDbMText
 10
5.7026
 20
20.726081
 30
0.0
 40
0.36
 41
0.0
 71
     5
 72
     1
  1
\A1;GLASS\PCLEAR OPENING\PLESS 6 11/16\P[170mm]
  0
POINT
  5
5C
100
AcDbEntity
  8
DEFPOINTS
  6
BYBLOCK
 62
     0
100
AcDbPoint
 10
12.34333
 20
25.917369
 30
0.0
  0
POINT
  5
5D
100
AcDbEntity
  8
DEFPOINTS
  6
BYBLOCK
 62
     0
100
AcDbPoint
 10
12.395428
 20
15.534794
 30
0.0
  0
POINT
  5
5E
100
AcDbEntity
  8
DEFPOINTS
  6
BYBLOCK
 62
     0
100
AcDbPoint
 10
5.7026
 20
15.534794
 30
0.0
  0
ENDBLK
  5
60
100
AcDbEntity
  8
0
100
AcDbBlockEnd
  0
BLOCK
  5
6C
100
AcDbEntity
  8
0
100
AcDbBlockBegin
  2
*D7
 70
     1
 10
0.0
 20
0.0
 30
0.0
  3
*D7
  1

  0
LINE
  5
62
100
AcDbEntity
  8
0
  6
BYBLOCK
 62
     0
100
AcDbLine
 10
12.145428
 20
15.534794
 30
0.0
 11
5.346085
 21
15.534794
 31
0.0
  0
LINE
  5
63
100
AcDbEntity
  8
0
  6
BYBLOCK
 62
     0
100
AcDbLine
 10
9.602345
 20
9.907943
 30
0.0
 11
5.346085
 21
9.907943
 31
0.0
  0
LINE
  5
64
100
AcDbEntity
  8
0
  6
BYBLOCK
 62
     0
100
AcDbLine
 10
5.706085
 20
15.174794
 30
0.0
 11
5.706085
 21
13.381368
 31
0.0
  0
LINE
  5
65
100
AcDbEntity
  8
0
  6
BYBLOCK
 62
     0
100
AcDbLine
 10
5.706085
 20
10.267943
 30
0.0
 11
5.706085
 21
12.061368
 31
0.0
  0
SOLID
  5
66
100
AcDbEntity
  8
0
  6
BYBLOCK
 62
     0
100
AcDbTrace
 10
5.646085
 20
15.174794
 30
0.0
 11
5.766085
 21
15.174794
 31
0.0
 12
5.706085
 22
15.534794
 32
0.0
 13
5.706085
 23
15.534794
 33
0.0
  0
SOLID
  5
67
100
AcDbEntity
  8
0
  6
BYBLOCK
 62
     0
100
AcDbTrace
 10
5.646085
 20
10.267943
 30
0.0
 11
5.766085
 21
10.267943
 31
0.0
 12
5.706085
 22
9.907943
 32
0.0
 13
5.706085
 23
9.907943
 33
0.0
  0
MTEXT
  5
68
100
AcDbEntity
  8
0
  6
BYBLOCK
 62
     0
100
AcDbMText
 10
5.706085
 20
12.721368
 30
0.0
 40
0.36
 41
0.0
 71
     5
 72
     1
  1
\A1;5 5/8\P[143mm]
  0
POINT
  5
69
100
AcDbEntity
  8
DEFPOINTS
  6
BYBLOCK
 62
     0
100
AcDbPoint
 10
12.270428
 20
15.534794
 30
0.0
  0
POINT
  5
6A
100
AcDbEntity
  8
DEFPOINTS
  6
BYBLOCK
 62
     0
100
AcDbPoint
 10
9.727345
 20
9.907943
 30
0.0
  0
POINT
  5
6B
100
AcDbEntity
  8
DEFPOINTS
  6
BYBLOCK
 62
     0
100
AcDbPoint
 10
5.706085
 20
9.907943
 30
0.0
  0
ENDBLK
  5
6D
100
AcDbEntity
  8
0
100
AcDbBlockEnd
  0
BLOCK
  5
CA
100
AcDbEntity
  8
0
100
AcDbBlockBegin
  2
A$C413D41A7
 70
     0
 10
0.0
 20
0.0
 30
0.0
  3
A$C413D41A7
  1

  0
DIMENSION
  5
76
100
AcDbEntity
  8
R-DOOR-ANNO
100
AcDbDimension
  2
*D6
 10
5.7026
 20
15.534794
 30
0.0
 11
5.7026
 21
20.726081
 31
0.0
 12
0.0
 22
0.0
 32
0.0
  1
GLASS\PCLEAR OPENING\PLESS 6 11/16\P[170mm]
  3
STANDARD
100
AcDbAlignedDimension
 13
12.34333
 23
25.917369
 33
0.0
 14
12.395428
 24
15.534794
 34
0.0
 50
90.0
100
AcDbRotatedDimension
1001
ACAD
1000
DSTYLE
1002
{
1070
    40
1040
2.0
1002
}
  0
DIMENSION
  5
77
100
AcDbEntity
  8
R-DOOR-ANNO
100
AcDbDimension
  2
*D4
 10
22.022031
 20
9.907943
 30
0.0
 11
22.022031
 21
18.438755
 31
0.0
 12
0.0
 22
0.0
 32
0.0
  1
CLEAR OPENING
  3
STANDARD
100
AcDbAlignedDimension
 13
15.748044
 23
26.969568
 33
0.0
 14
15.727345
 24
9.907943
 34
0.0
 50
90.0
100
AcDbRotatedDimension
1001
ACAD
1000
DSTYLE
1002
{
1070
    40
1040
2.0
1002
}
  0
LWPOLYLINE
  5
78
100
AcDbEntity
  8
R-DOOR-ANNO
100
AcDbPolyline
 90
        4
 70
     1
 43
0.175785
 10
25.78113
 20
34.287965
 10
0.087893
 20
34.287965
 10
0.087893
 20
0.087893
 10
25.78113
 20
0.087893
  0
TEXT
  5
79
100
AcDbEntity
  8
R-DOOR-ANNO
100
AcDbText
 10
8.657998
 20
4.595552
 30
0.0
 40
0.52
  1
CLAD OR NON-CLAD
  7
ROMANS
 72
     1
 11
12.756093
 21
4.595552
 31
0.0
100
AcDbText
  0
DIMENSION
  5
7A
100
AcDbEntity
  8
R-DOOR-ANNO
100
AcDbDimension
  2
*D7
 10
5.706085
 20
9.907943
 30
0.0
 11
5.706085
 21
12.721368
 31
0.0
 12
0.0
 22
0.0
 32
0.0
  1
<>\P[143mm]
  3
STANDARD
100
AcDbAlignedDimension
 13
12.270428
 23
15.534794
 33
0.0
 14
9.727345
 24
9.907943
 34
0.0
 50
90.0
100
AcDbRotatedDimension
1001
ACAD
1000
DSTYLE
1002
{
1070
    40
1040
2.0
1002
}
  0
LINE
  5
7B
100
AcDbEntity
  8
4-2
  6
CONTINUOUS
 62
     4
100
AcDbLine
 10
9.727345
 20
9.907943
 30
0.0
 11
15.727345
 21
9.907943
 31
0.0
  0
HATCH
  5
7C
100
AcDbEntity
  8
R-DOOR-PATT
  6
CONTINUOUS
 62
     5
100
AcDbHatch
 10
0.0
 20
0.0
 30
0.0
210
0.0
220
0.0
230
1.0
  2
ANSI31
 70
     0
 71
     0
 91
        1
 92
        7
 72
     0
 73
     1
 93
        4
 10
15.7273445277423
 20
9.907942804055902
 10
9.727344527742332
 20
9.907942804055902
 10
9.727344527742332
 20
7.907942804055902
 10
15.7273445277423
 20
7.907942804055902
 97
        0
 75
     0
 76
     1
 52
180.0
 41
2.5
 77
     0
 78
     1
 53
225.0
 43
-301.835818
 44
-20.376334
 45
0.2209708691207961
 46
-0.2209708691207961
 79
     0
 47
0.011976
 98
        1
 10
12.454543
 20
9.098849
  0
INSERT
  5
7D
100
AcDbEntity
  8
R-DOOR-DETL
100
AcDbBlockReference
  2
S
 10
12.731533
 20
9.964562
 30
0.0
  0
TEXT
  5
7E
100
AcDbEntity
  8
R-DOOR-ANNO
100
AcDbText
 10
9.431094
 20
6.873714
 30
0.0
 40
0.52
  1
U-CHANNEL TOP
  7
ROMANS
 72
     1
 11
12.773952
 21
6.873714
 31
0.0
100
AcDbText
  0
TEXT
  5
7F
100
AcDbEntity
  8
R-DOOR-ANNO
100
AcDbText
 10
6.986569
 20
5.417229
 30
0.0
 40
0.52
  1
AND SETTING BLOCK BOTTOM
  7
ROMANS
 72
     1
 11
12.756093
 21
5.417229
 31
0.0
100
AcDbText
  0
TEXT
  5
80
100
AcDbEntity
  8
R-DOOR-ANNO
100
AcDbText
 10
3.61895
 20
6.148012
 30
0.0
 40
0.52
  1
6" SQUARE SIDELITE RAIL WITH 3/4" SADDLE
  7
ROMANS
 72
     1
 11
12.756093
 21
6.148012
 31
0.0
100
AcDbText
  0
INSERT
  5
81
100
AcDbEntity
  8
R-DOOR-ANNO
100
AcDbBlockReference
  2
A$C21405640
 10
0.348297
 20
0.439707
 30
0.0
 41
0.5
 42
0.5
 43
0.5
  0
TEXT
  5
82
100
AcDbEntity
  8
R-DOOR-ANNO
100
AcDbText
 10
21.599123
 20
0.587893
 30
0.0
 40
0.52
  1
STYLE 31
  7
ROMANS
100
AcDbText
  0
MTEXT
  5
83
102
{ACAD_REACTORS
330
8F
102
}
100
AcDbEntity
  8
R-DOOR-ANNO
  6
CONTINUOUS
100
AcDbMText
 10
15.72052
 20
17.015336
 30
0.0
 40
0.36
 41
0.0
 71
     4
 72
     1
  1
SETTING BLOCK
  7
ROMANS
  0
MTEXT
  5
84
102
{ACAD_REACTORS
330
85
102
}
100
AcDbEntity
  8
R-DOOR-ANNO
  6
CONTINUOUS
100
AcDbMText
 10
16.094104
 20
13.479664
 30
0.0
 40
0.36
 41
0.0
 71
     4
 72
     1
  1
CLADDING
  7
ROMANS
  0
LEADER
  5
85
100
AcDbEntity
  8
R-DOOR-ANNO
  6
CONTINUOUS
100
AcDbLeader
  3
STANDARD
 73
     0
 74
     0
 75
     1
 40
0.36
 41
2.451429
 76
     3
 10
13.694617
 20
12.136545
 30
0.0
 10
15.484104
 20
13.479664
 30
0.0
 10
15.984104
 20
13.479664
 30
0.0
 77
   256
340
84
213
-0.0199999999999996
223
0.0
233
0.0
1001
ACAD
1000
DSTYLE
1002
{
1070
   173
1070
     1
1070
     6
1000
_DOTSMALL
1070
    41
1040
0.5
1002
}
  0
LWPOLYLINE
  5
86
100
AcDbEntity
  8
R-DOOR-DETL
  6
CONTINUOUS
100
AcDbPolyline
 90
       19
 70
     1
 43
0.0
 10
11.89315
 20
13.899239
 10
11.89315
 20
12.207223
 42
0.414214
 10
11.95565
 20
12.144723
 10
12.720142
 20
12.144723
 10
12.730142
 20
12.134723
 10
12.740142
 20
12.144723
 10
13.504635
 20
12.144723
 42
0.414214
 10
13.567135
 20
12.207223
 10
13.567135
 20
13.899239
 42
0.414214
 10
13.504635
 20
13.961739
 10
12.914023
 20
13.961739
 42
0.46688
 10
12.884489
 20
13.926474
 42
-0.197417
 10
12.859252
 20
13.810017
 42
-0.939516
 10
12.77504
 20
13.860596
 42
2.169752
 10
12.685244
 20
13.860596
 42
-0.939516
 10
12.601033
 20
13.810017
 42
-0.197417
 10
12.575796
 20
13.926474
 42
0.46688
 10
12.546261
 20
13.961739
 10
11.95565
 20
13.961739
 42
0.414214
  0
LWPOLYLINE
  5
87
100
AcDbEntity
  8
R-DOOR-DETL
  6
CONTINUOUS
100
AcDbPolyline
 90
        2
 70
     0
 43
0.0
 10
11.79915
 20
13.983739
 10
11.79915
 20
12.122723
  0
LWPOLYLINE
  5
88
100
AcDbEntity
  8
R-DOOR-DETL
  6
CONTINUOUS
100
AcDbPolyline
 90
        2
 70
     0
 43
0.0
 10
13.661135
 20
12.122723
 10
13.661135
 20
13.983739
  0
REGION
  5
89
100
AcDbEntity
  8
R-DOOR-DETL
  6
CONTINUOUS
100
AcDbModelerGeometry
 70
     1
  1
noi ki n o          
  1
=0;& {rn {n {rn {rn |
  1
3*2/ {rn {rn {m {o |
  1
,7:33 {rn {rn {rn {l {n |
  1
9><: {rn {rn {k {m {rn {j 90-(>-; ;0*=3: 0*+ |
  1
300/ {rn {rn {i {l |
  1
/3>1:r,*-9><: {rn nlqjhogkonlkmkjkmf nkqggihomkifjlkgoh o o o n n o o o V V V V |
  1
<0:;8: {rn {h {g {rn {f n {k {rn |
  1
<0:;8: {rn {no {i {rn {nn n {k {rn |
  1
<0:;8: {rn {i {nm {rn {nl n {k {rn |
  1
:;8: {rn {nk {nj {i {ni o |
  1
<0:;8: {rn {nh {h {rn {ng n {k {rn |
  1
:;8: {rn {nf {nk {h {mo o |
  1
<0:;8: {rn {g {mn {rn {mm n {k {rn |
  1
:;8: {rn {nj {ml {g {mk o |
  1
):-+:' {rn {f {mj |
  1
):-+:' {rn {f {mi |
  1
,+->687+r<*-): {rn nlqlmkfioloilhhgng niqnomlfjgokojjgkm o o n o V V |
  1
<0:;8: {rn {mh {no {rn {mg n {k {rn |
  1
:;8: {rn {mf {nf {no {lo o |
  1
):-+:' {rn {ng {ln |
  1
,+->687+r<*-): {rn nlqjofgnljofliljfi niqnomlfjgokojjgkm o rn o o V V |
  1
<0:;8: {rn {nm {mh {rn {lm n {k {rn |
  1
:;8: {rn {ml {ll {nm {lk o |
  1
):-+:' {rn {nl {lj |
  1
,+->687+r<*-): {rn nlqlmkfioloilhhgng niqnjmlfjgokojjgjl o n o o V V |
  1
/061+ {rn nlqlmkfioloilhhgng niqnomlfjgokojjgkm o |
  1
/061+ {rn nlqlmkfioloilhhgng niqnjmlfjgokojjgjl o |
  1
<0:;8: {rn {mn {nh {rn {li n {k {rn |
  1
:;8: {rn {lh {mf {nh {lg o |
  1
):-+:' {rn {mg {lf |
  1
:336/,:r<*-): {rn nlqjofgnljofliljfi njqfkilfjgokojjgli o o o n oqnnologijhgijnojjf oqnnologijhgijnoojh o n V V |
  1
/061+ {rn nlqjofgnljofliljfi niqnomlfjgokojjgkm o |
  1
:;8: {rn {ll {ko {mn {kn o |
  1
):-+:' {rn {mm {km |
  1
:336/,:r<*-): {rn nlqjofgnljofliljfi njqfkilfjgokojjgli o o o rn oqnkjiilffifmkklofk oqnkjiilffifmkklofk o n V V |
  1
/061+ {rn nlqjofgnljofliljfi niqnjmlfjgokojjgjl o |
  1
:;8: {rn {ko {lh {mh {kl o |
  1
):-+:' {rn {li {kk |
  1
,+->687+r<*-): {rn nlqiijgnljofliljkj noqnjhfkmgokojjggf o nqmmhjnhjoolhjjolk:ronj n o V V |
  1
/061+ {rn nlqiijgnljofliljkj njqfkilfjgokojjgli o |
  1
):-+:' {rn {lm {kj |
  1
,+->687+r<*-): {rn nlqhnjgnljoflilj njqfkilfjgokojjgli o rnqmmhjnhjoolhjjolk:ronj rn o V V |
  1
/061+ {rn nlqhnjgnljoflilj njqfkilfjgokojjgli o |
  1
,+->687+r<*-): {rn nlqhnjgnljoflilj noqnjhfkmgokojjggf o rn o o V V |
  1
/061+ {rn nlqiijgnljofliljkj noqnjhfkmgokojjggf o |
  1
/061+ {rn nlqhnjgnljoflilj noqnjhfkmgokojjggf o |
  0
REGION
  5
8A
100
AcDbEntity
  8
R-DOOR-DETL
  6
CONTINUOUS
100
AcDbModelerGeometry
 70
     1
  1
noi nii n o         
  1
=0;& {rn {n {rn {rn |
  1
3*2/ {rn {rn {m {o |
  1
,7:33 {rn {rn {rn {l {n |
  1
9><: {rn {rn {k {m {rn {j -:):-,:; ;0*=3: 0*+ |
  1
300/ {rn {rn {i {l |
  1
/3>1:r,*-9><: {rn nmqhmhlkkjmhhkmknh noqmlioihgokojjggf o o o rn n rnqmmkioiljlgmmlhhl:roni o n V V V V |
  1
<0:;8: {rn {h {g {rn {f o {k {rn |
  1
<0:;8: {rn {no {i {rn {nn o {k {rn |
  1
<0:;8: {rn {i {nm {rn {nl o {k {rn |
  1
:;8: {rn {nk {nj {i {ni o |
  1
<0:;8: {rn {nh {h {rn {ng o {k {rn |
  1
:;8: {rn {nj {nf {h {mo o |
  1
<0:;8: {rn {g {mn {rn {mm o {k {rn |
  1
:;8: {rn {ml {nk {g {mk o |
  1
):-+:' {rn {f {mj |
  1
):-+:' {rn {f {mi |
  1
,+->687+r<*-): {rn nlqmhjllhokfhmlokf noqhjmfkmgokojjfni o rnqmmkioiljlgmmlhhl:roni rn o V V |
  1
<0:;8: {rn {mh {no {rn {mg o {k {rn |
  1
:;8: {rn {nf {mf {no {lo o |
  1
):-+:' {rn {nn {ln |
  1
:336/,:r<*-): {rn nlqmkjllhokfhmlohi noqoimfkmgokojjfng o o o rn oqomnmnlmolkljjfhmmj roqomnmnlmolkljjfhmlm o n V V |
  1
<0:;8: {rn {nm {lm {rn {ll o {k {rn |
  1
:;8: {rn {lk {ml {nm {lj o |
  1
):-+:' {rn {mm {li |
  1
:336/,:r<*-): {rn nlqlojllhokfhmlomm noqhjmfkmgokojjfni o o o n roqomnmnlmolkljjfhmmj oqomnmnlmolkljjfhmlm o n V V |
  1
/061+ {rn nlqmhjllhokfhmlokf noqhjmfkmgokojjfni o |
  1
/061+ {rn nlqmhjllhokfhmlokf noqoimfkmgokojjfng o |
  1
<0:;8: {rn {lh {nh {rn {lg o {k {rn |
  1
:;8: {rn {mf {lf {nh {ko o |
  1
):-+:' {rn {ng {kn |
  1
,+->687+r<*-): {rn nlqmkjllhokfhmlohi noqolmfkmgokojjggf o rn nqmmkioiljlgmmlhhl:roni o V V |
  1
/061+ {rn nlqmkjllhokfhmlohi noqolmfkmgokojjggf o |
  1
<0:;8: {rn {mn {km {rn {kl o {k {rn |
  1
:;8: {rn {kk {lk {mn {kj o |
  1
):-+:' {rn {ll {ki |
  1
,+->687+r<*-): {rn nlqlhollhokfhmlohi noqhgmfkmgokojjggf o rn nqmmkioiljlgmmlhhl:roni o V V |
  1
/061+ {rn nlqlojllhokfhmlomm noqhgmfkmgokojjggf o |
  1
<0:;8: {rn {kh {mh {rn {kg o {k {rn |
  1
:;8: {rn {lf {kf {mh {jo o |
  1
):-+:' {rn {mg {jn |
  1
:336/,:r<*-): {rn nmqmofljmoojhinhjg noqoimfkmgokojjfng o o o rn roqomnmnlmolkljjfhmlf roqomnmnlmolkljjfhmlm o n V V |
  1
/061+ {rn nmqmofljmoojhinhjg noqolmfkmgokojjggf o |
  1
<0:;8: {rn {lm {jm {rn {jl o {k {rn |
  1
:;8: {rn {jk {kk {lm {jj o |
  1
):-+:' {rn {kl {ji |
  1
:336/,:r<*-): {rn nlqlhollhokfhmlohi noqhjmfkmgokojjfni o o o n oqomnmnlmolkljjfhmlm oqomnmnlmolkljjfhmmj o n V V |
  1
/061+ {rn nlqlhollhokfhmlohi noqhgmfkmgokojjggf o |
  1
<0:;8: {rn {jh {lh {rn {jg o {k {rn |
  1
:;8: {rn {kf {jf {lh {io o |
  1
):-+:' {rn {lg {in |
  1
,+->687+r<*-): {rn nmqnhfljmoojhinihm noqoimfkmgokojjfng o nqmmkioiljlgmmlhhl:roni n o V V |
  1
/061+ {rn nmqnhfljmoojhinihm noqoimfkmgokojjfng o |
  1
<0:;8: {rn {km {im {rn {il o {k {rn |
  1
:;8: {rn {ik {jk {km {ij o |
  1
):-+:' {rn {jl {ii |
  1
,+->687+r<*-): {rn nlqkoollhokfhmlokf noqnhmfkmgokojjfok o nqmmkioiljlgmmlhhl:roni n o V V |
  1
/061+ {rn nlqkoollhokfhmlokf noqhjmfkmgokojjfni o |
  1
<0:;8: {rn {ih {kh {rn {ig o {k {rn |
  1
:;8: {rn {jf {if {kh {ho o |
  1
):-+:' {rn {kg {hn |
  1
:336/,:r<*-): {rn nmqnkfljmoojhinhmh noqhjmfkmgokojjfni o o o n oqomnmnlmolkljjfhmlm oqomnmnlmolkljjfhmmj o n V V |
  1
/061+ {rn nmqnhfljmoojhinihm noqhjmfkmgokojjfni o |
  1
<0:;8: {rn {jm {hm {rn {hl o {k {rn |
  1
:;8: {rn {hk {ik {jm {hj o |
  1
):-+:' {rn {il {hi |
  1
:336/,:r<*-): {rn nlqknjllhokfhmloli noqnhmfkmgokojjflm o o o rn roqonoioiionhnhhfginf roqonoioiionhnhhfgini o n V V |
  1
/061+ {rn nlqkoollhokfhmlokf noqnhmfkmgokojjfok o |
  1
<0:;8: {rn {hh {jh {rn {hg o {k {rn |
  1
:;8: {rn {if {hf {jh {go o |
  1
):-+:' {rn {jg {gn |
  1
,+->687+r<*-): {rn nmqnkfljmoojhinhmh noqhgmfkmgokojjggf o rn nqmmkioiljlgmmlhhl:roni o V V |
  1
/061+ {rn nmqnkfljmoojhinhmh noqhgmfkmgokojjggf o |
  1
<0:;8: {rn {im {gm {rn {gl o {k {rn |
  1
:;8: {rn {gk {hk {im {gj o |
  1
):-+:' {rn {hl {gi |
  1
,+->687+r<*-): {rn nlqimjllhokfhmmfjg noqnjhfkmgokojjggf o rn nqmmkioiljlgmmlhhl:roni o V V |
  1
/061+ {rn nlqknjllhokfhmloli noqnjhfkmgokojjggf o |
  1
<0:;8: {rn {gh {ih {rn {gg o {k {rn |
  1
:;8: {rn {hf {gf {ih {fo o |
  1
):-+:' {rn {ig {fn |
  1
:336/,:r<*-): {rn nmqogkljmoojhinhgh noqhjmfkmgokojjfni o o o n roqomnmnlmolkljjfhmmj oqomnmnlmolkljjfhmlm o n V V |
  1
/061+ {rn nmqogkljmoojhinhgh noqhgmfkmgokojjggf o |
  1
<0:;8: {rn {hm {fm {rn {fl o {k {rn |
  1
:;8: {rn {fk {gk {hm {fj o |
  1
):-+:' {rn {gl {fi |
  1
:336/,:r<*-): {rn nlqimjllhokfhmmfjg noqnmhfkmgokojjfni o o o n oqomnmnlmolkljjfhmlm oqomnmnlmolkljjfhmmj o n V V |
  1
/061+ {rn nlqimjllhokfhmmfjg noqnjhfkmgokojjggf o |
  1
<0:;8: {rn {fh {hh {rn {fg o {k {rn |
  1
:;8: {rn {gf {ff {hh {noo o |
  1
):-+:' {rn {hg {non |
  1
,+->687+r<*-): {rn nmqojkljmoojhinh noqhjmfkmgokojjfni o rnqmmkioiljlgmmlhhl:roni rn o V V |
  1
/061+ {rn nmqojkljmoojhinh noqhjmfkmgokojjfni o |
  1
<0:;8: {rn {gm {nom {rn {nol o {k {rn |
  1
:;8: {rn {nok {fk {gm {noj o |
  1
):-+:' {rn {fl {noi |
  1
,+->687+r<*-): {rn nlqijjllhokfhmlokj noqoimfkmgokojjfng o nqmmkioiljlgmmlhhl:roni n o V V |
  1
/061+ {rn nlqijjllhokfhmlokj noqnmhfkmgokojjfni o |
  1
<0:;8: {rn {noh {gh {rn {nog o {k {rn |
  1
:;8: {rn {ff {nof {gh {nno o |
  1
):-+:' {rn {gg {nnn |
  1
:336/,:r<*-): {rn nmqolfljmoojhinhnk noqnhmfkmgokojjfok o o o rn oqonoioiionhnhhfginm roqonoioiionhnhhfgini o n V V |
  1
/061+ {rn nmqojkljmoojhinh noqnhmfkmgokojjfok o |
  1
<0:;8: {rn {fm {nnm {rn {nnl o {k {rn |
  1
:;8: {rn {nnk {nok {fm {nnj o |
  1
):-+:' {rn {nol {nni |
  1
:336/,:r<*-): {rn nlqimjllhokfhmmfjg noqoimfkmgokojjfng o o o n oqomnmnlmolkljjfhmmj roqomnmnlmolkljjfhmlm o n V V |
  1
/061+ {rn nlqijjllhokfhmlokj noqoimfkmgokojjfng o |
  1
<0:;8: {rn {nnh {fh {rn {nng o {k {rn |
  1
:;8: {rn {nof {nnf {fh {nmo o |
  1
):-+:' {rn {fg {nmn |
  1
,+->687+r<*-): {rn nmqolfljmoojhinhnk noqnjhfkmgokojjggf o rn nqmmkioiljlgmmlhhl:roni o V V |
  1
/061+ {rn nmqolfljmoojhinhnk noqnjhfkmgokojjggf o |
  1
<0:;8: {rn {nom {nmm {rn {nml o {k {rn |
  1
:;8: {rn {nmk {nnk {nom {nmj o |
  1
):-+:' {rn {nnl {nmi |
  1
,+->687+r<*-): {rn nlqknjllhokfhmloli noqolmfkmgokojjggf o n rnqmmkioiljlgmmlhhl:roni o V V |
  1
/061+ {rn nlqimjllhokfhmmfjg noqolmfkmgokojjggf o |
  1
<0:;8: {rn {nmh {noh {rn {nmg o {k {rn |
  1
:;8: {rn {nnf {nmf {noh {nlo o |
  1
):-+:' {rn {nog {nln |
  1
:336/,:r<*-): {rn nnqgmfljmoojhinihh noqnmhfkmgokojjfni o o o n roqomnmnlmolkljjfhmmj oqomnmnlmolkljjfhmlm o n V V |
  1
/061+ {rn nnqgmfljmoojhinihh noqnjhfkmgokojjggf o |
  1
<0:;8: {rn {nnm {nlm {rn {nll o {k {rn |
  1
:;8: {rn {nlk {nmk {nnm {nlj o |
  1
):-+:' {rn {nml {nli |
  1
:336/,:r<*-): {rn nlqknjllhokfhmloli noqonhfkmgokojjfom o o o rn roqonoioiionhnhhfginm oqonoioiionhnhhfgini o n V V |
  1
/061+ {rn nlqknjllhokfhmloli noqolmfkmgokojjggf o |
  1
<0:;8: {rn {nlh {nnh {rn {nlg o {k {rn |
  1
:;8: {rn {nmf {nlf {nnh {nko o |
  1
):-+:' {rn {nng {nkn |
  1
,+->687+r<*-): {rn nnqhffljmoojhinhoj noqnmhfkmgokojjfni o rnqmmkioiljlgmmlhhl:roni rn o V V |
  1
/061+ {rn nnqhffljmoojhinhoj noqnmhfkmgokojjfni o |
  1
<0:;8: {rn {nmm {nkm {rn {nkl o {k {rn |
  1
:;8: {rn {nkk {nlk {nmm {nkj o |
  1
):-+:' {rn {nll {nki |
  1
,+->687+r<*-): {rn nlqkoollhokfhmlokf fqflhfkmgokojjfngl o nqmmkioiljlgmmlhhl:roni n o V V |
  1
/061+ {rn nlqkoollhokfhmlokf noqonhfkmgokojjfom o |
  1
<0:;8: {rn {nkh {nmh {rn {nkg o {k {rn |
  1
:;8: {rn {nlf {nkf {nmh {njo o |
  1
):-+:' {rn {nmg {njn |
  1
:336/,:r<*-): {rn nnqgmfljmoojhinihh noqoimfkmgokojjfng o o o n roqomnmnlmolkljjfhmlf roqomnmnlmolkljjfhmlm o n V V |
  1
/061+ {rn nnqhffljmoojhinhoj noqoimfkmgokojjfng o |
  1
<0:;8: {rn {nlm {nkh {rn {njm o {k {rn |
  1
:;8: {rn {njl {nkk {nlm {njk o |
  1
):-+:' {rn {nkl {njj |
  1
:336/,:r<*-): {rn nlqlhollhokfhmlohi fqflhfkmgokojjfngl o o o n oqomnmnlmolkljjfhmmj roqomnmnlmolkljjfhmlm o n V V |
  1
/061+ {rn nlqkoollhokfhmlokf fqflhfkmgokojjfngl o |
  1
<0:;8: {rn {nkm {nlh {rn {nji o {k {rn |
  1
:;8: {rn {nkf {njh {nlh {njg o |
  1
):-+:' {rn {nlg {njf |
  1
,+->687+r<*-): {rn nnqgmfljmoojhinihh noqolmfkmgokojjggf o n rnqmmkioiljlgmmlhhl:roni o V V |
  1
/061+ {rn nnqgmfljmoojhinihh noqolmfkmgokojjggf o |
  1
:;8: {rn {nio {njl {nkm {nin o |
  1
):-+:' {rn {njm {nim |
  1
,+->687+r<*-): {rn nmqogkljmoojhinhgh fqfohfkmgokojjgggg o n rnqmmkioiljlgmmlhhl:roni o V V |
  1
/061+ {rn nlqlhollhokfhmlohi fqfohfkmgokojjgggg o |
  1
:;8: {rn {njh {nio {nkh {nil o |
  1
):-+:' {rn {nkg {nik |
  1
:336/,:r<*-): {rn nmqolfljmoojhinhnk noqonhfkmgokojjfom o o o rn oqonoioiionhnhhfgini oqonoioiionhnhhfginm o n V V |
  1
/061+ {rn nmqolfljmoojhinhnk noqolmfkmgokojjggf o |
  1
):-+:' {rn {nji {nij |
  1
:336/,:r<*-): {rn nmqogkljmoojhinhgh fqflhfkmgokojjfngl o o o n roqomnmnlmolkljjfhmlf roqomnmnlmolkljjfhmlm o n V V |
  1
/061+ {rn nmqogkljmoojhinhgh fqfohfkmgokojjgggg o |
  1
,+->687+r<*-): {rn nmqojkljmoojhinh noqonhfkmgokojjfom o rnqmmkioiljlgmmlhhl:roni rn o V V |
  1
/061+ {rn nmqojkljmoojhinh noqonhfkmgokojjfom o |
  1
/061+ {rn nmqojkljmoojhinh fqflhfkmgokojjfngl o |
  0
LWPOLYLINE
  5
8B
100
AcDbEntity
  8
R-DOOR-DETL
  6
CONTINUOUS
100
AcDbPolyline
 90
       24
 70
     1
 43
0.0
 10
11.89315
 20
11.988223
 42
-0.414214
 10
11.95565
 20
12.050723
 10
12.546261
 20
12.050723
 42
-0.46688
 10
12.575796
 20
12.015458
 42
0.197417
 10
12.601033
 20
11.899001
 42
0.939516
 10
12.685244
 20
11.94958
 42
-2.169752
 10
12.77504
 20
11.94958
 42
0.939516
 10
12.859252
 20
11.899001
 42
0.197417
 10
12.884489
 20
12.015458
 42
-0.46688
 10
12.914023
 20
12.050723
 10
13.504635
 20
12.050723
 42
-0.414214
 10
13.567135
 20
11.988223
 10
13.567135
 20
11.196943
 42
-0.414214
 10
13.552135
 20
11.181943
 10
13.526142
 20
11.181943
 42
0.414214
 10
13.511142
 20
11.166943
 10
13.511142
 20
10.961943
 42
-0.414214
 10
13.481142
 20
10.931943
 10
11.979142
 20
10.931943
 42
-0.414214
 10
11.949142
 20
10.961943
 10
11.949142
 20
11.166943
 42
0.414214
 10
11.934142
 20
11.181943
 10
11.90815
 20
11.181943
 42
-0.414214
 10
11.89315
 20
11.196943
  0
LWPOLYLINE
  5
8C
100
AcDbEntity
  8
R-DOOR-DETL
  6
CONTINUOUS
100
AcDbPolyline
 90
       22
 70
     0
 43
0.0
 10
11.79915
 20
12.072723
 10
11.79915
 20
10.187943
 42
0.414214
 10
11.82915
 20
10.157943
 10
12.03415
 20
10.157943
 42
0.414214
 10
12.04915
 20
10.172943
 10
12.04915
 20
10.236943
 42
0.414214
 10
12.03415
 20
10.251943
 10
11.92315
 20
10.251943
 42
-0.414214
 10
11.89315
 20
10.281943
 10
11.89315
 20
10.775443
 42
-0.414214
 10
11.95565
 20
10.837943
 10
13.504635
 20
10.837943
 42
-0.414214
 10
13.567135
 20
10.775443
 10
13.567135
 20
10.281943
 42
-0.414214
 10
13.537135
 20
10.251943
 10
13.426135
 20
10.251943
 42
0.414214
 10
13.411135
 20
10.236943
 10
13.411135
 20
10.172943
 42
0.414214
 10
13.426135
 20
10.157943
 10
13.631135
 20
10.157943
 42
0.414214
 10
13.661135
 20
10.187943
 10
13.661135
 20
12.072723
  0
ARC
  5
8D
100
AcDbEntity
  8
R-DOOR-DETL
  6
CONTINUOUS
100
AcDbCircle
 10
11.79915
 20
12.097723
 30
0.0
 40
0.025
100
AcDbArc
 50
270.0
 51
90.0
  0
ARC
  5
8E
100
AcDbEntity
  8
R-DOOR-DETL
  6
CONTINUOUS
100
AcDbCircle
 10
13.661135
 20
12.097723
 30
0.0
 40
0.025
100
AcDbArc
 50
90.0
 51
270.0
  0
LEADER
  5
8F
100
AcDbEntity
  8
R-DOOR-ANNO
  6
CONTINUOUS
100
AcDbLeader
  3
STANDARD
 73
     0
 74
     0
 75
     1
 40
0.36
 41
4.097143
 76
     3
 10
12.918544
 20
15.370125
 30
0.0
 10
15.11052
 20
17.015336
 30
0.0
 10
15.61052
 20
17.015336
 30
0.0
 77
   256
340
83
213
-0.0199999999999996
223
0.0
233
0.0
1001
ACAD
1000
DSTYLE
1002
{
1070
   173
1070
     1
1070
     6
1000
_DOTSMALL
1070
    41
1040
0.5
1002
}
  0
REGION
  5
90
100
AcDbEntity
  8
R-DOOR-DETL
  6
CONTINUOUS
100
AcDbModelerGeometry
 70
     1
  1
noi nki n o         
  1
=0;& {rn {n {rn {rn |
  1
3*2/ {rn {rn {m {o |
  1
,7:33 {rn {rn {rn {l {n |
  1
9><: {rn {rn {k {m {rn {j 90-(>-; ;0*=3: 0*+ |
  1
300/ {rn {rn {i {l |
  1
/3>1:r,*-9><: {rn nlqnmiklfgkgnkohlk njqffjhniifjohhfmh o o o n n o o o V V V V |
  1
<0:;8: {rn {h {g {rn {f n {k {rn |
  1
<0:;8: {rn {no {i {rn {nn n {k {rn |
  1
<0:;8: {rn {i {nm {rn {nl n {k {rn |
  1
:;8: {rn {nk {nj {i {ni o |
  1
<0:;8: {rn {nh {h {rn {ng n {k {rn |
  1
:;8: {rn {nf {nk {h {mo o |
  1
<0:;8: {rn {g {mn {rn {mm n {k {rn |
  1
:;8: {rn {nj {ml {g {mk o |
  1
):-+:' {rn {f {mj |
  1
):-+:' {rn {f {mi |
  1
,+->687+r<*-): {rn nlqmihifjgkjnljfgf njqfoiokfmjiglogfk o oqihjjfomohinjiinom oqhlhmhhllignonmlkm o V V |
  1
<0:;8: {rn {mh {no {rn {mg n {k {rn |
  1
:;8: {rn {mf {nf {no {lo o |
  1
):-+:' {rn {ng {ln |
  1
,+->687+r<*-): {rn nlqmihifjgkjnljfgf niqnniigkmjmffonmm o o rn o V V |
  1
<0:;8: {rn {nm {lm {rn {ll n {k {rn |
  1
:;8: {rn {ml {lk {nm {lj o |
  1
):-+:' {rn {nl {li |
  1
:336/,:r<*-): {rn nlqlkknnijhgmflgli njqfhglkikkgllhoki o o o rn oqoojoiifmijjhnmonjkf oqoojjmfjgoomiohhfjnj o n V V |
  1
/061+ {rn nlqmihifjgkjnljfgf njqfoiokfmjiglogfk o |
  1
/061+ {rn nlqllgjgiffgmihhhm njqfglknllhkgfknjm o |
  1
<0:;8: {rn {lh {nh {rn {lg n {k {rn |
  1
:;8: {rn {lf {mf {nh {ko o |
  1
):-+:' {rn {mg {kn |
  1
,+->687+r<*-): {rn nlqlllifjgkjnljffm niqnniigkmjmffonmm o rn o o V V |
  1
/061+ {rn nlqmihifjgkjnljfgf niqnniigkmjmffonmm o |
  1
<0:;8: {rn {mn {km {rn {kl n {k {rn |
  1
:;8: {rn {lk {kk {mn {kj o |
  1
):-+:' {rn {mm {ki |
  1
,+->687+r<*-): {rn nlqlkfikinjglnfgff njqfhlmhfjmnhhffk o roqihjjfomohinjhljhk roqhlhmhhllignoojkgn o V V |
  1
/061+ {rn nlqlkfikinjglnfgff njqfhlmhfjmnhhffk o |
  1
<0:;8: {rn {kh {mh {rn {kg n {k {rn |
  1
:;8: {rn {kf {lf {mh {jo o |
  1
):-+:' {rn {lg {jn |
  1
,+->687+r<*-): {rn nlqlllifjgkjnljffm niqnlligkmjmffonng o o rn o V V |
  1
/061+ {rn nlqlllifjgkjnljffm niqnniigkmjmffonmm o |
  1
<0:;8: {rn {lm {jm {rn {jl n {k {rn |
  1
:;8: {rn {kk {jk {lm {jj o |
  1
):-+:' {rn {ll {ji |
  1
:336/,:r<*-): {rn nlqminofjighnhmimh njqgfggkikkgllhoj o o o rn oqooioknmoolkhgfnhmj roqonlhmfihmngihhighf o n V V |
  1
/061+ {rn nlqmhmnjkgkhmmkgig njqggghnmjfjmmmglg o |
  1
<0:;8: {rn {jh {lh {rn {jg n {k {rn |
  1
:;8: {rn {jf {kf {lh {io o |
  1
):-+:' {rn {kg {in |
  1
:336/,:r<*-): {rn nlqlngifjgkjnliooi niqnlligkmjmffonng o o o rn oqonoioiionhnhhfgink oqonoioiionhnhhfgink o n V V |
  1
/061+ {rn nlqlllifjgkjnljffm niqnlligkmjmffonng o |
  1
<0:;8: {rn {km {im {rn {il n {k {rn |
  1
:;8: {rn {jk {ik {km {ij o |
  1
):-+:' {rn {kl {ii |
  1
,+->687+r<*-): {rn nlqminofjighnhmimh njqgglgkikkgllhoik o rn mqlhikofiikmifinml:ronl o V V |
  1
/061+ {rn nlqminofjighnhmimh njqgglgkikkgllhoik o |
  1
<0:;8: {rn {ih {kh {rn {ig n {k {rn |
  1
:;8: {rn {if {jf {kh {ho o |
  1
):-+:' {rn {jg {hn |
  1
,+->687+r<*-): {rn nmqffiifjgkjnlioln niqnkgigkmjmffonoj o n kqknllogfnhhikhjkh:ronk o V V |
  1
/061+ {rn nlqlngifjgkjnliooi niqnkgigkmjmffonoj o |
  1
<0:;8: {rn {jm {hm {rn {hl n {k {rn |
  1
:;8: {rn {ik {hk {jm {hj o |
  1
):-+:' {rn {jl {hi |
  1
:336/,:r<*-): {rn nlqmonmfioolofflhm njqgfggkikkgllhoj o o o rn roqooioknmoolkhgfnghmj roqonlhmfihmngihfkgji o n V V |
  1
/061+ {rn nlqmonmfioolofflhm njqgglgkikkgllhoik o |
  1
<0:;8: {rn {hh {jh {rn {hg n {k {rn |
  1
:;8: {rn {hf {if {jh {go o |
  1
):-+:' {rn {ig {gn |
  1
,+->687+r<*-): {rn nmqgmkmlkiggmkjnmh niqnhfoflgogohknjl o oqfgkgohhjlonmmnnlj roqnhlikgnhhiiifnnfl o V V |
  1
/061+ {rn nmqffiifjgkjnlioln niqnkgigkmjmffonoj o |
  1
<0:;8: {rn {im {gm {rn {gl n {k {rn |
  1
:;8: {rn {hk {gk {im {gj o |
  1
):-+:' {rn {il {gi |
  1
,+->687+r<*-): {rn nlqnfomligklokhmkj njqggghnmjfjmmmglg o roqihjjfomohinjiigki oqhlhmhhllignonnijl o V V |
  1
/061+ {rn nlqnfomligklokhmkj njqggghnmjfjmmmglg o |
  1
<0:;8: {rn {gh {ih {rn {gg n {k {rn |
  1
:;8: {rn {gf {hf {ih {fo o |
  1
):-+:' {rn {hg {fn |
  1
:336/,:r<*-): {rn nmqgmnnfjgkjnljfhj niqningjfihmlfikkm o o o rn roqonhmlknljihhhnnolg oqoololggklnofnhliglk o n V V |
  1
/061+ {rn nmqgmkmlkiggmkjnmh niqnhfoflgogohknjl o |
  1
<0:;8: {rn {hm {fm {rn {fl n {k {rn |
  1
:;8: {rn {gk {fk {hm {fj o |
  1
):-+:' {rn {hl {fi |
  1
:336/,:r<*-): {rn nlqnngmhjnnnfhgmkf njqfhglkikkgllhoki o o o rn roqoojoiifmijjhnmonjkf oqoojjmfjgoomiohhfjnj o n V V |
  1
/061+ {rn nlqnnmhkjjlnfjmohm njqfhlmhfjmnhhffk o |
  1
<0:;8: {rn {fh {hh {rn {fg n {k {rn |
  1
:;8: {rn {ff {gf {hh {noo o |
  1
):-+:' {rn {gg {non |
  1
,+->687+r<*-): {rn nmqfgkloojihgon niqnnjlmffklkonil o roqfgkgohhjlonmmojkh oqnhlikgnhhiiifkkhf o V V |
  1
/061+ {rn nmqgngnjhoomomigml niqnkkimjjlihnghln o |
  1
<0:;8: {rn {gm {nom {rn {nol n {k {rn |
  1
:;8: {rn {fk {nok {gm {noj o |
  1
):-+:' {rn {gl {noi |
  1
,+->687+r<*-): {rn nlqnmlgokifmookm njqfglknllhkgfkng o oqihjjfomohinjjfogj roqhlhmhhllignonghjf o V V |
  1
/061+ {rn nlqnmlgokifmookm njqfglknllhkgfkng o |
  1
<0:;8: {rn {noh {gh {rn {nog n {k {rn |
  1
:;8: {rn {nof {ff {gh {nno o |
  1
):-+:' {rn {fg {nnn |
  1
:336/,:r<*-): {rn nmqfgnifjgkjnliokj niqnoojjhgmhnoikjl o o o n oqonnkfoiiiikihgongm oqoofikngnknkjmfmjllj o n V V |
  1
/061+ {rn nmqfgkloojihgon niqnnjlmffklkonil o |
  1
<0:;8: {rn {fm {nnm {rn {nnl n {k {rn |
  1
:;8: {rn {nok {nnk {fm {nnj o |
  1
):-+:' {rn {fl {nni |
  1
,+->687+r<*-): {rn nlqnfonollgohngfof njqfnnoinojmmfonoj o roqniilfhknhjigiiiff oqfgiojghhohhhnnif o V V |
  1
/061+ {rn nlqnfonollgohngfof njqfnnoinojmmfonoj o |
  1
<0:;8: {rn {nnh {fh {rn {nng n {k {rn |
  1
:;8: {rn {nnf {nof {fh {nmo o |
  1
):-+:' {rn {nog {nmn |
  1
,+->687+r<*-): {rn nmqffiifjgkjnlioln njqgloigkmjmffoofl o o n o V V |
  1
/061+ {rn nmqffiifjgkjnlioln niqnoojjhgmhnoikjl o |
  1
<0:;8: {rn {nom {nmm {rn {nml n {k {rn |
  1
:;8: {rn {nnk {nmk {nom {nmj o |
  1
):-+:' {rn {nol {nmi |
  1
:336/,:r<*-): {rn nlqnjkjgfmmliiihin niqolnlifigijmjigf o o o n oqoogikghfmjiokijkghm oqonmmjjjkjnilnjjgnj o n V V |
  1
/061+ {rn nlqniflgonojmmgkkn niqollgijikhhgfmlg o |
  1
<0:;8: {rn {nmh {noh {rn {nmg n {k {rn |
  1
:;8: {rn {nmf {nnf {noh {nlo o |
  1
):-+:' {rn {nng {nln |
  1
,+->687+r<*-): {rn nmqfkilmmolknkfmll njqfnhflkmjmffonok o oqkffffffffffffhkgj roqgiiomjkolhgkkjlmj o V V |
  1
/061+ {rn nmqffiifjgkjnlioln njqgloigkmjmffoofl o |
  1
<0:;8: {rn {nnm {nmh {rn {nlm n {k {rn |
  1
:;8: {rn {nmk {nll {nnm {nlk o |
  1
):-+:' {rn {nnl {nlj |
  1
,+->687+r<*-): {rn nlqnjnfgkjonoongoi niqokinkngomgmogfj o roqfgkgohhjlonmniiin roqnhlikgnhhiihnijkg o V V |
  1
/061+ {rn nlqnjnfgkjonoongoi niqokinkngomgmogfj o |
  1
<0:;8: {rn {nmm {nnh {rn {nli n {k {rn |
  1
:;8: {rn {nlh {nmf {nnh {nlg o |
  1
):-+:' {rn {nmg {nlf |
  1
:336/,:r<*-): {rn nmqflmgfgikolfojim njqfnongkmjmffonnh o o o rn roqoohhjooooooooonkhhf oqonlkmllflhjgijhnfg o n V V |
  1
/061+ {rn nmqfkilmmolknkfmll njqfnhflkmjmffonok o |
  1
:;8: {rn {nll {nko {nmm {nkn o |
  1
):-+:' {rn {nml {nkm |
  1
:336/,:r<*-): {rn nlqnnoifjgkjnlioik niqomlilooffinimfj o o o n roqonnkfoiiiikihgongm oqoofikngnknkjmfmjllj o n V V |
  1
/061+ {rn nlqnogofnnmmkhoffj niqolgkommnjfnnkkl o |
  1
:;8: {rn {nko {nlh {nmh {nkl o |
  1
):-+:' {rn {nli {nkk |
  1
,+->687+r<*-): {rn nmqfhgjhhjghikgigh njqgoooijffjjomhgg o roqjooooooooooooflh oqgiiomjkolhgklgkjl o V V |
  1
/061+ {rn nmqfnfkhjmkiilngf njqfomklkmjmffonon o |
  1
):-+:' {rn {nlm {nkj |
  1
,+->687+r<*-): {rn nlqofjifjgkjnljfik niqomlilooffinimfj o hqlfkkiljiflokfooi:ronk rn o V V |
  1
/061+ {rn nlqofjifjgkjnljfik niqomlilooffinimfj o |
  1
:336/,:r<*-): {rn nlqolmflmlionnohmn njqglnkkhhlgonjkii o o o rn oqonimkklgjminjhihnj roqoioimkghnnllggimlf o n V V |
  1
/061+ {rn nmqfhgjhhjghikgigh njqgoooijffjjomhgg o |
  1
/061+ {rn nlqofjifjgkjnljfik njqglnkkhhlgonjkii o |
  0
REGION
  5
91
100
AcDbEntity
  8
R-DOOR-DETL
  6
CONTINUOUS
100
AcDbModelerGeometry
 70
     1
  1
noi nki n o         
  1
=0;& {rn {n {rn {rn |
  1
3*2/ {rn {rn {m {o |
  1
,7:33 {rn {rn {rn {l {n |
  1
9><: {rn {rn {k {m {rn {j -:):-,:; ;0*=3: 0*+ |
  1
300/ {rn {rn {i {l |
  1
/3>1:r,*-9><: {rn nmqlllgkkkjmkimll njqffjhniifjohhfmh o o o rn rn o o o V V V V |
  1
<0:;8: {rn {h {g {rn {f o {k {rn |
  1
<0:;8: {rn {no {i {rn {nn o {k {rn |
  1
<0:;8: {rn {i {nm {rn {nl o {k {rn |
  1
:;8: {rn {nk {nj {i {ni o |
  1
<0:;8: {rn {nh {h {rn {ng o {k {rn |
  1
:;8: {rn {nj {nf {h {mo o |
  1
<0:;8: {rn {g {mn {rn {mm o {k {rn |
  1
:;8: {rn {ml {nk {g {mk o |
  1
):-+:' {rn {f {mj |
  1
):-+:' {rn {f {mi |
  1
,+->687+r<*-): {rn nmqnfmjggkjjkihohk njqfoiokfmjiglogfk o roqihjjfomohinjiinom oqhlhmhhllignonmlkm o V V |
  1
<0:;8: {rn {mh {no {rn {mg o {k {rn |
  1
:;8: {rn {nf {mf {no {lo o |
  1
):-+:' {rn {nn {ln |
  1
:336/,:r<*-): {rn nmqnninihhmmlofm njqfhglkikkgllhoki o o o n roqoojoiifmijjhnmonjkf oqoojjmfjgoomiohhfjnj o n V V |
  1
<0:;8: {rn {nm {lm {rn {ll o {k {rn |
  1
:;8: {rn {lk {ml {nm {lj o |
  1
):-+:' {rn {mm {li |
  1
,+->687+r<*-): {rn nmqnfmjggkjjkihohk niqnniigkmjmffonmm o o rn o V V |
  1
/061+ {rn nmqnfmjggkjjkihohk njqfoiokfmjiglogfk o |
  1
/061+ {rn nmqnmnifhlomlljmik njqfglknllhkgfknjm o |
  1
<0:;8: {rn {lh {nh {rn {lg o {k {rn |
  1
:;8: {rn {mf {lf {nh {ko o |
  1
):-+:' {rn {ng {kn |
  1
,+->687+r<*-): {rn nmqnnoilgnkmmglnli njqfhlmhfjmnhhffk o oqihjjfomohinjhljhk roqhlhmhhllignoojkgn o V V |
  1
/061+ {rn nmqnnoilgnkmmglnli njqfhlmhfjmnhhffk o |
  1
<0:;8: {rn {mn {km {rn {kl o {k {rn |
  1
:;8: {rn {kk {lk {mn {kj o |
  1
):-+:' {rn {ll {ki |
  1
,+->687+r<*-): {rn nmqnmijggkjjkihokk niqnniigkmjmffonmm o n o o V V |
  1
/061+ {rn nmqnfmjggkjjkihohk niqnniigkmjmffonmm o |
  1
<0:;8: {rn {kh {mh {rn {kg o {k {rn |
  1
:;8: {rn {lf {kf {mh {jo o |
  1
):-+:' {rn {mg {jn |
  1
:336/,:r<*-): {rn nmqnffngginlkloklh njqgfggkikkgllhoj o o o n roqooioknmoolkhgfnhmj roqonlhmfihmngihhighf o n V V |
  1
/061+ {rn nmqnggnmfkjllhglof njqggghnmjfjmmmglg o |
  1
<0:;8: {rn {lm {jm {rn {jl o {k {rn |
  1
:;8: {rn {jk {kk {lm {jj o |
  1
):-+:' {rn {kl {ji |
  1
,+->687+r<*-): {rn nmqnmijggkjjkihokk niqnlligkmjmffonng o o rn o V V |
  1
/061+ {rn nmqnmijggkjjkihokk niqnniigkmjmffonmm o |
  1
<0:;8: {rn {jh {lh {rn {jg o {k {rn |
  1
:;8: {rn {kf {jf {lh {io o |
  1
):-+:' {rn {lg {in |
  1
,+->687+r<*-): {rn nmqnffngginlkloklh njqgglgkikkgllhoik o n mqlhikofiikmifinml:ronl o V V |
  1
/061+ {rn nmqnffngginlkloklh njqgglgkikkgllhoik o |
  1
<0:;8: {rn {km {im {rn {il o {k {rn |
  1
:;8: {rn {ik {jk {km {ij o |
  1
):-+:' {rn {jl {ii |
  1
:336/,:r<*-): {rn nmqnknjggkjjkihol niqnlligkmjmffonng o o o n roqonoioiionhnhhfgink oqonoioiionhnhhfgink o n V V |
  1
/061+ {rn nmqnmijggkjjkihokk niqnlligkmjmffonng o |
  1
<0:;8: {rn {ih {kh {rn {ig o {k {rn |
  1
:;8: {rn {jf {if {kh {ho o |
  1
):-+:' {rn {kg {hn |
  1
:336/,:r<*-): {rn nmqmjgfggmfhjolifn njqgfggkikkgllhoj o o o n oqooioknmoolkhgfnghmj roqonlhmfihmngihfkgji o n V V |
  1
/061+ {rn nmqmjgfggmfhjolifn njqgglgkikkgllhoik o |
  1
<0:;8: {rn {jm {hm {rn {hl o {k {rn |
  1
:;8: {rn {hk {ik {jm {hj o |
  1
):-+:' {rn {il {hi |
  1
,+->687+r<*-): {rn nmqkiljggkjjkiholl niqnkgigkmjmffonoj o rn kqknllogfnhhikhjkh:ronk o V V |
  1
/061+ {rn nmqnknjggkjjkihol niqnkgigkmjmffonoj o |
  1
<0:;8: {rn {hh {jh {rn {hg o {k {rn |
  1
:;8: {rn {if {hf {jh {go o |
  1
):-+:' {rn {jg {gn |
  1
,+->687+r<*-): {rn nmqmhookhkjhjjjgnf njqggghnmjfjmmmglg o oqihjjfomohinjiigki oqhlhmhhllignonnijl o V V |
  1
/061+ {rn nmqmhookhkjhjjjgnf njqggghnmjfjmmmglg o |
  1
<0:;8: {rn {im {gm {rn {gl o {k {rn |
  1
:;8: {rn {gk {hk {im {gj o |
  1
):-+:' {rn {hl {gi |
  1
,+->687+r<*-): {rn nmqiliokfinmljhgml niqnhfoflgogohknjl o roqfgkgohhjlonmmnnlj roqnhlikgnhhiiifnnfl o V V |
  1
/061+ {rn nmqkiljggkjjkiholl niqnkgigkmjmffonoj o |
  1
<0:;8: {rn {gh {ih {rn {gg o {k {rn |
  1
:;8: {rn {hf {gf {ih {fo o |
  1
):-+:' {rn {ig {fn |
  1
:336/,:r<*-): {rn nmqlkmoofnggimkfmg njqfhglkikkgllhoki o o o n oqoojoiifmijjhnmonjkf oqoojjmfjgoomiohhfjnj o n V V |
  1
/061+ {rn nmqlkhjlghigijoffm njqfhlmhfjmnhhffk o |
  1
<0:;8: {rn {hm {fm {rn {fl o {k {rn |
  1
:;8: {rn {fk {gk {hm {fj o |
  1
):-+:' {rn {gl {fi |
  1
:336/,:r<*-): {rn nmqilfoggkjjkihogf niqningjfihmlfikkm o o o n oqonhmlknljihhhnnolg oqoololggklnofnhliglk o n V V |
  1
/061+ {rn nmqiliokfinmljhgml niqnhfoflgogohknjl o |
  1
<0:;8: {rn {fh {hh {rn {fg o {k {rn |
  1
:;8: {rn {gf {ff {hh {noo o |
  1
):-+:' {rn {hg {non |
  1
,+->687+r<*-): {rn nmqllikhfiogjfghjn njqfglknllhkgfkng o roqihjjfomohinjjfogj roqhlhmhhllignonghjf o V V |
  1
/061+ {rn nmqllikhfiogjfghjn njqfglknllhkgfkng o |
  1
<0:;8: {rn {gm {nom {rn {nol o {k {rn |
  1
:;8: {rn {nok {fk {gm {noj o |
  1
):-+:' {rn {fl {noi |
  1
,+->687+r<*-): {rn nmqkhjfglhlmgomoik niqnnjlmffklkonil o oqfgkgohhjlonmmojkh oqnhlikgnhhiiifkkhf o V V |
  1
/061+ {rn nmqikmnmhmfgjhimkn niqnkkimjjlihnghln o |
  1
<0:;8: {rn {noh {gh {rn {nog o {k {rn |
  1
:;8: {rn {ff {nof {gh {nno o |
  1
):-+:' {rn {gg {nnn |
  1
,+->687+r<*-): {rn nmqmhongofnfggknjk njqfnnoinojmmfonoj o oqniilfhknhjigiiiff oqfgiojghhohhhnnif o V V |
  1
/061+ {rn nmqmhongofnfggknjk njqfnnoinojmmfonoj o |
  1
<0:;8: {rn {fm {nnm {rn {nnl o {k {rn |
  1
:;8: {rn {nnk {nok {fm {nnj o |
  1
):-+:' {rn {nol {nni |
  1
:336/,:r<*-): {rn nmqkhgjggkjjkihonf niqnoojjhgmhnoikjl o o o rn roqonnkfoiiiikihgongm oqoofikngnknkjmfmjllj o n V V |
  1
/061+ {rn nmqkhjfglhlmgomoik niqnnjlmffklkonil o |
  1
<0:;8: {rn {nnh {fh {rn {nng o {k {rn |
  1
:;8: {rn {nof {nnf {fh {nmo o |
  1
):-+:' {rn {fg {nmn |
  1
:336/,:r<*-): {rn nmqlojifjohiflilol niqolnlifigijmjigf o o o rn roqoogikghfmjiokijkghm oqonmmjjjkjnilnjjgnj o n V V |
  1
/061+ {rn nmqmfofoknfjlhkiml niqollgijikhhgfmlg o |
  1
<0:;8: {rn {nom {nmm {rn {nml o {k {rn |
  1
:;8: {rn {nmk {nnk {nom {nmj o |
  1
):-+:' {rn {nnl {nmi |
  1
,+->687+r<*-): {rn nmqkiljggkjjkiholl njqgloigkmjmffoofl o o n o V V |
  1
/061+ {rn nmqkiljggkjjkiholl niqnoojjhgmhnoikjl o |
  1
<0:;8: {rn {nmh {noh {rn {nmg o {k {rn |
  1
:;8: {rn {nnf {nmf {noh {nlo o |
  1
):-+:' {rn {nog {nln |
  1
,+->687+r<*-): {rn nmqlogmffhffionmjg niqokinkngomgmogfj o oqfgkgohhjlonmniiin roqnhlikgnhhiihnijkg o V V |
  1
/061+ {rn nmqlogmffhffionmjg niqokinkngomgmogfj o |
  1
<0:;8: {rn {nnm {nmh {rn {nlm o {k {rn |
  1
:;8: {rn {nll {nmk {nnm {nlk o |
  1
):-+:' {rn {nml {nlj |
  1
,+->687+r<*-): {rn nmqjnlfimmiikjlgln njqfnhflkmjmffonok o roqkffffffffffffhkgj roqgiiomjkolhgkkjlmj o V V |
  1
/061+ {rn nmqkiljggkjjkiholl njqgloigkmjmffoofl o |
  1
<0:;8: {rn {nmm {nnh {rn {nli o {k {rn |
  1
:;8: {rn {nmf {nlh {nnh {nlg o |
  1
):-+:' {rn {nng {nlf |
  1
:336/,:r<*-): {rn nmqlkfjggkjjkihnnk niqomlilooffinimfj o o o rn oqonnkfoiiiikihgongm oqoofikngnknkjmfmjllj o n V V |
  1
/061+ {rn nmqljmnflnhgnlmoif niqolgkommnjfnnkkl o |
  1
:;8: {rn {nko {nll {nmm {nkn o |
  1
):-+:' {rn {nlm {nkm |
  1
:336/,:r<*-): {rn nmqjmhlgjiiomnmjom njqfnongkmjmffonnh o o o n oqoohhjooooooooonkhhf oqonlkmllflhjgijhnfg o n V V |
  1
/061+ {rn nmqjnlfimmiikjlgln njqfnhflkmjmffonok o |
  1
:;8: {rn {nlh {nko {nmh {nkl o |
  1
):-+:' {rn {nmg {nkk |
  1
,+->687+r<*-): {rn nmqlikjggkjjkihn niqomlilooffinimfj o rhqlfkkiljiflokfooi:ronk rn o V V |
  1
/061+ {rn nmqlikjggkjjkihn niqomlilooffinimfj o |
  1
):-+:' {rn {nli {nkj |
  1
,+->687+r<*-): {rn nmqkgnhoihnmfjklhh njqgoooijffjjomhgg o oqjooooooooooooflh oqgiiomjkolhgklgkjl o V V |
  1
/061+ {rn nmqjkogofojlfhnnhk njqfomklkmjmffonon o |
  1
:336/,:r<*-): {rn nmqkmhljnfkokfmkjh njqglnkkhhlgonjkii o o o n roqonimkklgjminjhihnj roqoioimkghnnllggimlf o n V V |
  1
/061+ {rn nmqlikjggkjjkiifgi njqglnkkhhlgonjkii o |
  1
/061+ {rn nmqkgnhoihnmfjklhh njqgoooijffjjomhgg o |
  0
LINE
  5
92
100
AcDbEntity
  8
R-DOOR-DETL
100
AcDbLine
 10
12.555022
 20
18.766424
 30
0.0
 11
12.555022
 21
15.537493
 31
0.0
  0
LINE
  5
93
100
AcDbEntity
  8
R-DOOR-DETL
100
AcDbLine
 10
12.496507
 20
18.78454
 30
0.0
 11
12.496507
 21
15.537493
 31
0.0
  0
LINE
  5
94
100
AcDbEntity
  8
R-DOOR-DETL
100
AcDbLine
 10
12.680022
 20
18.829848
 30
0.0
 11
12.680022
 21
15.537493
 31
0.0
  0
LINE
  5
95
100
AcDbEntity
  8
R-DOOR-DETL
100
AcDbLine
 10
12.617522
 20
18.791117
 30
0.0
 11
12.617522
 21
15.537493
 31
0.0
  0
LINE
  5
96
100
AcDbEntity
  8
R-DOOR-DETL
100
AcDbLine
 10
12.930022
 20
18.830731
 30
0.0
 11
12.930022
 21
15.537493
 31
0.0
  0
LINE
  5
97
100
AcDbEntity
  8
R-DOOR-DETL
100
AcDbLine
 10
12.867522
 20
18.819652
 30
0.0
 11
12.867522
 21
15.537493
 31
0.0
  0
LINE
  5
98
100
AcDbEntity
  8
R-DOOR-DETL
100
AcDbLine
 10
12.805022
 20
18.772777
 30
0.0
 11
12.805022
 21
15.537493
 31
0.0
  0
LINE
  5
99
100
AcDbEntity
  8
R-DOOR-DETL
100
AcDbLine
 10
12.988505
 20
18.79295
 30
0.0
 11
12.988505
 21
15.537493
 31
0.0
  0
LWPOLYLINE
  5
9A
100
AcDbEntity
  8
R-DOOR-DETL
  6
CONTINUOUS
100
AcDbPolyline
 90
       45
 70
     0
 43
0.0
 10
13.661135
 20
14.033739
 10
13.661135
 20
15.946396
 42
0.414214
 10
13.505135
 20
16.102396
 10
13.335228
 20
16.102396
 42
0.267949
 10
13.322238
 20
16.094896
 10
13.271142
 20
16.006396
 10
13.306142
 20
16.006396
 10
13.306142
 20
15.92525
 42
-0.217649
 10
13.30096
 20
15.91391
 10
13.234135
 20
15.856055
 42
-0.180309
 10
13.224317
 20
15.852396
 10
13.177502
 20
15.852396
 42
-0.358921
 10
13.162779
 20
15.864528
 10
13.135142
 20
16.006396
 10
13.153142
 20
16.006396
 42
1.0
 10
13.153142
 20
16.042396
 10
13.120142
 20
16.042396
 42
0.414214
 10
13.105142
 20
16.027396
 10
13.105142
 20
15.361098
 10
13.079692
 20
14.632314
 42
-0.404026
 10
13.048711
 20
14.602396
 10
12.740142
 20
14.602396
 10
12.730142
 20
14.592396
 10
12.720142
 20
14.602396
 10
12.411573
 20
14.602396
 42
-0.404026
 10
12.380592
 20
14.632314
 10
12.355142
 20
15.361098
 10
12.355142
 20
16.027396
 42
0.414214
 10
12.340142
 20
16.042396
 10
12.307142
 20
16.042396
 42
1.0
 10
12.307142
 20
16.006396
 10
12.325142
 20
16.006396
 10
12.297505
 20
15.864528
 42
-0.358921
 10
12.282782
 20
15.852396
 10
12.235967
 20
15.852396
 42
-0.180309
 10
12.226149
 20
15.856055
 10
12.159324
 20
15.91391
 42
-0.217649
 10
12.154142
 20
15.92525
 10
12.154142
 20
16.006396
 10
12.189142
 20
16.006396
 10
12.138047
 20
16.094896
 42
0.267949
 10
12.125056
 20
16.102396
 10
11.95515
 20
16.102396
 42
0.414214
 10
11.79915
 20
15.946396
 10
11.79915
 20
14.033739
  0
LWPOLYLINE
  5
9B
100
AcDbEntity
  8
R-DOOR-DETL
  6
CONTINUOUS
100
AcDbPolyline
 90
       44
 70
     1
 43
0.0
 10
12.233657
 20
15.690832
 10
12.044506
 20
15.85459
 42
-0.217649
 10
12.034142
 20
15.877271
 10
12.034142
 20
15.919896
 42
0.414214
 10
11.971642
 20
15.982396
 10
11.95515
 20
15.982396
 42
0.414214
 10
11.89315
 20
15.920396
 10
11.89315
 20
15.72638
 42
0.414214
 10
11.90815
 20
15.71138
 10
11.934142
 20
15.71138
 42
-0.414214
 10
11.949142
 20
15.69638
 10
11.949142
 20
15.52638
 42
-0.414214
 10
11.934142
 20
15.51138
 10
11.90815
 20
15.51138
 42
0.414214
 10
11.89315
 20
15.49638
 10
11.89315
 20
14.118239
 42
0.414214
 10
11.95565
 20
14.055739
 10
12.720142
 20
14.055739
 10
12.730142
 20
14.045739
 10
12.740142
 20
14.055739
 10
13.504635
 20
14.055739
 42
0.414214
 10
13.567135
 20
14.118239
 10
13.567135
 20
15.49638
 42
0.414214
 10
13.552135
 20
15.51138
 10
13.526142
 20
15.51138
 42
-0.414214
 10
13.511142
 20
15.52638
 10
13.511142
 20
15.69638
 42
-0.414214
 10
13.526142
 20
15.71138
 10
13.552135
 20
15.71138
 42
0.414214
 10
13.567135
 20
15.72638
 10
13.567135
 20
15.920396
 42
0.414214
 10
13.505135
 20
15.982396
 10
13.488642
 20
15.982396
 42
0.414214
 10
13.426142
 20
15.919896
 10
13.426142
 20
15.877271
 42
-0.217649
 10
13.415778
 20
15.85459
 10
13.226627
 20
15.690832
 42
0.208526
 10
13.215937
 20
15.668477
 10
13.179429
 20
14.623033
 42
-0.326998
 10
13.054505
 20
14.448575
 10
12.730142
 20
14.448575
 10
12.405779
 20
14.448575
 42
-0.326998
 10
12.280855
 20
14.623033
 10
12.244347
 20
15.668477
 42
0.208526
  0
REGION
  5
9C
100
AcDbEntity
  8
R-DOOR-DETL
  6
CONTINUOUS
100
AcDbModelerGeometry
 70
     1
  1
noi mi n o          
  1
=0;& {rn {n {rn {rn |
  1
3*2/ {rn {rn {m {o |
  1
,7:33 {rn {rn {rn {l {n |
  1
9><: {rn {rn {k {m {rn {j -:):-,:; ;0*=3: 0*+ |
  1
300/ {rn {rn {i {l |
  1
/3>1:r,*-9><: {rn nmqhkonkmnjolonjg njqkhkffmgoihngjkl o o o rn rn o o o V V V V |
  1
<0:;8: {rn {h {g {rn {f o {k {rn |
  1
<0:;8: {rn {no {i {rn {nn o {k {rn |
  1
<0:;8: {rn {i {no {rn {nm o {k {rn |
  1
:;8: {rn {nl {nk {i {nj o |
  1
<0:;8: {rn {g {h {rn {ni o {k {rn |
  1
:;8: {rn {nk {nh {h {ng o |
  1
:;8: {rn {nf {nl {g {mo o |
  1
):-+:' {rn {f {mn |
  1
):-+:' {rn {f {mm |
  1
,+->687+r<*-): {rn nlqojjnkmnjolonjmn njqknmkfmgoihngjkl o o n o V V |
  1
:;8: {rn {nh {nf {no {ml o |
  1
):-+:' {rn {nn {mk |
  1
,+->687+r<*-): {rn nlqojjnkmnjolonjmn njqjlhkfmgoihngjkl o rn o o V V |
  1
):-+:' {rn {ni {mj |
  1
,+->687+r<*-): {rn nmqkmjnkmnjolonjmj njqknmkfmgoihngjkl o n o o V V |
  1
/061+ {rn nlqojjnkmnjolonjmn njqknmkfmgoihngjkl o |
  1
/061+ {rn nlqojjnkmnjolonjmn njqjlhkfmgoihngjkl o |
  1
,+->687+r<*-): {rn nmqkmjnkmnjolonjmj njqjlhkfmgoihngjkl o o rn o V V |
  1
/061+ {rn nmqkmjnkmnjolonjmj njqjlhkfmgoihngjkl o |
  1
/061+ {rn nmqkmjnkmnjolonjmj njqknmkfmgoihngjkl o |
  0
ARC
  5
9D
100
AcDbEntity
  8
R-DOOR-DETL
  6
CONTINUOUS
 62
     3
100
AcDbCircle
 10
12.675142
 20
15.162493
 30
0.0
 40
0.125
100
AcDbArc
 50
90.0
 51
180.0
  0
LINE
  5
9E
100
AcDbEntity
  8
R-DOOR-DETL
  6
CONTINUOUS
 62
     3
100
AcDbLine
 10
12.550142
 20
14.602493
 30
0.0
 11
12.425142
 21
14.602493
 31
0.0
  0
LINE
  5
9F
100
AcDbEntity
  8
R-DOOR-DETL
  6
CONTINUOUS
 62
     3
100
AcDbLine
 10
12.421573
 20
14.448575
 30
0.0
 11
12.730142
 21
14.448575
 31
0.0
  0
ARC
  5
A0
100
AcDbEntity
  8
R-DOOR-DETL
  6
CONTINUOUS
100
AcDbCircle
 10
11.79915
 20
14.008739
 30
0.0
 40
0.025
100
AcDbArc
 50
270.0
 51
90.0
  0
LINE
  5
A1
100
AcDbEntity
  8
R-DOOR-DETL
  6
CONTINUOUS
 62
     3
100
AcDbLine
 10
12.425142
 20
14.602493
 30
0.0
 11
12.425142
 21
15.412493
 31
0.0
  0
LINE
  5
A2
100
AcDbEntity
  8
R-DOOR-DETL
  6
CONTINUOUS
 62
     3
100
AcDbLine
 10
12.740142
 20
14.438575
 30
0.0
 11
12.750142
 21
14.448575
 31
0.0
  0
LINE
  5
A3
100
AcDbEntity
  8
R-DOOR-DETL
  6
CONTINUOUS
 62
     3
100
AcDbLine
 10
12.740142
 20
14.438575
 30
0.0
 11
12.730142
 21
14.448575
 31
0.0
  0
LINE
  5
A4
100
AcDbEntity
  8
R-DOOR-DETL
  6
CONTINUOUS
 62
     3
100
AcDbLine
 10
13.058711
 20
14.448575
 30
0.0
 11
12.750142
 21
14.448575
 31
0.0
  0
ARC
  5
A5
100
AcDbEntity
  8
R-DOOR-DETL
  6
CONTINUOUS
100
AcDbCircle
 10
13.661135
 20
14.008739
 30
0.0
 40
0.025
100
AcDbArc
 50
90.0
 51
270.0
  0
ARC
  5
A6
100
AcDbEntity
  8
R-DOOR-DETL
  6
CONTINUOUS
 62
     3
100
AcDbCircle
 10
12.805142
 20
15.162493
 30
0.0
 40
0.125
100
AcDbArc
 50
0.0
 51
90.0
  0
LINE
  5
A7
100
AcDbEntity
  8
R-DOOR-DETL
  6
CONTINUOUS
 62
     3
100
AcDbLine
 10
13.055142
 20
15.412493
 30
0.0
 11
13.055142
 21
14.602493
 31
0.0
  0
LINE
  5
A8
100
AcDbEntity
  8
R-DOOR-DETL
  6
CONTINUOUS
 62
     3
100
AcDbLine
 10
13.055142
 20
14.602493
 30
0.0
 11
12.930142
 21
14.602493
 31
0.0
  0
LINE
  5
A9
100
AcDbEntity
  8
R-DOOR-DETL
  6
CONTINUOUS
 62
     3
100
AcDbLine
 10
12.930142
 20
14.602493
 30
0.0
 11
12.930142
 21
15.162493
 31
0.0
  0
LINE
  5
AA
100
AcDbEntity
  8
R-DOOR-DETL
  6
CONTINUOUS
 62
     3
100
AcDbLine
 10
12.550142
 20
15.162493
 30
0.0
 11
12.550142
 21
14.602493
 31
0.0
  0
LINE
  5
AB
100
AcDbEntity
  8
R-DOOR-DETL
  6
CONTINUOUS
 62
     3
100
AcDbLine
 10
12.805142
 20
15.287493
 30
0.0
 11
12.675142
 21
15.287493
 31
0.0
  0
LINE
  5
AC
100
AcDbEntity
  8
R-DOOR-DETL
100
AcDbLine
 10
12.593069
 20
18.754437
 30
0.0
 11
12.497522
 21
18.78454
 31
0.0
  0
LINE
  5
AD
100
AcDbEntity
  8
R-DOOR-DETL
100
AcDbLine
 10
12.982948
 20
18.79295
 30
0.0
 11
12.905569
 21
18.848187
 31
0.0
  0
LINE
  5
AE
100
AcDbEntity
  8
R-DOOR-DETL
100
AcDbLine
 10
12.780569
 20
18.754437
 30
0.0
 11
12.655569
 21
18.848187
 31
0.0
  0
LINE
  5
AF
100
AcDbEntity
  8
R-DOOR-DETL
100
AcDbLine
 10
12.655569
 20
18.848187
 30
0.0
 11
12.593069
 21
18.754437
 31
0.0
  0
LINE
  5
B0
100
AcDbEntity
  8
R-DOOR-DETL
100
AcDbLine
 10
12.905569
 20
18.848187
 30
0.0
 11
12.780569
 21
18.754437
 31
0.0
  0
DIMENSION
  5
B1
100
AcDbEntity
  8
R-DOOR-ANNO
100
AcDbDimension
  2
*D5
 10
5.702314
 20
26.969568
 30
0.0
 11
7.142314
 21
27.689568
 31
0.0
 12
0.0
 22
0.0
 32
0.0
  1
<>\P[27mm]
  3
STANDARD
100
AcDbAlignedDimension
 13
12.498044
 23
25.920068
 33
0.0
 14
10.14721
 24
26.969568
 34
0.0
 50
90.0
100
AcDbRotatedDimension
1001
ACAD
1000
DSTYLE
1002
{
1070
    40
1040
2.0
1002
}
  0
HATCH
  5
B2
100
AcDbEntity
  8
R-DOOR-PATT
  6
CONTINUOUS
 62
     5
100
AcDbHatch
 10
0.0
 20
0.0
 30
0.0
210
0.0
220
0.0
230
1.0
  2
ANSI31
 70
     0
 71
     0
 91
        1
 92
        7
 72
     0
 73
     1
 93
        4
 10
15.74804390828853
 20
26.96956795953096
 10
9.748043908288536
 20
26.96956795953096
 10
9.748043908288536
 20
28.96956795953096
 10
15.74804390828853
 20
28.96956795953096
 97
        0
 75
     0
 76
     1
 52
180.0
 41
2.5
 77
     0
 78
     1
 53
225.0
 43
-301.815119
 44
-12.314709
 45
0.2209708691207961
 46
-0.2209708691207961
 79
     0
 47
0.011976
 98
        1
 10
12.475243
 20
27.778661
  0
LINE
  5
B3
100
AcDbEntity
  8
R-DOOR-DETL
 62
     3
100
AcDbLine
 10
9.748044
 20
26.969568
 30
0.0
 11
15.748044
 21
26.969568
 31
0.0
  0
TEXT
  5
B4
100
AcDbEntity
  8
4-2
 62
     4
100
AcDbText
 10
12.886796
 20
30.116074
 30
0.0
 40
0.35
  1
CLEAR OPENING LESS 7 3/16"
100
AcDbText
  0
MTEXT
  5
B5
102
{ACAD_REACTORS
330
B6
102
}
100
AcDbEntity
  8
R-DOOR-ANNO
  6
CONTINUOUS
100
AcDbMText
 10
16.005038
 20
24.277804
 30
0.0
 40
0.36
 41
0.0
 71
     4
 72
     1
  1
CLADDING
  7
ROMANS
  0
LEADER
  5
B6
100
AcDbEntity
  8
R-DOOR-ANNO
  6
CONTINUOUS
100
AcDbLeader
  3
STANDARD
 73
     0
 74
     0
 75
     1
 40
0.36
 41
2.451429
 76
     3
 10
13.651819
 20
25.584525
 30
0.0
 10
15.395038
 20
24.277804
 30
0.0
 10
15.895038
 20
24.277804
 30
0.0
 77
   256
340
B5
213
-0.0199999999999996
223
0.0
233
0.0
1001
ACAD
1000
DSTYLE
1002
{
1070
   173
1070
     1
1070
     6
1000
_DOTSMALL
1070
    41
1040
0.5
1002
}
  0
LINE
  5
B7
100
AcDbEntity
  8
R-DOOR-DETL
100
AcDbLine
 10
12.498044
 20
20.843734
 30
0.0
 11
12.498044
 21
25.920068
 31
0.0
  0
LINE
  5
B8
100
AcDbEntity
  8
R-DOOR-DETL
100
AcDbLine
 10
12.869027
 20
20.8416
 30
0.0
 11
12.869027
 21
25.920068
 31
0.0
  0
LINE
  5
B9
100
AcDbEntity
  8
R-DOOR-DETL
100
AcDbLine
 10
12.931527
 20
20.866293
 30
0.0
 11
12.931527
 21
25.920068
 31
0.0
  0
LINE
  5
BA
100
AcDbEntity
  8
R-DOOR-DETL
100
AcDbLine
 10
12.556527
 20
20.801985
 30
0.0
 11
12.556527
 21
25.920068
 31
0.0
  0
LINE
  5
BB
100
AcDbEntity
  8
R-DOOR-DETL
100
AcDbLine
 10
12.619027
 20
20.813065
 30
0.0
 11
12.619027
 21
25.920068
 31
0.0
  0
LINE
  5
BC
100
AcDbEntity
  8
R-DOOR-DETL
100
AcDbLine
 10
12.681527
 20
20.85994
 30
0.0
 11
12.681527
 21
25.920068
 31
0.0
  0
LINE
  5
BD
100
AcDbEntity
  8
R-DOOR-DETL
100
AcDbLine
 10
12.806527
 20
20.802869
 30
0.0
 11
12.806527
 21
25.920068
 31
0.0
  0
LINE
  5
BE
100
AcDbEntity
  8
R-DOOR-DETL
100
AcDbLine
 10
12.98347
 20
20.849928
 30
0.0
 11
12.98347
 21
25.920068
 31
0.0
  0
LWPOLYLINE
  5
BF
100
AcDbEntity
  8
R-DOOR-DETL
100
AcDbPolyline
 90
        6
 70
     0
 43
0.0
 10
12.498044
 20
20.843734
 10
12.58098
 20
20.78453
 10
12.70598
 20
20.87828
 10
12.83098
 20
20.78453
 10
12.89348
 20
20.87828
 10
12.98347
 20
20.849928
  0
LINE
  5
C0
100
AcDbEntity
  8
R-DOOR-DETL
100
AcDbLine
 10
12.498044
 20
25.920068
 30
0.0
 11
12.98347
 21
25.920068
 31
0.0
  0
LWPOLYLINE
  5
C1
100
AcDbEntity
  8
R-DOOR-DETL
  6
CONTINUOUS
 62
     3
100
AcDbPolyline
 90
       28
 70
     1
 43
0.0
 10
12.21049
 20
25.554471
 10
12.139599
 20
25.477107
 42
-1.0
 10
12.12854
 20
25.487241
 10
12.206031
 20
25.571808
 42
-0.210277
 10
12.21709
 20
25.576674
 10
12.27689
 20
25.576674
 42
-0.210277
 10
12.287949
 20
25.571808
 10
12.365441
 20
25.487241
 42
-1.0
 10
12.354381
 20
25.477107
 10
12.288083
 20
25.549459
 10
12.308806
 20
25.426655
 42
0.41637
 10
12.326202
 20
25.414378
 10
12.370095
 20
25.422118
 42
0.36397
 10
12.38249
 20
25.43689
 10
12.38249
 20
25.629073
 42
-0.767327
 10
12.499608
 20
25.660454
 10
12.558711
 20
25.558086
 42
-1.0
 10
12.531864
 20
25.542586
 10
12.48149
 20
25.629836
 10
12.48149
 20
25.359962
 42
0.36397
 10
12.493885
 20
25.34519
 10
12.660029
 20
25.315895
 42
-1.0
 10
12.653951
 20
25.281426
 10
12.48149
 20
25.311836
 10
12.15949
 20
25.311836
 42
-0.414214
 10
12.14449
 20
25.326836
 10
12.14449
 20
25.343836
 10
12.21049
 20
25.343836
  0
LWPOLYLINE
  5
C2
100
AcDbEntity
  8
R-DOOR-DETL
  6
CONTINUOUS
 62
     3
100
AcDbPolyline
 90
       85
 70
     1
 43
0.0
 10
13.193747
 20
26.806824
 10
13.223044
 20
26.857568
 10
13.388044
 20
26.857568
 42
-0.414214
 10
13.448044
 20
26.797568
 10
13.448044
 20
26.117241
 42
0.198912
 10
13.356986
 20
26.129229
 10
13.372515
 20
26.071274
 42
-3.732051
 10
13.330088
 20
26.028847
 10
13.272133
 20
26.044376
 42
0.668179
 10
13.448044
 20
25.909395
 10
13.448044
 20
25.468568
 42
-0.414214
 10
13.433044
 20
25.453568
 10
13.399044
 20
25.453568
 42
-0.414214
 10
13.384044
 20
25.468568
 10
13.384044
 20
25.56213
 42
0.217649
 10
13.378862
 20
25.573471
 10
13.274401
 20
25.663908
 42
0.180309
 10
13.264583
 20
25.667568
 10
13.138044
 20
25.667568
 42
0.414214
 10
13.123044
 20
25.652568
 10
13.123044
 20
25.432568
 42
0.414214
 10
13.138044
 20
25.417568
 10
13.171044
 20
25.417568
 42
1.0
 10
13.171044
 20
25.453568
 10
13.153044
 20
25.453568
 10
13.180681
 20
25.595436
 42
-0.358921
 10
13.195404
 20
25.607568
 10
13.242219
 20
25.607568
 42
-0.180309
 10
13.252037
 20
25.603908
 10
13.318862
 20
25.546054
 42
-0.217649
 10
13.324044
 20
25.534714
 10
13.324044
 20
25.453568
 10
13.289044
 20
25.453568
 10
13.340139
 20
25.365068
 42
0.267949
 10
13.35313
 20
25.357568
 10
13.545044
 20
25.357568
 42
0.414214
 10
13.560044
 20
25.372568
 10
13.560044
 20
26.954568
 42
0.414214
 10
13.545044
 20
26.969568
 10
11.951044
 20
26.969568
 42
0.414214
 10
11.936044
 20
26.954568
 10
11.936044
 20
25.372568
 42
0.414214
 10
11.951044
 20
25.357568
 10
12.142958
 20
25.357568
 42
0.267949
 10
12.155948
 20
25.365068
 10
12.207044
 20
25.453568
 10
12.172044
 20
25.453568
 10
12.172044
 20
25.534714
 42
-0.217649
 10
12.177226
 20
25.546054
 10
12.244051
 20
25.603908
 42
-0.180309
 10
12.253869
 20
25.607568
 10
12.300684
 20
25.607568
 42
-0.358921
 10
12.315407
 20
25.595436
 10
12.343044
 20
25.453568
 10
12.325044
 20
25.453568
 42
1.0
 10
12.325044
 20
25.417568
 10
12.358044
 20
25.417568
 42
0.414214
 10
12.373044
 20
25.432568
 10
12.373044
 20
25.652568
 42
0.414214
 10
12.358044
 20
25.667568
 10
12.231505
 20
25.667568
 42
0.180309
 10
12.221687
 20
25.663908
 10
12.117226
 20
25.573471
 42
0.217649
 10
12.112044
 20
25.56213
 10
12.112044
 20
25.468568
 42
-0.414214
 10
12.097044
 20
25.453568
 10
12.063044
 20
25.453568
 42
-0.414214
 10
12.048044
 20
25.468568
 10
12.048044
 20
25.909395
 42
0.668179
 10
12.223955
 20
26.044376
 10
12.165999
 20
26.028847
 42
-3.732051
 10
12.123573
 20
26.071274
 10
12.139102
 20
26.129229
 42
0.198912
 10
12.048044
 20
26.117241
 10
12.048044
 20
26.797568
 42
-0.414214
 10
12.108044
 20
26.857568
 10
12.273044
 20
26.857568
 10
12.302341
 20
26.806824
 42
0.57735
 10
12.383747
 20
26.806824
 10
12.413044
 20
26.857568
 10
12.738044
 20
26.857568
 10
12.748044
 20
26.867568
 10
12.758044
 20
26.857568
 10
13.083044
 20
26.857568
 10
13.112341
 20
26.806824
 42
0.57735
  0
REGION
  5
C3
100
AcDbEntity
  8
R-DOOR-DETL
  6
CONTINUOUS
100
AcDbModelerGeometry
 70
     1
  1
noi ki n o          
  1
=0;& {rn {n {rn {rn |
  1
3*2/ {rn {rn {m {o |
  1
,7:33 {rn {rn {rn {l {n |
  1
9><: {rn {rn {k {m {rn {j 90-(>-; ;0*=3: 0*+ |
  1
300/ {rn {rn {i {l |
  1
/3>1:r,*-9><: {rn nlqjlmkhknkhfinogm mjqiifoomjnjifnmok o o o n n o o n V V V V |
  1
<0:;8: {rn {h {g {rn {f o {k {rn |
  1
<0:;8: {rn {no {i {rn {nn o {k {rn |
  1
<0:;8: {rn {i {nm {rn {nl n {k {rn |
  1
:;8: {rn {nk {nj {i {ni o |
  1
<0:;8: {rn {nh {h {rn {ng o {k {rn |
  1
:;8: {rn {nj {nf {h {mo o |
  1
<0:;8: {rn {g {mn {rn {mm o {k {rn |
  1
:;8: {rn {nk {ml {g {mk o |
  1
):-+:' {rn {f {mj |
  1
):-+:' {rn {f {mi |
  1
,+->687+r<*-): {rn nlqinlfjhffnhhigkl mjqlihjihggfjfknnl o kqkljjikmklliihilj:ronj n o V V |
  1
<0:;8: {rn {mh {no {rn {mg o {k {rn |
  1
:;8: {rn {nf {mf {no {lo o |
  1
):-+:' {rn {nn {ln |
  1
,+->687+r<*-): {rn nlqinlfjhffnhhigkl miqfifkgfhjhkmnnhi o rn o o V V |
  1
<0:;8: {rn {nm {mh {rn {lm o {k {rn |
  1
:;8: {rn {ll {ml {nm {lk o |
  1
):-+:' {rn {mm {lj |
  1
:336/,:r<*-): {rn nlqjjlfjhffnhhigkn mjqlihjihggfjfknnl o o o rn oqoioooooooooooommhk o o n V V |
  1
/061+ {rn nlqinlfjhffnhhigkl mjqlihjihggfjfknnl o |
  1
/061+ {rn nlqinlfjhffnhhigkl miqfifkgfhjhkmnnhi o |
  1
<0:;8: {rn {mn {nh {rn {li o {k {rn |
  1
:;8: {rn {mf {lh {nh {lg o |
  1
):-+:' {rn {ng {lf |
  1
,+->687+r<*-): {rn nlqjilfjhffnhhigki miqfifkgfhjhkmnnhi o o rn o V V |
  1
/061+ {rn nlqjilfjhffnhhigki miqfifkgfhjhkmnnhi o |
  1
:;8: {rn {ko {ll {mn {kn o |
  1
):-+:' {rn {lm {km |
  1
,+->687+r<*-): {rn nlqljnhfooljljikgh mjqlohjihggfjfknnn o n o o V V |
  1
/061+ {rn nlqjjlfjhffnhhigkn mjqlohjihggfjfknnn o |
  1
:;8: {rn {lh {ko {mh {kl o |
  1
):-+:' {rn {mg {kk |
  1
:336/,:r<*-): {rn nlqjjlfjhffnhhigkn mjqlihjihggfjfknnl o o o rn oqonoooooooooooojnni o o n V V |
  1
/061+ {rn nlqjilfjhffnhhigki mjqlihjihggfjfknnl o |
  1
):-+:' {rn {li {kj |
  1
,+->687+r<*-): {rn nlqljnhfooljljikgh mjqljhjihggfjfknmm o o rn o V V |
  1
/061+ {rn nlqljnhfooljljikgh mjqlohjihggfjfknnn o |
  1
,+->687+r<*-): {rn nlqjjlfjhffnhhigkn mjqljhjihggfjfknmm o rn o o V V |
  1
/061+ {rn nlqjjlfjhffnhhigkn mjqljhjihggfjfknmm o |
  1
/061+ {rn nlqljnhfooljljikgh mjqljhjihggfjfknmm o |
  0
LWPOLYLINE
  5
C4
100
AcDbEntity
  8
R-DOOR-DETL
  6
CONTINUOUS
 62
     3
100
AcDbPolyline
 90
       28
 70
     1
 43
0.0
 10
13.285598
 20
25.554471
 10
13.356489
 20
25.477107
 42
1.0
 10
13.367548
 20
25.487241
 10
13.290057
 20
25.571808
 42
0.210277
 10
13.278997
 20
25.576674
 10
13.219198
 20
25.576674
 42
0.210277
 10
13.208139
 20
25.571808
 10
13.130647
 20
25.487241
 42
1.0
 10
13.141706
 20
25.477107
 10
13.208005
 20
25.549459
 10
13.187282
 20
25.426655
 42
-0.41637
 10
13.169886
 20
25.414378
 10
13.125993
 20
25.422118
 42
-0.36397
 10
13.113598
 20
25.43689
 10
13.113598
 20
25.629073
 42
0.767327
 10
12.996479
 20
25.660454
 10
12.937377
 20
25.558086
 42
1.0
 10
12.964224
 20
25.542586
 10
13.014598
 20
25.629836
 10
13.014598
 20
25.359962
 42
-0.36397
 10
13.002202
 20
25.34519
 10
12.836059
 20
25.315895
 42
1.0
 10
12.842136
 20
25.281426
 10
13.014598
 20
25.311836
 10
13.336598
 20
25.311836
 42
0.414214
 10
13.351598
 20
25.326836
 10
13.351598
 20
25.343836
 10
13.285598
 20
25.343836
  0
TEXT
  5
C5
100
AcDbEntity
  8
4-2
 62
     4
100
AcDbText
 10
12.886796
 20
31.984466
 30
0.0
 40
0.35
  1
AND NON CLAD U-CHANNEL AND RAIL
100
AcDbText
  0
TEXT
  5
C6
100
AcDbEntity
  8
4-2
 62
     4
100
AcDbText
 10
12.886796
 20
30.747805
 30
0.0
 40
0.35
  1
REVERSE SADDLE. GLASS WILL BE
100
AcDbText
  0
TEXT
  5
C7
100
AcDbEntity
  8
4-2
 62
     4
100
AcDbText
 10
12.090268
 20
31.331139
 30
0.0
 40
0.35
  1
2. FOR 3/4" SADDLE (TO MATCH THRESHOLD)
100
AcDbText
  0
TEXT
  5
C8
100
AcDbEntity
  8
4-2
 62
     4
100
AcDbText
 10
12.203363
 20
32.567799
 30
0.0
 40
0.35
  1
1. DIMENSIONS ARE THE SAME FOR CLAD
100
AcDbText
  0
TEXT
  5
C9
100
AcDbEntity
  8
4-2
 62
     4
100
AcDbText
 10
12.203363
 20
33.151133
 30
0.0
 40
0.35
  1
NOTE:
100
AcDbText
  0
ENDBLK
  5
CB
100
AcDbEntity
  8
0
100
AcDbBlockEnd
  0
BLOCK
  5
270
100
AcDbEntity
  8
0
100
AcDbBlockBegin
  2
*D10
 70
     1
 10
0.0
 20
0.0
 30
0.0
  3
*D10
  1

  0
LINE
  5
271
100
AcDbEntity
  8
0
  6
BYBLOCK
 62
     0
100
AcDbLine
 10
17.131133
 20
28.867255
 30
0.0
 11
23.64012
 21
28.867255
 31
0.0
  0
LINE
  5
272
100
AcDbEntity
  8
0
  6
BYBLOCK
 62
     0
100
AcDbLine
 10
17.110433
 20
11.80563
 30
0.0
 11
23.64012
 21
11.80563
 31
0.0
  0
LINE
  5
273
100
AcDbEntity
  8
0
  6
BYBLOCK
 62
     0
100
AcDbLine
 10
23.28012
 20
28.507255
 30
0.0
 11
23.28012
 21
20.696442
 31
0.0
  0
LINE
  5
274
100
AcDbEntity
  8
0
  6
BYBLOCK
 62
     0
100
AcDbLine
 10
23.28012
 20
12.16563
 30
0.0
 11
23.28012
 21
19.976442
 31
0.0
  0
SOLID
  5
275
100
AcDbEntity
  8
0
  6
BYBLOCK
 62
     0
100
AcDbTrace
 10
23.22012
 20
28.507255
 30
0.0
 11
23.34012
 21
28.507255
 31
0.0
 12
23.28012
 22
28.867255
 32
0.0
 13
23.28012
 23
28.867255
 33
0.0
  0
SOLID
  5
276
100
AcDbEntity
  8
0
  6
BYBLOCK
 62
     0
100
AcDbTrace
 10
23.22012
 20
12.16563
 30
0.0
 11
23.34012
 21
12.16563
 31
0.0
 12
23.28012
 22
11.80563
 32
0.0
 13
23.28012
 23
11.80563
 33
0.0
  0
MTEXT
  5
277
100
AcDbEntity
  8
0
  6
BYBLOCK
 62
     0
100
AcDbMText
 10
23.28012
 20
20.336442
 30
0.0
 40
0.36
 41
0.0
 71
     5
 72
     1
  1
\A1;CLEAR OPENING
  0
POINT
  5
278
100
AcDbEntity
  8
DEFPOINTS
  6
BYBLOCK
 62
     0
100
AcDbPoint
 10
17.006133
 20
28.867255
 30
0.0
  0
POINT
  5
279
100
AcDbEntity
  8
DEFPOINTS
  6
BYBLOCK
 62
     0
100
AcDbPoint
 10
16.985433
 20
11.80563
 30
0.0
  0
POINT
  5
27A
100
AcDbEntity
  8
DEFPOINTS
  6
BYBLOCK
 62
     0
100
AcDbPoint
 10
23.28012
 20
11.80563
 30
0.0
  0
ENDBLK
  5
27B
100
AcDbEntity
  8
0
100
AcDbBlockEnd
  0
BLOCK
  5
1AF
100
AcDbEntity
  8
0
100
AcDbBlockBegin
  2
A$C6BE867F4
 70
     0
 10
0.0
 20
0.0
 30
0.0
  3
A$C6BE867F4
  1

  0
MTEXT
  5
1AA
100
AcDbEntity
  8
0
 62
     4
100
AcDbMText
 10
2.434972
 20
2.319778
 30
0.0
 40
0.274008
 41
6.855394
 71
     1
 72
     5
  1
\fArial|b1|i0|c0|p34;DOOR RAIL SYSTEM
  0
LWPOLYLINE
  5
1AB
100
AcDbEntity
  8
0
 62
     4
100
AcDbPolyline
 90
        2
 70
     0
 43
0.030704
 10
0.137665
 20
1.940905
 10
6.158597
 20
1.940905
  0
MTEXT
  5
1AC
100
AcDbEntity
  8
0
 62
     4
100
AcDbMText
 10
0.152731
 20
1.682964
 30
0.0
 40
0.242751
 41
6.068763
 71
     1
 72
     5
  1
\fArial|b1|i1|c0|p34;C.R. Laurence Architectural Products
  0
MTEXT
  5
1AD
100
AcDbEntity
  8
0
 62
     4
100
AcDbMText
 10
0.157672
 20
1.238797
 30
0.0
 40
0.191898
 41
6.0133
 71
     1
 72
     5
  1
\fArial|b0|i1|c0|p34;Phone Orders (800) 421-6144\PFax Orders     (800) 262-3299\PWWW.CRLAURENCE.COM\PPatent Pending
  0
INSERT
  5
1AE
100
AcDbEntity
  8
0
 62
     4
100
AcDbBlockReference
  2
A$C2189253D
 10
0.143797
 20
2.032527
 30
0.0
 41
2.535564
 42
2.535564
 43
2.535564
  0
ENDBLK
  5
1B0
100
AcDbEntity
  8
0
100
AcDbBlockEnd
  0
BLOCK
  5
1B3
100
AcDbEntity
  8
0
100
AcDbBlockBegin
  2
A$C0E897680
 70
     0
 10
0.0
 20
0.0
 30
0.0
  3
A$C0E897680
  1

  0
INSERT
  5
1B2
100
AcDbEntity
  8
0
100
AcDbBlockReference
  2
A$C6BE867F4
 10
0.0
 20
0.0
 30
0.0
  0
ENDBLK
  5
1B4
100
AcDbEntity
  8
0
100
AcDbBlockEnd
  0
BLOCK
  5
1B8
100
AcDbEntity
  8
0
100
AcDbBlockBegin
  2
A$C60D73A4C
 70
     0
 10
0.0
 20
0.0
 30
0.0
  3
A$C60D73A4C
  1

  0
INSERT
  5
1B7
100
AcDbEntity
  8
R-DOOR-DETL
100
AcDbBlockReference
  2
A$C0E897680
 10
0.0
 20
0.0
 30
0.0
  0
ENDBLK
  5
1B9
100
AcDbEntity
  8
0
100
AcDbBlockEnd
  0
BLOCK
  5
1C5
100
AcDbEntity
  8
0
100
AcDbBlockBegin
  2
A$C74654F65
 70
     0
 10
0.0
 20
0.0
 30
0.0
  3
A$C74654F65
  1

  0
INSERT
  5
1C4
100
AcDbEntity
  8
R-DOOR-ANNO
100
AcDbBlockReference
  2
A$C60D73A4C
 10
0.0
 20
0.0
 30
0.0
  0
ENDBLK
  5
1C6
100
AcDbEntity
  8
0
100
AcDbBlockEnd
  0
BLOCK
  5
1C9
100
AcDbEntity
  8
0
100
AcDbBlockBegin
  2
A$C5FA07A05
 70
     0
 10
0.0
 20
0.0
 30
0.0
  3
A$C5FA07A05
  1

  0
INSERT
  5
1C8
100
AcDbEntity
  8
0
100
AcDbBlockReference
  2
A$C74654F65
 10
0.0
 20
0.0
 30
0.0
  0
ENDBLK
  5
1CA
100
AcDbEntity
  8
0
100
AcDbBlockEnd
  0
BLOCK
  5
1CD
100
AcDbEntity
  8
0
100
AcDbBlockBegin
  2
A$C46F93324
 70
     0
 10
0.0
 20
0.0
 30
0.0
  3
A$C46F93324
  1

  0
INSERT
  5
1CC
100
AcDbEntity
  8
0
100
AcDbBlockReference
  2
A$C5FA07A05
 10
0.0
 20
0.0
 30
0.0
 41
1.5
 42
1.5
 43
1.5
  0
ENDBLK
  5
1CE
100
AcDbEntity
  8
0
100
AcDbBlockEnd
  0
BLOCK
  5
2C5
100
AcDbEntity
  8
0
100
AcDbBlockBegin
  2
*D20
 70
     1
 10
0.0
 20
0.0
 30
0.0
  3
*D20
  1

  0
LINE
  5
2BB
100
AcDbEntity
  8
0
  6
BYBLOCK
 62
     0
100
AcDbLine
 10
23.195863
 20
10.791523
 30
0.0
 11
22.270208
 21
10.791523
 31
0.0
  0
LINE
  5
2BC
100
AcDbEntity
  8
0
  6
BYBLOCK
 62
     0
100
AcDbLine
 10
23.52762
 20
16.42013
 30
0.0
 11
22.270208
 21
16.42013
 31
0.0
  0
LINE
  5
2BD
100
AcDbEntity
  8
0
  6
BYBLOCK
 62
     0
100
AcDbLine
 10
22.450208
 20
10.971523
 30
0.0
 11
22.450208
 21
13.242757
 31
0.0
  0
LINE
  5
2BE
100
AcDbEntity
  8
0
  6
BYBLOCK
 62
     0
100
AcDbLine
 10
22.450208
 20
16.24013
 30
0.0
 11
22.450208
 21
13.968896
 31
0.0
  0
SOLID
  5
2BF
100
AcDbEntity
  8
0
  6
BYBLOCK
 62
     0
100
AcDbTrace
 10
22.420208
 20
10.971523
 30
0.0
 11
22.480208
 21
10.971523
 31
0.0
 12
22.450208
 22
10.791523
 32
0.0
 13
22.450208
 23
10.791523
 33
0.0
  0
SOLID
  5
2C0
100
AcDbEntity
  8
0
  6
BYBLOCK
 62
     0
100
AcDbTrace
 10
22.420208
 20
16.24013
 30
0.0
 11
22.480208
 21
16.24013
 31
0.0
 12
22.450208
 22
16.42013
 32
0.0
 13
22.450208
 23
16.42013
 33
0.0
  0
MTEXT
  5
2C1
100
AcDbEntity
  8
0
  6
BYBLOCK
 62
     0
100
AcDbMText
 10
22.450208
 20
13.605827
 30
0.0
 40
0.18
 41
0.0
 71
     5
 72
     1
  1
\A1;5 5/8"\P(143mm)
  0
POINT
  5
2C2
100
AcDbEntity
  8
DEFPOINTS
  6
BYBLOCK
 62
     0
100
AcDbPoint
 10
23.258363
 20
10.791523
 30
0.0
  0
POINT
  5
2C3
100
AcDbEntity
  8
DEFPOINTS
  6
BYBLOCK
 62
     0
100
AcDbPoint
 10
23.59012
 20
16.42013
 30
0.0
  0
POINT
  5
2C4
100
AcDbEntity
  8
DEFPOINTS
  6
BYBLOCK
 62
     0
100
AcDbPoint
 10
22.450208
 20
16.42013
 30
0.0
  0
ENDBLK
  5
2C6
100
AcDbEntity
  8
0
100
AcDbBlockEnd
  0
BLOCK
  5
2D3
100
AcDbEntity
  8
0
100
AcDbBlockBegin
  2
*D21
 70
     1
 10
0.0
 20
0.0
 30
0.0
  3
*D21
  1

  0
LINE
  5
2C8
100
AcDbEntity
  8
0
  6
BYBLOCK
 62
     0
100
AcDbLine
 10
23.732773
 20
8.073194
 30
0.0
 11
24.203966
 21
8.073194
 31
0.0
  0
LINE
  5
2C9
100
AcDbEntity
  8
0
  6
BYBLOCK
 62
     0
100
AcDbLine
 10
23.650667
 20
8.320101
 30
0.0
 11
24.203966
 21
8.320101
 31
0.0
  0
LINE
  5
2CA
100
AcDbEntity
  8
0
  6
BYBLOCK
 62
     0
100
AcDbLine
 10
24.023966
 20
7.893194
 30
0.0
 11
24.023966
 21
7.713194
 31
0.0
  0
LINE
  5
2CB
100
AcDbEntity
  8
0
  6
BYBLOCK
 62
     0
100
AcDbLine
 10
24.023966
 20
8.500101
 30
0.0
 11
24.023966
 21
8.680101
 31
0.0
  0
LINE
  5
2CC
100
AcDbEntity
  8
0
  6
BYBLOCK
 62
     0
100
AcDbLine
 10
24.023966
 20
8.680101
 30
0.0
 11
24.203966
 21
8.680101
 31
0.0
  0
SOLID
  5
2CD
100
AcDbEntity
  8
0
  6
BYBLOCK
 62
     0
100
AcDbTrace
 10
23.993966
 20
7.893194
 30
0.0
 11
24.053966
 21
7.893194
 31
0.0
 12
24.023966
 22
8.073194
 32
0.0
 13
24.023966
 23
8.073194
 33
0.0
  0
SOLID
  5
2CE
100
AcDbEntity
  8
0
  6
BYBLOCK
 62
     0
100
AcDbTrace
 10
23.993966
 20
8.500101
 30
0.0
 11
24.053966
 21
8.500101
 31
0.0
 12
24.023966
 22
8.320101
 32
0.0
 13
24.023966
 23
8.320101
 33
0.0
  0
MTEXT
  5
2CF
100
AcDbEntity
  8
0
  6
BYBLOCK
 62
     0
100
AcDbMText
 10
24.66606
 20
8.680101
 30
0.0
 40
0.18
 41
0.0
 71
     5
 72
     1
  1
\A1;1/4"\P6mm)
  0
POINT
  5
2D0
100
AcDbEntity
  8
DEFPOINTS
  6
BYBLOCK
 62
     0
100
AcDbPoint
 10
23.670273
 20
8.073194
 30
0.0
  0
POINT
  5
2D1
100
AcDbEntity
  8
DEFPOINTS
  6
BYBLOCK
 62
     0
100
AcDbPoint
 10
23.588167
 20
8.320101
 30
0.0
  0
POINT
  5
2D2
100
AcDbEntity
  8
DEFPOINTS
  6
BYBLOCK
 62
     0
100
AcDbPoint
 10
24.023966
 20
8.320101
 30
0.0
  0
ENDBLK
  5
2D4
100
AcDbEntity
  8
0
100
AcDbBlockEnd
  0
BLOCK
  5
2E0
100
AcDbEntity
  8
0
100
AcDbBlockBegin
  2
*D22
 70
     1
 10
0.0
 20
0.0
 30
0.0
  3
*D22
  1

  0
LINE
  5
2D6
100
AcDbEntity
  8
0
  6
BYBLOCK
 62
     0
100
AcDbLine
 10
24.896112
 20
16.785201
 30
0.0
 11
24.896112
 21
19.488646
 31
0.0
  0
LINE
  5
2D7
100
AcDbEntity
  8
0
  6
BYBLOCK
 62
     0
100
AcDbLine
 10
22.914127
 20
16.836148
 30
0.0
 11
22.914127
 21
19.488646
 31
0.0
  0
LINE
  5
2D8
100
AcDbEntity
  8
0
  6
BYBLOCK
 62
     0
100
AcDbLine
 10
24.716112
 20
19.308646
 30
0.0
 11
24.498408
 21
19.308646
 31
0.0
  0
LINE
  5
2D9
100
AcDbEntity
  8
0
  6
BYBLOCK
 62
     0
100
AcDbLine
 10
23.094127
 20
19.308646
 30
0.0
 11
23.311832
 21
19.308646
 31
0.0
  0
SOLID
  5
2DA
100
AcDbEntity
  8
0
  6
BYBLOCK
 62
     0
100
AcDbTrace
 10
24.716112
 20
19.338646
 30
0.0
 11
24.716112
 21
19.278646
 31
0.0
 12
24.896112
 22
19.308646
 32
0.0
 13
24.896112
 23
19.308646
 33
0.0
  0
SOLID
  5
2DB
100
AcDbEntity
  8
0
  6
BYBLOCK
 62
     0
100
AcDbTrace
 10
23.094127
 20
19.338646
 30
0.0
 11
23.094127
 21
19.278646
 31
0.0
 12
22.914127
 22
19.308646
 32
0.0
 13
22.914127
 23
19.308646
 33
0.0
  0
MTEXT
  5
2DC
100
AcDbEntity
  8
0
  6
BYBLOCK
 62
     0
100
AcDbMText
 10
23.90512
 20
19.308646
 30
0.0
 40
0.18
 41
0.0
 71
     5
 72
     1
  1
\A1;2"\P(51mm)
  0
POINT
  5
2DD
100
AcDbEntity
  8
DEFPOINTS
  6
BYBLOCK
 62
     0
100
AcDbPoint
 10
24.896112
 20
16.722701
 30
0.0
  0
POINT
  5
2DE
100
AcDbEntity
  8
DEFPOINTS
  6
BYBLOCK
 62
     0
100
AcDbPoint
 10
22.914127
 20
16.773648
 30
0.0
  0
POINT
  5
2DF
100
AcDbEntity
  8
DEFPOINTS
  6
BYBLOCK
 62
     0
100
AcDbPoint
 10
22.914127
 20
19.308646
 30
0.0
  0
ENDBLK
  5
2E1
100
AcDbEntity
  8
0
100
AcDbBlockEnd
  0
BLOCK
  5
2ED
100
AcDbEntity
  8
0
100
AcDbBlockBegin
  2
*D23
 70
     1
 10
0.0
 20
0.0
 30
0.0
  3
*D23
  1

  0
LINE
  5
2E3
100
AcDbEntity
  8
0
  6
BYBLOCK
 62
     0
100
AcDbLine
 10
23.650667
 20
8.320101
 30
0.0
 11
24.59934
 21
8.320101
 31
0.0
  0
LINE
  5
2E4
100
AcDbEntity
  8
0
  6
BYBLOCK
 62
     0
100
AcDbLine
 10
23.480667
 20
14.324554
 30
0.0
 11
24.59934
 21
14.324554
 31
0.0
  0
LINE
  5
2E5
100
AcDbEntity
  8
0
  6
BYBLOCK
 62
     0
100
AcDbLine
 10
24.41934
 20
8.500101
 30
0.0
 11
24.41934
 21
11.205112
 31
0.0
  0
LINE
  5
2E6
100
AcDbEntity
  8
0
  6
BYBLOCK
 62
     0
100
AcDbLine
 10
24.41934
 20
14.144554
 30
0.0
 11
24.41934
 21
11.931252
 31
0.0
  0
SOLID
  5
2E7
100
AcDbEntity
  8
0
  6
BYBLOCK
 62
     0
100
AcDbTrace
 10
24.38934
 20
8.500101
 30
0.0
 11
24.44934
 21
8.500101
 31
0.0
 12
24.41934
 22
8.320101
 32
0.0
 13
24.41934
 23
8.320101
 33
0.0
  0
SOLID
  5
2E8
100
AcDbEntity
  8
0
  6
BYBLOCK
 62
     0
100
AcDbTrace
 10
24.38934
 20
14.144554
 30
0.0
 11
24.44934
 21
14.144554
 31
0.0
 12
24.41934
 22
14.324554
 32
0.0
 13
24.41934
 23
14.324554
 33
0.0
  0
MTEXT
  5
2E9
100
AcDbEntity
  8
0
  6
BYBLOCK
 62
     0
100
AcDbMText
 10
24.41934
 20
11.568182
 30
0.0
 40
0.18
 41
0.0
 71
     5
 72
     1
  1
\A1;6"\P(152mm)
  0
POINT
  5
2EA
100
AcDbEntity
  8
DEFPOINTS
  6
BYBLOCK
 62
     0
100
AcDbPoint
 10
23.588167
 20
8.320101
 30
0.0
  0
POINT
  5
2EB
100
AcDbEntity
  8
DEFPOINTS
  6
BYBLOCK
 62
     0
100
AcDbPoint
 10
23.418167
 20
14.324554
 30
0.0
  0
POINT
  5
2EC
100
AcDbEntity
  8
DEFPOINTS
  6
BYBLOCK
 62
     0
100
AcDbPoint
 10
24.41934
 20
14.324554
 30
0.0
  0
ENDBLK
  5
2EE
100
AcDbEntity
  8
0
100
AcDbBlockEnd
  0
BLOCK
  5
3B2
100
AcDbEntity
  8
0
100
AcDbBlockBegin
  2
A$C59AD7358
 70
     0
 10
0.0
 20
0.0
 30
0.0
  3
A$C59AD7358
  1

  0
DIMENSION
  5
2F3
100
AcDbEntity
  8
DIMN
100
AcDbDimension
  2
*D23
 10
4.11912
 20
6.626359
 30
0.0
 11
4.11912
 21
3.869988
 31
0.0
 12
-20.300219
 22
-7.698194
 32
0.0
 70
   128
  1
<>\P(152mm)
  3
STANDARD
100
AcDbAlignedDimension
 13
3.287948
 23
0.621906
 33
0.0
 14
3.117948
 24
6.626359
 34
0.0
 50
90.0
100
AcDbRotatedDimension
1001
ACAD
1000
DSTYLE
1002
{
1070
   270
1070
     7
1070
     3
1000
"
1070
     4
1000
mm
1070
   171
1070
     0
1002
}
  0
LINE
  5
2F4
102
{ACAD_REACTORS
330
2F6
102
}
100
AcDbEntity
  8
EXTRUSION
  6
CONTINUOUS
100
AcDbLine
 10
3.317948
 20
0.651906
 30
0.0
 11
3.317948
 21
6.426359
 31
0.0
  0
LINE
  5
2F5
102
{ACAD_REACTORS
330
2F6
102
}
100
AcDbEntity
  8
EXTRUSION
  6
CONTINUOUS
100
AcDbLine
 10
1.335963
 20
0.651906
 30
0.0
 11
1.335963
 21
6.426359
 31
0.0
  0
HATCH
  5
2F6
100
AcDbEntity
  8
6
  6
CONTINUOUS
 62
     5
100
AcDbHatch
 10
0.0
 20
0.0
 30
0.0
210
0.0
220
0.0
230
1.0
  2
ANSI31
 70
     0
 71
     1
 91
        4
 92
        7
 72
     1
 73
     1
 93
       76
 10
2.008386212898727
 20
5.066359486053583
 42
-0.4040262258351908
 10
1.977405097261133
 20
5.096277601655806
 42
0.0
 10
1.951955399289545
 20
5.825061598743806
 42
0.0
 10
1.951955399289545
 20
6.501527785836486
 42
0.0512300597031157
 10
1.949006427120028
 20
6.502365897908726
 42
0.0
 10
1.917581529642685
 20
6.507906955199983
 42
0.0
 10
1.898364476982084
 20
6.409259418208948
 42
0.0
 10
1.933292857586778
 20
6.447377056891442
 42
-1.0
 10
1.944352017638934
 20
6.437243203777205
 42
0.0
 10
1.862401704455045
 20
6.347810130334336
 42
0.0
 10
1.78940170445502
 20
6.347810130334314
 42
0.0
 10
1.70745139127111
 20
6.437243203777191
 42
-1.0
 10
1.718510551323262
 20
6.447377056891427
 42
0.0
 10
1.789401704455016
 20
6.370012938828139
 42
0.0
 10
1.789401704455013
 20
6.409074398373057
 42
0.0
 10
1.750955399289544
 20
6.442359486053904
 42
0.0
 10
1.750955399289541
 20
6.530359486053903
 42
0.0
 10
1.785955399289552
 20
6.530359486053905
 42
0.0
 10
1.756921349760691
 20
6.580647934987377
 42
0.0
 10
1.723401704455014
 20
6.580647934987375
 42
0.0
 10
1.723401704455014
 20
6.597647934987378
 42
-0.38361923637887
 10
1.736821045579112
 20
6.612564419744789
 42
0.3908517848793749
 10
1.721869519409501
 20
6.626359486053907
 42
0.0
 10
1.535962877308868
 20
6.626359486053907
 42
0.4142135623731023
 10
1.335962877308865
 20
6.426359486053906
 42
0.0
 10
1.335962877308894
 20
0.6519064860536368
 42
0.4142135623730584
 10
1.365962877308895
 20
0.621906486053641
 42
0.0
 10
1.4119302195813
 20
0.621906486053641
 42
-0.1150353093398517
 10
1.425198303732102
 20
0.6250000194894998
 42
0.0
 10
1.635198303732096
 20
0.6250000194894998
 42
0.1142691856971507
 10
1.641791623071501
 20
0.6265267815680265
 42
0.1934163047219607
 10
1.645962877308889
 20
0.6369064860536451
 42
0.0
 10
1.645962877308882
 20
0.7009064860536363
 42
0.414213562373045
 10
1.630962877308881
 20
0.7159064860536351
 42
0.0
 10
1.459962877308889
 20
0.7159064860536351
 42
-0.4142135623730943
 10
1.429962877308888
 20
0.7459064860536344
 42
0.0
 10
1.429962877308881
 20
1.239406486053631
 42
-0.4142135623731074
 10
1.492462877308881
 20
1.301906486053633
 42
0.0
 10
2.326955399289545
 20
1.301906486053633
 42
0.0
 10
3.161447921270209
 20
1.301906486053633
 42
-0.4142135623731074
 10
3.223947921270209
 20
1.239406486053631
 42
0.0
 10
3.223947921270202
 20
0.745906486053638
 42
-0.4142135623731289
 10
3.193947921270201
 20
0.7159064860536351
 42
0.0
 10
3.022947921270208
 20
0.7159064860536351
 42
0.414213562373045
 10
3.007947921270208
 20
0.7009064860536363
 42
0.0
 10
3.007947921270201
 20
0.6369064860536433
 42
0.2333453864166833
 10
3.013824541745211
 20
0.6250000194894998
 42
0.0
 10
3.22118334769344
 20
0.6250000194894998
 42
-0.1150353093398517
 10
3.234451431844242
 20
0.621906486053641
 42
0.0
 10
3.287947921270195
 20
0.621906486053641
 42
0.4142135623730933
 10
3.317947921270196
 20
0.6519064860536404
 42
0.0
 10
3.317947921270224
 20
6.426359486053902
 42
0.4142135623731023
 10
3.117947921270225
 20
6.626359486053907
 42
0.0
 10
2.932041279169588
 20
6.626359486053907
 42
0.3908517848795325
 10
2.917089752999977
 20
6.61256441974478
 42
-0.3836192363772335
 10
2.930509094123991
 20
6.597647934987378
 42
0.0
 10
2.930509094123991
 20
6.580647934987377
 42
0.0
 10
2.896989448818409
 20
6.580647934987377
 42
0.0
 10
2.867955399289542
 20
6.530359486053901
 42
0.0
 10
2.902955399289542
 20
6.530359486053905
 42
0.0
 10
2.902955399289545
 20
6.442359486053907
 42
0.0
 10
2.864509094123992
 20
6.409074398372982
 42
0.0
 10
2.864509094123992
 20
6.370012938828145
 42
0.0
 10
2.935400247255742
 20
6.447377056891427
 42
-1.0
 10
2.946459407307898
 20
6.437243203777191
 42
0.0
 10
2.864509094123988
 20
6.347810130334314
 42
0.0
 10
2.791509094123959
 20
6.347810130334334
 42
0.0
 10
2.709558780940071
 20
6.437243203777205
 42
-1.0
 10
2.720617940992227
 20
6.447377056891442
 42
0.0
 10
2.755546321597023
 20
6.409259418208835
 42
0.0
 10
2.736329268936408
 20
6.507906955199997
 42
0.0
 10
2.704904371458969
 20
6.502365897908724
 42
0.0512300597014518
 10
2.701955399289545
 20
6.501527785836522
 42
0.0
 10
2.701955399289545
 20
5.825061598744087
 42
0.0
 10
2.676505701317957
 20
5.096277601655806
 42
-0.4040262258351909
 10
2.645524585680362
 20
5.066359486053583
 42
0.0
 97
       48
330
333
330
3AA
330
3A0
330
389
330
3A2
330
3A1
330
3A9
330
3A5
330
39F
330
37E
330
343
330
362
330
358
330
35E
330
342
330
37D
330
365
330
394
330
364
330
375
330
372
330
373
330
371
330
37A
330
36F
330
2F5
330
308
330
307
330
2FF
330
30B
330
30A
330
30C
330
309
330
306
330
305
330
30D
330
304
330
317
330
2FC
330
32D
330
32F
330
300
330
314
330
313
330
315
330
301
330
32E
330
2F4
 92
       22
 72
     1
 73
     1
 93
       44
 10
1.492462877308881
 20
4.519702279310758
 42
-0.4142135623730831
 10
1.429962877308881
 20
4.582202279310754
 42
0.0
 10
1.429962877308852
 20
5.96034332288675
 42
-0.4142135623730973
 10
1.444962877308853
 20
5.97534332288675
 42
0.0
 10
1.530955399289545
 20
5.975343322886757
 42
0.414213562373093
 10
1.545955399289546
 20
5.990343322886758
 42
0.0
 10
1.545955399289546
 20
6.160343322886753
 42
0.4142135623730977
 10
1.530955399289545
 20
6.175343322886753
 42
0.0
 10
1.44496287730886
 20
6.175343322886753
 42
-0.4142135623730925
 10
1.429962877308859
 20
6.190343322886754
 42
0.0
 10
1.429962877308859
 20
6.431359486053899
 42
-0.4142135623731091
 10
1.504962877308859
 20
6.506359486053902
 42
0.0
 10
1.568455399289554
 20
6.506359486053902
 42
-0.4142135623730991
 10
1.630955399289554
 20
6.443859486053902
 42
0.0
 10
1.630955399289554
 20
6.401234562969854
 42
0.217648852282656
 10
1.641319291698565
 20
6.378553661782397
 42
0.0
 10
1.818750022014317
 20
6.224942088695751
 42
-0.2085259118848508
 10
1.839441256453483
 20
6.181674256122988
 42
0.0
 10
1.877668226872494
 20
5.08699704896577
 42
0.4040262258351536
 10
2.002592080249879
 20
4.966359486053585
 42
0.0
 10
2.326955399289545
 20
4.966359486053585
 42
0.0
 10
2.651318718329207
 20
4.966359486053585
 42
0.4040262258351659
 10
2.776242571706596
 20
5.086997048965772
 42
0.0
 10
2.8144695421256
 20
6.181674256122983
 42
-0.2085259118848509
 10
2.835160776564766
 20
6.224942088695746
 42
0.0
 10
3.012591506880525
 20
6.378553661782397
 42
0.2176488522826405
 10
3.022955399289536
 20
6.401234562969852
 42
0.0
 10
3.022955399289536
 20
6.443859486053902
 42
-0.4142135623730993
 10
3.085455399289536
 20
6.506359486053902
 42
0.0
 10
3.148947921270227
 20
6.506359486053902
 42
-0.4142135623731091
 10
3.22394792127023
 20
6.431359486053903
 42
0.0
 10
3.22394792127023
 20
6.190343322886754
 42
-0.4142135623730927
 10
3.20894792127023
 20
6.175343322886753
 42
0.0
 10
3.122955399289544
 20
6.175343322886753
 42
0.4142135623730977
 10
3.107955399289544
 20
6.160343322886753
 42
0.0
 10
3.107955399289544
 20
5.990343322886758
 42
0.4142135623730928
 10
3.122955399289544
 20
5.975343322886757
 42
0.0
 10
3.208947921270237
 20
5.97534332288675
 42
-0.4142135623730971
 10
3.223947921270237
 20
5.96034332288675
 42
0.0
 10
3.223947921270209
 20
4.582202279310754
 42
-0.4142135623730838
 10
3.161447921270209
 20
4.519702279310758
 42
0.0
 10
2.336955399289539
 20
4.519702279310774
 42
0.0
 10
2.326955399289548
 20
4.509702279310772
 42
0.0
 10
2.316955399289554
 20
4.519702279310774
 42
0.0
 97
       44
330
34E
330
341
330
36B
330
369
330
36D
330
36E
330
36C
330
368
330
36A
330
367
330
370
330
377
330
376
330
378
330
379
330
366
330
37C
330
34A
330
35D
330
35C
330
357
330
363
330
349
330
37B
330
3A3
330
3A7
330
3A6
330
3A4
330
3AB
330
332
330
3AD
330
3AE
330
331
330
387
330
386
330
388
330
334
330
3AF
330
3AC
330
336
330
359
330
35A
330
35B
330
34B
 92
       22
 72
     1
 73
     1
 93
       19
 10
2.17260889145924
 20
4.390437286387108
 42
0.1974171386915319
 10
2.197846031474693
 20
4.273980457221741
 42
0.9395164979481974
 10
2.282057474986732
 20
4.324560122406591
 42
-2.169751614727839
 10
2.371853323592358
 20
4.324560122406591
 42
0.939516497948524
 10
2.4560647671044
 20
4.273980457221743
 42
0.1974171386915276
 10
2.481301907119849
 20
4.390437286387108
 42
-0.4668801227504726
 10
2.510836291310376
 20
4.425702279310771
 42
0.0
 10
3.16144792127022
 20
4.425702279310749
 42
-0.414213562373078
 10
3.223947921270216
 20
4.363202279310749
 42
0.0
 10
3.223947921270202
 20
2.671186299203847
 42
-0.4142135623730953
 10
3.161447921270202
 20
2.608686299203847
 42
0.0
 10
2.336955399289539
 20
2.608686299203855
 42
0.0
 10
2.326955399289545
 20
2.598686299203862
 42
0.0
 10
2.316955399289561
 20
2.608686299203855
 42
0.0
 10
1.492462877308888
 20
2.608686299203847
 42
-0.4142135623730951
 10
1.429962877308888
 20
2.671186299203847
 42
0.0
 10
1.429962877308874
 20
4.363202279310749
 42
-0.4142135623730776
 10
1.49246287730887
 20
4.425702279310749
 42
0.0
 10
2.143074507268693
 20
4.425702279310771
 42
-0.4668801227506886
 97
       19
330
355
330
354
330
351
330
356
330
353
330
34F
330
360
330
335
330
2F7
330
2F9
330
321
330
322
330
326
330
31B
330
31D
330
2F8
330
34D
330
34C
330
350
 92
       22
 72
     1
 73
     1
 93
       25
 10
2.143074507268693
 20
2.514686299203852
 42
-0.4668801227506671
 10
2.17260889145924
 20
2.47942130628019
 42
0.1974171386915168
 10
2.197846031474686
 20
2.362964477114831
 42
0.9395164979491298
 10
2.282057474986743
 20
2.413544142299663
 42
-2.169751614728632
 10
2.371853323592347
 20
2.413544142299663
 42
0.9395164979496486
 10
2.4560647671044
 20
2.362964477114818
 42
0.1974171386915386
 10
2.481301907119846
 20
2.47942130628019
 42
-0.4668801227505086
 10
2.510836291310376
 20
2.514686299203853
 42
0.0
 10
3.161447921270209
 20
2.514686299203846
 42
-0.4142135623730618
 10
3.223947921270202
 20
2.452186299203846
 42
0.0
 10
3.223947921270202
 20
1.660906486053635
 42
-0.4142135623730932
 10
3.208947921270201
 20
1.645906486053634
 42
0.0
 10
3.122955399289537
 20
1.645906486053634
 42
0.4142135623730951
 10
3.107955399289537
 20
1.630906486053634
 42
0.0
 10
3.107955399289537
 20
1.425906486053637
 42
-0.4142135623730574
 10
3.077955399289535
 20
1.395906486053641
 42
0.0
 10
2.326955399289545
 20
1.395906486053641
 42
0.0
 10
1.575955399289554
 20
1.395906486053641
 42
-0.4142135623730919
 10
1.545955399289553
 20
1.425906486053641
 42
0.0
 10
1.545955399289553
 20
1.630906486053641
 42
0.4142135623729563
 10
1.530955399289553
 20
1.645906486053634
 42
0.0
 10
1.444962877308888
 20
1.645906486053634
 42
-0.414213562373093
 10
1.429962877308888
 20
1.660906486053635
 42
0.0
 10
1.429962877308881
 20
2.452186299203846
 42
-0.4142135623730977
 10
1.492462877308881
 20
2.514686299203846
 42
0.0
 97
       25
330
323
330
328
330
327
330
324
330
329
330
320
330
31F
330
32A
330
2FA
330
32B
330
330
330
2FB
330
31A
330
318
330
319
330
316
330
303
330
311
330
310
330
312
330
30E
330
30F
330
302
330
31E
330
31C
 75
     0
 76
     1
 52
0.0
 41
0.5
 77
     0
 78
     1
 53
45.0
 43
0.212708
 44
6.029365
 45
-0.0441941738241592
 46
0.0441941738241592
 79
     0
 47
0.015227
 98
        4
 10
2.214114
 20
4.484903
 10
2.214114
 20
4.484903
 10
2.214114
 20
4.484903
 10
2.214114
 20
4.484903
  0
LINE
  5
2F7
102
{ACAD_REACTORS
330
2F6
102
}
100
AcDbEntity
  8
EXTRUSION
  6
CONTINUOUS
100
AcDbLine
 10
3.223948
 20
2.671186
 30
0.0
 11
3.223948
 21
4.363202
 31
0.0
  0
LINE
  5
2F8
102
{ACAD_REACTORS
330
2F6
102
}
100
AcDbEntity
  8
EXTRUSION
  6
CONTINUOUS
100
AcDbLine
 10
1.429963
 20
2.671186
 30
0.0
 11
1.429963
 21
4.363202
 31
0.0
  0
ARC
  5
2F9
102
{ACAD_REACTORS
330
2F6
102
}
100
AcDbEntity
  8
EXTRUSION
  6
CONTINUOUS
100
AcDbCircle
 10
3.161448
 20
2.671186
 30
0.0
 40
0.0625
100
AcDbArc
 50
270.0
 51
360.0
  0
ARC
  5
2FA
102
{ACAD_REACTORS
330
2F6
102
}
100
AcDbEntity
  8
EXTRUSION
  6
CONTINUOUS
100
AcDbCircle
 10
3.161448
 20
2.452186
 30
0.0
 40
0.0625
100
AcDbArc
 50
0.0
 51
90.0
  0
LINE
  5
2FB
102
{ACAD_REACTORS
330
2F6
102
}
100
AcDbEntity
  8
EXTRUSION
  6
CONTINUOUS
100
AcDbLine
 10
3.122955
 20
1.645906
 30
0.0
 11
3.208948
 21
1.645906
 31
0.0
  0
ARC
  5
2FC
102
{ACAD_REACTORS
330
2F6
102
}
100
AcDbEntity
  8
EXTRUSION
  6
CONTINUOUS
100
AcDbCircle
 10
3.161448
 20
1.239406
 30
0.0
 40
0.0625
100
AcDbArc
 50
360.0
 51
90.0
  0
HATCH
  5
2FD
100
AcDbEntity
  8
DIMN
  6
CONTINUOUS
 62
     2
100
AcDbHatch
 10
0.0
 20
0.0
 30
0.0
210
0.0
220
0.0
230
1.0
  2
ANSI31
 70
     0
 71
     0
 91
        1
 92
        7
 72
     0
 73
     1
 93
        4
 10
4.227933347693394
 20
0.3750000194895016
 10
0.4359483037320829
 20
0.3750000194895016
 10
0.4359483037320829
 20
0.0000000194894998
 10
4.227933347693394
 20
0.0000000194894998
 97
        0
 75
     0
 76
     1
 52
0.0
 41
1.0
 77
     0
 78
     1
 53
45.0
 43
2.578303
 44
-5.161673
 45
-0.0883883476483184
 46
0.0883883476483185
 79
     0
 47
0.030581
 98
        1
 10
2.7073
 20
0.191227
  0
LINE
  5
2FE
100
AcDbEntity
  8
DIMN
  6
CONTINUOUS
 62
     2
100
AcDbLine
 10
4.210433
 20
0.375
 30
0.0
 11
0.435948
 21
0.375
 31
0.0
  0
LWPOLYLINE
  5
2FF
102
{ACAD_REACTORS
330
2F6
102
}
100
AcDbEntity
  8
6
  6
CONTINUOUS
 62
     7
100
AcDbPolyline
 90
       32
 70
     1
 43
0.0
 10
1.775198
 20
1.22
 10
1.775198
 20
0.53
 42
0.414214
 10
1.805198
 20
0.5
 10
2.841183
 20
0.5
 42
0.414214
 10
2.871183
 20
0.53
 10
2.871183
 20
1.22
 42
-0.414214
 10
2.901183
 20
1.25
 10
2.966183
 20
1.25
 42
-0.414214
 10
2.996183
 20
1.22
 10
2.996183
 20
0.64
 42
0.414214
 10
3.011183
 20
0.625
 10
3.221183
 20
0.625
 42
-0.414214
 10
3.251183
 20
0.595
 10
3.251183
 20
0.53
 42
-0.414214
 10
3.221183
 20
0.5
 10
3.011183
 20
0.5
 42
0.414214
 10
2.996183
 20
0.485
 10
2.996183
 20
0.405
 42
-0.414214
 10
2.966183
 20
0.375
 10
1.680198
 20
0.375
 42
-0.414214
 10
1.650198
 20
0.405
 10
1.650198
 20
0.485
 42
0.414214
 10
1.635198
 20
0.5
 10
1.425198
 20
0.5
 42
-0.414214
 10
1.395198
 20
0.53
 10
1.395198
 20
0.595
 42
-0.414214
 10
1.425198
 20
0.625
 10
1.635198
 20
0.625
 42
0.414214
 10
1.650198
 20
0.64
 10
1.650198
 20
1.22
 42
-0.414214
 10
1.680198
 20
1.25
 10
1.745198
 20
1.25
 42
-0.414214
  0
LINE
  5
300
102
{ACAD_REACTORS
330
2F6
102
}
100
AcDbEntity
  8
EXTRUSION
  6
CONTINUOUS
100
AcDbLine
 10
3.022948
 20
0.715906
 30
0.0
 11
3.193948
 21
0.715906
 31
0.0
  0
LINE
  5
301
102
{ACAD_REACTORS
330
2F6
102
}
100
AcDbEntity
  8
EXTRUSION
  6
CONTINUOUS
100
AcDbLine
 10
3.022948
 20
0.621906
 30
0.0
 11
3.287948
 21
0.621906
 31
0.0
  0
LINE
  5
302
102
{ACAD_REACTORS
330
2F6
102
}
100
AcDbEntity
  8
EXTRUSION
  6
CONTINUOUS
100
AcDbLine
 10
1.429963
 20
1.660906
 30
0.0
 11
1.429963
 21
2.452186
 31
0.0
  0
LINE
  5
303
102
{ACAD_REACTORS
330
2F6
102
}
100
AcDbEntity
  8
EXTRUSION
  6
CONTINUOUS
100
AcDbLine
 10
1.575955
 20
1.395906
 30
0.0
 11
2.326955
 21
1.395906
 31
0.0
  0
LINE
  5
304
102
{ACAD_REACTORS
330
2F6
102
}
100
AcDbEntity
  8
EXTRUSION
  6
CONTINUOUS
100
AcDbLine
 10
1.492463
 20
1.301906
 30
0.0
 11
2.326955
 21
1.301906
 31
0.0
  0
LINE
  5
305
102
{ACAD_REACTORS
330
2F6
102
}
100
AcDbEntity
  8
EXTRUSION
  6
CONTINUOUS
100
AcDbLine
 10
1.429963
 20
0.745906
 30
0.0
 11
1.429963
 21
1.239406
 31
0.0
  0
ARC
  5
306
102
{ACAD_REACTORS
330
2F6
102
}
100
AcDbEntity
  8
EXTRUSION
  6
CONTINUOUS
100
AcDbCircle
 10
1.459963
 20
0.745906
 30
0.0
 40
0.03
100
AcDbArc
 50
180.0
 51
270.0
  0
LINE
  5
307
102
{ACAD_REACTORS
330
2F6
102
}
100
AcDbEntity
  8
EXTRUSION
  6
CONTINUOUS
100
AcDbLine
 10
1.630963
 20
0.621906
 30
0.0
 11
1.365963
 21
0.621906
 31
0.0
  0
ARC
  5
308
102
{ACAD_REACTORS
330
2F6
102
}
100
AcDbEntity
  8
EXTRUSION
  6
CONTINUOUS
100
AcDbCircle
 10
1.365963
 20
0.651906
 30
0.0
 40
0.03
100
AcDbArc
 50
180.0
 51
270.0
  0
LINE
  5
309
102
{ACAD_REACTORS
330
2F6
102
}
100
AcDbEntity
  8
EXTRUSION
  6
CONTINUOUS
100
AcDbLine
 10
1.630963
 20
0.715906
 30
0.0
 11
1.459963
 21
0.715906
 31
0.0
  0
LINE
  5
30A
102
{ACAD_REACTORS
330
2F6
102
}
100
AcDbEntity
  8
EXTRUSION
  6
CONTINUOUS
100
AcDbLine
 10
1.645963
 20
0.700906
 30
0.0
 11
1.645963
 21
0.636906
 31
0.0
  0
ARC
  5
30B
102
{ACAD_REACTORS
330
2F6
102
}
100
AcDbEntity
  8
EXTRUSION
  6
CONTINUOUS
100
AcDbCircle
 10
1.630963
 20
0.636906
 30
0.0
 40
0.015
100
AcDbArc
 50
270.0
 51
0.0
  0
ARC
  5
30C
102
{ACAD_REACTORS
330
2F6
102
}
100
AcDbEntity
  8
EXTRUSION
  6
CONTINUOUS
100
AcDbCircle
 10
1.630963
 20
0.700906
 30
0.0
 40
0.015
100
AcDbArc
 50
0.0
 51
90.0
  0
ARC
  5
30D
102
{ACAD_REACTORS
330
2F6
102
}
100
AcDbEntity
  8
EXTRUSION
  6
CONTINUOUS
100
AcDbCircle
 10
1.492463
 20
1.239406
 30
0.0
 40
0.0625
100
AcDbArc
 50
90.0
 51
180.0
  0
LINE
  5
30E
102
{ACAD_REACTORS
330
2F6
102
}
100
AcDbEntity
  8
EXTRUSION
  6
CONTINUOUS
100
AcDbLine
 10
1.530955
 20
1.645906
 30
0.0
 11
1.444963
 21
1.645906
 31
0.0
  0
ARC
  5
30F
102
{ACAD_REACTORS
330
2F6
102
}
100
AcDbEntity
  8
EXTRUSION
  6
CONTINUOUS
100
AcDbCircle
 10
1.444963
 20
1.660906
 30
0.0
 40
0.015
100
AcDbArc
 50
180.0
 51
270.0
  0
LINE
  5
310
102
{ACAD_REACTORS
330
2F6
102
}
100
AcDbEntity
  8
EXTRUSION
  6
CONTINUOUS
100
AcDbLine
 10
1.545955
 20
1.425906
 30
0.0
 11
1.545955
 21
1.630906
 31
0.0
  0
ARC
  5
311
102
{ACAD_REACTORS
330
2F6
102
}
100
AcDbEntity
  8
EXTRUSION
  6
CONTINUOUS
100
AcDbCircle
 10
1.575955
 20
1.425906
 30
0.0
 40
0.03
100
AcDbArc
 50
180.0
 51
270.0
  0
ARC
  5
312
102
{ACAD_REACTORS
330
2F6
102
}
100
AcDbEntity
  8
EXTRUSION
  6
CONTINUOUS
100
AcDbCircle
 10
1.530955
 20
1.630906
 30
0.0
 40
0.015
100
AcDbArc
 50
0.0
 51
90.0
  0
LINE
  5
313
102
{ACAD_REACTORS
330
2F6
102
}
100
AcDbEntity
  8
EXTRUSION
  6
CONTINUOUS
100
AcDbLine
 10
3.007948
 20
0.700906
 30
0.0
 11
3.007948
 21
0.636906
 31
0.0
  0
ARC
  5
314
102
{ACAD_REACTORS
330
2F6
102
}
100
AcDbEntity
  8
EXTRUSION
  6
CONTINUOUS
100
AcDbCircle
 10
3.022948
 20
0.700906
 30
0.0
 40
0.015
100
AcDbArc
 50
90.0
 51
180.0
  0
ARC
  5
315
102
{ACAD_REACTORS
330
2F6
102
}
100
AcDbEntity
  8
EXTRUSION
  6
CONTINUOUS
100
AcDbCircle
 10
3.022948
 20
0.636906
 30
0.0
 40
0.015
100
AcDbArc
 50
180.0
 51
270.0
  0
LINE
  5
316
102
{ACAD_REACTORS
330
2F6
102
}
100
AcDbEntity
  8
EXTRUSION
  6
CONTINUOUS
100
AcDbLine
 10
3.077955
 20
1.395906
 30
0.0
 11
2.326955
 21
1.395906
 31
0.0
  0
LINE
  5
317
102
{ACAD_REACTORS
330
2F6
102
}
100
AcDbEntity
  8
EXTRUSION
  6
CONTINUOUS
100
AcDbLine
 10
3.161448
 20
1.301906
 30
0.0
 11
2.326955
 21
1.301906
 31
0.0
  0
LINE
  5
318
102
{ACAD_REACTORS
330
2F6
102
}
100
AcDbEntity
  8
EXTRUSION
  6
CONTINUOUS
100
AcDbLine
 10
3.107955
 20
1.425906
 30
0.0
 11
3.107955
 21
1.630906
 31
0.0
  0
ARC
  5
319
102
{ACAD_REACTORS
330
2F6
102
}
100
AcDbEntity
  8
EXTRUSION
  6
CONTINUOUS
100
AcDbCircle
 10
3.077955
 20
1.425906
 30
0.0
 40
0.03
100
AcDbArc
 50
270.0
 51
360.0
  0
ARC
  5
31A
102
{ACAD_REACTORS
330
2F6
102
}
100
AcDbEntity
  8
EXTRUSION
  6
CONTINUOUS
100
AcDbCircle
 10
3.122955
 20
1.630906
 30
0.0
 40
0.015
100
AcDbArc
 50
90.0
 51
180.0
  0
LINE
  5
31B
102
{ACAD_REACTORS
330
2F6
102
}
100
AcDbEntity
  8
EXTRUSION
  6
CONTINUOUS
100
AcDbLine
 10
1.492463
 20
2.608686
 30
0.0
 11
2.316955
 21
2.608686
 31
0.0
  0
LINE
  5
31C
102
{ACAD_REACTORS
330
2F6
102
}
100
AcDbEntity
  8
EXTRUSION
  6
CONTINUOUS
100
AcDbLine
 10
1.492463
 20
2.514686
 30
0.0
 11
2.143075
 21
2.514686
 31
0.0
  0
ARC
  5
31D
102
{ACAD_REACTORS
330
2F6
102
}
100
AcDbEntity
  8
EXTRUSION
  6
CONTINUOUS
100
AcDbCircle
 10
1.492463
 20
2.671186
 30
0.0
 40
0.0625
100
AcDbArc
 50
180.0
 51
270.0
  0
ARC
  5
31E
102
{ACAD_REACTORS
330
2F6
102
}
100
AcDbEntity
  8
EXTRUSION
  6
CONTINUOUS
100
AcDbCircle
 10
1.492463
 20
2.452186
 30
0.0
 40
0.0625
100
AcDbArc
 50
90.0
 51
180.0
  0
ARC
  5
31F
102
{ACAD_REACTORS
330
2F6
102
}
100
AcDbEntity
  8
EXTRUSION
  6
CONTINUOUS
100
AcDbCircle
 10
2.510836
 20
2.484686
 30
0.0
 40
0.03
100
AcDbArc
 50
90.0
 51
190.107743
  0
ARC
  5
320
102
{ACAD_REACTORS
330
2F6
102
}
100
AcDbEntity
  8
EXTRUSION
  6
CONTINUOUS
100
AcDbCircle
 10
2.326955
 20
2.451906
 30
0.0
 40
0.15678
100
AcDbArc
 50
325.437475
 51
10.107743
  0
LINE
  5
321
102
{ACAD_REACTORS
330
2F6
102
}
100
AcDbEntity
  8
EXTRUSION
  6
CONTINUOUS
100
AcDbLine
 10
3.161448
 20
2.608686
 30
0.0
 11
2.336955
 21
2.608686
 31
0.0
  0
LINE
  5
322
102
{ACAD_REACTORS
330
2F6
102
}
100
AcDbEntity
  8
0
  6
CONTINUOUS
 62
     3
100
AcDbLine
 10
2.326955
 20
2.598686
 30
0.0
 11
2.336955
 21
2.608686
 31
0.0
  0
ARC
  5
323
102
{ACAD_REACTORS
330
2F6
102
}
100
AcDbEntity
  8
EXTRUSION
  6
CONTINUOUS
100
AcDbCircle
 10
2.143075
 20
2.484686
 30
0.0
 40
0.03
100
AcDbArc
 50
349.892257
 51
90.0
  0
ARC
  5
324
102
{ACAD_REACTORS
330
2F6
102
}
100
AcDbEntity
  8
EXTRUSION
  6
CONTINUOUS
100
AcDbCircle
 10
2.326955
 20
2.451906
 30
0.0
 40
0.059055
100
AcDbArc
 50
319.488274
 51
220.511726
  0
ARC
  5
325
100
AcDbEntity
  8
EXTRUSION
  6
CONTINUOUS
100
AcDbCircle
 10
2.326955
 20
2.451906
 30
0.0
 40
0.059055
100
AcDbArc
 50
319.488274
 51
220.511726
  0
LINE
  5
326
102
{ACAD_REACTORS
330
2F6
102
}
100
AcDbEntity
  8
0
  6
CONTINUOUS
 62
     3
100
AcDbLine
 10
2.326955
 20
2.598686
 30
0.0
 11
2.316955
 21
2.608686
 31
0.0
  0
ARC
  5
327
102
{ACAD_REACTORS
330
2F6
102
}
100
AcDbEntity
  8
EXTRUSION
  6
CONTINUOUS
100
AcDbCircle
 10
2.238373
 20
2.390883
 30
0.0
 40
0.049213
100
AcDbArc
 50
214.562525
 51
27.417802
  0
ARC
  5
328
102
{ACAD_REACTORS
330
2F6
102
}
100
AcDbEntity
  8
EXTRUSION
  6
CONTINUOUS
100
AcDbCircle
 10
2.326955
 20
2.451906
 30
0.0
 40
0.15678
100
AcDbArc
 50
169.892257
 51
214.562525
  0
ARC
  5
329
102
{ACAD_REACTORS
330
2F6
102
}
100
AcDbEntity
  8
EXTRUSION
  6
CONTINUOUS
100
AcDbCircle
 10
2.415538
 20
2.390883
 30
0.0
 40
0.049213
100
AcDbArc
 50
152.582198
 51
325.437475
  0
LINE
  5
32A
102
{ACAD_REACTORS
330
2F6
102
}
100
AcDbEntity
  8
EXTRUSION
  6
CONTINUOUS
100
AcDbLine
 10
3.161448
 20
2.514686
 30
0.0
 11
2.510836
 21
2.514686
 31
0.0
  0
LINE
  5
32B
102
{ACAD_REACTORS
330
2F6
102
}
100
AcDbEntity
  8
EXTRUSION
  6
CONTINUOUS
100
AcDbLine
 10
3.223948
 20
1.660906
 30
0.0
 11
3.223948
 21
2.452186
 31
0.0
  0
DIMENSION
  5
32C
100
AcDbEntity
  8
DIMN
  6
CONTINUOUS
100
AcDbDimension
  2
*D21
 10
4.11912
 20
0.621906
 30
0.0
 11
4.761215
 21
0.981906
 31
0.0
 12
-19.904845
 22
-7.698194
 32
0.0
  1
<>"\P6mm)
  3
STANDARD
100
AcDbAlignedDimension
 13
3.765428
 23
0.375
 33
0.0
 14
3.683322
 24
0.621906
 34
0.0
 50
90.0
100
AcDbRotatedDimension
1001
ACAD
1000
DSTYLE
1002
{
1070
   270
1070
     7
1002
}
  0
LINE
  5
32D
102
{ACAD_REACTORS
330
2F6
102
}
100
AcDbEntity
  8
EXTRUSION
  6
CONTINUOUS
100
AcDbLine
 10
3.223948
 20
0.745906
 30
0.0
 11
3.223948
 21
1.239406
 31
0.0
  0
ARC
  5
32E
102
{ACAD_REACTORS
330
2F6
102
}
100
AcDbEntity
  8
EXTRUSION
  6
CONTINUOUS
100
AcDbCircle
 10
3.287948
 20
0.651906
 30
0.0
 40
0.03
100
AcDbArc
 50
270.0
 51
360.0
  0
ARC
  5
32F
102
{ACAD_REACTORS
330
2F6
102
}
100
AcDbEntity
  8
EXTRUSION
  6
CONTINUOUS
100
AcDbCircle
 10
3.193948
 20
0.745906
 30
0.0
 40
0.03
100
AcDbArc
 50
270.0
 51
360.0
  0
ARC
  5
330
102
{ACAD_REACTORS
330
2F6
102
}
100
AcDbEntity
  8
EXTRUSION
  6
CONTINUOUS
100
AcDbCircle
 10
3.208948
 20
1.660906
 30
0.0
 40
0.015
100
AcDbArc
 50
270.0
 51
360.0
  0
LINE
  5
331
102
{ACAD_REACTORS
330
2F6
102
}
100
AcDbEntity
  8
EXTRUSION
  6
CONTINUOUS
100
AcDbLine
 10
3.122955
 20
6.175343
 30
0.0
 11
3.208948
 21
6.175343
 31
0.0
  0
ARC
  5
332
102
{ACAD_REACTORS
330
2F6
102
}
100
AcDbEntity
  8
EXTRUSION
  6
CONTINUOUS
100
AcDbCircle
 10
3.148948
 20
6.431359
 30
0.0
 40
0.075
100
AcDbArc
 50
0.0
 51
90.0
  0
ARC
  5
333
102
{ACAD_REACTORS
330
2F6
102
}
100
AcDbEntity
  8
EXTRUSION
  6
CONTINUOUS
100
AcDbCircle
 10
3.117948
 20
6.426359
 30
0.0
 40
0.2
100
AcDbArc
 50
360.0
 51
90.0
  0
LINE
  5
334
102
{ACAD_REACTORS
330
2F6
102
}
100
AcDbEntity
  8
EXTRUSION
  6
CONTINUOUS
100
AcDbLine
 10
3.122955
 20
5.975343
 30
0.0
 11
3.208948
 21
5.975343
 31
0.0
  0
ARC
  5
335
102
{ACAD_REACTORS
330
2F6
102
}
100
AcDbEntity
  8
EXTRUSION
  6
CONTINUOUS
100
AcDbCircle
 10
3.161448
 20
4.363202
 30
0.0
 40
0.0625
100
AcDbArc
 50
360.0
 51
90.0
  0
ARC
  5
336
102
{ACAD_REACTORS
330
2F6
102
}
100
AcDbEntity
  8
EXTRUSION
  6
CONTINUOUS
100
AcDbCircle
 10
3.161448
 20
4.582202
 30
0.0
 40
0.0625
100
AcDbArc
 50
270.0
 51
360.0
  0
LINE
  5
337
100
AcDbEntity
  8
0
  6
CONTINUOUS
 62
     1
100
AcDbLine
 10
2.16657
 20
7.944689
 30
0.0
 11
2.16657
 21
6.003607
 31
0.0
  0
LINE
  5
338
100
AcDbEntity
  8
0
  6
CONTINUOUS
 62
     1
100
AcDbLine
 10
2.576955
 20
7.812882
 30
0.0
 11
2.576955
 21
6.003607
 31
0.0
  0
LINE
  5
339
100
AcDbEntity
  8
0
  6
CONTINUOUS
 62
     1
100
AcDbLine
 10
2.267
 20
7.912433
 30
0.0
 11
2.267
 21
6.003607
 31
0.0
  0
LINE
  5
33A
100
AcDbEntity
  8
0
  6
CONTINUOUS
 62
     1
100
AcDbLine
 10
2.296356
 20
7.903005
 30
0.0
 11
2.296356
 21
6.003607
 31
0.0
  0
LINE
  5
33B
100
AcDbEntity
  8
0
  6
CONTINUOUS
 62
     1
100
AcDbLine
 10
2.364339
 20
7.88117
 30
0.0
 11
2.364339
 21
6.003607
 31
0.0
  0
LINE
  5
33C
100
AcDbEntity
  8
0
  6
CONTINUOUS
 62
     1
100
AcDbLine
 10
2.393696
 20
7.871741
 30
0.0
 11
2.393696
 21
6.003607
 31
0.0
  0
LINE
  5
33D
100
AcDbEntity
  8
0
  6
CONTINUOUS
 62
     1
100
AcDbLine
 10
2.464769
 20
7.848914
 30
0.0
 11
2.464769
 21
6.003607
 31
0.0
  0
LINE
  5
33E
100
AcDbEntity
  8
0
  6
CONTINUOUS
 62
     1
100
AcDbLine
 10
2.494126
 20
7.839485
 30
0.0
 11
2.494126
 21
6.003607
 31
0.0
  0
LINE
  5
33F
100
AcDbEntity
  8
0
  6
CONTINUOUS
 62
     1
100
AcDbLine
 10
2.195926
 20
7.935261
 30
0.0
 11
2.195926
 21
6.003607
 31
0.0
  0
LINE
  5
340
100
AcDbEntity
  8
0
  6
CONTINUOUS
 62
     1
100
AcDbLine
 10
2.076955
 20
7.973472
 30
0.0
 11
2.076955
 21
6.003607
 31
0.0
  0
LINE
  5
341
102
{ACAD_REACTORS
330
2F6
102
}
100
AcDbEntity
  8
EXTRUSION
  6
CONTINUOUS
100
AcDbLine
 10
1.429963
 20
4.582202
 30
0.0
 11
1.429963
 21
5.960343
 31
0.0
  0
LINE
  5
342
102
{ACAD_REACTORS
330
2F6
102
}
100
AcDbEntity
  8
EXTRUSION
  6
CONTINUOUS
 62
     3
100
AcDbLine
 10
1.977405
 20
5.096278
 30
0.0
 11
1.951955
 21
5.825062
 31
0.0
  0
LINE
  5
343
102
{ACAD_REACTORS
330
2F6
102
}
100
AcDbEntity
  8
EXTRUSION
  6
CONTINUOUS
 62
     3
100
AcDbLine
 10
2.676506
 20
5.096278
 30
0.0
 11
2.701955
 21
5.825062
 31
0.0
  0
LINE
  5
344
100
AcDbEntity
  8
0
  6
CONTINUOUS
 62
     2
100
AcDbLine
 10
2.641955
 20
5.878607
 30
0.0
 11
2.641955
 21
5.068607
 31
0.0
  0
LINE
  5
345
100
AcDbEntity
  8
0
  6
CONTINUOUS
 62
     2
100
AcDbLine
 10
2.011955
 20
5.068607
 30
0.0
 11
2.011955
 21
5.878607
 31
0.0
  0
HATCH
  5
346
100
AcDbEntity
  8
6
  6
CONTINUOUS
 62
     5
100
AcDbHatch
 10
0.0
 20
0.0
 30
0.0
210
0.0
220
0.0
230
1.0
  2
ANSI31
 70
     0
 71
     0
 91
        1
 92
        1
 93
       10
 72
     1
 10
2.391955
 20
5.753607
 11
2.261955
 21
5.753607
 72
     2
 10
2.261955
 20
5.628607
 40
0.125
 50
90.0
 51
180.0
 73
     1
 72
     1
 10
2.136955
 20
5.628607
 11
2.136955
 21
5.068607
 72
     1
 10
2.136955
 20
5.068607
 11
2.011955
 21
5.068607
 72
     1
 10
2.011955
 20
5.068607
 11
2.011955
 21
5.878607
 72
     1
 10
2.011955
 20
5.878607
 11
2.641955
 21
5.878607
 72
     1
 10
2.641955
 20
5.878607
 11
2.641955
 21
5.068607
 72
     1
 10
2.641955
 20
5.068607
 11
2.516955
 21
5.068607
 72
     1
 10
2.516955
 20
5.068607
 11
2.516955
 21
5.628607
 72
     2
 10
2.391955
 20
5.628607
 40
0.125
 50
0.0
 51
90.0
 73
     1
 97
        0
 75
     0
 76
     1
 52
90.0
 41
0.5
 77
     0
 78
     1
 53
135.0
 43
-32.671041
 44
-15.257304
 45
-0.0441941738241592
 46
-0.0441941738241592
 79
     0
 98
        1
 10
-32.671041
 20
-15.257304
  0
LINE
  5
347
100
AcDbEntity
  8
0
  6
CONTINUOUS
 62
     2
100
AcDbLine
 10
2.516955
 20
5.068607
 30
0.0
 11
2.516955
 21
5.628607
 31
0.0
  0
LINE
  5
348
100
AcDbEntity
  8
0
  6
CONTINUOUS
 62
     2
100
AcDbLine
 10
2.136955
 20
5.628607
 30
0.0
 11
2.136955
 21
5.068607
 31
0.0
  0
LINE
  5
349
102
{ACAD_REACTORS
330
2F6
102
}
100
AcDbEntity
  8
EXTRUSION
  6
CONTINUOUS
 62
     3
100
AcDbLine
 10
2.776243
 20
5.086997
 30
0.0
 11
2.81447
 21
6.181674
 31
0.0
  0
LINE
  5
34A
102
{ACAD_REACTORS
330
2F6
102
}
100
AcDbEntity
  8
EXTRUSION
  6
CONTINUOUS
 62
     3
100
AcDbLine
 10
1.877668
 20
5.086997
 30
0.0
 11
1.839441
 21
6.181674
 31
0.0
  0
LINE
  5
34B
102
{ACAD_REACTORS
330
2F6
102
}
100
AcDbEntity
  8
EXTRUSION
  6
CONTINUOUS
100
AcDbLine
 10
1.492463
 20
4.519702
 30
0.0
 11
2.316955
 21
4.519702
 31
0.0
  0
LINE
  5
34C
102
{ACAD_REACTORS
330
2F6
102
}
100
AcDbEntity
  8
EXTRUSION
  6
CONTINUOUS
100
AcDbLine
 10
1.492463
 20
4.425702
 30
0.0
 11
2.143075
 21
4.425702
 31
0.0
  0
ARC
  5
34D
102
{ACAD_REACTORS
330
2F6
102
}
100
AcDbEntity
  8
EXTRUSION
  6
CONTINUOUS
100
AcDbCircle
 10
1.492463
 20
4.363202
 30
0.0
 40
0.0625
100
AcDbArc
 50
90.0
 51
180.0
  0
ARC
  5
34E
102
{ACAD_REACTORS
330
2F6
102
}
100
AcDbEntity
  8
EXTRUSION
  6
CONTINUOUS
100
AcDbCircle
 10
1.492463
 20
4.582202
 30
0.0
 40
0.0625
100
AcDbArc
 50
180.0
 51
270.0
  0
ARC
  5
34F
102
{ACAD_REACTORS
330
2F6
102
}
100
AcDbEntity
  8
EXTRUSION
  6
CONTINUOUS
100
AcDbCircle
 10
2.510836
 20
4.395702
 30
0.0
 40
0.03
100
AcDbArc
 50
90.0
 51
190.107743
  0
ARC
  5
350
102
{ACAD_REACTORS
330
2F6
102
}
100
AcDbEntity
  8
EXTRUSION
  6
CONTINUOUS
100
AcDbCircle
 10
2.143075
 20
4.395702
 30
0.0
 40
0.03
100
AcDbArc
 50
349.892257
 51
90.0
  0
ARC
  5
351
102
{ACAD_REACTORS
330
2F6
102
}
100
AcDbEntity
  8
EXTRUSION
  6
CONTINUOUS
100
AcDbCircle
 10
2.326955
 20
4.362922
 30
0.0
 40
0.059055
100
AcDbArc
 50
319.488274
 51
220.511726
  0
ARC
  5
352
100
AcDbEntity
  8
EXTRUSION
  6
CONTINUOUS
100
AcDbCircle
 10
2.326955
 20
4.362922
 30
0.0
 40
0.059055
100
AcDbArc
 50
319.488274
 51
220.511726
  0
ARC
  5
353
102
{ACAD_REACTORS
330
2F6
102
}
100
AcDbEntity
  8
EXTRUSION
  6
CONTINUOUS
100
AcDbCircle
 10
2.326955
 20
4.362922
 30
0.0
 40
0.15678
100
AcDbArc
 50
325.437475
 51
10.107743
  0
ARC
  5
354
102
{ACAD_REACTORS
330
2F6
102
}
100
AcDbEntity
  8
EXTRUSION
  6
CONTINUOUS
100
AcDbCircle
 10
2.238373
 20
4.301899
 30
0.0
 40
0.049213
100
AcDbArc
 50
214.562525
 51
27.417802
  0
ARC
  5
355
102
{ACAD_REACTORS
330
2F6
102
}
100
AcDbEntity
  8
EXTRUSION
  6
CONTINUOUS
100
AcDbCircle
 10
2.326955
 20
4.362922
 30
0.0
 40
0.15678
100
AcDbArc
 50
169.892257
 51
214.562525
  0
ARC
  5
356
102
{ACAD_REACTORS
330
2F6
102
}
100
AcDbEntity
  8
EXTRUSION
  6
CONTINUOUS
100
AcDbCircle
 10
2.415538
 20
4.301899
 30
0.0
 40
0.049213
100
AcDbArc
 50
152.582198
 51
325.437475
  0
LINE
  5
357
102
{ACAD_REACTORS
330
2F6
102
}
100
AcDbEntity
  8
EXTRUSION
  6
CONTINUOUS
100
AcDbLine
 10
2.651319
 20
4.966359
 30
0.0
 11
2.326955
 21
4.966359
 31
0.0
  0
LINE
  5
358
102
{ACAD_REACTORS
330
2F6
102
}
100
AcDbEntity
  8
EXTRUSION
  6
CONTINUOUS
100
AcDbLine
 10
2.645525
 20
5.066359
 30
0.0
 11
2.008386
 21
5.066359
 31
0.0
  0
LINE
  5
359
102
{ACAD_REACTORS
330
2F6
102
}
100
AcDbEntity
  8
EXTRUSION
  6
CONTINUOUS
100
AcDbLine
 10
3.161448
 20
4.519702
 30
0.0
 11
2.336955
 21
4.519702
 31
0.0
  0
LINE
  5
35A
102
{ACAD_REACTORS
330
2F6
102
}
100
AcDbEntity
  8
0
  6
CONTINUOUS
 62
     3
100
AcDbLine
 10
2.326955
 20
4.509702
 30
0.0
 11
2.336955
 21
4.519702
 31
0.0
  0
LINE
  5
35B
102
{ACAD_REACTORS
330
2F6
102
}
100
AcDbEntity
  8
0
  6
CONTINUOUS
 62
     3
100
AcDbLine
 10
2.326955
 20
4.509702
 30
0.0
 11
2.316955
 21
4.519702
 31
0.0
  0
LINE
  5
35C
102
{ACAD_REACTORS
330
2F6
102
}
100
AcDbEntity
  8
EXTRUSION
  6
CONTINUOUS
100
AcDbLine
 10
2.002592
 20
4.966359
 30
0.0
 11
2.326955
 21
4.966359
 31
0.0
  0
ARC
  5
35D
102
{ACAD_REACTORS
330
2F6
102
}
100
AcDbEntity
  8
EXTRUSION
  6
CONTINUOUS
 62
     3
100
AcDbCircle
 10
2.002592
 20
5.091359
 30
0.0
 40
0.125
100
AcDbArc
 50
182.0
 51
270.0
  0
ARC
  5
35E
102
{ACAD_REACTORS
330
2F6
102
}
100
AcDbEntity
  8
EXTRUSION
  6
CONTINUOUS
 62
     3
100
AcDbCircle
 10
2.008386
 20
5.097359
 30
0.0
 40
0.031
100
AcDbArc
 50
182.0
 51
270.0
  0
LINE
  5
35F
100
AcDbEntity
  8
0
  6
CONTINUOUS
 62
     2
100
AcDbLine
 10
2.136955
 20
5.068607
 30
0.0
 11
2.011955
 21
5.068607
 31
0.0
  0
LINE
  5
360
102
{ACAD_REACTORS
330
2F6
102
}
100
AcDbEntity
  8
EXTRUSION
  6
CONTINUOUS
100
AcDbLine
 10
3.161448
 20
4.425702
 30
0.0
 11
2.510836
 21
4.425702
 31
0.0
  0
LINE
  5
361
100
AcDbEntity
  8
0
  6
CONTINUOUS
 62
     2
100
AcDbLine
 10
2.641955
 20
5.068607
 30
0.0
 11
2.516955
 21
5.068607
 31
0.0
  0
ARC
  5
362
102
{ACAD_REACTORS
330
2F6
102
}
100
AcDbEntity
  8
EXTRUSION
  6
CONTINUOUS
 62
     3
100
AcDbCircle
 10
2.645525
 20
5.097359
 30
0.0
 40
0.031
100
AcDbArc
 50
270.0
 51
358.0
  0
ARC
  5
363
102
{ACAD_REACTORS
330
2F6
102
}
100
AcDbEntity
  8
EXTRUSION
  6
CONTINUOUS
 62
     3
100
AcDbCircle
 10
2.651319
 20
5.091359
 30
0.0
 40
0.125
100
AcDbArc
 50
270.0
 51
358.0
  0
LINE
  5
364
102
{ACAD_REACTORS
330
2F6
102
}
100
AcDbEntity
  8
EXTRUSION
  6
CONTINUOUS
100
AcDbLine
 10
1.822962
 20
6.380019
 30
0.0
 11
1.756137
 21
6.437873
 31
0.0
  0
LWPOLYLINE
  5
365
102
{ACAD_REACTORS
330
2F6
102
}
100
AcDbEntity
  8
0
  6
CONTINUOUS
 62
     6
100
AcDbPolyline
 90
       28
 70
     1
 43
0.0
 10
1.789402
 20
6.370013
 10
1.718511
 20
6.447377
 42
1.0
 10
1.707451
 20
6.437243
 10
1.784943
 20
6.352676
 42
0.210277
 10
1.796002
 20
6.34781
 10
1.855802
 20
6.34781
 42
0.210277
 10
1.866861
 20
6.352676
 10
1.944352
 20
6.437243
 42
1.0
 10
1.933293
 20
6.447377
 10
1.866994
 20
6.375025
 10
1.887717
 20
6.497829
 42
-0.41637
 10
1.905113
 20
6.510105
 10
1.949006
 20
6.502366
 42
-0.36397
 10
1.961402
 20
6.487594
 10
1.961402
 20
6.295411
 42
0.767327
 10
2.07852
 20
6.26403
 10
2.137622
 20
6.366398
 42
1.0
 10
2.110776
 20
6.381898
 10
2.060402
 20
6.294648
 10
2.060402
 20
6.564522
 42
-0.36397
 10
2.072797
 20
6.579294
 10
2.238941
 20
6.608589
 42
1.0
 10
2.232863
 20
6.643057
 10
2.060402
 20
6.612648
 10
1.738402
 20
6.612648
 42
0.414214
 10
1.723402
 20
6.597648
 10
1.723402
 20
6.580648
 10
1.789402
 20
6.580648
  0
LINE
  5
366
102
{ACAD_REACTORS
330
2F6
102
}
100
AcDbEntity
  8
EXTRUSION
  6
CONTINUOUS
100
AcDbLine
 10
1.81875
 20
6.224942
 30
0.0
 11
1.641319
 21
6.378554
 31
0.0
  0
LINE
  5
367
102
{ACAD_REACTORS
330
2F6
102
}
100
AcDbEntity
  8
EXTRUSION
  6
CONTINUOUS
100
AcDbLine
 10
1.429963
 20
6.190343
 30
0.0
 11
1.429963
 21
6.431359
 31
0.0
  0
LINE
  5
368
102
{ACAD_REACTORS
330
2F6
102
}
100
AcDbEntity
  8
EXTRUSION
  6
CONTINUOUS
100
AcDbLine
 10
1.530955
 20
6.175343
 30
0.0
 11
1.444963
 21
6.175343
 31
0.0
  0
LINE
  5
369
102
{ACAD_REACTORS
330
2F6
102
}
100
AcDbEntity
  8
EXTRUSION
  6
CONTINUOUS
100
AcDbLine
 10
1.530955
 20
5.975343
 30
0.0
 11
1.444963
 21
5.975343
 31
0.0
  0
ARC
  5
36A
102
{ACAD_REACTORS
330
2F6
102
}
100
AcDbEntity
  8
EXTRUSION
  6
CONTINUOUS
100
AcDbCircle
 10
1.444963
 20
6.190343
 30
0.0
 40
0.015
100
AcDbArc
 50
180.0
 51
270.0
  0
ARC
  5
36B
102
{ACAD_REACTORS
330
2F6
102
}
100
AcDbEntity
  8
EXTRUSION
  6
CONTINUOUS
100
AcDbCircle
 10
1.444963
 20
5.960343
 30
0.0
 40
0.015
100
AcDbArc
 50
90.0
 51
180.0
  0
ARC
  5
36C
102
{ACAD_REACTORS
330
2F6
102
}
100
AcDbEntity
  8
EXTRUSION
  6
CONTINUOUS
100
AcDbCircle
 10
1.530955
 20
6.160343
 30
0.0
 40
0.015
100
AcDbArc
 50
360.0
 51
90.0
  0
ARC
  5
36D
102
{ACAD_REACTORS
330
2F6
102
}
100
AcDbEntity
  8
EXTRUSION
  6
CONTINUOUS
100
AcDbCircle
 10
1.530955
 20
5.990343
 30
0.0
 40
0.015
100
AcDbArc
 50
270.0
 51
360.0
  0
LINE
  5
36E
102
{ACAD_REACTORS
330
2F6
102
}
100
AcDbEntity
  8
EXTRUSION
  6
CONTINUOUS
100
AcDbLine
 10
1.545955
 20
5.990343
 30
0.0
 11
1.545955
 21
6.160343
 31
0.0
  0
ARC
  5
36F
102
{ACAD_REACTORS
330
2F6
102
}
100
AcDbEntity
  8
EXTRUSION
  6
CONTINUOUS
100
AcDbCircle
 10
1.535963
 20
6.426359
 30
0.0
 40
0.2
100
AcDbArc
 50
90.0
 51
180.0
  0
ARC
  5
370
102
{ACAD_REACTORS
330
2F6
102
}
100
AcDbEntity
  8
EXTRUSION
  6
CONTINUOUS
100
AcDbCircle
 10
1.504963
 20
6.431359
 30
0.0
 40
0.075
100
AcDbArc
 50
90.0
 51
180.0
  0
ARC
  5
371
102
{ACAD_REACTORS
330
2F6
102
}
100
AcDbEntity
  8
EXTRUSION
  6
CONTINUOUS
100
AcDbCircle
 10
1.72187
 20
6.611359
 30
0.0
 40
0.015
100
AcDbArc
 50
30.0
 51
90.0
  0
LINE
  5
372
102
{ACAD_REACTORS
330
2F6
102
}
100
AcDbEntity
  8
EXTRUSION
  6
CONTINUOUS
100
AcDbLine
 10
1.750955
 20
6.530359
 30
0.0
 11
1.785955
 21
6.530359
 31
0.0
  0
LINE
  5
373
102
{ACAD_REACTORS
330
2F6
102
}
100
AcDbEntity
  8
EXTRUSION
  6
CONTINUOUS
100
AcDbLine
 10
1.785955
 20
6.530359
 30
0.0
 11
1.73486
 21
6.618859
 31
0.0
  0
ARC
  5
374
100
AcDbEntity
  8
EXTRUSION
  6
CONTINUOUS
100
AcDbCircle
 10
1.765955
 20
6.449214
 30
0.0
 40
0.015
100
AcDbArc
 50
180.0
 51
229.115454
  0
LINE
  5
375
102
{ACAD_REACTORS
330
2F6
102
}
100
AcDbEntity
  8
EXTRUSION
  6
CONTINUOUS
100
AcDbLine
 10
1.750955
 20
6.449214
 30
0.0
 11
1.750955
 21
6.530359
 31
0.0
  0
ARC
  5
376
102
{ACAD_REACTORS
330
2F6
102
}
100
AcDbEntity
  8
EXTRUSION
  6
CONTINUOUS
100
AcDbCircle
 10
1.568455
 20
6.443859
 30
0.0
 40
0.0625
100
AcDbArc
 50
0.0
 51
90.0
  0
LINE
  5
377
102
{ACAD_REACTORS
330
2F6
102
}
100
AcDbEntity
  8
EXTRUSION
  6
CONTINUOUS
100
AcDbLine
 10
1.568455
 20
6.506359
 30
0.0
 11
1.504963
 21
6.506359
 31
0.0
  0
LINE
  5
378
102
{ACAD_REACTORS
330
2F6
102
}
100
AcDbEntity
  8
EXTRUSION
  6
CONTINUOUS
100
AcDbLine
 10
1.630955
 20
6.401235
 30
0.0
 11
1.630955
 21
6.443859
 31
0.0
  0
ARC
  5
379
102
{ACAD_REACTORS
330
2F6
102
}
100
AcDbEntity
  8
EXTRUSION
  6
CONTINUOUS
100
AcDbCircle
 10
1.660955
 20
6.401235
 30
0.0
 40
0.03
100
AcDbArc
 50
180.0
 51
229.115454
  0
LINE
  5
37A
102
{ACAD_REACTORS
330
2F6
102
}
100
AcDbEntity
  8
EXTRUSION
  6
CONTINUOUS
100
AcDbLine
 10
1.72187
 20
6.626359
 30
0.0
 11
1.535963
 21
6.626359
 31
0.0
  0
ARC
  5
37B
102
{ACAD_REACTORS
330
2F6
102
}
100
AcDbEntity
  8
EXTRUSION
  6
CONTINUOUS
100
AcDbCircle
 10
2.874433
 20
6.17958
 30
0.0
 40
0.06
100
AcDbArc
 50
130.884546
 51
178.0
  0
ARC
  5
37C
102
{ACAD_REACTORS
330
2F6
102
}
100
AcDbEntity
  8
EXTRUSION
  6
CONTINUOUS
100
AcDbCircle
 10
1.779478
 20
6.17958
 30
0.0
 40
0.06
100
AcDbArc
 50
2.0
 51
49.115454
  0
LINE
  5
37D
102
{ACAD_REACTORS
330
2F6
102
}
100
AcDbEntity
  8
EXTRUSION
  6
CONTINUOUS
 62
     3
100
AcDbLine
 10
1.951955
 20
6.551359
 30
0.0
 11
1.951955
 21
5.825062
 31
0.0
  0
LINE
  5
37E
102
{ACAD_REACTORS
330
2F6
102
}
100
AcDbEntity
  8
EXTRUSION
  6
CONTINUOUS
 62
     3
100
AcDbLine
 10
2.701955
 20
6.551359
 30
0.0
 11
2.701955
 21
5.825062
 31
0.0
  0
ARC
  5
37F
100
AcDbEntity
  8
0
  6
CONTINUOUS
 62
     2
100
AcDbCircle
 10
2.391955
 20
5.628607
 30
0.0
 40
0.125
100
AcDbArc
 50
0.0
 51
90.0
  0
HATCH
  5
380
100
AcDbEntity
  8
6
  6
CONTINUOUS
 62
     5
100
AcDbHatch
 10
0.0
 20
0.0
 30
0.0
210
0.0
220
0.0
230
1.0
  2
ANSI32
 70
     0
 71
     0
 91
        1
 92
        1
 93
        4
 72
     1
 10
2.641955
 20
5.878607
 11
2.641955
 21
6.003607
 72
     1
 10
2.641955
 20
6.003607
 11
2.011955
 21
6.003607
 72
     1
 10
2.011955
 20
6.003607
 11
2.011955
 21
5.878607
 72
     1
 10
2.011955
 20
5.878607
 11
2.641955
 21
5.878607
 97
        0
 75
     0
 76
     1
 52
0.0
 41
0.25
 77
     0
 78
     2
 53
45.0
 43
-32.671041
 44
-15.257304
 45
-0.0662912607362388
 46
0.0662912607362388
 79
     0
 53
45.0
 43
-32.626847
 44
-15.257304
 45
-0.0662912607362388
 46
0.0662912607362388
 79
     0
 98
        1
 10
-32.671041
 20
-15.257304
  0
LWPOLYLINE
  5
381
100
AcDbEntity
  8
0
  6
CONTINUOUS
 62
     2
100
AcDbPolyline
 90
        4
 70
     1
 43
0.0
 10
2.641955
 20
5.878607
 10
2.641955
 20
6.003607
 10
2.011955
 20
6.003607
 10
2.011955
 20
5.878607
  0
LINE
  5
382
100
AcDbEntity
  8
0
  6
CONTINUOUS
 62
     1
100
AcDbLine
 10
2.076955
 20
6.003607
 30
0.0
 11
2.576955
 21
6.003607
 31
0.0
  0
ARC
  5
383
100
AcDbEntity
  8
0
  6
CONTINUOUS
 62
     2
100
AcDbCircle
 10
2.261955
 20
5.628607
 30
0.0
 40
0.125
100
AcDbArc
 50
90.0
 51
180.0
  0
LINE
  5
384
100
AcDbEntity
  8
0
  6
CONTINUOUS
 62
     1
100
AcDbLine
 10
2.359826
 20
6.003607
 30
0.0
 11
2.294085
 21
6.003607
 31
0.0
  0
LINE
  5
385
100
AcDbEntity
  8
0
  6
CONTINUOUS
 62
     2
100
AcDbLine
 10
2.391955
 20
5.753607
 30
0.0
 11
2.261955
 21
5.753607
 31
0.0
  0
LINE
  5
386
102
{ACAD_REACTORS
330
2F6
102
}
100
AcDbEntity
  8
EXTRUSION
  6
CONTINUOUS
100
AcDbLine
 10
3.107955
 20
5.990343
 30
0.0
 11
3.107955
 21
6.160343
 31
0.0
  0
ARC
  5
387
102
{ACAD_REACTORS
330
2F6
102
}
100
AcDbEntity
  8
EXTRUSION
  6
CONTINUOUS
100
AcDbCircle
 10
3.122955
 20
6.160343
 30
0.0
 40
0.015
100
AcDbArc
 50
90.0
 51
180.0
  0
ARC
  5
388
102
{ACAD_REACTORS
330
2F6
102
}
100
AcDbEntity
  8
EXTRUSION
  6
CONTINUOUS
100
AcDbCircle
 10
3.122955
 20
5.990343
 30
0.0
 40
0.015
100
AcDbArc
 50
180.0
 51
270.0
  0
LWPOLYLINE
  5
389
102
{ACAD_REACTORS
330
2F6
102
}
100
AcDbEntity
  8
0
  6
CONTINUOUS
 62
     6
100
AcDbPolyline
 90
       28
 70
     1
 43
0.0
 10
2.864509
 20
6.370013
 10
2.9354
 20
6.447377
 42
-1.0
 10
2.946459
 20
6.437243
 10
2.868968
 20
6.352676
 42
-0.210277
 10
2.857909
 20
6.34781
 10
2.798109
 20
6.34781
 42
-0.210277
 10
2.78705
 20
6.352676
 10
2.709559
 20
6.437243
 42
-1.0
 10
2.720618
 20
6.447377
 10
2.786917
 20
6.375025
 10
2.766193
 20
6.497829
 42
0.41637
 10
2.748798
 20
6.510105
 10
2.704904
 20
6.502366
 42
0.36397
 10
2.692509
 20
6.487594
 10
2.692509
 20
6.295411
 42
-0.767327
 10
2.575391
 20
6.26403
 10
2.516288
 20
6.366398
 42
-1.0
 10
2.543135
 20
6.381898
 10
2.593509
 20
6.294648
 10
2.593509
 20
6.564522
 42
0.36397
 10
2.581114
 20
6.579294
 10
2.41497
 20
6.608589
 42
-1.0
 10
2.421048
 20
6.643057
 10
2.593509
 20
6.612648
 10
2.915509
 20
6.612648
 42
-0.414214
 10
2.930509
 20
6.597648
 10
2.930509
 20
6.580648
 10
2.864509
 20
6.580648
  0
LINE
  5
38A
100
AcDbEntity
  8
EXTRUSION
  6
CONTINUOUS
100
AcDbLine
 10
1.936955
 20
6.566359
 30
0.0
 11
1.903955
 21
6.566359
 31
0.0
  0
LINE
  5
38B
100
AcDbEntity
  8
EXTRUSION
  6
CONTINUOUS
100
AcDbLine
 10
1.903955
 20
6.530359
 30
0.0
 11
1.921955
 21
6.530359
 31
0.0
  0
POINT
  5
38C
100
AcDbEntity
  8
DEFPOINTS
  6
BYBLOCK
 62
     0
100
AcDbPoint
 10
1.921955
 20
6.530359
 30
0.0
  0
ARC
  5
38D
100
AcDbEntity
  8
EXTRUSION
  6
CONTINUOUS
100
AcDbCircle
 10
1.903955
 20
6.548359
 30
0.0
 40
0.018
100
AcDbArc
 50
90.0
 51
270.0
  0
ARC
  5
38E
100
AcDbEntity
  8
EXTRUSION
  6
CONTINUOUS
100
AcDbCircle
 10
1.936955
 20
6.551359
 30
0.0
 40
0.015
100
AcDbArc
 50
360.0
 51
90.0
  0
ARC
  5
38F
100
AcDbEntity
  8
EXTRUSION
  6
CONTINUOUS
100
AcDbCircle
 10
1.879596
 20
6.391359
 30
0.0
 40
0.015
100
AcDbArc
 50
270.0
 51
348.976544
  0
POINT
  5
390
100
AcDbEntity
  8
DEFPOINTS
  6
BYBLOCK
 62
     0
100
AcDbPoint
 10
1.894319
 20
6.388491
 30
0.0
  0
POINT
  5
391
100
AcDbEntity
  8
DEFPOINTS
  6
BYBLOCK
 62
     0
100
AcDbPoint
 10
1.894319
 20
6.388491
 30
0.0
  0
ARC
  5
392
100
AcDbEntity
  8
EXTRUSION
  6
CONTINUOUS
100
AcDbCircle
 10
1.83278
 20
6.391359
 30
0.0
 40
0.015
100
AcDbArc
 50
229.115454
 51
270.0
  0
LINE
  5
393
100
AcDbEntity
  8
EXTRUSION
  6
CONTINUOUS
100
AcDbLine
 10
1.879596
 20
6.376359
 30
0.0
 11
1.83278
 21
6.376359
 31
0.0
  0
LINE
  5
394
102
{ACAD_REACTORS
330
2F6
102
}
100
AcDbEntity
  8
EXTRUSION
  6
CONTINUOUS
100
AcDbLine
 10
1.921955
 20
6.530359
 30
0.0
 11
1.894319
 21
6.388491
 31
0.0
  0
ARC
  5
395
100
AcDbEntity
  8
EXTRUSION
  6
CONTINUOUS
100
AcDbCircle
 10
2.82113
 20
6.391359
 30
0.0
 40
0.015
100
AcDbArc
 50
270.0
 51
310.884546
  0
LINE
  5
396
100
AcDbEntity
  8
EXTRUSION
  6
CONTINUOUS
100
AcDbLine
 10
2.716955
 20
6.566359
 30
0.0
 11
2.749955
 21
6.566359
 31
0.0
  0
LINE
  5
397
100
AcDbEntity
  8
EXTRUSION
  6
CONTINUOUS
100
AcDbLine
 10
2.749955
 20
6.530359
 30
0.0
 11
2.731955
 21
6.530359
 31
0.0
  0
POINT
  5
398
100
AcDbEntity
  8
DEFPOINTS
  6
BYBLOCK
 62
     0
100
AcDbPoint
 10
2.731955
 20
6.530359
 30
0.0
  0
ARC
  5
399
100
AcDbEntity
  8
EXTRUSION
  6
CONTINUOUS
100
AcDbCircle
 10
2.716955
 20
6.551359
 30
0.0
 40
0.015
100
AcDbArc
 50
90.0
 51
180.0
  0
ARC
  5
39A
100
AcDbEntity
  8
EXTRUSION
  6
CONTINUOUS
100
AcDbCircle
 10
2.749955
 20
6.548359
 30
0.0
 40
0.018
100
AcDbArc
 50
270.0
 51
90.0
  0
ARC
  5
39B
100
AcDbEntity
  8
EXTRUSION
  6
CONTINUOUS
100
AcDbCircle
 10
2.774315
 20
6.391359
 30
0.0
 40
0.015
100
AcDbArc
 50
191.023456
 51
270.0
  0
POINT
  5
39C
100
AcDbEntity
  8
DEFPOINTS
  6
BYBLOCK
 62
     0
100
AcDbPoint
 10
2.759592
 20
6.388491
 30
0.0
  0
POINT
  5
39D
100
AcDbEntity
  8
DEFPOINTS
  6
BYBLOCK
 62
     0
100
AcDbPoint
 10
2.759592
 20
6.388491
 30
0.0
  0
LINE
  5
39E
100
AcDbEntity
  8
EXTRUSION
  6
CONTINUOUS
100
AcDbLine
 10
2.774315
 20
6.376359
 30
0.0
 11
2.82113
 21
6.376359
 31
0.0
  0
LINE
  5
39F
102
{ACAD_REACTORS
330
2F6
102
}
100
AcDbEntity
  8
EXTRUSION
  6
CONTINUOUS
100
AcDbLine
 10
2.731955
 20
6.530359
 30
0.0
 11
2.759592
 21
6.388491
 31
0.0
  0
ARC
  5
3A0
102
{ACAD_REACTORS
330
2F6
102
}
100
AcDbEntity
  8
EXTRUSION
  6
CONTINUOUS
100
AcDbCircle
 10
2.932041
 20
6.611359
 30
0.0
 40
0.015
100
AcDbArc
 50
90.0
 51
150.0
  0
LINE
  5
3A1
102
{ACAD_REACTORS
330
2F6
102
}
100
AcDbEntity
  8
EXTRUSION
  6
CONTINUOUS
100
AcDbLine
 10
2.902955
 20
6.530359
 30
0.0
 11
2.867955
 21
6.530359
 31
0.0
  0
LINE
  5
3A2
102
{ACAD_REACTORS
330
2F6
102
}
100
AcDbEntity
  8
EXTRUSION
  6
CONTINUOUS
100
AcDbLine
 10
2.867955
 20
6.530359
 30
0.0
 11
2.919051
 21
6.618859
 31
0.0
  0
LINE
  5
3A3
102
{ACAD_REACTORS
330
2F6
102
}
100
AcDbEntity
  8
EXTRUSION
  6
CONTINUOUS
100
AcDbLine
 10
2.835161
 20
6.224942
 30
0.0
 11
3.012592
 21
6.378554
 31
0.0
  0
ARC
  5
3A4
102
{ACAD_REACTORS
330
2F6
102
}
100
AcDbEntity
  8
EXTRUSION
  6
CONTINUOUS
100
AcDbCircle
 10
3.085455
 20
6.443859
 30
0.0
 40
0.0625
100
AcDbArc
 50
90.0
 51
180.0
  0
LINE
  5
3A5
102
{ACAD_REACTORS
330
2F6
102
}
100
AcDbEntity
  8
EXTRUSION
  6
CONTINUOUS
100
AcDbLine
 10
2.830948
 20
6.380019
 30
0.0
 11
2.897773
 21
6.437873
 31
0.0
  0
LINE
  5
3A6
102
{ACAD_REACTORS
330
2F6
102
}
100
AcDbEntity
  8
EXTRUSION
  6
CONTINUOUS
100
AcDbLine
 10
3.022955
 20
6.401235
 30
0.0
 11
3.022955
 21
6.443859
 31
0.0
  0
ARC
  5
3A7
102
{ACAD_REACTORS
330
2F6
102
}
100
AcDbEntity
  8
EXTRUSION
  6
CONTINUOUS
100
AcDbCircle
 10
2.992955
 20
6.401235
 30
0.0
 40
0.03
100
AcDbArc
 50
310.884546
 51
360.0
  0
ARC
  5
3A8
100
AcDbEntity
  8
EXTRUSION
  6
CONTINUOUS
100
AcDbCircle
 10
2.887955
 20
6.449214
 30
0.0
 40
0.015
100
AcDbArc
 50
310.884546
 51
0.0
  0
LINE
  5
3A9
102
{ACAD_REACTORS
330
2F6
102
}
100
AcDbEntity
  8
EXTRUSION
  6
CONTINUOUS
100
AcDbLine
 10
2.902955
 20
6.449214
 30
0.0
 11
2.902955
 21
6.530359
 31
0.0
  0
LINE
  5
3AA
102
{ACAD_REACTORS
330
2F6
102
}
100
AcDbEntity
  8
EXTRUSION
  6
CONTINUOUS
100
AcDbLine
 10
2.932041
 20
6.626359
 30
0.0
 11
3.117948
 21
6.626359
 31
0.0
  0
LINE
  5
3AB
102
{ACAD_REACTORS
330
2F6
102
}
100
AcDbEntity
  8
EXTRUSION
  6
CONTINUOUS
100
AcDbLine
 10
3.085455
 20
6.506359
 30
0.0
 11
3.148948
 21
6.506359
 31
0.0
  0
LINE
  5
3AC
102
{ACAD_REACTORS
330
2F6
102
}
100
AcDbEntity
  8
EXTRUSION
  6
CONTINUOUS
100
AcDbLine
 10
3.223948
 20
4.582202
 30
0.0
 11
3.223948
 21
5.960343
 31
0.0
  0
LINE
  5
3AD
102
{ACAD_REACTORS
330
2F6
102
}
100
AcDbEntity
  8
EXTRUSION
  6
CONTINUOUS
100
AcDbLine
 10
3.223948
 20
6.190343
 30
0.0
 11
3.223948
 21
6.431359
 31
0.0
  0
ARC
  5
3AE
102
{ACAD_REACTORS
330
2F6
102
}
100
AcDbEntity
  8
EXTRUSION
  6
CONTINUOUS
100
AcDbCircle
 10
3.208948
 20
6.190343
 30
0.0
 40
0.015
100
AcDbArc
 50
270.0
 51
360.0
  0
ARC
  5
3AF
102
{ACAD_REACTORS
330
2F6
102
}
100
AcDbEntity
  8
EXTRUSION
  6
CONTINUOUS
100
AcDbCircle
 10
3.208948
 20
5.960343
 30
0.0
 40
0.015
100
AcDbArc
 50
360.0
 51
90.0
  0
DIMENSION
  5
3B0
100
AcDbEntity
  8
DIMN
  6
CONTINUOUS
100
AcDbDimension
  2
*D20
 10
0.624936
 20
6.003607
 30
0.0
 11
0.624936
 21
3.189304
 31
0.0
 12
-21.825272
 22
-10.416523
 32
0.0
  1
<>"\P(143mm)
  3
STANDARD
100
AcDbAlignedDimension
 13
1.433091
 23
0.375
 33
0.0
 14
1.764848
 24
6.003607
 34
0.0
 50
90.0
100
AcDbRotatedDimension
1001
ACAD
1000
DSTYLE
1002
{
1070
   270
1070
     7
1002
}
  0
DIMENSION
  5
3B1
100
AcDbEntity
  8
DIMN
100
AcDbDimension
  2
*D22
 10
1.335963
 20
8.892123
 30
0.0
 11
2.326955
 21
8.892123
 31
0.0
 12
-21.578164
 22
-10.416523
 32
0.0
  1
<>"\P(51mm)
  3
STANDARD
100
AcDbAlignedDimension
 13
3.317948
 23
6.306178
 33
0.0
 14
1.335963
 24
6.357125
 34
0.0
100
AcDbRotatedDimension
1001
ACAD
1000
DSTYLE
1002
{
1070
   270
1070
     7
1002
}
  0
ENDBLK
  5
3B3
100
AcDbEntity
  8
0
100
AcDbBlockEnd
  0
BLOCK
  5
571
100
AcDbEntity
  8
0
100
AcDbBlockBegin
  2
A$C0F445EDA
 70
     0
 10
0.0
 20
0.0
 30
0.0
  3
A$C0F445EDA
  1

  0
LINE
  5
4F0
100
AcDbEntity
  8
0
100
AcDbLine
 10
1.638399
 20
4.3848
 30
0.0
 11
0.0
 21
4.3848
 31
0.0
  0
LINE
  5
4F1
100
AcDbEntity
  8
0
100
AcDbLine
 10
25.693238
 20
6.388388
 30
0.0
 11
23.44161
 21
3.231049
 31
0.0
  0
ARC
  5
4F2
100
AcDbEntity
  8
GREEN
  6
CONTINUOUS
100
AcDbCircle
 39
1.8
 10
21.3923
 20
1.96531
 30
0.0
 40
0.016501
100
AcDbArc
 50
252.745313
 51
1.373158
  0
LINE
  5
4F3
100
AcDbEntity
  8
GREEN
  6
CONTINUOUS
100
AcDbLine
 39
1.8
 10
21.408796
 20
2.567805
 30
0.0
 11
21.408796
 21
1.965705
 31
0.0
  0
ARC
  5
4F4
100
AcDbEntity
  8
GREEN
  6
CONTINUOUS
100
AcDbCircle
 39
1.8
 10
21.359819
 20
2.584217
 30
0.0
 40
0.051654
100
AcDbArc
 50
341.47451
 51
98.091202
  0
LINE
  5
4F5
100
AcDbEntity
  8
GREEN
  6
CONTINUOUS
100
AcDbLine
 39
1.8
 10
21.278357
 20
2.65744
 30
0.0
 11
21.352548
 21
2.635357
 31
0.0
  0
ARC
  5
4F6
100
AcDbEntity
  8
GREEN
  6
CONTINUOUS
100
AcDbCircle
 39
1.8
 10
21.278357
 20
2.667565
 30
0.0
 40
0.010125
100
AcDbArc
 50
90.0
 51
270.0
  0
LINE
  5
4F7
100
AcDbEntity
  8
GREEN
  6
CONTINUOUS
100
AcDbLine
 39
1.8
 10
21.292982
 20
2.67769
 30
0.0
 11
21.278357
 21
2.67769
 31
0.0
  0
LINE
  5
4F8
100
AcDbEntity
  8
GREEN
  6
CONTINUOUS
100
AcDbLine
 39
1.8
 10
21.334269
 20
2.696906
 30
0.0
 11
21.292982
 21
2.67769
 31
0.0
  0
LINE
  5
4F9
100
AcDbEntity
  8
GREEN
  6
CONTINUOUS
100
AcDbLine
 39
1.8
 10
21.322325
 20
2.702476
 30
0.0
 11
21.334269
 21
2.696906
 31
0.0
  0
ARC
  5
4FA
100
AcDbEntity
  8
GREEN
  6
CONTINUOUS
100
AcDbCircle
 39
1.8
 10
21.326129
 20
2.710632
 30
0.0
 40
0.009
100
AcDbArc
 50
90.0
 51
245.0
  0
LINE
  5
4FB
100
AcDbEntity
  8
GREEN
  6
CONTINUOUS
100
AcDbLine
 39
1.8
 10
21.439674
 20
2.654077
 30
0.0
 11
21.326129
 21
2.719632
 31
0.0
  0
ARC
  5
4FC
100
AcDbEntity
  8
GREEN
  6
CONTINUOUS
100
AcDbCircle
 39
1.8
 10
21.42568
 20
2.640083
 30
0.0
 40
0.01979
100
AcDbArc
 50
15.0
 51
45.0
  0
LINE
  5
4FD
100
AcDbEntity
  8
GREEN
  6
CONTINUOUS
100
AcDbLine
 39
1.8
 10
21.444796
 20
1.864455
 30
0.0
 11
21.444796
 21
2.645205
 31
0.0
  0
LINE
  5
4FE
100
AcDbEntity
  8
GREEN
  6
CONTINUOUS
100
AcDbLine
 39
1.8
 10
19.691094
 20
2.876955
 30
0.0
 11
21.444796
 21
1.864455
 31
0.0
  0
LINE
  5
4FF
100
AcDbEntity
  8
GREEN
  6
CONTINUOUS
100
AcDbLine
 39
1.8
 10
21.387405
 20
1.949552
 30
0.0
 11
19.793485
 21
2.869802
 31
0.0
  0
LINE
  5
500
100
AcDbEntity
  8
GREEN
  6
CONTINUOUS
100
AcDbLine
 39
1.8
 10
19.691094
 20
3.657705
 30
0.0
 11
19.691094
 21
2.876955
 31
0.0
  0
ARC
  5
501
100
AcDbEntity
  8
GREEN
  6
CONTINUOUS
100
AcDbCircle
 39
1.8
 10
19.697844
 20
3.657705
 30
0.0
 40
0.00675
100
AcDbArc
 50
90.0
 51
180.0
  0
LINE
  5
502
100
AcDbEntity
  8
GREEN
  6
CONTINUOUS
100
AcDbLine
 39
1.8
 10
19.810359
 20
3.59787
 30
0.0
 11
19.697844
 21
3.664455
 31
0.0
  0
ARC
  5
503
100
AcDbEntity
  8
GREEN
  6
CONTINUOUS
100
AcDbCircle
 39
1.8
 10
19.805859
 20
3.590076
 30
0.0
 40
0.009
100
AcDbArc
 50
265.0
 51
60.0
  0
LINE
  5
504
100
AcDbEntity
  8
GREEN
  6
CONTINUOUS
100
AcDbLine
 39
1.8
 10
19.791946
 20
3.582259
 30
0.0
 11
19.805074
 21
3.58111
 31
0.0
  0
LINE
  5
505
100
AcDbEntity
  8
GREEN
  6
CONTINUOUS
100
AcDbLine
 39
1.8
 10
19.783278
 20
3.564108
 30
0.0
 11
19.791946
 21
3.582259
 31
0.0
  0
LINE
  5
506
100
AcDbEntity
  8
GREEN
  6
CONTINUOUS
100
AcDbLine
 39
1.8
 10
19.795944
 20
3.540025
 30
0.0
 11
19.783278
 21
3.564108
 31
0.0
  0
ARC
  5
507
100
AcDbEntity
  8
GREEN
  6
CONTINUOUS
100
AcDbCircle
 39
1.8
 10
19.790881
 20
3.531256
 30
0.0
 40
0.010125
100
AcDbArc
 50
240.0
 51
60.0
  0
LINE
  5
508
100
AcDbEntity
  8
GREEN
  6
CONTINUOUS
100
AcDbLine
 39
1.8
 10
19.740344
 20
3.564619
 30
0.0
 11
19.785819
 21
3.522488
 31
0.0
  0
ARC
  5
509
100
AcDbEntity
  8
GREEN
  6
CONTINUOUS
100
AcDbCircle
 39
1.8
 10
19.733715
 20
3.563159
 30
0.0
 40
0.006787
100
AcDbArc
 50
12.423788
 51
197.604591
  0
LINE
  5
50A
100
AcDbEntity
  8
GREEN
  6
CONTINUOUS
100
AcDbLine
 39
1.8
 10
19.727094
 20
2.978205
 30
0.0
 11
19.727246
 21
3.561106
 31
0.0
  0
ARC
  5
50B
100
AcDbEntity
  8
GREEN
  6
CONTINUOUS
100
AcDbCircle
 39
1.8
 10
19.866844
 20
2.989261
 30
0.0
 40
0.140186
100
AcDbArc
 50
184.523413
 51
238.446514
  0
LINE
  5
50C
100
AcDbEntity
  8
2
  6
CONTINUOUS
 62
     4
100
AcDbLine
 10
20.805052
 20
3.064776
 30
0.0
 11
21.194764
 21
2.839776
 31
0.0
  0
LINE
  5
50D
100
AcDbEntity
  8
2
  6
CONTINUOUS
 62
     4
100
AcDbLine
 10
20.805052
 20
3.055776
 30
0.0
 11
21.194764
 21
2.830776
 31
0.0
  0
LINE
  5
50E
100
AcDbEntity
  8
2
  6
CONTINUOUS
 62
     4
100
AcDbLine
 10
21.387601
 20
3.40111
 30
0.0
 11
20.805052
 21
3.064776
 31
0.0
  0
MTEXT
  5
50F
100
AcDbEntity
  8
2
  6
CONTINUOUS
 62
     9
100
AcDbMText
 10
19.651664
 20
0.951607
 30
0.0
 40
0.6939
 41
4.9041
 71
     1
 72
     5
  1
\fArial|b1|i0|c0|p34;\C7;C L A D
  7
ROMANS
  0
LWPOLYLINE
  5
510
102
{ACAD_REACTORS
330
54C
102
}
100
AcDbEntity
  8
1
  6
CONTINUOUS
 62
     5
100
AcDbPolyline
 90
        2
 70
     0
 43
0.0225
 10
21.588903
 20
5.328591
 42
70374.114908
 10
21.589022
 20
5.328576
 42
70374.114908
  0
HATCH
  5
511
100
AcDbEntity
  8
1
  6
CONTINUOUS
 62
     5
100
AcDbHatch
 10
0.0
 20
0.0
 30
0.0
210
0.0
220
0.0
230
1.0
  2
SOLID
 70
     1
 71
     0
 91
        7
 92
        7
 72
     1
 73
     1
 93
        4
 10
21.60585326212248
 20
5.326078100398461
 42
0.003817909443379
 10
21.57382352059691
 20
5.330085720506588
 42
0.0
 10
19.71910411333799
 20
4.259262971454432
 42
0.0
 10
19.73858968492314
 20
4.248012971454429
 42
0.0
 97
        0
 92
        7
 72
     0
 73
     1
 93
        4
 10
19.73858968492314
 20
4.248012971454429
 10
19.71910411333799
 20
4.259262971454432
 10
19.71910411333799
 20
3.676729693997028
 10
19.73858968492314
 20
3.687979693997032
 97
        0
 92
        7
 72
     0
 73
     1
 93
        4
 10
20.05673455325222
 20
4.191442614075484
 10
20.05673455325222
 20
4.168942614075479
 10
21.84161291045195
 20
3.14969261407548
 10
21.84161291045195
 20
3.160942614075477
 97
        0
 92
        7
 72
     1
 73
     1
 93
        4
 10
23.30306120600615
 20
3.982210180920422
 42
0.002332807343841
 10
23.29596351849317
 20
4.000612329124169
 42
0.0
 10
21.84161291045195
 20
3.160942614075477
 42
0.0
 10
21.84161291045195
 20
3.138442614075483
 42
0.0
 97
        0
 92
        7
 72
     1
 73
     1
 93
        4
 10
23.41669871948504
 20
3.551282903668347
 42
0.0024685623280776
 10
23.41343217423948
 20
3.571896962891496
 42
0.0
 10
22.16154456890215
 20
2.849119316954837
 42
0.0
 10
22.1810301404873
 20
2.837869316954833
 42
0.0
 97
        0
 92
        7
 72
     1
 73
     1
 93
        8
 10
22.1810301404873
 20
2.837869316954833
 42
0.0
 10
22.16154456890215
 20
2.849119316954837
 42
0.0
 10
22.16154456890215
 20
2.017502002857018
 42
-0.5773502691896262
 10
22.14129456890216
 20
2.005810659905922
 42
0.0
 10
21.99007153895284
 20
2.093119316954837
 42
0.0
 10
21.99007153895284
 20
2.070619316954836
 42
0.0
 10
22.1371551404873
 20
1.985700560015526
 42
0.577350269189633
 10
22.1810301404873
 20
2.011031803076217
 42
0.0
 97
        0
 92
        7
 72
     0
 73
     1
 93
        3
 10
20.05673455325224
 20
4.168942614075465
 10
21.84161291045195
 20
3.138442614075483
 10
21.84161291045195
 20
3.14969261407548
 97
        0
 75
     0
 76
     1
 47
0.006507
 98
        7
 10
19.761165
 20
4.274654
 10
19.728486
 20
4.222121
 10
20.069487
 20
4.176688
 10
21.976246
 20
3.231378
 10
22.348417
 20
2.950256
 10
22.172588
 20
2.78334
 10
21.785765
 20
3.178667
  0
HATCH
  5
512
100
AcDbEntity
  8
1
  6
CONTINUOUS
 62
     5
100
AcDbHatch
 10
0.0
 20
0.0
 30
0.0
210
0.0
220
0.0
230
1.0
  2
SOLID
 70
     1
 71
     0
 91
        7
 92
        7
 72
     1
 73
     1
 93
        4
 10
21.60585326212248
 20
5.326078100398461
 42
0.003817909443379
 10
21.57382352059691
 20
5.330085720506588
 42
0.0
 10
19.71910411333799
 20
4.259262971454432
 42
0.0
 10
19.73858968492314
 20
4.248012971454429
 42
0.0
 97
        0
 92
        7
 72
     0
 73
     1
 93
        4
 10
19.73858968492314
 20
4.248012971454429
 10
19.71910411333799
 20
4.259262971454432
 10
19.71910411333799
 20
3.676729693997028
 10
19.73858968492314
 20
3.687979693997025
 97
        0
 92
        7
 72
     0
 73
     1
 93
        4
 10
20.05673455325222
 20
4.191442614075484
 10
20.05673455325222
 20
4.168942614075479
 10
21.84161291045195
 20
3.14969261407548
 10
21.84161291045195
 20
3.160942614075477
 97
        0
 92
        7
 72
     1
 73
     1
 93
        4
 10
23.30306120600615
 20
3.982210180920422
 42
0.002332807343841
 10
23.29596351849317
 20
4.000612329124169
 42
0.0
 10
21.84161291045195
 20
3.160942614075477
 42
0.0
 10
21.84161291045195
 20
3.138442614075483
 42
0.0
 97
        0
 92
        7
 72
     1
 73
     1
 93
        4
 10
23.41669871948504
 20
3.551282903668347
 42
0.0024685623280776
 10
23.41343217423948
 20
3.571896962891496
 42
0.0
 10
22.16154456890215
 20
2.84911931695483
 42
0.0
 10
22.1810301404873
 20
2.837869316954833
 42
0.0
 97
        0
 92
        7
 72
     1
 73
     1
 93
        8
 10
22.1810301404873
 20
2.837869316954833
 42
0.0
 10
22.16154456890215
 20
2.849119316954837
 42
0.0
 10
22.16154456890215
 20
2.017502002857018
 42
-0.5773502691896262
 10
22.14129456890216
 20
2.005810659905922
 42
0.0
 10
21.99007153895284
 20
2.093119316954837
 42
0.0
 10
21.99007153895284
 20
2.070619316954836
 42
0.0
 10
22.1371551404873
 20
1.985700560015526
 42
0.577350269189633
 10
22.1810301404873
 20
2.011031803076217
 42
0.0
 97
        0
 92
        7
 72
     0
 73
     1
 93
        3
 10
20.05673455325224
 20
4.168942614075465
 10
21.84161291045195
 20
3.138442614075483
 10
21.84161291045195
 20
3.14969261407548
 97
        0
 75
     0
 76
     1
 47
0.006507
 98
        7
 10
19.761165
 20
4.274654
 10
19.728486
 20
4.222121
 10
20.069487
 20
4.176688
 10
21.976246
 20
3.231378
 10
22.348417
 20
2.950256
 10
22.172588
 20
2.78334
 10
21.785765
 20
3.178667
  0
HATCH
  5
513
100
AcDbEntity
  8
2
  6
CONTINUOUS
 62
     9
100
AcDbHatch
 10
0.0
 20
0.0
 30
0.0
210
0.0
220
0.0
230
1.0
  2
SOLID
 70
     1
 71
     0
 91
        2
 92
       23
 72
     1
 73
     1
 93
       20
 10
21.28016299545672
 20
2.704473499270743
 42
0.0
 10
21.27464585260337
 20
2.69491752753613
 42
0.6681786379192962
 10
21.28730035265335
 20
2.67842586199038
 42
0.0
 10
21.3149968946894
 20
2.685847128062068
 42
0.6681786379192695
 10
21.31716752328348
 20
2.70233468913273
 42
0.0
 10
21.31015353709835
 20
2.706384215944819
 42
-0.6681786379192408
 10
21.31123885139539
 20
2.71462799648015
 42
0.0
 10
21.32316019501902
 20
2.717822310876794
 42
0.6681786379193185
 10
21.32370285216754
 20
2.721944201144463
 42
0.0
 10
20.97740414295099
 20
2.921879854130654
 42
0.0
 10
19.81582911861178
 20
3.592515507116846
 42
0.668178637919208
 10
19.81253078550263
 20
3.589984607106853
 42
0.0
 10
19.81572509989927
 20
3.578063263483212
 42
-0.6681786379193225
 10
19.80912843368097
 20
3.573001463463224
 42
0.0
 10
19.80211444749583
 20
3.577050990275306
 42
0.6681786379193126
 10
19.78892111505924
 20
3.566927390235324
 42
0.0
 10
19.79634238113093
 20
3.53923084819927
 42
0.6681786379193007
 10
19.81695183246926
 20
3.536517562456676
 42
0.0
 10
19.82246897532261
 20
3.546073534191283
 42
0.0
 10
20.00221257812015
 20
3.442298516731003
 42
0.0
 97
        0
 92
        7
 72
     1
 73
     1
 93
       37
 10
19.69784448504629
 20
3.66445544187994
 42
0.4142135623731299
 10
19.69109448504628
 20
3.657705441879951
 42
0.0
 10
19.69109448504628
 20
2.876955441879946
 42
0.0
 10
21.44479592770977
 20
1.86445544187995
 42
0.0
 10
21.44479592770978
 20
2.645205441879948
 42
0.1316524975873667
 10
21.43967389915533
 20
2.65407705557406
 42
0.0
 10
21.32612879131154
 20
2.719632354152832
 42
0.0376464264871547
 10
21.32477926866284
 20
2.719530600531793
 42
-0.2823673447488831
 10
21.32316019501902
 20
2.717822310876794
 42
0.0
 10
21.31965309959276
 20
2.716882587489553
 42
0.5149511874561723
 10
21.32232522695588
 20
2.702475584069507
 42
0.0
 10
21.33426928733808
 20
2.696905977243819
 42
0.0
 10
21.32077034477878
 20
2.690623282456332
 42
-0.2180320882791709
 10
21.3149968946894
 20
2.685847128062068
 42
0.0
 10
21.30441783869354
 20
2.683012478551301
 42
0.0
 10
21.29298200060297
 20
2.677689996434896
 42
0.0
 10
21.27835700060297
 20
2.677689996434896
 42
1.0
 10
21.27835700060297
 20
2.657439996434899
 42
0.0
 10
21.35254844011421
 20
2.635356863309393
 42
-0.5578319223640622
 10
21.40879592770978
 20
2.567805441879958
 42
0.0
 10
21.40879592770978
 20
1.965705441879944
 42
-0.5129809895031772
 10
21.38740508421066
 20
1.94955158505024
 42
0.0
 10
19.7934853285454
 20
2.86980158505025
 42
-0.2397239142270584
 10
19.72709448504629
 20
2.978205441879946
 42
0.0
 10
19.7272456973191
 20
3.561106063595655
 42
-1.046264757040728
 10
19.74034355840388
 20
3.564619101705343
 42
0.0
 10
19.78581892373069
 20
3.522487846090992
 42
0.6309633877406034
 10
19.80088172115385
 20
3.532840549140832
 42
-0.1798205534880095
 10
19.79634238113093
 20
3.53923084819927
 42
0.0
 10
19.79632251605983
 20
3.53930498565391
 42
0.0
 10
19.78327830220034
 20
3.564107922617051
 42
0.0
 10
19.79194557313423
 20
3.582258581358299
 42
0.0
 10
19.8050742362624
 20
3.581109972167336
 42
0.293926452988122
 10
19.81369321794001
 20
3.585646350190177
 42
0.0
 10
19.81253078550263
 20
3.589984607106853
 42
-0.4565659268922137
 10
19.81443612248446
 20
3.592800932517743
 42
0.1814616707363846
 10
19.81052542178983
 20
3.597771250979615
 42
0.0
 97
        0
 75
     0
 76
     1
 47
0.011788
 98
        2
 10
20.031861
 20
3.442229
 10
19.761143
 20
3.601363
  0
LINE
  5
514
100
AcDbEntity
  8
1
  6
CONTINUOUS
100
AcDbLine
 39
0.09
 10
20.056735
 20
4.191443
 30
0.0
 11
21.841613
 21
3.160943
 31
0.0
  0
LINE
  5
515
100
AcDbEntity
  8
1
  6
CONTINUOUS
100
AcDbLine
 39
0.09
 10
20.056735
 20
4.168943
 30
0.0
 11
21.841613
 21
3.138443
 31
0.0
  0
LINE
  5
516
100
AcDbEntity
  8
1
  6
CONTINUOUS
100
AcDbLine
 10
20.056735
 20
4.168943
 30
0.0
 11
21.841613
 21
3.149693
 31
0.0
  0
LINE
  5
517
100
AcDbEntity
  8
1
  6
CONTINUOUS
 62
     5
100
AcDbLine
 39
0.09
 10
20.056735
 20
4.191443
 30
0.0
 11
21.841613
 21
3.160943
 31
0.0
  0
LINE
  5
518
100
AcDbEntity
  8
1
  6
CONTINUOUS
 62
     5
100
AcDbLine
 39
0.09
 10
20.056735
 20
4.168943
 30
0.0
 11
21.841613
 21
3.138443
 31
0.0
  0
LINE
  5
519
100
AcDbEntity
  8
1
  6
CONTINUOUS
 62
     5
100
AcDbLine
 10
19.719104
 20
4.259263
 30
0.0
 11
21.573824
 21
5.330086
 31
0.0
  0
LINE
  5
51A
100
AcDbEntity
  8
1
  6
CONTINUOUS
100
AcDbLine
 10
19.73859
 20
4.248013
 30
0.0
 11
21.605853
 21
5.326078
 31
0.0
  0
LINE
  5
51B
100
AcDbEntity
  8
1
  6
CONTINUOUS
 62
     5
100
AcDbLine
 10
19.719104
 20
4.259263
 30
0.0
 11
21.573824
 21
5.330086
 31
0.0
  0
LINE
  5
51C
100
AcDbEntity
  8
1
  6
CONTINUOUS
 62
     5
100
AcDbLine
 10
19.73859
 20
4.248013
 30
0.0
 11
21.605853
 21
5.326078
 31
0.0
  0
LINE
  5
51D
100
AcDbEntity
  8
1
  6
CONTINUOUS
 62
     5
100
AcDbLine
 10
20.058985
 20
4.187545
 30
0.0
 11
21.913639
 21
5.258331
 31
0.0
  0
HATCH
  5
51E
100
AcDbEntity
  8
2
  6
CONTINUOUS
 62
     9
100
AcDbHatch
 10
0.0
 20
0.0
 30
0.0
210
0.0
220
0.0
230
1.0
  2
ANSI31
 70
     0
 71
     0
 91
        1
 92
        7
 72
     1
 73
     1
 93
        8
 10
21.91605995788215
 20
5.261287330253779
 42
0.0
 10
21.91296377957397
 20
5.259499750874098
 42
0.0
 10
21.91318877957397
 20
5.25911003944239
 42
0.0
 10
21.91341377957397
 20
5.258720328010696
 42
0.0
 10
21.91363877957397
 20
5.258330616578987
 42
0.0
 10
20.06123455325223
 20
4.188844537864127
 42
0.0
 10
21.84161291045195
 20
3.160942614075477
 42
0.0
 10
23.29643425489513
 20
4.000884108912561
 42
0.2330962772361932
 97
        0
 75
     0
 76
     1
 52
0.0
 41
0.05
 77
     0
 78
     1
 53
45.0
 43
-2.869635
 44
-30.099459
 45
-0.0044194173824159
 46
0.0044194173824159
 79
     0
 47
0.017346
 98
        1
 10
21.723074
 20
4.322023
  0
HATCH
  5
51F
100
AcDbEntity
  8
2
  6
CONTINUOUS
 62
     9
100
AcDbHatch
 10
0.0
 20
0.0
 30
0.0
210
0.0
220
0.0
230
1.0
  2
ANSI31
 70
     0
 71
     0
 91
        1
 92
        7
 72
     1
 73
     1
 93
        7
 10
20.05673455325222
 20
4.168942614075479
 42
0.0
 10
20.05673455325222
 20
4.191442614075484
 42
0.0
 10
21.91185951597585
 20
5.262499510684364
 42
0.0369683020279065
 10
21.60632399852467
 20
5.326349880186981
 42
0.0
 10
19.73858968492314
 20
4.248012971454429
 42
0.0
 10
19.73858968492314
 20
3.687979693997025
 42
0.0
 10
20.31418822615397
 20
4.020301666721803
 42
0.0
 97
        0
 75
     0
 76
     1
 52
0.0
 41
0.05
 77
     0
 78
     1
 53
45.0
 43
-2.869635
 44
-30.099459
 45
-0.0044194173824159
 46
0.0044194173824159
 79
     0
 47
0.022773
 98
        1
 10
20.009169
 20
4.120982
  0
LINE
  5
520
100
AcDbEntity
  8
1
  6
CONTINUOUS
100
AcDbLine
 10
20.056735
 20
4.168943
 30
0.0
 11
21.841613
 21
3.149693
 31
0.0
  0
LWPOLYLINE
  5
521
100
AcDbEntity
  8
1
100
AcDbPolyline
 90
        2
 70
     0
 43
0.01
 10
20.056735
 20
4.191443
 10
21.911389
 20
5.262228
  0
LINE
  5
522
100
AcDbEntity
  8
0
 62
     3
100
AcDbLine
 10
19.815829
 20
3.592516
 30
0.0
 11
20.977404
 21
2.92188
 31
0.0
  0
LINE
  5
523
100
AcDbEntity
  8
2
  6
CONTINUOUS
 62
     4
100
AcDbLine
 10
20.997889
 20
3.62611
 30
0.0
 11
20.415341
 21
3.289776
 31
0.0
  0
LINE
  5
524
100
AcDbEntity
  8
2
  6
CONTINUOUS
 62
     4
100
AcDbLine
 10
21.005684
 20
3.62161
 30
0.0
 11
20.415341
 21
3.280776
 31
0.0
  0
LINE
  5
525
100
AcDbEntity
  8
0
 62
     3
100
AcDbLine
 10
21.280163
 20
2.704473
 30
0.0
 11
20.002213
 21
3.442299
 31
0.0
  0
LINE
  5
526
100
AcDbEntity
  8
1
  6
CONTINUOUS
 62
     5
100
AcDbLine
 39
0.09
 10
20.056735
 20
4.191443
 30
0.0
 11
20.056735
 21
4.168943
 31
0.0
  0
LINE
  5
527
100
AcDbEntity
  8
1
  6
CONTINUOUS
 62
     5
100
AcDbLine
 39
0.09
 10
20.056735
 20
4.191443
 30
0.0
 11
20.056735
 21
4.168943
 31
0.0
  0
LINE
  5
528
100
AcDbEntity
  8
GREEN
100
AcDbLine
 10
19.813938
 20
3.594041
 30
0.0
 11
20.433686
 21
3.951853
 31
0.0
  0
LINE
  5
529
100
AcDbEntity
  8
GREEN
100
AcDbLine
 10
19.697844
 20
3.664455
 30
0.0
 11
20.314659
 21
4.020573
 31
0.0
  0
LINE
  5
52A
100
AcDbEntity
  8
0
 62
     3
100
AcDbLine
 10
20.002213
 20
3.442299
 30
0.0
 11
19.822469
 21
3.546074
 31
0.0
  0
LINE
  5
52B
100
AcDbEntity
  8
1
  6
CONTINUOUS
 62
     5
100
AcDbLine
 10
19.719104
 20
3.67673
 30
0.0
 11
19.719104
 21
4.259263
 31
0.0
  0
LINE
  5
52C
100
AcDbEntity
  8
1
  6
CONTINUOUS
 62
     5
100
AcDbLine
 10
19.719104
 20
3.67673
 30
0.0
 11
19.719104
 21
4.259263
 31
0.0
  0
LINE
  5
52D
100
AcDbEntity
  8
1
  6
CONTINUOUS
 62
     5
100
AcDbLine
 10
19.73859
 20
3.68798
 30
0.0
 11
19.73859
 21
4.248013
 31
0.0
  0
LINE
  5
52E
100
AcDbEntity
  8
1
  6
CONTINUOUS
 62
     5
100
AcDbLine
 10
19.73859
 20
3.68798
 30
0.0
 11
19.73859
 21
4.248013
 31
0.0
  0
LINE
  5
52F
100
AcDbEntity
  8
0
 62
     3
100
AcDbLine
 10
19.815725
 20
3.578063
 30
0.0
 11
19.812531
 21
3.589985
 31
0.0
  0
LINE
  5
530
100
AcDbEntity
  8
0
 62
     3
100
AcDbLine
 10
19.822469
 20
3.546074
 30
0.0
 11
19.816952
 21
3.536518
 31
0.0
  0
ARC
  5
531
100
AcDbEntity
  8
0
 62
     3
100
AcDbCircle
 10
19.811378
 20
3.576899
 30
0.0
 40
0.0045
100
AcDbArc
 50
240.0
 51
15.0
  0
ARC
  5
532
100
AcDbEntity
  8
0
 62
     3
100
AcDbCircle
 10
19.814704
 20
3.590567
 30
0.0
 40
0.00225
100
AcDbArc
 50
60.0
 51
195.0
  0
LINE
  5
533
100
AcDbEntity
  8
0
 62
     3
100
AcDbLine
 10
19.796342
 20
3.539231
 30
0.0
 11
19.788921
 21
3.566927
 31
0.0
  0
ARC
  5
534
100
AcDbEntity
  8
0
 62
     3
100
AcDbCircle
 10
19.797614
 20
3.569257
 30
0.0
 40
0.009
100
AcDbArc
 50
60.0
 51
195.0
  0
ARC
  5
535
100
AcDbEntity
  8
0
 62
     3
100
AcDbCircle
 10
19.807209
 20
3.542143
 30
0.0
 40
0.01125
100
AcDbArc
 50
195.0
 51
330.0
  0
LINE
  5
536
100
AcDbEntity
  8
0
 62
     3
100
AcDbLine
 10
19.802114
 20
3.577051
 30
0.0
 11
19.809128
 21
3.573001
 31
0.0
  0
LINE
  5
537
100
AcDbEntity
  8
1
  6
CONTINUOUS
 62
     5
100
AcDbLine
 10
19.719104
 20
4.259263
 30
0.0
 11
19.73859
 21
4.248013
 31
0.0
  0
LINE
  5
538
100
AcDbEntity
  8
1
  6
CONTINUOUS
 62
     5
100
AcDbLine
 10
19.719104
 20
4.259263
 30
0.0
 11
19.73859
 21
4.248013
 31
0.0
  0
LINE
  5
539
100
AcDbEntity
  8
2
  6
CONTINUOUS
 62
     4
100
AcDbLine
 10
20.025629
 20
3.514776
 30
0.0
 11
20.415341
 21
3.289776
 31
0.0
  0
LINE
  5
53A
100
AcDbEntity
  8
2
  6
CONTINUOUS
 62
     4
100
AcDbLine
 10
20.025629
 20
3.505776
 30
0.0
 11
20.415341
 21
3.280776
 31
0.0
  0
LINE
  5
53B
100
AcDbEntity
  8
2
  6
CONTINUOUS
 62
     4
100
AcDbLine
 10
20.608178
 20
3.85111
 30
0.0
 11
20.025629
 21
3.514776
 31
0.0
  0
LINE
  5
53C
100
AcDbEntity
  8
2
  6
CONTINUOUS
 62
     4
100
AcDbLine
 10
20.025629
 20
3.514776
 30
0.0
 11
20.025629
 21
3.505776
 31
0.0
  0
LINE
  5
53D
100
AcDbEntity
  8
2
  6
CONTINUOUS
 62
     4
100
AcDbLine
 10
20.415341
 20
3.289776
 30
0.0
 11
20.415341
 21
3.280776
 31
0.0
  0
LINE
  5
53E
100
AcDbEntity
  8
2
  6
CONTINUOUS
 62
     4
100
AcDbLine
 10
20.805052
 20
3.064776
 30
0.0
 11
20.805052
 21
3.055776
 31
0.0
  0
LINE
  5
53F
100
AcDbEntity
  8
1
  6
CONTINUOUS
 62
     5
100
AcDbLine
 10
20.056735
 20
4.191443
 30
0.0
 11
20.056735
 21
4.168943
 31
0.0
  0
LINE
  5
540
100
AcDbEntity
  8
1
  6
CONTINUOUS
 62
     5
100
AcDbLine
 10
20.056735
 20
4.191443
 30
0.0
 11
20.056735
 21
4.168943
 31
0.0
  0
LINE
  5
541
100
AcDbEntity
  8
1
  6
CONTINUOUS
100
AcDbLine
 39
0.09
 10
21.841613
 20
3.160943
 30
0.0
 11
21.841613
 21
3.138443
 31
0.0
  0
LINE
  5
542
100
AcDbEntity
  8
GREEN
100
AcDbLine
 10
21.321763
 20
2.718503
 30
0.0
 11
23.338583
 21
3.882914
 31
0.0
  0
LINE
  5
543
100
AcDbEntity
  8
1
  6
CONTINUOUS
 62
     5
100
AcDbLine
 10
22.161545
 20
2.849119
 30
0.0
 11
23.413432
 21
3.571897
 31
0.0
  0
LINE
  5
544
102
{ACAD_REACTORS
330
54C
102
}
100
AcDbEntity
  8
1
  6
CONTINUOUS
 62
     5
100
AcDbLine
 10
22.18103
 20
2.837869
 30
0.0
 11
23.416699
 21
3.551283
 31
0.0
  0
LINE
  5
545
100
AcDbEntity
  8
2
  6
CONTINUOUS
 62
     4
100
AcDbLine
 10
21.480488
 20
2.489229
 30
0.0
 11
23.408717
 21
3.602492
 31
0.0
  0
LINE
  5
546
100
AcDbEntity
  8
2
  6
CONTINUOUS
 62
     4
100
AcDbLine
 10
21.496077
 20
2.480229
 30
0.0
 11
23.41157
 21
3.586139
 31
0.0
  0
LINE
  5
547
100
AcDbEntity
  8
GREEN
100
AcDbLine
 10
21.444796
 20
2.645205
 30
0.0
 11
23.374527
 21
3.759336
 31
0.0
  0
LINE
  5
548
100
AcDbEntity
  8
1
  6
CONTINUOUS
100
AcDbLine
 10
21.841613
 20
3.138443
 30
0.0
 11
23.303061
 21
3.98221
 31
0.0
  0
LINE
  5
549
100
AcDbEntity
  8
1
  6
CONTINUOUS
100
AcDbLine
 10
21.841613
 20
3.160943
 30
0.0
 11
23.295964
 21
4.000612
 31
0.0
  0
LINE
  5
54A
100
AcDbEntity
  8
1
  6
CONTINUOUS
 62
     5
100
AcDbLine
 10
22.166405
 20
1.985701
 30
0.0
 11
23.367963
 21
2.67942
 31
0.0
  0
LWPOLYLINE
  5
54B
102
{ACAD_REACTORS
330
54C
102
}
100
AcDbEntity
  8
1
  6
CONTINUOUS
 62
     5
100
AcDbPolyline
 90
        2
 70
     0
 43
0.009
 10
22.165916
 20
1.990589
 10
23.367473
 20
2.684309
  0
HATCH
  5
54C
100
AcDbEntity
  8
2
  6
CONTINUOUS
 62
     9
100
AcDbHatch
 10
0.0
 20
0.0
 30
0.0
210
0.0
220
0.0
230
1.0
  2
ANSI31
 70
     0
 71
     1
 91
        2
 92
        7
 72
     1
 73
     1
 93
        5
 10
22.1810301404873
 20
2.837869316954833
 42
0.0
 10
22.1810301404873
 20
2.011031803076225
 42
-0.1222318301882331
 10
22.17763620785308
 20
1.997356047873076
 42
0.0
 10
23.37007731747883
 20
2.685812243508284
 42
0.1036486555291187
 10
23.41716945584155
 20
3.551554683430499
 42
0.0
 97
        5
330
544
330
550
330
558
330
54B
330
510
 92
        7
 72
     1
 73
     1
 93
        4
 10
22.14129456890215
 20
2.005810659905925
 42
0.5773502691893225
 10
22.16154456890215
 20
2.017502002857014
 42
0.0
 10
22.16154456890214
 20
2.186949339013072
 42
0.0
 10
21.99454887118741
 20
2.090534327983952
 42
0.0
 97
        4
330
55E
330
55C
330
562
330
54E
 75
     0
 76
     1
 52
0.0
 41
0.05
 77
     0
 78
     1
 53
45.0
 43
-2.869635
 44
-30.099459
 45
-0.0044194173824159
 46
0.0044194173824159
 79
     0
 47
0.022773
 98
        2
 10
22.788245
 20
2.809286
 10
22.101167
 20
2.081704
  0
LINE
  5
54D
100
AcDbEntity
  8
1
  6
CONTINUOUS
 62
     5
100
AcDbLine
 10
22.161545
 20
2.017502
 30
0.0
 11
22.161545
 21
2.849119
 31
0.0
  0
LINE
  5
54E
102
{ACAD_REACTORS
330
54C
102
}
100
AcDbEntity
  8
1
  6
CONTINUOUS
 62
     5
100
AcDbLine
 10
22.161545
 20
2.017502
 30
0.0
 11
22.161545
 21
2.849119
 31
0.0
  0
LINE
  5
54F
100
AcDbEntity
  8
1
  6
CONTINUOUS
 62
     5
100
AcDbLine
 10
22.18103
 20
2.011032
 30
0.0
 11
22.18103
 21
2.837869
 31
0.0
  0
LINE
  5
550
102
{ACAD_REACTORS
330
54C
102
}
100
AcDbEntity
  8
1
  6
CONTINUOUS
 62
     5
100
AcDbLine
 10
22.18103
 20
2.011032
 30
0.0
 11
22.18103
 21
2.837869
 31
0.0
  0
LINE
  5
551
100
AcDbEntity
  8
GREEN
100
AcDbLine
 10
21.444796
 20
1.864455
 30
0.0
 11
22.162015
 21
2.278542
 31
0.0
  0
LINE
  5
552
100
AcDbEntity
  8
2
  6
CONTINUOUS
 62
     4
100
AcDbLine
 10
21.496077
 20
2.030229
 30
0.0
 11
22.162015
 21
2.414708
 31
0.0
  0
LINE
  5
553
100
AcDbEntity
  8
2
  6
CONTINUOUS
 62
     4
100
AcDbLine
 10
21.480488
 20
2.489229
 30
0.0
 11
21.496077
 21
2.480229
 31
0.0
  0
LINE
  5
554
100
AcDbEntity
  8
2
  6
CONTINUOUS
 62
     4
100
AcDbLine
 10
21.480488
 20
2.039229
 30
0.0
 11
21.496077
 21
2.030229
 31
0.0
  0
LINE
  5
555
100
AcDbEntity
  8
2
  6
CONTINUOUS
 62
     4
100
AcDbLine
 10
21.480488
 20
2.489229
 30
0.0
 11
21.480488
 21
2.039229
 31
0.0
  0
LINE
  5
556
100
AcDbEntity
  8
2
  6
CONTINUOUS
 62
     4
100
AcDbLine
 10
21.496077
 20
2.480229
 30
0.0
 11
21.496077
 21
2.030229
 31
0.0
  0
ARC
  5
557
100
AcDbEntity
  8
1
  6
CONTINUOUS
 62
     5
100
AcDbCircle
 10
22.15178
 20
2.011032
 30
0.0
 40
0.02925
100
AcDbArc
 50
240.0
 51
0.0
  0
ARC
  5
558
102
{ACAD_REACTORS
330
54C
102
}
100
AcDbEntity
  8
1
  6
CONTINUOUS
 62
     5
100
AcDbCircle
 10
22.15178
 20
2.011032
 30
0.0
 40
0.02925
100
AcDbArc
 50
240.0
 51
0.0
  0
LINE
  5
559
100
AcDbEntity
  8
1
  6
CONTINUOUS
 62
     5
100
AcDbLine
 10
22.137155
 20
1.985701
 30
0.0
 11
21.990072
 21
2.070619
 31
0.0
  0
LINE
  5
55A
100
AcDbEntity
  8
1
  6
CONTINUOUS
 62
     5
100
AcDbLine
 10
22.137155
 20
1.985701
 30
0.0
 11
21.990072
 21
2.070619
 31
0.0
  0
LINE
  5
55B
100
AcDbEntity
  8
1
  6
CONTINUOUS
 62
     5
100
AcDbLine
 10
22.141295
 20
2.005811
 30
0.0
 11
21.990072
 21
2.093119
 31
0.0
  0
LINE
  5
55C
102
{ACAD_REACTORS
330
54C
102
}
100
AcDbEntity
  8
1
  6
CONTINUOUS
 62
     5
100
AcDbLine
 10
22.141295
 20
2.005811
 30
0.0
 11
21.990072
 21
2.093119
 31
0.0
  0
LINE
  5
55D
100
AcDbEntity
  8
1
  6
CONTINUOUS
 62
     5
100
AcDbLine
 10
21.990072
 20
2.093119
 30
0.0
 11
22.161545
 21
2.192119
 31
0.0
  0
LWPOLYLINE
  5
55E
102
{ACAD_REACTORS
330
54C
102
}
100
AcDbEntity
  8
1
  6
CONTINUOUS
 62
     5
100
AcDbPolyline
 90
        2
 70
     0
 43
0.009
 10
21.992345
 20
2.089262
 10
22.163818
 20
2.188262
  0
LINE
  5
55F
100
AcDbEntity
  8
1
  6
CONTINUOUS
 62
     5
100
AcDbLine
 10
21.990072
 20
2.093119
 30
0.0
 11
21.990072
 21
2.070619
 31
0.0
  0
LINE
  5
560
100
AcDbEntity
  8
1
  6
CONTINUOUS
 62
     5
100
AcDbLine
 10
21.990072
 20
2.093119
 30
0.0
 11
21.990072
 21
2.070619
 31
0.0
  0
ARC
  5
561
100
AcDbEntity
  8
1
  6
CONTINUOUS
 62
     5
100
AcDbCircle
 10
22.148045
 20
2.017502
 30
0.0
 40
0.0135
100
AcDbArc
 50
240.0
 51
0.0
  0
ARC
  5
562
102
{ACAD_REACTORS
330
54C
102
}
100
AcDbEntity
  8
1
  6
CONTINUOUS
 62
     5
100
AcDbCircle
 10
22.148045
 20
2.017502
 30
0.0
 40
0.0135
100
AcDbArc
 50
240.0
 51
0.0
  0
LINE
  5
563
100
AcDbEntity
  8
2
  6
CONTINUOUS
 62
     4
100
AcDbLine
 10
21.777312
 20
3.17611
 30
0.0
 11
21.194764
 21
2.839776
 31
0.0
  0
LINE
  5
564
100
AcDbEntity
  8
2
  6
CONTINUOUS
 62
     4
100
AcDbLine
 10
21.785106
 20
3.17161
 30
0.0
 11
21.194764
 21
2.830776
 31
0.0
  0
LINE
  5
565
100
AcDbEntity
  8
0
 62
     3
100
AcDbLine
 10
20.977404
 20
2.92188
 30
0.0
 11
21.323703
 21
2.721944
 31
0.0
  0
LINE
  5
566
100
AcDbEntity
  8
0
 62
     3
100
AcDbLine
 10
21.32316
 20
2.717822
 30
0.0
 11
21.311239
 21
2.714628
 31
0.0
  0
ARC
  5
567
100
AcDbEntity
  8
0
 62
     3
100
AcDbCircle
 10
21.312668
 20
2.69454
 30
0.0
 40
0.009
100
AcDbArc
 50
285.0
 51
60.0
  0
ARC
  5
568
100
AcDbEntity
  8
0
 62
     3
100
AcDbCircle
 10
21.322578
 20
2.719996
 30
0.0
 40
0.00225
100
AcDbArc
 50
285.0
 51
60.0
  0
LINE
  5
569
100
AcDbEntity
  8
0
 62
     3
100
AcDbLine
 10
21.274646
 20
2.694918
 30
0.0
 11
21.280163
 21
2.704473
 31
0.0
  0
ARC
  5
56A
100
AcDbEntity
  8
0
 62
     3
100
AcDbCircle
 10
21.284389
 20
2.689293
 30
0.0
 40
0.01125
100
AcDbArc
 50
150.0
 51
285.0
  0
LINE
  5
56B
100
AcDbEntity
  8
0
 62
     3
100
AcDbLine
 10
21.314997
 20
2.685847
 30
0.0
 11
21.2873
 21
2.678426
 31
0.0
  0
LINE
  5
56C
100
AcDbEntity
  8
0
 62
     3
100
AcDbLine
 10
21.310154
 20
2.706384
 30
0.0
 11
21.317168
 21
2.702335
 31
0.0
  0
ARC
  5
56D
100
AcDbEntity
  8
0
 62
     3
100
AcDbCircle
 10
21.312404
 20
2.710281
 30
0.0
 40
0.0045
100
AcDbArc
 50
105.0
 51
240.0
  0
LINE
  5
56E
100
AcDbEntity
  8
2
  6
CONTINUOUS
 62
     4
100
AcDbLine
 10
21.194764
 20
2.839776
 30
0.0
 11
21.194764
 21
2.830776
 31
0.0
  0
LINE
  5
56F
100
AcDbEntity
  8
1
  6
CONTINUOUS
 62
     5
100
AcDbLine
 10
22.161545
 20
2.849119
 30
0.0
 11
22.18103
 21
2.837869
 31
0.0
  0
LINE
  5
570
100
AcDbEntity
  8
1
  6
CONTINUOUS
 62
     5
100
AcDbLine
 10
22.161545
 20
2.849119
 30
0.0
 11
22.18103
 21
2.837869
 31
0.0
  0
ENDBLK
  5
572
100
AcDbEntity
  8
0
100
AcDbBlockEnd
  0
BLOCK
  5
60A
100
AcDbEntity
  8
0
100
AcDbBlockBegin
  2
*D26
 70
     1
 10
0.0
 20
0.0
 30
0.0
  3
*D26
  1

  0
LINE
  5
600
100
AcDbEntity
  8
0
  6
BYBLOCK
 62
     0
100
AcDbLine
 10
9.622096
 20
2.658046
 30
0.0
 11
8.441716
 21
2.658046
 31
0.0
  0
LINE
  5
601
100
AcDbEntity
  8
0
  6
BYBLOCK
 62
     0
100
AcDbLine
 10
9.622096
 20
0.958046
 30
0.0
 11
8.441716
 21
0.958046
 31
0.0
  0
LINE
  5
602
100
AcDbEntity
  8
0
  6
BYBLOCK
 62
     0
100
AcDbLine
 10
8.516716
 20
2.583046
 30
0.0
 11
8.516716
 21
1.978403
 31
0.0
  0
LINE
  5
603
100
AcDbEntity
  8
0
  6
BYBLOCK
 62
     0
100
AcDbLine
 10
8.516716
 20
1.033046
 30
0.0
 11
8.516716
 21
1.637688
 31
0.0
  0
SOLID
  5
604
100
AcDbEntity
  8
0
  6
BYBLOCK
 62
     0
100
AcDbTrace
 10
8.504216
 20
2.583046
 30
0.0
 11
8.529216
 21
2.583046
 31
0.0
 12
8.516716
 22
2.658046
 32
0.0
 13
8.516716
 23
2.658046
 33
0.0
  0
SOLID
  5
605
100
AcDbEntity
  8
0
  6
BYBLOCK
 62
     0
100
AcDbTrace
 10
8.504216
 20
1.033046
 30
0.0
 11
8.529216
 21
1.033046
 31
0.0
 12
8.516716
 22
0.958046
 32
0.0
 13
8.516716
 23
0.958046
 33
0.0
  0
MTEXT
  5
606
100
AcDbEntity
  8
0
  6
BYBLOCK
 62
     0
100
AcDbMText
 10
8.516716
 20
1.808046
 30
0.0
 40
0.135
 41
0.0
 71
     5
 72
     1
  1
\A1;1.700 [43.2]
  7
ROMANS
  0
POINT
  5
607
100
AcDbEntity
  8
DEFPOINTS
  6
BYBLOCK
 62
     0
100
AcDbPoint
 10
9.697096
 20
2.658046
 30
0.0
  0
POINT
  5
608
100
AcDbEntity
  8
DEFPOINTS
  6
BYBLOCK
 62
     0
100
AcDbPoint
 10
9.697096
 20
0.958046
 30
0.0
  0
POINT
  5
609
100
AcDbEntity
  8
DEFPOINTS
  6
BYBLOCK
 62
     0
100
AcDbPoint
 10
8.516716
 20
0.958046
 30
0.0
  0
ENDBLK
  5
60B
100
AcDbEntity
  8
0
100
AcDbBlockEnd
  0
BLOCK
  5
617
100
AcDbEntity
  8
0
100
AcDbBlockBegin
  2
*D27
 70
     1
 10
0.0
 20
0.0
 30
0.0
  3
*D27
  1

  0
LINE
  5
60D
100
AcDbEntity
  8
0
  6
BYBLOCK
 62
     0
100
AcDbLine
 10
13.197096
 20
2.383046
 30
0.0
 11
13.197096
 21
3.003928
 31
0.0
  0
LINE
  5
60E
100
AcDbEntity
  8
0
  6
BYBLOCK
 62
     0
100
AcDbLine
 10
13.572096
 20
2.733046
 30
0.0
 11
13.572096
 21
3.003928
 31
0.0
  0
LINE
  5
60F
100
AcDbEntity
  8
0
  6
BYBLOCK
 62
     0
100
AcDbLine
 10
13.272096
 20
2.928928
 30
0.0
 11
13.497096
 21
2.928928
 31
0.0
  0
LINE
  5
610
100
AcDbEntity
  8
0
  6
BYBLOCK
 62
     0
100
AcDbLine
 10
13.572096
 20
2.928928
 30
0.0
 11
13.647096
 21
2.928928
 31
0.0
  0
SOLID
  5
611
100
AcDbEntity
  8
0
  6
BYBLOCK
 62
     0
100
AcDbTrace
 10
13.272096
 20
2.941428
 30
0.0
 11
13.272096
 21
2.916428
 31
0.0
 12
13.197096
 22
2.928928
 32
0.0
 13
13.197096
 23
2.928928
 33
0.0
  0
SOLID
  5
612
100
AcDbEntity
  8
0
  6
BYBLOCK
 62
     0
100
AcDbTrace
 10
13.497096
 20
2.941428
 30
0.0
 11
13.497096
 21
2.916428
 31
0.0
 12
13.572096
 22
2.928928
 32
0.0
 13
13.572096
 23
2.928928
 33
0.0
  0
MTEXT
  5
613
100
AcDbEntity
  8
0
  6
BYBLOCK
 62
     0
100
AcDbMText
 10
14.296382
 20
2.928928
 30
0.0
 40
0.135
 41
0.0
 71
     5
 72
     1
  1
\A1;0.375 [9.5]
  7
ROMANS
  0
POINT
  5
614
100
AcDbEntity
  8
DEFPOINTS
  6
BYBLOCK
 62
     0
100
AcDbPoint
 10
13.197096
 20
2.308046
 30
0.0
  0
POINT
  5
615
100
AcDbEntity
  8
DEFPOINTS
  6
BYBLOCK
 62
     0
100
AcDbPoint
 10
13.572096
 20
2.658046
 30
0.0
  0
POINT
  5
616
100
AcDbEntity
  8
DEFPOINTS
  6
BYBLOCK
 62
     0
100
AcDbPoint
 10
13.572096
 20
2.928928
 30
0.0
  0
ENDBLK
  5
618
100
AcDbEntity
  8
0
100
AcDbBlockEnd
  0
BLOCK
  5
624
100
AcDbEntity
  8
0
100
AcDbBlockBegin
  2
*D28
 70
     1
 10
0.0
 20
0.0
 30
0.0
  3
*D28
  1

  0
LINE
  5
61A
100
AcDbEntity
  8
0
  6
BYBLOCK
 62
     0
100
AcDbLine
 10
11.697096
 20
2.383046
 30
0.0
 11
11.697096
 21
3.294884
 31
0.0
  0
LINE
  5
61B
100
AcDbEntity
  8
0
  6
BYBLOCK
 62
     0
100
AcDbLine
 10
13.197096
 20
2.383046
 30
0.0
 11
13.197096
 21
3.294884
 31
0.0
  0
LINE
  5
61C
100
AcDbEntity
  8
0
  6
BYBLOCK
 62
     0
100
AcDbLine
 10
11.772096
 20
3.219884
 30
0.0
 11
13.122096
 21
3.219884
 31
0.0
  0
LINE
  5
61D
100
AcDbEntity
  8
0
  6
BYBLOCK
 62
     0
100
AcDbLine
 10
13.197096
 20
3.219884
 30
0.0
 11
13.659412
 21
3.219884
 31
0.0
  0
SOLID
  5
61E
100
AcDbEntity
  8
0
  6
BYBLOCK
 62
     0
100
AcDbTrace
 10
11.772096
 20
3.232384
 30
0.0
 11
11.772096
 21
3.207384
 31
0.0
 12
11.697096
 22
3.219884
 32
0.0
 13
11.697096
 23
3.219884
 33
0.0
  0
SOLID
  5
61F
100
AcDbEntity
  8
0
  6
BYBLOCK
 62
     0
100
AcDbTrace
 10
13.122096
 20
3.232384
 30
0.0
 11
13.122096
 21
3.207384
 31
0.0
 12
13.197096
 22
3.219884
 32
0.0
 13
13.197096
 23
3.219884
 33
0.0
  0
MTEXT
  5
620
100
AcDbEntity
  8
0
  6
BYBLOCK
 62
     0
100
AcDbMText
 10
14.363341
 20
3.219884
 30
0.0
 40
0.135
 41
0.0
 71
     5
 72
     1
  1
\A1;1.500 [38.1]
  7
ROMANS
  0
POINT
  5
621
100
AcDbEntity
  8
DEFPOINTS
  6
BYBLOCK
 62
     0
100
AcDbPoint
 10
11.697096
 20
2.308046
 30
0.0
  0
POINT
  5
622
100
AcDbEntity
  8
DEFPOINTS
  6
BYBLOCK
 62
     0
100
AcDbPoint
 10
13.197096
 20
2.308046
 30
0.0
  0
POINT
  5
623
100
AcDbEntity
  8
DEFPOINTS
  6
BYBLOCK
 62
     0
100
AcDbPoint
 10
13.197096
 20
3.219884
 30
0.0
  0
ENDBLK
  5
625
100
AcDbEntity
  8
0
100
AcDbBlockEnd
  0
BLOCK
  5
631
100
AcDbEntity
  8
0
100
AcDbBlockBegin
  2
*D29
 70
     1
 10
0.0
 20
0.0
 30
0.0
  3
*D29
  1

  0
LINE
  5
627
100
AcDbEntity
  8
0
  6
BYBLOCK
 62
     0
100
AcDbLine
 10
11.697096
 20
2.458046
 30
0.0
 11
11.697096
 21
3.593977
 31
0.0
  0
LINE
  5
628
100
AcDbEntity
  8
0
  6
BYBLOCK
 62
     0
100
AcDbLine
 10
10.697096
 20
2.383046
 30
0.0
 11
10.697096
 21
3.593977
 31
0.0
  0
LINE
  5
629
100
AcDbEntity
  8
0
  6
BYBLOCK
 62
     0
100
AcDbLine
 10
10.772096
 20
3.518977
 30
0.0
 11
11.622096
 21
3.518977
 31
0.0
  0
LINE
  5
62A
100
AcDbEntity
  8
0
  6
BYBLOCK
 62
     0
100
AcDbLine
 10
11.697096
 20
3.518977
 30
0.0
 11
13.650609
 21
3.518977
 31
0.0
  0
SOLID
  5
62B
100
AcDbEntity
  8
0
  6
BYBLOCK
 62
     0
100
AcDbTrace
 10
10.772096
 20
3.531477
 30
0.0
 11
10.772096
 21
3.506477
 31
0.0
 12
10.697096
 22
3.518977
 32
0.0
 13
10.697096
 23
3.518977
 33
0.0
  0
SOLID
  5
62C
100
AcDbEntity
  8
0
  6
BYBLOCK
 62
     0
100
AcDbTrace
 10
11.622096
 20
3.531477
 30
0.0
 11
11.622096
 21
3.506477
 31
0.0
 12
11.697096
 22
3.518977
 32
0.0
 13
11.697096
 23
3.518977
 33
0.0
  0
MTEXT
  5
62D
100
AcDbEntity
  8
0
  6
BYBLOCK
 62
     0
100
AcDbMText
 10
14.354537
 20
3.518977
 30
0.0
 40
0.135
 41
0.0
 71
     5
 72
     1
  1
\A1;1.000 [25.4]
  7
ROMANS
  0
POINT
  5
62E
100
AcDbEntity
  8
DEFPOINTS
  6
BYBLOCK
 62
     0
100
AcDbPoint
 10
11.697096
 20
2.383046
 30
0.0
  0
POINT
  5
62F
100
AcDbEntity
  8
DEFPOINTS
  6
BYBLOCK
 62
     0
100
AcDbPoint
 10
10.697096
 20
2.308046
 30
0.0
  0
POINT
  5
630
100
AcDbEntity
  8
DEFPOINTS
  6
BYBLOCK
 62
     0
100
AcDbPoint
 10
10.697096
 20
3.518977
 30
0.0
  0
ENDBLK
  5
632
100
AcDbEntity
  8
0
100
AcDbBlockEnd
  0
BLOCK
  5
63E
100
AcDbEntity
  8
0
100
AcDbBlockBegin
  2
*D30
 70
     1
 10
0.0
 20
0.0
 30
0.0
  3
*D30
  1

  0
LINE
  5
634
100
AcDbEntity
  8
0
  6
BYBLOCK
 62
     0
100
AcDbLine
 10
13.572096
 20
2.733046
 30
0.0
 11
13.572096
 21
3.89307
 31
0.0
  0
LINE
  5
635
100
AcDbEntity
  8
0
  6
BYBLOCK
 62
     0
100
AcDbLine
 10
9.697096
 20
2.733046
 30
0.0
 11
9.697096
 21
3.89307
 31
0.0
  0
LINE
  5
636
100
AcDbEntity
  8
0
  6
BYBLOCK
 62
     0
100
AcDbLine
 10
13.497096
 20
3.81807
 30
0.0
 11
12.488683
 21
3.81807
 31
0.0
  0
LINE
  5
637
100
AcDbEntity
  8
0
  6
BYBLOCK
 62
     0
100
AcDbLine
 10
9.772096
 20
3.81807
 30
0.0
 11
11.06154
 21
3.81807
 31
0.0
  0
SOLID
  5
638
100
AcDbEntity
  8
0
  6
BYBLOCK
 62
     0
100
AcDbTrace
 10
13.497096
 20
3.83057
 30
0.0
 11
13.497096
 21
3.80557
 31
0.0
 12
13.572096
 22
3.81807
 32
0.0
 13
13.572096
 23
3.81807
 33
0.0
  0
SOLID
  5
639
100
AcDbEntity
  8
0
  6
BYBLOCK
 62
     0
100
AcDbTrace
 10
9.772096
 20
3.83057
 30
0.0
 11
9.772096
 21
3.80557
 31
0.0
 12
9.697096
 22
3.81807
 32
0.0
 13
9.697096
 23
3.81807
 33
0.0
  0
MTEXT
  5
63A
100
AcDbEntity
  8
0
  6
BYBLOCK
 62
     0
100
AcDbMText
 10
11.775112
 20
3.81807
 30
0.0
 40
0.135
 41
0.0
 71
     5
 72
     1
  1
\A1;3.875 [98.4]
  7
ROMANS
  0
POINT
  5
63B
100
AcDbEntity
  8
DEFPOINTS
  6
BYBLOCK
 62
     0
100
AcDbPoint
 10
13.572096
 20
2.658046
 30
0.0
  0
POINT
  5
63C
100
AcDbEntity
  8
DEFPOINTS
  6
BYBLOCK
 62
     0
100
AcDbPoint
 10
9.697096
 20
2.658046
 30
0.0
  0
POINT
  5
63D
100
AcDbEntity
  8
DEFPOINTS
  6
BYBLOCK
 62
     0
100
AcDbPoint
 10
9.697096
 20
3.81807
 30
0.0
  0
ENDBLK
  5
63F
100
AcDbEntity
  8
0
100
AcDbBlockEnd
  0
BLOCK
  5
64B
100
AcDbEntity
  8
0
100
AcDbBlockBegin
  2
*D31
 70
     1
 10
0.0
 20
0.0
 30
0.0
  3
*D31
  1

  0
LINE
  5
641
100
AcDbEntity
  8
0
  6
BYBLOCK
 62
     0
100
AcDbLine
 10
13.272096
 20
2.308046
 30
0.0
 11
14.56159
 21
2.308046
 31
0.0
  0
LINE
  5
642
100
AcDbEntity
  8
0
  6
BYBLOCK
 62
     0
100
AcDbLine
 10
13.272096
 20
1.308046
 30
0.0
 11
14.56159
 21
1.308046
 31
0.0
  0
LINE
  5
643
100
AcDbEntity
  8
0
  6
BYBLOCK
 62
     0
100
AcDbLine
 10
14.48659
 20
2.233046
 30
0.0
 11
14.48659
 21
1.973946
 31
0.0
  0
LINE
  5
644
100
AcDbEntity
  8
0
  6
BYBLOCK
 62
     0
100
AcDbLine
 10
14.48659
 20
1.383046
 30
0.0
 11
14.48659
 21
1.633232
 31
0.0
  0
SOLID
  5
645
100
AcDbEntity
  8
0
  6
BYBLOCK
 62
     0
100
AcDbTrace
 10
14.47409
 20
2.233046
 30
0.0
 11
14.49909
 21
2.233046
 31
0.0
 12
14.48659
 22
2.308046
 32
0.0
 13
14.48659
 23
2.308046
 33
0.0
  0
SOLID
  5
646
100
AcDbEntity
  8
0
  6
BYBLOCK
 62
     0
100
AcDbTrace
 10
14.47409
 20
1.383046
 30
0.0
 11
14.49909
 21
1.383046
 31
0.0
 12
14.48659
 22
1.308046
 32
0.0
 13
14.48659
 23
1.308046
 33
0.0
  0
MTEXT
  5
647
100
AcDbEntity
  8
0
  6
BYBLOCK
 62
     0
100
AcDbMText
 10
14.48659
 20
1.803589
 30
0.0
 40
0.135
 41
0.0
 71
     5
 72
     1
  1
\A1;1.000 [25.4]
  7
ROMANS
  0
POINT
  5
648
100
AcDbEntity
  8
DEFPOINTS
  6
BYBLOCK
 62
     0
100
AcDbPoint
 10
13.197096
 20
2.308046
 30
0.0
  0
POINT
  5
649
100
AcDbEntity
  8
DEFPOINTS
  6
BYBLOCK
 62
     0
100
AcDbPoint
 10
13.197096
 20
1.308046
 30
0.0
  0
POINT
  5
64A
100
AcDbEntity
  8
DEFPOINTS
  6
BYBLOCK
 62
     0
100
AcDbPoint
 10
14.48659
 20
1.308046
 30
0.0
  0
ENDBLK
  5
64C
100
AcDbEntity
  8
0
100
AcDbBlockEnd
  0
BLOCK
  5
654
100
AcDbEntity
  8
0
100
AcDbBlockBegin
  2
*D32
 70
     1
 10
0.0
 20
0.0
 30
0.0
  3
*D32
  1

  0
LINE
  5
64E
100
AcDbEntity
  8
0
  6
BYBLOCK
 62
     0
100
AcDbLine
 10
9.913001
 20
0.59842
 30
0.0
 11
9.988001
 21
0.59842
 31
0.0
  0
LINE
  5
64F
100
AcDbEntity
  8
0
  6
BYBLOCK
 62
     0
100
AcDbLine
 10
9.988001
 20
0.59842
 30
0.0
 11
10.528867
 21
1.139691
 31
0.0
  0
MTEXT
  5
650
100
AcDbEntity
  8
0
  6
BYBLOCK
 62
     0
100
AcDbMText
 10
9.141572
 20
0.59842
 30
0.0
 40
0.135
 41
0.0
 71
     5
 72
     1
  1
\A1;\U+22050.326 [\U+22058.3]
  7
ROMANS
  0
SOLID
  5
651
100
AcDbEntity
  8
0
  6
BYBLOCK
 62
     0
100
AcDbTrace
 10
10.520025
 20
1.148527
 30
0.0
 11
10.53771
 21
1.130856
 31
0.0
 12
10.581881
 22
1.192744
 32
0.0
 13
10.581881
 23
1.192744
 33
0.0
  0
POINT
  5
652
100
AcDbEntity
  8
DEFPOINTS
  6
BYBLOCK
 62
     0
100
AcDbPoint
 10
10.581881
 20
1.192744
 30
0.0
  0
POINT
  5
653
100
AcDbEntity
  8
DEFPOINTS
  6
BYBLOCK
 62
     0
100
AcDbPoint
 10
10.812311
 20
1.423347
 30
0.0
  0
ENDBLK
  5
655
100
AcDbEntity
  8
0
100
AcDbBlockEnd
  0
BLOCK
  5
65D
100
AcDbEntity
  8
0
100
AcDbBlockBegin
  2
*D33
 70
     1
 10
0.0
 20
0.0
 30
0.0
  3
*D33
  1

  0
LINE
  5
657
100
AcDbEntity
  8
0
  6
BYBLOCK
 62
     0
100
AcDbLine
 10
10.001036
 20
0.053014
 30
0.0
 11
10.076036
 21
0.053014
 31
0.0
  0
LINE
  5
658
100
AcDbEntity
  8
0
  6
BYBLOCK
 62
     0
100
AcDbLine
 10
10.076036
 20
0.053014
 30
0.0
 11
10.552951
 21
1.01676
 31
0.0
  0
MTEXT
  5
659
100
AcDbEntity
  8
0
  6
BYBLOCK
 62
     0
100
AcDbMText
 10
9.165322
 20
0.053014
 30
0.0
 40
0.135
 41
0.0
 71
     5
 72
     1
  1
\A1;\U+22050.500 [\U+220512.7]
  7
ROMANS
  0
SOLID
  5
65A
100
AcDbEntity
  8
0
  6
BYBLOCK
 62
     0
100
AcDbTrace
 10
10.541748
 20
1.022304
 30
0.0
 11
10.564155
 21
1.011216
 31
0.0
 12
10.586215
 22
1.08398
 32
0.0
 13
10.586215
 23
1.08398
 33
0.0
  0
POINT
  5
65B
100
AcDbEntity
  8
DEFPOINTS
  6
BYBLOCK
 62
     0
100
AcDbPoint
 10
10.586215
 20
1.08398
 30
0.0
  0
POINT
  5
65C
100
AcDbEntity
  8
DEFPOINTS
  6
BYBLOCK
 62
     0
100
AcDbPoint
 10
10.807976
 20
1.532111
 30
0.0
  0
ENDBLK
  5
65E
100
AcDbEntity
  8
0
100
AcDbBlockEnd
  0
BLOCK
  5
666
100
AcDbEntity
  8
0
100
AcDbBlockBegin
  2
*D34
 70
     1
 10
0.0
 20
0.0
 30
0.0
  3
*D34
  1

  0
LINE
  5
660
100
AcDbEntity
  8
0
  6
BYBLOCK
 62
     0
100
AcDbLine
 10
13.356401
 20
0.378044
 30
0.0
 11
13.281401
 21
0.378044
 31
0.0
  0
LINE
  5
661
100
AcDbEntity
  8
0
  6
BYBLOCK
 62
     0
100
AcDbLine
 10
13.281401
 20
0.378044
 30
0.0
 11
12.802369
 21
1.199107
 31
0.0
  0
MTEXT
  5
662
100
AcDbEntity
  8
0
  6
BYBLOCK
 62
     0
100
AcDbMText
 10
14.192115
 20
0.378044
 30
0.0
 40
0.135
 41
0.0
 71
     5
 72
     1
  1
\A1;\U+22051.260 [\U+220532.0]
  7
ROMANS
  0
SOLID
  5
663
100
AcDbEntity
  8
0
  6
BYBLOCK
 62
     0
100
AcDbTrace
 10
12.813165
 20
1.205406
 30
0.0
 11
12.791572
 21
1.192808
 31
0.0
 12
12.764574
 22
1.263888
 32
0.0
 13
12.764574
 23
1.263888
 33
0.0
  0
POINT
  5
664
100
AcDbEntity
  8
DEFPOINTS
  6
BYBLOCK
 62
     0
100
AcDbPoint
 10
12.764574
 20
1.263888
 30
0.0
  0
POINT
  5
665
100
AcDbEntity
  8
DEFPOINTS
  6
BYBLOCK
 62
     0
100
AcDbPoint
 10
12.129618
 20
2.352203
 30
0.0
  0
ENDBLK
  5
667
100
AcDbEntity
  8
0
100
AcDbBlockEnd
  0
BLOCK
  5
673
100
AcDbEntity
  8
0
100
AcDbBlockBegin
  2
*D35
 70
     1
 10
0.0
 20
0.0
 30
0.0
  3
*D35
  1

  0
LINE
  5
669
100
AcDbEntity
  8
0
  6
BYBLOCK
 62
     0
100
AcDbLine
 10
12.447096
 20
1.733046
 30
0.0
 11
12.447096
 21
0.604017
 31
0.0
  0
LINE
  5
66A
100
AcDbEntity
  8
0
  6
BYBLOCK
 62
     0
100
AcDbLine
 10
13.572096
 20
0.883046
 30
0.0
 11
13.572096
 21
0.604017
 31
0.0
  0
LINE
  5
66B
100
AcDbEntity
  8
0
  6
BYBLOCK
 62
     0
100
AcDbLine
 10
13.497096
 20
0.679017
 30
0.0
 11
12.522096
 21
0.679017
 31
0.0
  0
LINE
  5
66C
100
AcDbEntity
  8
0
  6
BYBLOCK
 62
     0
100
AcDbLine
 10
12.447096
 20
0.679017
 30
0.0
 11
12.372096
 21
0.679017
 31
0.0
  0
SOLID
  5
66D
100
AcDbEntity
  8
0
  6
BYBLOCK
 62
     0
100
AcDbTrace
 10
13.497096
 20
0.691517
 30
0.0
 11
13.497096
 21
0.666517
 31
0.0
 12
13.572096
 22
0.679017
 32
0.0
 13
13.572096
 23
0.679017
 33
0.0
  0
SOLID
  5
66E
100
AcDbEntity
  8
0
  6
BYBLOCK
 62
     0
100
AcDbTrace
 10
12.522096
 20
0.691517
 30
0.0
 11
12.522096
 21
0.666517
 31
0.0
 12
12.447096
 22
0.679017
 32
0.0
 13
12.447096
 23
0.679017
 33
0.0
  0
MTEXT
  5
66F
100
AcDbEntity
  8
0
  6
BYBLOCK
 62
     0
100
AcDbMText
 10
11.668167
 20
0.679017
 30
0.0
 40
0.135
 41
0.0
 71
     5
 72
     1
  1
\A1;1.125 [28.6]
  7
ROMANS
  0
POINT
  5
670
100
AcDbEntity
  8
DEFPOINTS
  6
BYBLOCK
 62
     0
100
AcDbPoint
 10
12.447096
 20
1.808046
 30
0.0
  0
POINT
  5
671
100
AcDbEntity
  8
DEFPOINTS
  6
BYBLOCK
 62
     0
100
AcDbPoint
 10
13.572096
 20
0.958046
 30
0.0
  0
POINT
  5
672
100
AcDbEntity
  8
DEFPOINTS
  6
BYBLOCK
 62
     0
100
AcDbPoint
 10
13.572096
 20
0.679017
 30
0.0
  0
ENDBLK
  5
674
100
AcDbEntity
  8
0
100
AcDbBlockEnd
  0
BLOCK
  5
680
100
AcDbEntity
  8
0
100
AcDbBlockBegin
  2
*D36
 70
     1
 10
0.0
 20
0.0
 30
0.0
  3
*D36
  1

  0
LINE
  5
676
100
AcDbEntity
  8
0
  6
BYBLOCK
 62
     0
100
AcDbLine
 10
16.949904
 20
-0.635764
 30
0.0
 11
16.949904
 21
-0.176263
 31
0.0
  0
LINE
  5
677
100
AcDbEntity
  8
0
  6
BYBLOCK
 62
     0
100
AcDbLine
 10
17.867904
 20
-0.635764
 30
0.0
 11
17.867904
 21
-0.176263
 31
0.0
  0
LINE
  5
678
100
AcDbEntity
  8
0
  6
BYBLOCK
 62
     0
100
AcDbLine
 10
17.024904
 20
-0.251263
 30
0.0
 11
17.792904
 21
-0.251263
 31
0.0
  0
LINE
  5
679
100
AcDbEntity
  8
0
  6
BYBLOCK
 62
     0
100
AcDbLine
 10
17.867904
 20
-0.251263
 30
0.0
 11
17.942904
 21
-0.251263
 31
0.0
  0
SOLID
  5
67A
100
AcDbEntity
  8
0
  6
BYBLOCK
 62
     0
100
AcDbTrace
 10
17.024904
 20
-0.238763
 30
0.0
 11
17.024904
 21
-0.263763
 31
0.0
 12
16.949904
 22
-0.251263
 32
0.0
 13
16.949904
 23
-0.251263
 33
0.0
  0
SOLID
  5
67B
100
AcDbEntity
  8
0
  6
BYBLOCK
 62
     0
100
AcDbTrace
 10
17.792904
 20
-0.238763
 30
0.0
 11
17.792904
 21
-0.263763
 31
0.0
 12
17.867904
 22
-0.251263
 32
0.0
 13
17.867904
 23
-0.251263
 33
0.0
  0
MTEXT
  5
67C
100
AcDbEntity
  8
0
  6
BYBLOCK
 62
     0
100
AcDbMText
 10
18.656476
 20
-0.251263
 30
0.0
 40
0.135
 41
0.0
 71
     5
 72
     1
  1
\A1;0.918 [23.3]
  7
ROMANS
  0
POINT
  5
67D
100
AcDbEntity
  8
DEFPOINTS
  6
BYBLOCK
 62
     0
100
AcDbPoint
 10
16.949904
 20
-0.710764
 30
0.0
  0
POINT
  5
67E
100
AcDbEntity
  8
DEFPOINTS
  6
BYBLOCK
 62
     0
100
AcDbPoint
 10
17.867904
 20
-0.710764
 30
0.0
  0
POINT
  5
67F
100
AcDbEntity
  8
DEFPOINTS
  6
BYBLOCK
 62
     0
100
AcDbPoint
 10
17.867904
 20
-0.251263
 30
0.0
  0
ENDBLK
  5
681
100
AcDbEntity
  8
0
100
AcDbBlockEnd
  0
BLOCK
  5
68E
100
AcDbEntity
  8
0
100
AcDbBlockBegin
  2
*D37
 70
     1
 10
0.0
 20
0.0
 30
0.0
  3
*D37
  1

  0
LINE
  5
683
100
AcDbEntity
  8
0
  6
BYBLOCK
 62
     0
100
AcDbLine
 10
16.846827
 20
-1.434264
 30
0.0
 11
16.601265
 21
-1.434264
 31
0.0
  0
LINE
  5
684
100
AcDbEntity
  8
0
  6
BYBLOCK
 62
     0
100
AcDbLine
 10
16.937404
 20
-0.648264
 30
0.0
 11
16.601265
 21
-0.648264
 31
0.0
  0
LINE
  5
685
100
AcDbEntity
  8
0
  6
BYBLOCK
 62
     0
100
AcDbLine
 10
16.676265
 20
-0.723264
 30
0.0
 11
16.676265
 21
-1.359264
 31
0.0
  0
LINE
  5
686
100
AcDbEntity
  8
0
  6
BYBLOCK
 62
     0
100
AcDbLine
 10
16.676265
 20
-1.434264
 30
0.0
 11
16.676265
 21
-1.832779
 31
0.0
  0
LINE
  5
687
100
AcDbEntity
  8
0
  6
BYBLOCK
 62
     0
100
AcDbLine
 10
16.676265
 20
-1.832779
 30
0.0
 11
16.601265
 21
-1.832779
 31
0.0
  0
SOLID
  5
688
100
AcDbEntity
  8
0
  6
BYBLOCK
 62
     0
100
AcDbTrace
 10
16.663765
 20
-0.723264
 30
0.0
 11
16.688765
 21
-0.723264
 31
0.0
 12
16.676265
 22
-0.648264
 32
0.0
 13
16.676265
 23
-0.648264
 33
0.0
  0
SOLID
  5
689
100
AcDbEntity
  8
0
  6
BYBLOCK
 62
     0
100
AcDbTrace
 10
16.663765
 20
-1.359264
 30
0.0
 11
16.688765
 21
-1.359264
 31
0.0
 12
16.676265
 22
-1.434264
 32
0.0
 13
16.676265
 23
-1.434264
 33
0.0
  0
MTEXT
  5
68A
100
AcDbEntity
  8
0
  6
BYBLOCK
 62
     0
100
AcDbMText
 10
15.887693
 20
-1.832779
 30
0.0
 40
0.135
 41
0.0
 71
     5
 72
     1
  1
\A1;0.786 [20.0]
  7
ROMANS
  0
POINT
  5
68B
100
AcDbEntity
  8
DEFPOINTS
  6
BYBLOCK
 62
     0
100
AcDbPoint
 10
16.921827
 20
-1.434264
 30
0.0
  0
POINT
  5
68C
100
AcDbEntity
  8
DEFPOINTS
  6
BYBLOCK
 62
     0
100
AcDbPoint
 10
17.012404
 20
-0.648264
 30
0.0
  0
POINT
  5
68D
100
AcDbEntity
  8
DEFPOINTS
  6
BYBLOCK
 62
     0
100
AcDbPoint
 10
16.676265
 20
-0.648264
 30
0.0
  0
ENDBLK
  5
68F
100
AcDbEntity
  8
0
100
AcDbBlockEnd
  0
BLOCK
  5
69C
100
AcDbEntity
  8
0
100
AcDbBlockBegin
  2
*D38
 70
     1
 10
0.0
 20
0.0
 30
0.0
  3
*D38
  1

  0
LINE
  5
691
100
AcDbEntity
  8
0
  6
BYBLOCK
 62
     0
100
AcDbLine
 10
14.583904
 20
-1.434264
 30
0.0
 11
14.341414
 21
-1.434264
 31
0.0
  0
LINE
  5
692
100
AcDbEntity
  8
0
  6
BYBLOCK
 62
     0
100
AcDbLine
 10
14.583904
 20
-1.588264
 30
0.0
 11
14.341414
 21
-1.588264
 31
0.0
  0
LINE
  5
693
100
AcDbEntity
  8
0
  6
BYBLOCK
 62
     0
100
AcDbLine
 10
14.416414
 20
-1.359264
 30
0.0
 11
14.416414
 21
-1.284264
 31
0.0
  0
LINE
  5
694
100
AcDbEntity
  8
0
  6
BYBLOCK
 62
     0
100
AcDbLine
 10
14.416414
 20
-1.663264
 30
0.0
 11
14.416414
 21
-1.892932
 31
0.0
  0
LINE
  5
695
100
AcDbEntity
  8
0
  6
BYBLOCK
 62
     0
100
AcDbLine
 10
14.416414
 20
-1.892932
 30
0.0
 11
14.341414
 21
-1.892932
 31
0.0
  0
SOLID
  5
696
100
AcDbEntity
  8
0
  6
BYBLOCK
 62
     0
100
AcDbTrace
 10
14.403914
 20
-1.359264
 30
0.0
 11
14.428914
 21
-1.359264
 31
0.0
 12
14.416414
 22
-1.434264
 32
0.0
 13
14.416414
 23
-1.434264
 33
0.0
  0
SOLID
  5
697
100
AcDbEntity
  8
0
  6
BYBLOCK
 62
     0
100
AcDbTrace
 10
14.403914
 20
-1.663264
 30
0.0
 11
14.428914
 21
-1.663264
 31
0.0
 12
14.416414
 22
-1.588264
 32
0.0
 13
14.416414
 23
-1.588264
 33
0.0
  0
MTEXT
  5
698
100
AcDbEntity
  8
0
  6
BYBLOCK
 62
     0
100
AcDbMText
 10
13.692128
 20
-1.892932
 30
0.0
 40
0.135
 41
0.0
 71
     5
 72
     1
  1
\A1;0.154 [3.9]
  7
ROMANS
  0
POINT
  5
699
100
AcDbEntity
  8
DEFPOINTS
  6
BYBLOCK
 62
     0
100
AcDbPoint
 10
14.658904
 20
-1.434264
 30
0.0
  0
POINT
  5
69A
100
AcDbEntity
  8
DEFPOINTS
  6
BYBLOCK
 62
     0
100
AcDbPoint
 10
14.658904
 20
-1.588264
 30
0.0
  0
POINT
  5
69B
100
AcDbEntity
  8
DEFPOINTS
  6
BYBLOCK
 62
     0
100
AcDbPoint
 10
14.416414
 20
-1.588264
 30
0.0
  0
ENDBLK
  5
69D
100
AcDbEntity
  8
0
100
AcDbBlockEnd
  0
BLOCK
  5
6A5
100
AcDbEntity
  8
0
100
AcDbBlockBegin
  2
*D39
 70
     1
 10
0.0
 20
0.0
 30
0.0
  3
*D39
  1

  0
LINE
  5
69F
100
AcDbEntity
  8
0
  6
BYBLOCK
 62
     0
100
AcDbLine
 10
13.346745
 20
-0.053961
 30
0.0
 11
13.271745
 21
-0.053961
 31
0.0
  0
LINE
  5
6A0
100
AcDbEntity
  8
0
  6
BYBLOCK
 62
     0
100
AcDbLine
 10
13.271745
 20
-0.053961
 30
0.0
 11
12.663337
 21
1.319787
 31
0.0
  0
MTEXT
  5
6A1
100
AcDbEntity
  8
0
  6
BYBLOCK
 62
     0
100
AcDbMText
 10
14.18246
 20
-0.053961
 30
0.0
 40
0.135
 41
0.0
 71
     5
 72
     1
  1
\A1;\U+22050.918 [\U+220523.3]
  7
ROMANS
  0
SOLID
  5
6A2
100
AcDbEntity
  8
0
  6
BYBLOCK
 62
     0
100
AcDbTrace
 10
12.674766
 20
1.324849
 30
0.0
 11
12.651907
 21
1.314726
 31
0.0
 12
12.632966
 22
1.388363
 32
0.0
 13
12.632966
 23
1.388363
 33
0.0
  0
POINT
  5
6A3
100
AcDbEntity
  8
DEFPOINTS
  6
BYBLOCK
 62
     0
100
AcDbPoint
 10
12.632966
 20
1.388363
 30
0.0
  0
POINT
  5
6A4
100
AcDbEntity
  8
DEFPOINTS
  6
BYBLOCK
 62
     0
100
AcDbPoint
 10
12.261226
 20
2.227728
 30
0.0
  0
ENDBLK
  5
6A6
100
AcDbEntity
  8
0
100
AcDbBlockEnd
  0
BLOCK
  5
6FF
100
AcDbEntity
  8
0
100
AcDbBlockBegin
  2
A$C49867FE7
 70
     0
 10
0.0
 20
0.0
 30
0.0
  3
A$C49867FE7
  1

  0
DIMENSION
  5
6AB
100
AcDbEntity
  8
DIM
100
AcDbDimension
  2
*D39
 10
4.380939
 20
5.276061
 30
0.0
 11
6.302172
 21
2.994372
 31
0.0
 12
-7.880287
 22
3.048333
 32
0.0
 70
   131
  3
STANDARD
100
AcDbDiametricDimension
 15
4.752679
 25
4.436696
 35
0.0
 40
0.0
1001
ACAD
1000
DSTYLE
1002
{
1070
    78
1070
     0
1070
   288
1070
     1
1070
   284
1070
     0
1070
    40
1040
0.75
1070
   274
1070
     0
1070
   171
1070
     1
1070
   170
1070
     1
1002
}
  0
DIMENSION
  5
6AC
100
AcDbEntity
  8
DIM
100
AcDbDimension
  2
*D33
 10
2.927689
 20
4.580444
 30
0.0
 11
1.285034
 21
3.101347
 31
0.0
 12
-7.880287
 22
3.048333
 32
0.0
 70
   131
  3
STANDARD
100
AcDbDiametricDimension
 15
2.705928
 25
4.132312
 35
0.0
 40
0.0
1001
ACAD
1000
DSTYLE
1002
{
1070
    78
1070
     0
1070
   288
1070
     1
1070
   284
1070
     0
1070
    40
1040
0.75
1070
   274
1070
     0
1070
   171
1070
     1
1070
   170
1070
     1
1002
}
  0
DIMENSION
  5
6AD
100
AcDbEntity
  8
DIM
100
AcDbDimension
  2
*D36
 10
5.025809
 20
2.461527
 30
0.0
 11
5.81438
 21
2.461527
 31
0.0
 12
-12.842095
 22
2.71279
 32
0.0
 70
   128
  3
STANDARD
100
AcDbAlignedDimension
 13
4.107809
 23
2.002025
 33
0.0
 14
5.025809
 24
2.002025
 34
0.0
100
AcDbRotatedDimension
1001
ACAD
1000
DSTYLE
1002
{
1070
    78
1070
     0
1070
   288
1070
     1
1070
   284
1070
     0
1070
    40
1040
0.75
1070
   274
1070
     0
1070
   171
1070
     1
1070
   170
1070
     1
1002
}
  0
MTEXT
  5
6AE
100
AcDbEntity
  8
0
100
AcDbMText
 10
1.785636
 20
0.491518
 30
0.0
 40
0.113427
 41
4.080657
 71
     1
 72
     5
  1
NOTE: CHANGE BEARING BASE MATERIAL TO STEEL, WELD INTO MOUNTING BASE AND ZINC PLATE.
  7
ROMANS
  0
LINE
  5
6AF
100
AcDbEntity
  8
0
 62
     0
100
AcDbLine
 10
5.691809
 20
1.278525
 30
0.0
 11
1.816809
 21
1.278525
 31
0.0
  0
LINE
  5
6B0
100
AcDbEntity
  8
0
 62
     0
100
AcDbLine
 10
5.691809
 20
1.124525
 30
0.0
 11
1.816809
 21
1.124525
 31
0.0
  0
LINE
  5
6B1
100
AcDbEntity
  8
6
  6
CONTINUOUS
 62
     0
100
AcDbLine
 10
4.963309
 20
2.064525
 30
0.0
 11
4.170309
 21
2.064525
 31
0.0
  0
LINE
  5
6B2
100
AcDbEntity
  8
6
  6
CONTINUOUS
 62
     0
100
AcDbLine
 10
5.025809
 20
1.354525
 30
0.0
 11
4.107809
 21
1.354525
 31
0.0
  0
LINE
  5
6B3
100
AcDbEntity
  8
6
  6
CONTINUOUS
 62
     0
100
AcDbLine
 10
5.186809
 20
1.124525
 30
0.0
 11
3.946809
 21
1.124525
 31
0.0
  0
LINE
  5
6B4
100
AcDbEntity
  8
6
  6
HIDDEN2
 62
     0
100
AcDbLine
 10
5.186809
 20
1.249525
 30
0.0
 11
3.946809
 21
1.249525
 31
0.0
  0
DIMENSION
  5
6B5
100
AcDbEntity
  8
DIM
100
AcDbDimension
  2
*D38
 10
1.574319
 20
1.124525
 30
0.0
 11
0.850033
 21
0.819858
 31
0.0
 12
-12.842095
 22
2.71279
 32
0.0
 70
   128
  3
STANDARD
100
AcDbAlignedDimension
 13
1.816809
 23
1.278525
 33
0.0
 14
1.816809
 24
1.124525
 34
0.0
 50
90.0
100
AcDbRotatedDimension
1001
ACAD
1000
DSTYLE
1002
{
1070
    78
1070
     0
1070
   288
1070
     1
1070
   284
1070
     0
1070
    40
1040
0.75
1070
   274
1070
     0
1070
   171
1070
     1
1070
   170
1070
     1
1002
}
  0
DIMENSION
  5
6B6
100
AcDbEntity
  8
DIM
100
AcDbDimension
  2
*D37
 10
3.834169
 20
2.064525
 30
0.0
 11
3.045598
 21
0.880011
 31
0.0
 12
-12.842095
 22
2.71279
 32
0.0
 70
   128
  3
STANDARD
100
AcDbAlignedDimension
 13
4.079731
 23
1.278525
 33
0.0
 14
4.170309
 24
2.064525
 34
0.0
 50
90.0
100
AcDbRotatedDimension
1001
ACAD
1000
DSTYLE
1002
{
1070
    78
1070
     0
1070
   288
1070
     1
1070
   284
1070
     0
1070
    40
1040
0.75
1070
   274
1070
     0
1070
   171
1070
     1
1070
   170
1070
     1
1002
}
  0
MTEXT
  5
6B7
100
AcDbEntity
  8
DIM
  6
BYBLOCK
 62
     4
100
AcDbMText
 10
2.835859
 20
1.631416
 30
0.0
 40
0.135
 41
0.0
 71
     5
 72
     1
  1
80°
  7
ROMANS
  0
LINE
  5
6B8
100
AcDbEntity
  8
6
  6
CONTINUOUS
 62
     0
100
AcDbLine
 10
4.107809
 20
2.002025
 30
0.0
 11
4.107809
 21
1.354525
 31
0.0
  0
LINE
  5
6B9
100
AcDbEntity
  8
DIM
  6
HIDDEN2
 62
     1
100
AcDbLine
 10
2.579731
 20
1.278525
 30
0.0
 11
2.666731
 21
1.174843
 31
0.0
  0
LINE
  5
6BA
100
AcDbEntity
  8
0
100
AcDbLine
 10
1.816809
 20
1.278525
 30
0.0
 11
1.816809
 21
1.124525
 31
0.0
  0
POINT
  5
6BB
100
AcDbEntity
  8
DEFPOINTS
  6
BYBLOCK
 62
     0
100
AcDbPoint
 10
2.579731
 20
1.278525
 30
0.0
  0
LINE
  5
6BC
100
AcDbEntity
  8
DIM
  6
BYBLOCK
 62
     4
100
AcDbLine
 10
2.531522
 20
1.335979
 30
0.0
 11
2.340017
 21
1.564206
 31
0.0
  0
SOLID
  5
6BD
100
AcDbEntity
  8
DIM
  6
BYBLOCK
 62
     4
100
AcDbTrace
 10
2.461526
 20
1.536013
 30
0.0
 11
2.446304
 21
1.555844
 31
0.0
 12
2.394421
 22
1.500261
 32
0.0
 13
2.394421
 23
1.500261
 33
0.0
  0
ARC
  5
6BE
100
AcDbEntity
  8
DIM
  6
BYBLOCK
 62
     4
100
AcDbCircle
 10
2.949216
 20
0.839083
 30
0.0
 40
0.863107
100
AcDbArc
 50
119.222606
 51
125.019692
  0
LINE
  5
6BF
100
AcDbEntity
  8
DIM
  6
HIDDEN2
 62
     1
100
AcDbLine
 10
3.079731
 20
1.278525
 30
0.0
 11
2.992731
 21
1.174843
 31
0.0
  0
LINE
  5
6C0
100
AcDbEntity
  8
DIM
  6
HIDDEN2
 62
     1
100
AcDbLine
 10
2.992731
 20
1.174843
 30
0.0
 11
2.992731
 21
1.124525
 31
0.0
  0
LINE
  5
6C1
100
AcDbEntity
  8
DIM
  6
HIDDEN2
 62
     1
100
AcDbLine
 10
2.666731
 20
1.174843
 30
0.0
 11
2.666731
 21
1.124525
 31
0.0
  0
LINE
  5
6C2
100
AcDbEntity
  8
DIM
  6
HIDDEN2
 62
     1
100
AcDbLine
 10
2.992731
 20
1.174843
 30
0.0
 11
2.666731
 21
1.174843
 31
0.0
  0
POINT
  5
6C3
100
AcDbEntity
  8
DEFPOINTS
  6
BYBLOCK
 62
     0
100
AcDbPoint
 10
2.666731
 20
1.174843
 30
0.0
  0
POINT
  5
6C4
100
AcDbEntity
  8
DEFPOINTS
  6
BYBLOCK
 62
     0
100
AcDbPoint
 10
2.992731
 20
1.174843
 30
0.0
  0
POINT
  5
6C5
100
AcDbEntity
  8
DEFPOINTS
  6
BYBLOCK
 62
     0
100
AcDbPoint
 10
3.079731
 20
1.278525
 30
0.0
  0
LINE
  5
6C6
100
AcDbEntity
  8
DIM
  6
BYBLOCK
 62
     4
100
AcDbLine
 10
3.12794
 20
1.335979
 30
0.0
 11
3.317545
 21
1.56194
 31
0.0
  0
SOLID
  5
6C7
100
AcDbEntity
  8
DIM
  6
BYBLOCK
 62
     4
100
AcDbTrace
 10
3.213159
 20
1.555844
 30
0.0
 11
3.197936
 21
1.536013
 31
0.0
 12
3.265041
 22
1.500261
 32
0.0
 13
3.265041
 23
1.500261
 33
0.0
  0
ARC
  5
6C8
100
AcDbEntity
  8
DIM
  6
BYBLOCK
 62
     4
100
AcDbCircle
 10
2.710247
 20
0.839083
 30
0.0
 40
0.863107
100
AcDbArc
 50
54.980308
 51
59.840851
  0
LINE
  5
6C9
100
AcDbEntity
  8
6
  6
CONTINUOUS
 62
     0
100
AcDbLine
 10
4.270309
 20
1.249525
 30
0.0
 11
4.270309
 21
1.354525
 31
0.0
  0
LINE
  5
6CA
100
AcDbEntity
  8
DIM
  6
HIDDEN2
 62
     1
100
AcDbLine
 10
3.992731
 20
1.174843
 30
0.0
 11
3.666731
 21
1.174843
 31
0.0
  0
LINE
  5
6CB
100
AcDbEntity
  8
DIM
  6
HIDDEN2
 62
     1
100
AcDbLine
 10
3.666731
 20
1.174843
 30
0.0
 11
3.666731
 21
1.124525
 31
0.0
  0
LINE
  5
6CC
100
AcDbEntity
  8
DIM
  6
HIDDEN2
 62
     1
100
AcDbLine
 10
3.579731
 20
1.278525
 30
0.0
 11
3.666731
 21
1.174843
 31
0.0
  0
LINE
  5
6CD
100
AcDbEntity
  8
DIM
  6
HIDDEN2
 62
     1
100
AcDbLine
 10
3.992731
 20
1.174843
 30
0.0
 11
3.992731
 21
1.124525
 31
0.0
  0
LINE
  5
6CE
100
AcDbEntity
  8
6
  6
HIDDEN2
 62
     1
100
AcDbLine
 10
3.946809
 20
1.124525
 30
0.0
 11
3.946809
 21
1.278525
 31
0.0
  0
LINE
  5
6CF
100
AcDbEntity
  8
6
  6
HIDDEN2
 62
     0
100
AcDbLine
 10
3.946809
 20
1.124525
 30
0.0
 11
3.946809
 21
1.278525
 31
0.0
  0
LINE
  5
6D0
100
AcDbEntity
  8
DIM
  6
HIDDEN2
 62
     1
100
AcDbLine
 10
4.079731
 20
1.278525
 30
0.0
 11
3.992731
 21
1.174843
 31
0.0
  0
ARC
  5
6D1
100
AcDbEntity
  8
6
  6
CONTINUOUS
 62
     0
100
AcDbCircle
 10
4.170309
 20
2.002025
 30
0.0
 40
0.0625
100
AcDbArc
 50
90.0
 51
180.0
  0
TEXT
  5
6D2
100
AcDbEntity
  8
0
  6
CONTINUOUS
 62
     4
100
AcDbText
 10
5.967875
 20
1.893331
 30
0.0
 40
0.125
  1
WELD @ (4) PLACES MIN.
100
AcDbText
  0
LEADER
  5
6D3
100
AcDbEntity
  8
0
  6
CONTINUOUS
 62
     4
100
AcDbLeader
  3
STANDARD
 76
     3
 10
5.191809
 20
1.278525
 30
0.0
 10
5.670558
 20
1.953631
 30
0.0
 10
5.916149
 20
1.953631
 30
0.0
 77
     0
1001
ACAD
1000
DSTYLE
1002
{
1070
    40
1040
0.75
1070
   271
1070
     3
1070
   178
1070
     4
1070
   177
1070
     4
1070
   176
1070
     4
1070
   141
1040
0.0
1070
   274
1070
     1
1070
   171
1070
     1
1070
   170
1070
     1
1002
}
  0
LINE
  5
6D4
100
AcDbEntity
  8
6
  6
DASHED2
 62
     1
100
AcDbLine
 10
4.694809
 20
1.732525
 30
0.0
 11
4.694809
 21
1.124525
 31
0.0
  0
LINE
  5
6D5
100
AcDbEntity
  8
6
  6
DASHED2
 62
     1
100
AcDbLine
 10
4.438809
 20
1.732525
 30
0.0
 11
4.438809
 21
1.124525
 31
0.0
  0
LINE
  5
6D6
100
AcDbEntity
  8
6
  6
CONTINUOUS
 62
     0
100
AcDbLine
 10
5.025809
 20
2.002025
 30
0.0
 11
5.025809
 21
1.354525
 31
0.0
  0
LINE
  5
6D7
100
AcDbEntity
  8
DIM
  6
HIDDEN2
 62
     1
100
AcDbLine
 10
5.492731
 20
1.174843
 30
0.0
 11
5.166731
 21
1.174843
 31
0.0
  0
LINE
  5
6D8
100
AcDbEntity
  8
6
  6
CONTINUOUS
 62
     0
100
AcDbLine
 10
4.863309
 20
1.249525
 30
0.0
 11
4.863309
 21
1.354525
 31
0.0
  0
LINE
  5
6D9
100
AcDbEntity
  8
DIM
  6
HIDDEN2
 62
     1
100
AcDbLine
 10
5.166731
 20
1.174843
 30
0.0
 11
5.166731
 21
1.124525
 31
0.0
  0
LINE
  5
6DA
100
AcDbEntity
  8
6
  6
HIDDEN2
 62
     1
100
AcDbLine
 10
5.186809
 20
1.124525
 30
0.0
 11
5.186809
 21
1.278525
 31
0.0
  0
LINE
  5
6DB
100
AcDbEntity
  8
6
  6
HIDDEN2
 62
     0
100
AcDbLine
 10
5.186809
 20
1.124525
 30
0.0
 11
5.186809
 21
1.278525
 31
0.0
  0
LINE
  5
6DC
100
AcDbEntity
  8
DIM
  6
HIDDEN2
 62
     1
100
AcDbLine
 10
5.079731
 20
1.278525
 30
0.0
 11
5.166731
 21
1.174843
 31
0.0
  0
LINE
  5
6DD
100
AcDbEntity
  8
DIM
  6
HIDDEN2
 62
     1
100
AcDbLine
 10
5.492731
 20
1.174843
 30
0.0
 11
5.492731
 21
1.124525
 31
0.0
  0
LINE
  5
6DE
100
AcDbEntity
  8
DIM
  6
HIDDEN2
 62
     1
100
AcDbLine
 10
5.579731
 20
1.278525
 30
0.0
 11
5.492731
 21
1.174843
 31
0.0
  0
LINE
  5
6DF
100
AcDbEntity
  8
0
 62
     0
100
AcDbLine
 10
5.691809
 20
1.278525
 30
0.0
 11
5.691809
 21
1.124525
 31
0.0
  0
ARC
  5
6E0
100
AcDbEntity
  8
6
  6
CONTINUOUS
 62
     0
100
AcDbCircle
 10
4.963309
 20
2.002025
 30
0.0
 40
0.0625
100
AcDbArc
 50
0.0
 51
90.0
  0
LINE
  5
6E1
100
AcDbEntity
  8
6
  6
DASHED2
 62
     1
100
AcDbLine
 10
4.762809
 20
2.064525
 30
0.0
 11
4.762809
 21
1.732525
 31
0.0
  0
LINE
  5
6E2
100
AcDbEntity
  8
6
  6
DASHED2
 62
     1
100
AcDbLine
 10
4.370809
 20
2.064525
 30
0.0
 11
4.370809
 21
1.732525
 31
0.0
  0
LINE
  5
6E3
100
AcDbEntity
  8
6
  6
DASHED2
 62
     1
100
AcDbLine
 10
4.762809
 20
1.732525
 30
0.0
 11
4.370809
 21
1.732525
 31
0.0
  0
CIRCLE
  5
6E4
100
AcDbEntity
  8
0
 62
     7
100
AcDbCircle
 10
4.566809
 20
4.856378
 30
0.0
 40
0.459
  0
DIMENSION
  5
6E5
100
AcDbEntity
  8
DIM
100
AcDbDimension
  2
*D35
 10
5.691809
 20
3.727349
 30
0.0
 11
3.78788
 21
3.727349
 31
0.0
 12
-7.880287
 22
3.048333
 32
0.0
 70
   128
  3
STANDARD
100
AcDbAlignedDimension
 13
4.566809
 23
4.856378
 33
0.0
 14
5.691809
 24
4.006378
 34
0.0
100
AcDbRotatedDimension
1001
ACAD
1000
DSTYLE
1002
{
1070
    78
1070
     0
1070
   288
1070
     1
1070
   284
1070
     0
1070
    40
1040
0.75
1070
   274
1070
     0
1070
   171
1070
     1
1070
   170
1070
     1
1002
}
  0
DIMENSION
  5
6E6
100
AcDbEntity
  8
DIM
100
AcDbDimension
  2
*D34
 10
4.249331
 20
5.400536
 30
0.0
 11
6.311828
 21
3.426376
 31
0.0
 12
-7.880287
 22
3.048333
 32
0.0
 70
   131
  3
STANDARD
100
AcDbDiametricDimension
 15
4.884287
 25
4.31222
 35
0.0
 40
0.0
1001
ACAD
1000
DSTYLE
1002
{
1070
    78
1070
     0
1070
   288
1070
     1
1070
   284
1070
     0
1070
    40
1040
0.75
1070
   274
1070
     0
1070
   171
1070
     1
1070
   170
1070
     1
1002
}
  0
DIMENSION
  5
6E7
100
AcDbEntity
  8
DIM
100
AcDbDimension
  2
*D30
 10
1.816809
 20
6.866403
 30
0.0
 11
3.894824
 21
6.866403
 31
0.0
 12
-7.880287
 22
3.048333
 32
0.0
 70
   128
  3
STANDARD
100
AcDbAlignedDimension
 13
5.691809
 23
5.706378
 33
0.0
 14
1.816809
 24
5.706378
 34
0.0
100
AcDbRotatedDimension
1001
ACAD
1000
DSTYLE
1002
{
1070
    78
1070
     0
1070
   288
1070
     1
1070
   284
1070
     0
1070
    40
1040
0.75
1070
   274
1070
     0
1070
   171
1070
     1
1070
   170
1070
     1
1002
}
  0
DIMENSION
  5
6E8
100
AcDbEntity
  8
DIM
100
AcDbDimension
  2
*D29
 10
2.816809
 20
6.56731
 30
0.0
 11
6.47425
 21
6.56731
 31
0.0
 12
-7.880287
 22
3.048333
 32
0.0
 70
   128
  3
STANDARD
100
AcDbAlignedDimension
 13
3.816809
 23
5.431378
 33
0.0
 14
2.816809
 24
5.356378
 34
0.0
100
AcDbRotatedDimension
1001
ACAD
1000
DSTYLE
1002
{
1070
    78
1070
     0
1070
   288
1070
     1
1070
   284
1070
     0
1070
    40
1040
0.75
1070
   274
1070
     0
1070
   171
1070
     1
1070
   170
1070
     1
1002
}
  0
DIMENSION
  5
6E9
100
AcDbEntity
  8
DIM
100
AcDbDimension
  2
*D28
 10
5.316809
 20
6.268216
 30
0.0
 11
6.483054
 21
6.268216
 31
0.0
 12
-7.880287
 22
3.048333
 32
0.0
 70
   128
  3
STANDARD
100
AcDbAlignedDimension
 13
3.816809
 23
5.356378
 33
0.0
 14
5.316809
 24
5.356378
 34
0.0
100
AcDbRotatedDimension
1001
ACAD
1000
DSTYLE
1002
{
1070
    78
1070
     0
1070
   288
1070
     1
1070
   284
1070
     0
1070
    40
1040
0.75
1070
   274
1070
     0
1070
   171
1070
     1
1070
   170
1070
     1
1002
}
  0
CIRCLE
  5
6EA
100
AcDbEntity
  8
0
  6
CONTINUOUS
100
AcDbCircle
 10
4.566809
 20
4.856378
 30
0.0
 40
0.63
  0
LINE
  5
6EB
100
AcDbEntity
  8
0
 62
     0
100
AcDbLine
 10
1.816809
 20
5.706378
 30
0.0
 11
5.691809
 21
5.706378
 31
0.0
  0
LINE
  5
6EC
100
AcDbEntity
  8
0
 62
     0
100
AcDbLine
 10
1.816809
 20
4.006378
 30
0.0
 11
5.691809
 21
4.006378
 31
0.0
  0
DIMENSION
  5
6ED
100
AcDbEntity
  8
DIM
100
AcDbDimension
  2
*D32
 10
2.932024
 20
4.47168
 30
0.0
 11
1.261285
 21
3.646752
 31
0.0
 12
-7.880287
 22
3.048333
 32
0.0
 70
   131
  3
STANDARD
100
AcDbDiametricDimension
 15
2.701593
 25
4.241077
 35
0.0
 40
0.0
1001
ACAD
1000
DSTYLE
1002
{
1070
    78
1070
     0
1070
   288
1070
     1
1070
   284
1070
     0
1070
    40
1040
0.75
1070
   274
1070
     0
1070
   171
1070
     1
1070
   170
1070
     1
1002
}
  0
DIMENSION
  5
6EE
100
AcDbEntity
  8
DIM
100
AcDbDimension
  2
*D26
 10
0.636429
 20
4.006378
 30
0.0
 11
0.636429
 21
4.856378
 31
0.0
 12
-7.880287
 22
3.048333
 32
0.0
  3
STANDARD
100
AcDbAlignedDimension
 13
1.816809
 23
5.706378
 33
0.0
 14
1.816809
 24
4.006378
 34
0.0
 50
90.0
100
AcDbRotatedDimension
1001
ACAD
1000
DSTYLE
1002
{
1070
    78
1070
     0
1070
   284
1070
     0
1070
    40
1040
0.75
1070
   274
1070
     0
1070
   171
1070
     1
1070
   170
1070
     1
1002
}
  0
LINE
  5
6EF
100
AcDbEntity
  8
0
100
AcDbLine
 10
1.816809
 20
5.706378
 30
0.0
 11
1.816809
 21
4.006378
 31
0.0
  0
CIRCLE
  5
6F0
100
AcDbEntity
  8
0
 62
     0
100
AcDbCircle
 10
3.816809
 20
4.356378
 30
0.0
 40
0.25
  0
CIRCLE
  5
6F1
100
AcDbEntity
  8
0
 62
     0
100
AcDbCircle
 10
2.816809
 20
4.356378
 30
0.0
 40
0.25
  0
CIRCLE
  5
6F2
100
AcDbEntity
  8
0
 62
     0
100
AcDbCircle
 10
3.816809
 20
4.356378
 30
0.0
 40
0.163
  0
CIRCLE
  5
6F3
100
AcDbEntity
  8
0
 62
     0
100
AcDbCircle
 10
2.816809
 20
4.356378
 30
0.0
 40
0.163
  0
CIRCLE
  5
6F4
100
AcDbEntity
  8
0
 62
     0
100
AcDbCircle
 10
2.816809
 20
5.356378
 30
0.0
 40
0.25
  0
CIRCLE
  5
6F5
100
AcDbEntity
  8
0
 62
     0
100
AcDbCircle
 10
3.816809
 20
5.356378
 30
0.0
 40
0.25
  0
CIRCLE
  5
6F6
100
AcDbEntity
  8
0
 62
     0
100
AcDbCircle
 10
2.816809
 20
5.356378
 30
0.0
 40
0.163
  0
CIRCLE
  5
6F7
100
AcDbEntity
  8
0
 62
     0
100
AcDbCircle
 10
3.816809
 20
5.356378
 30
0.0
 40
0.163
  0
DIMENSION
  5
6F8
100
AcDbEntity
  8
DIM
100
AcDbDimension
  2
*D27
 10
5.691809
 20
5.97726
 30
0.0
 11
6.416094
 21
5.97726
 31
0.0
 12
-7.880287
 22
3.048333
 32
0.0
  3
STANDARD
100
AcDbAlignedDimension
 13
5.316809
 23
5.356378
 33
0.0
 14
5.691809
 24
5.706378
 34
0.0
100
AcDbRotatedDimension
1001
ACAD
1000
DSTYLE
1002
{
1070
    78
1070
     0
1070
   284
1070
     0
1070
    40
1040
0.75
1070
   274
1070
     0
1070
   171
1070
     1
1070
   170
1070
     1
1002
}
  0
DIMENSION
  5
6F9
100
AcDbEntity
  8
DIM
100
AcDbDimension
  2
*D31
 10
6.606303
 20
4.356378
 30
0.0
 11
6.606303
 21
4.851922
 31
0.0
 12
-7.880287
 22
3.048333
 32
0.0
 70
   128
  3
STANDARD
100
AcDbAlignedDimension
 13
5.316809
 23
5.356378
 33
0.0
 14
5.316809
 24
4.356378
 34
0.0
 50
90.0
100
AcDbRotatedDimension
1001
ACAD
1000
DSTYLE
1002
{
1070
    78
1070
     0
1070
   288
1070
     1
1070
   284
1070
     0
1070
    40
1040
0.75
1070
   274
1070
     0
1070
   171
1070
     1
1070
   170
1070
     1
1002
}
  0
LINE
  5
6FA
100
AcDbEntity
  8
0
 62
     0
100
AcDbLine
 10
5.691809
 20
5.706378
 30
0.0
 11
5.691809
 21
4.006378
 31
0.0
  0
CIRCLE
  5
6FB
100
AcDbEntity
  8
0
 62
     0
100
AcDbCircle
 10
5.316809
 20
4.356378
 30
0.0
 40
0.25
  0
CIRCLE
  5
6FC
100
AcDbEntity
  8
0
 62
     0
100
AcDbCircle
 10
5.316809
 20
4.356378
 30
0.0
 40
0.163
  0
CIRCLE
  5
6FD
100
AcDbEntity
  8
0
 62
     0
100
AcDbCircle
 10
5.316809
 20
5.356378
 30
0.0
 40
0.25
  0
CIRCLE
  5
6FE
100
AcDbEntity
  8
0
 62
     0
100
AcDbCircle
 10
5.316809
 20
5.356378
 30
0.0
 40
0.163
  0
ENDBLK
  5
700
100
AcDbEntity
  8
0
100
AcDbBlockEnd
  0
BLOCK
  5
716
100
AcDbEntity
  8
0
100
AcDbBlockBegin
  2
A$C433421F4
 70
     0
 10
0.0
 20
0.0
 30
0.0
  3
A$C433421F4
  1

  0
LINE
  5
70C
100
AcDbEntity
  8
R-DOOR-ANNO
100
AcDbLine
 10
3.154888
 20
0.993017
 30
0.0
 11
3.112969
 21
0.897275
 31
0.0
  0
LINE
  5
70D
100
AcDbEntity
  8
R-DOOR-ANNO
100
AcDbLine
 10
3.095004
 20
0.993017
 30
0.0
 11
3.053086
 21
0.897275
 31
0.0
  0
TEXT
  5
70E
100
AcDbEntity
  8
R-DOOR-ANNO
 62
     0
100
AcDbText
 10
0.690214
 20
0.669488
 30
0.0
 40
0.315
  1
LESS 
100
AcDbText
  0
TEXT
  5
70F
100
AcDbEntity
  8
R-DOOR-ANNO
100
AcDbText
 10
2.175729
 20
0.710621
 30
0.0
 40
0.3
  1
6
100
AcDbText
  0
TEXT
  5
710
100
AcDbEntity
  8
R-DOOR-ANNO
 62
     0
100
AcDbText
 10
1.05
 20
0.0
 30
0.0
 40
0.315
  1
[165mm]
100
AcDbText
  0
LINE
  5
711
100
AcDbEntity
  8
R-DOOR-ANNO
100
AcDbLine
 10
2.544988
 20
0.848675
 30
0.0
 11
2.884447
 21
0.848675
 31
0.0
  0
TEXT
  5
712
100
AcDbEntity
  8
R-DOOR-ANNO
100
AcDbText
 10
2.64173
 20
0.496296
 30
0.0
 40
0.27
  1
2
100
AcDbText
  0
TEXT
  5
713
100
AcDbEntity
  8
R-DOOR-ANNO
 62
     0
100
AcDbText
 10
0.0
 20
1.338976
 30
0.0
 40
0.315
  1
CLEAR OPENING
100
AcDbText
  0
TEXT
  5
714
100
AcDbEntity
  8
R-DOOR-ANNO
 62
     0
100
AcDbText
 10
1.2075
 20
1.863976
 30
0.0
 40
0.315
  1
GLASS 
100
AcDbText
  0
TEXT
  5
715
100
AcDbEntity
  8
R-DOOR-ANNO
100
AcDbText
 10
2.688322
 20
0.946296
 30
0.0
 40
0.27
  1
1
100
AcDbText
  0
ENDBLK
  5
717
100
AcDbEntity
  8
0
100
AcDbBlockEnd
  0
BLOCK
  5
71A
100
AcDbEntity
  8
0
100
AcDbBlockBegin
  2
A$C7D362BF5
 70
     0
 10
0.0
 20
0.0
 30
0.0
  3
A$C7D362BF5
  1

  0
INSERT
  5
719
100
AcDbEntity
  8
R-DOOR-ANNO
100
AcDbBlockReference
  2
A$C433421F4
 10
0.0
 20
0.0
 30
0.0
 41
1.125
 42
1.125
 43
1.125
  0
ENDBLK
  5
71B
100
AcDbEntity
  8
0
100
AcDbBlockEnd
  0
BLOCK
  5
729
100
AcDbEntity
  8
0
100
AcDbBlockBegin
  2
*D43
 70
     1
 10
0.0
 20
0.0
 30
0.0
  3
*D43
  1

  0
LINE
  5
72A
100
AcDbEntity
  8
0
  6
BYBLOCK
 62
     0
100
AcDbLine
 10
9.535151
 20
26.881675
 30
0.0
 11
6.141251
 21
26.881675
 31
0.0
  0
LINE
  5
72B
100
AcDbEntity
  8
0
  6
BYBLOCK
 62
     0
100
AcDbLine
 10
12.285151
 20
25.832175
 30
0.0
 11
6.141251
 21
25.832175
 31
0.0
  0
LINE
  5
72C
100
AcDbEntity
  8
0
  6
BYBLOCK
 62
     0
100
AcDbLine
 10
6.501251
 20
27.241675
 30
0.0
 11
6.501251
 21
27.601675
 31
0.0
  0
LINE
  5
72D
100
AcDbEntity
  8
0
  6
BYBLOCK
 62
     0
100
AcDbLine
 10
6.501251
 20
25.472175
 30
0.0
 11
6.501251
 21
25.112175
 31
0.0
  0
SOLID
  5
72E
100
AcDbEntity
  8
0
  6
BYBLOCK
 62
     0
100
AcDbTrace
 10
6.441251
 20
27.241675
 30
0.0
 11
6.561251
 21
27.241675
 31
0.0
 12
6.501251
 22
26.881675
 32
0.0
 13
6.501251
 23
26.881675
 33
0.0
  0
SOLID
  5
72F
100
AcDbEntity
  8
0
  6
BYBLOCK
 62
     0
100
AcDbTrace
 10
6.441251
 20
25.472175
 30
0.0
 11
6.561251
 21
25.472175
 31
0.0
 12
6.501251
 22
25.832175
 32
0.0
 13
6.501251
 23
25.832175
 33
0.0
  0
MTEXT
  5
730
100
AcDbEntity
  8
0
  6
BYBLOCK
 62
     0
100
AcDbMText
 10
6.501251
 20
26.356925
 30
0.0
 40
0.36
 41
0.0
 71
     5
 72
     1
  1
\A1;1{\H1.000000x;\S1/16;}" [27mm]
  0
POINT
  5
731
100
AcDbEntity
  8
DEFPOINTS
  6
BYBLOCK
 62
     0
100
AcDbPoint
 10
9.660151
 20
26.881675
 30
0.0
  0
POINT
  5
732
100
AcDbEntity
  8
DEFPOINTS
  6
BYBLOCK
 62
     0
100
AcDbPoint
 10
12.410151
 20
25.832175
 30
0.0
  0
POINT
  5
733
100
AcDbEntity
  8
DEFPOINTS
  6
BYBLOCK
 62
     0
100
AcDbPoint
 10
6.501251
 20
25.832175
 30
0.0
  0
ENDBLK
  5
734
100
AcDbEntity
  8
0
100
AcDbBlockEnd
  0
BLOCK
  5
738
100
AcDbEntity
  8
0
100
AcDbBlockBegin
  2
*D44
 70
     1
 10
0.0
 20
0.0
 30
0.0
  3
*D44
  1

  0
LINE
  5
739
100
AcDbEntity
  8
0
  6
BYBLOCK
 62
     0
100
AcDbLine
 10
12.202928
 20
15.4496
 30
0.0
 11
6.140665
 21
15.4496
 31
0.0
  0
LINE
  5
73A
100
AcDbEntity
  8
0
  6
BYBLOCK
 62
     0
100
AcDbLine
 10
9.514452
 20
9.82005
 30
0.0
 11
6.140665
 21
9.82005
 31
0.0
  0
LINE
  5
73B
100
AcDbEntity
  8
0
  6
BYBLOCK
 62
     0
100
AcDbLine
 10
6.500665
 20
15.0896
 30
0.0
 11
6.500665
 21
13.306073
 31
0.0
  0
LINE
  5
73C
100
AcDbEntity
  8
0
  6
BYBLOCK
 62
     0
100
AcDbLine
 10
6.500665
 20
10.18005
 30
0.0
 11
6.500665
 21
12.106073
 31
0.0
  0
SOLID
  5
73D
100
AcDbEntity
  8
0
  6
BYBLOCK
 62
     0
100
AcDbTrace
 10
6.440665
 20
15.0896
 30
0.0
 11
6.560665
 21
15.0896
 31
0.0
 12
6.500665
 22
15.4496
 32
0.0
 13
6.500665
 23
15.4496
 33
0.0
  0
SOLID
  5
73E
100
AcDbEntity
  8
0
  6
BYBLOCK
 62
     0
100
AcDbTrace
 10
6.440665
 20
10.18005
 30
0.0
 11
6.560665
 21
10.18005
 31
0.0
 12
6.500665
 22
9.82005
 32
0.0
 13
6.500665
 23
9.82005
 33
0.0
  0
MTEXT
  5
73F
100
AcDbEntity
  8
0
  6
BYBLOCK
 62
     0
100
AcDbMText
 10
6.500665
 20
12.706073
 30
0.0
 40
0.36
 41
0.0
 71
     5
 72
     1
  1
\A1;5{\H1.000000x;\S5/8;}" [143mm]
  0
POINT
  5
740
100
AcDbEntity
  8
DEFPOINTS
  6
BYBLOCK
 62
     0
100
AcDbPoint
 10
12.327928
 20
15.4496
 30
0.0
  0
POINT
  5
741
100
AcDbEntity
  8
DEFPOINTS
  6
BYBLOCK
 62
     0
100
AcDbPoint
 10
9.639452
 20
9.82005
 30
0.0
  0
POINT
  5
742
100
AcDbEntity
  8
DEFPOINTS
  6
BYBLOCK
 62
     0
100
AcDbPoint
 10
6.500665
 20
9.82005
 30
0.0
  0
ENDBLK
  5
743
100
AcDbEntity
  8
0
100
AcDbBlockEnd
  0
BLOCK
  5
748
100
AcDbEntity
  8
0
100
AcDbBlockBegin
  2
*D45
 70
     1
 10
0.0
 20
0.0
 30
0.0
  3
*D45
  1

  0
LINE
  5
749
100
AcDbEntity
  8
0
  6
BYBLOCK
 62
     0
100
AcDbLine
 10
13.562173
 20
10.07005
 30
0.0
 11
18.856252
 21
10.07005
 31
0.0
  0
LINE
  5
74A
100
AcDbEntity
  8
0
  6
BYBLOCK
 62
     0
100
AcDbLine
 10
15.764452
 20
9.82005
 30
0.0
 11
18.856252
 21
9.82005
 31
0.0
  0
LINE
  5
74B
100
AcDbEntity
  8
0
  6
BYBLOCK
 62
     0
100
AcDbLine
 10
18.496252
 20
9.46005
 30
0.0
 11
18.496252
 21
9.10005
 31
0.0
  0
LINE
  5
74C
100
AcDbEntity
  8
0
  6
BYBLOCK
 62
     0
100
AcDbLine
 10
18.496252
 20
10.43005
 30
0.0
 11
18.496252
 21
10.984001
 31
0.0
  0
LINE
  5
74D
100
AcDbEntity
  8
0
  6
BYBLOCK
 62
     0
100
AcDbLine
 10
18.496252
 20
10.984001
 30
0.0
 11
18.856252
 21
10.984001
 31
0.0
  0
SOLID
  5
74E
100
AcDbEntity
  8
0
  6
BYBLOCK
 62
     0
100
AcDbTrace
 10
18.436252
 20
9.46005
 30
0.0
 11
18.556252
 21
9.46005
 31
0.0
 12
18.496252
 22
9.82005
 32
0.0
 13
18.496252
 23
9.82005
 33
0.0
  0
SOLID
  5
74F
100
AcDbEntity
  8
0
  6
BYBLOCK
 62
     0
100
AcDbTrace
 10
18.436252
 20
10.43005
 30
0.0
 11
18.556252
 21
10.43005
 31
0.0
 12
18.496252
 22
10.07005
 32
0.0
 13
18.496252
 23
10.07005
 33
0.0
  0
MTEXT
  5
750
100
AcDbEntity
  8
0
  6
BYBLOCK
 62
     0
100
AcDbMText
 10
20.236252
 20
10.984001
 30
0.0
 40
0.36
 41
0.0
 71
     5
 72
     1
  1
\A1;{\H1.000000x;\S1/4;}" [6mm]
  0
POINT
  5
751
100
AcDbEntity
  8
DEFPOINTS
  6
BYBLOCK
 62
     0
100
AcDbPoint
 10
13.437173
 20
10.07005
 30
0.0
  0
POINT
  5
752
100
AcDbEntity
  8
DEFPOINTS
  6
BYBLOCK
 62
     0
100
AcDbPoint
 10
15.639452
 20
9.82005
 30
0.0
  0
POINT
  5
753
100
AcDbEntity
  8
DEFPOINTS
  6
BYBLOCK
 62
     0
100
AcDbPoint
 10
18.496252
 20
9.82005
 30
0.0
  0
ENDBLK
  5
754
100
AcDbEntity
  8
0
100
AcDbBlockEnd
  0
ENDSEC
  0
SECTION
  2
ENTITIES
  0
DIMENSION
  5
DC
100
AcDbEntity
  8
R-DOOR-ANNO
100
AcDbDimension
  2
*D10
 10
21.934138
 20
9.82005
 30
0.0
 11
21.934138
 21
18.350863
 31
0.0
 12
-1.345981
 22
-1.985579
 32
0.0
 70
    32
  1
CLEAR OPENING
  3
STANDARD
100
AcDbAlignedDimension
 13
15.660151
 23
26.881675
 33
0.0
 14
15.639452
 24
9.82005
 34
0.0
 50
90.0
100
AcDbRotatedDimension
1001
ACAD
1000
DSTYLE
1002
{
1070
    40
1040
2.0
1002
}
  0
TEXT
  5
DE
100
AcDbEntity
  8
R-DOOR-ANNO
100
AcDbText
 10
8.382112
 20
4.354369
 30
0.0
 40
0.52
  1
CLAD OR NON-CLAD
  7
ROMANS
 72
     1
 11
12.480207
 21
4.354369
 31
0.0
100
AcDbText
  0
LINE
  5
E0
100
AcDbEntity
  8
4-2
  6
CONTINUOUS
 62
     4
100
AcDbLine
 10
9.639452
 20
9.82005
 30
0.0
 11
15.639452
 21
9.82005
 31
0.0
  0
HATCH
  5
E1
100
AcDbEntity
  8
R-DOOR-PATT
  6
CONTINUOUS
 62
     5
100
AcDbHatch
 10
0.0
 20
0.0
 30
0.0
210
0.0
220
0.0
230
1.0
  2
ANSI31
 70
     0
 71
     0
 91
        1
 92
        7
 72
     0
 73
     1
 93
        4
 10
15.63945197529875
 20
9.820050246804456
 10
9.639451975298783
 20
9.820050246804456
 10
9.639451975298783
 20
7.820050246804456
 10
15.63945197529875
 20
7.820050246804456
 97
        0
 75
     0
 76
     1
 52
180.0
 41
2.5
 77
     0
 78
     1
 53
225.0
 43
-301.923711
 44
-20.464226
 45
0.2209708691207961
 46
-0.2209708691207961
 79
     0
 47
0.011976
 98
        1
 10
12.366651
 20
9.010957
  0
INSERT
  5
E2
100
AcDbEntity
  8
R-DOOR-DETL
100
AcDbBlockReference
  2
S
 10
12.643641
 20
9.87667
 30
0.0
  0
TEXT
  5
E3
100
AcDbEntity
  8
R-DOOR-ANNO
100
AcDbText
 10
9.343202
 20
6.785821
 30
0.0
 40
0.52
  1
U-CHANNEL TOP
  7
ROMANS
 72
     1
 11
12.686059
 21
6.785821
 31
0.0
100
AcDbText
  0
TEXT
  5
E4
100
AcDbEntity
  8
R-DOOR-ANNO
100
AcDbText
 10
5.277565
 20
5.176045
 30
0.0
 40
0.52
  1
SADDLE  AND SETTING BLOCK BOTTOM
  7
ROMANS
 72
     1
 11
13.028041
 21
5.176045
 31
0.0
100
AcDbText
  0
TEXT
  5
E5
100
AcDbEntity
  8
R-DOOR-ANNO
100
AcDbText
 10
5.227248
 20
5.928728
 30
0.0
 40
0.52
  1
6" SQUARE SIDELITE RAIL WITH 1/4"
  7
ROMANS
 72
     1
 11
12.6682
 21
5.928728
 31
0.0
100
AcDbText
  0
TEXT
  5
E7
100
AcDbEntity
  8
R-DOOR-ANNO
100
AcDbText
 10
21.51123
 20
0.5
 30
0.0
 40
0.52
  1
STYLE 31
  7
ROMANS
100
AcDbText
  0
MTEXT
  5
E8
102
{ACAD_REACTORS
330
F4
102
}
100
AcDbEntity
  8
R-DOOR-ANNO
  6
CONTINUOUS
100
AcDbMText
 10
15.632627
 20
16.927443
 30
0.0
 40
0.36
 41
0.0
 71
     4
 72
     1
  1
SETTING BLOCK
  7
ROMANS
  0
MTEXT
  5
E9
102
{ACAD_REACTORS
330
EA
102
}
100
AcDbEntity
  8
R-DOOR-ANNO
  6
CONTINUOUS
100
AcDbMText
 10
16.148972
 20
13.391771
 30
0.0
 40
0.36
 41
0.0
 71
     4
 72
     1
  1
CLADDING
  7
ROMANS
  0
LEADER
  5
EA
100
AcDbEntity
  8
R-DOOR-ANNO
  6
CONTINUOUS
100
AcDbLeader
  3
STANDARD
 73
     0
 74
     0
 75
     1
 40
0.36
 41
2.451429
 76
     3
 10
13.749485
 20
12.048653
 30
0.0
 10
15.538972
 20
13.391771
 30
0.0
 10
16.038972
 20
13.391771
 30
0.0
 77
   256
340
E9
213
-0.0199999999999996
223
0.0
233
0.0
1001
ACAD
1000
DSTYLE
1002
{
1070
   173
1070
     1
1070
     6
1000
_DOTSMALL
1070
    41
1040
0.5
1002
}
  0
REGION
  5
EE
100
AcDbEntity
  8
R-DOOR-DETL
  6
CONTINUOUS
100
AcDbModelerGeometry
 70
     1
  1
noi ki n o          
  1
=0;& {rn {n {rn {rn |
  1
3*2/ {rn {rn {m {o |
  1
,7:33 {rn {rn {rn {l {n |
  1
9><: {rn {rn {k {m {rn {j 90-(>-; ;0*=3: 0*+ |
  1
300/ {rn {rn {i {l |
  1
/3>1:r,*-9><: {rn nlqjlfifkglnhilfn nkqhfggoffnmmglli o o o n n o o o V V V V |
  1
<0:;8: {rn {h {g {rn {f n {k {rn |
  1
<0:;8: {rn {no {i {rn {nn n {k {rn |
  1
<0:;8: {rn {i {nm {rn {nl n {k {rn |
  1
:;8: {rn {nk {nj {i {ni o |
  1
<0:;8: {rn {nh {h {rn {ng n {k {rn |
  1
:;8: {rn {nf {nk {h {mo o |
  1
<0:;8: {rn {g {mn {rn {mm n {k {rn |
  1
:;8: {rn {nj {ml {g {mk o |
  1
):-+:' {rn {f {mj |
  1
):-+:' {rn {f {mi |
  1
,+->687+r<*-): {rn nlqmflgnjoolgfimff niqonkjolmkigoklfj o o n o V V |
  1
<0:;8: {rn {mh {no {rn {mg n {k {rn |
  1
:;8: {rn {mf {nf {no {lo o |
  1
):-+:' {rn {ng {ln |
  1
,+->687+r<*-): {rn nlqkhgiigmoiggmohh niqonkjolmkigoklfj o rn o o V V |
  1
<0:;8: {rn {nm {mh {rn {lm n {k {rn |
  1
:;8: {rn {ml {ll {nm {lk o |
  1
):-+:' {rn {nl {lj |
  1
,+->687+r<*-): {rn nlqmflgnjoolgfimff niqoikjolmkigokkoi o n o o V V |
  1
/061+ {rn nlqmflgnjoolgfimff niqonkjolmkigoklfj o |
  1
/061+ {rn nlqmflgnjoolgfimff niqoikjolmkigokkoi o |
  1
<0:;8: {rn {mn {nh {rn {li n {k {rn |
  1
:;8: {rn {lh {mf {nh {lg o |
  1
):-+:' {rn {mg {lf |
  1
:336/,:r<*-): {rn nlqkhgiigmoiggmohh njqgjgjolmkigoklgf o o o n oqnnologijhgijnojjf oqnnologijhgijnoojh o n V V |
  1
/061+ {rn nlqkhgiigmoiggmohh niqonkjolmkigoklfj o |
  1
:;8: {rn {ll {ko {mn {kn o |
  1
):-+:' {rn {mm {km |
  1
:336/,:r<*-): {rn nlqkhgiigmoiggmohh njqgjgjolmkigoklgf o o o rn oqnkjiilffifmkklofk oqnkjiilffifmkklofk o n V V |
  1
/061+ {rn nlqkhgiigmoiggmohh niqoikjolmkigokkoi o |
  1
:;8: {rn {ko {lh {mh {kl o |
  1
):-+:' {rn {li {kk |
  1
,+->687+r<*-): {rn nlqilkiigmoiggmomi noqohoojomkigokkkm o nqmmhjnhjoolhjjolk:ronj n o V V |
  1
/061+ {rn nlqilkiigmoiggmomi njqgjgjolmkigoklgf o |
  1
):-+:' {rn {lm {kj |
  1
,+->687+r<*-): {rn nlqigkiigmoiggnfg njqgjgjolmkigoklgf o rnqmmhjnhjoolhjjolk:ronj rn o V V |
  1
/061+ {rn nlqigkiigmoiggnfg njqgjgjolmkigoklgf o |
  1
,+->687+r<*-): {rn nlqigkiigmoiggnfg noqohoojomkigokkkm o rn o o V V |
  1
/061+ {rn nlqilkiigmoiggmomi noqohoojomkigokkkm o |
  1
/061+ {rn nlqigkiigmoiggnfg noqohoojomkigokkkm o |
  0
REGION
  5
EF
100
AcDbEntity
  8
R-DOOR-DETL
  6
CONTINUOUS
100
AcDbModelerGeometry
 70
     1
  1
noi nii n o         
  1
=0;& {rn {n {rn {rn |
  1
3*2/ {rn {rn {m {o |
  1
,7:33 {rn {rn {rn {l {n |
  1
9><: {rn {rn {k {m {rn {j -:):-,:; ;0*=3: 0*+ |
  1
300/ {rn {rn {i {l |
  1
/3>1:r,*-9><: {rn nmqikkngookhlnnnjl noqnkgnhjmkigokkkm o o o rn n rnqmmkioiljlgmmlhhl:roni o n V V V V |
  1
<0:;8: {rn {h {g {rn {f o {k {rn |
  1
<0:;8: {rn {no {i {rn {nn o {k {rn |
  1
<0:;8: {rn {i {nm {rn {nl o {k {rn |
  1
:;8: {rn {nk {nj {i {ni o |
  1
<0:;8: {rn {nh {h {rn {ng o {k {rn |
  1
:;8: {rn {nj {nf {h {mo o |
  1
<0:;8: {rn {g {mn {rn {mm o {k {rn |
  1
:;8: {rn {ml {nk {g {mk o |
  1
):-+:' {rn {f {mj |
  1
):-+:' {rn {f {mi |
  1
,+->687+r<*-): {rn nlqnfmnhmjifmfnhgj noqiijojomkigokkif o rnqmmkioiljlgmmlhhl:roni rn o V V |
  1
<0:;8: {rn {mh {no {rn {mg o {k {rn |
  1
:;8: {rn {nf {mf {no {lo o |
  1
):-+:' {rn {nn {ln |
  1
:336/,:r<*-): {rn nlqnimnhmjifmfngnm fqfhjojomkigokkhnj o o o rn oqomnmnlmolkljjfhmmj roqomnmnlmolkljjfhmlm o n V V |
  1
<0:;8: {rn {nm {lm {rn {ll o {k {rn |
  1
:;8: {rn {lk {ml {nm {lj o |
  1
):-+:' {rn {mm {li |
  1
:336/,:r<*-): {rn nlqmmmnhmjifmfnhjh noqiijojomkigokkif o o o n roqomnmnlmolkljjfhmmj oqomnmnlmolkljjfhmlm o n V V |
  1
/061+ {rn nlqnfmnhmjifmfnhgj noqiijojomkigokkif o |
  1
/061+ {rn nlqnfmnhmjifmfnhgj fqfhjojomkigokkhnj o |
  1
<0:;8: {rn {lh {nh {rn {lg o {k {rn |
  1
:;8: {rn {mf {lf {nh {ko o |
  1
):-+:' {rn {ng {kn |
  1
,+->687+r<*-): {rn nlqnimnhmjifmfngnm fqfkjojomkigokkknf o rn nqmmkioiljlgmmlhhl:roni o V V |
  1
/061+ {rn nlqnimnhmjifmfngnm fqfkjojomkigokkknf o |
  1
<0:;8: {rn {mn {km {rn {kl o {k {rn |
  1
:;8: {rn {kk {lk {mn {kj o |
  1
):-+:' {rn {ll {ki |
  1
,+->687+r<*-): {rn nlqmghnhmjifmfngnm noqifjojomkigokkkm o rn nqmmkioiljlgmmlhhl:roni o V V |
  1
/061+ {rn nlqmmmnhmjifmfnhjh noqifjojomkigokkkm o |
  1
<0:;8: {rn {kh {mh {rn {kg o {k {rn |
  1
:;8: {rn {lf {kf {mh {jo o |
  1
):-+:' {rn {mg {jn |
  1
:336/,:r<*-): {rn nmqnminghjmjllokfk fqfhjojomkigokkhnj o o o rn roqomnmnlmolkljjfhmlf roqomnmnlmolkljjfhmlm o n V V |
  1
/061+ {rn nmqnminghjmjllokfk fqfkjojomkigokkknf o |
  1
<0:;8: {rn {lm {jm {rn {jl o {k {rn |
  1
:;8: {rn {jk {kk {lm {jj o |
  1
):-+:' {rn {kl {ji |
  1
:336/,:r<*-): {rn nlqmghnhmjifmfngnm noqiijojomkigokkif o o o n oqomnmnlmolkljjfhmlm oqomnmnlmolkljjfhmmj o n V V |
  1
/061+ {rn nlqmghnhmjifmfngnm noqifjojomkigokkkm o |
  1
<0:;8: {rn {jh {lh {rn {jg o {k {rn |
  1
:;8: {rn {kf {jf {lh {io o |
  1
):-+:' {rn {lg {in |
  1
,+->687+r<*-): {rn nmqofinghjmjllokoh fqfhjojomkigokkhnj o nqmmkioiljlgmmlhhl:roni n o V V |
  1
/061+ {rn nmqofinghjmjllokoh fqfhjojomkigokkhnj o |
  1
<0:;8: {rn {km {im {rn {il o {k {rn |
  1
:;8: {rn {ik {jk {km {ij o |
  1
):-+:' {rn {jl {ii |
  1
,+->687+r<*-): {rn nlqlnhnhmjifmfnhgj noqogjojomkigokkjh o nqmmkioiljlgmmlhhl:roni n o V V |
  1
/061+ {rn nlqlnhnhmjifmfnhgj noqiijojomkigokkif o |
  1
<0:;8: {rn {ih {kh {rn {ig o {k {rn |
  1
:;8: {rn {jf {if {kh {ho o |
  1
):-+:' {rn {kg {hn |
  1
:336/,:r<*-): {rn nmqoiinghjmjllokil noqiijojomkigokkif o o o n oqomnmnlmolkljjfhmlm oqomnmnlmolkljjfhmmj o n V V |
  1
/061+ {rn nmqofinghjmjllokoh noqiijojomkigokkif o |
  1
<0:;8: {rn {jm {hm {rn {hl o {k {rn |
  1
:;8: {rn {hk {ik {jm {hj o |
  1
):-+:' {rn {il {hi |
  1
:336/,:r<*-): {rn nlqllmnhmjifmfnhhn noqogjojomkigokkgj o o o rn roqonoioiionhnhhfginf roqonoioiionhnhhfgini o n V V |
  1
/061+ {rn nlqlnhnhmjifmfnhgj noqogjojomkigokkjh o |
  1
<0:;8: {rn {hh {jh {rn {hg o {k {rn |
  1
:;8: {rn {if {hf {jh {go o |
  1
):-+:' {rn {jg {gn |
  1
,+->687+r<*-): {rn nmqoiinghjmjllokil noqifjojomkigokkkm o rn nqmmkioiljlgmmlhhl:roni o V V |
  1
/061+ {rn nmqoiinghjmjllokil noqifjojomkigokkkm o |
  1
<0:;8: {rn {im {gm {rn {gl o {k {rn |
  1
:;8: {rn {gk {hk {im {gj o |
  1
):-+:' {rn {hl {gi |
  1
,+->687+r<*-): {rn nlqjkmnhmjifmfnifk noqohoojomkigokkkm o rn nqmmkioiljlgmmlhhl:roni o V V |
  1
/061+ {rn nlqllmnhmjifmfnhhn noqohoojomkigokkkm o |
  1
<0:;8: {rn {gh {ih {rn {gg o {k {rn |
  1
:;8: {rn {hf {gf {ih {fo o |
  1
):-+:' {rn {ig {fn |
  1
:336/,:r<*-): {rn nmqoonnghjmjllojmm noqiijojomkigokkif o o o n roqomnmnlmolkljjfhmmj oqomnmnlmolkljjfhmlm o n V V |
  1
/061+ {rn nmqoonnghjmjllojmm noqifjojomkigokkkm o |
  1
<0:;8: {rn {hm {fm {rn {fl o {k {rn |
  1
:;8: {rn {fk {gk {hm {fj o |
  1
):-+:' {rn {gl {fi |
  1
:336/,:r<*-): {rn nlqjkmnhmjifmfnifk noqokoojomkigokkif o o o n oqomnmnlmolkljjfhmlm oqomnmnlmolkljjfhmmj o n V V |
  1
/061+ {rn nlqjkmnhmjifmfnifk noqohoojomkigokkkm o |
  1
<0:;8: {rn {fh {hh {rn {fg o {k {rn |
  1
:;8: {rn {gf {ff {hh {noo o |
  1
):-+:' {rn {hg {non |
  1
,+->687+r<*-): {rn nnqfhnnghjmjllokli noqiijojomkigokkif o rnqmmkioiljlgmmlhhl:roni rn o V V |
  1
/061+ {rn nnqfhnnghjmjllokli noqiijojomkigokkif o |
  1
<0:;8: {rn {gm {nom {rn {nol o {k {rn |
  1
:;8: {rn {nok {fk {gm {noj o |
  1
):-+:' {rn {fl {noi |
  1
,+->687+r<*-): {rn nlqjhmnhmjifmfnhg fqfhjojomkigokkhnj o nqmmkioiljlgmmlhhl:roni n o V V |
  1
/061+ {rn nlqjhmnhmjifmfnhg noqokoojomkigokkif o |
  1
<0:;8: {rn {noh {gh {rn {nog o {k {rn |
  1
:;8: {rn {ff {nof {gh {nno o |
  1
):-+:' {rn {gg {nnn |
  1
:336/,:r<*-): {rn nnqfjinghjmjllokkf noqogjojomkigokkjh o o o rn oqonoioiionhnhhfginm roqonoioiionhnhhfgini o n V V |
  1
/061+ {rn nnqfhnnghjmjllokli noqogjojomkigokkjh o |
  1
<0:;8: {rn {fm {nnm {rn {nnl o {k {rn |
  1
:;8: {rn {nnk {nok {fm {nnj o |
  1
):-+:' {rn {nol {nni |
  1
:336/,:r<*-): {rn nlqjkmnhmjifmfnifk fqfhjojomkigokkhnj o o o n oqomnmnlmolkljjfhmmj roqomnmnlmolkljjfhmlm o n V V |
  1
/061+ {rn nlqjhmnhmjifmfnhg fqfhjojomkigokkhnj o |
  1
<0:;8: {rn {nnh {fh {rn {nng o {k {rn |
  1
:;8: {rn {nof {nnf {fh {nmo o |
  1
):-+:' {rn {fg {nmn |
  1
,+->687+r<*-): {rn nnqfjinghjmjllokkf noqohoojomkigokkkm o rn nqmmkioiljlgmmlhhl:roni o V V |
  1
/061+ {rn nnqfjinghjmjllokkf noqohoojomkigokkkm o |
  1
<0:;8: {rn {nom {nmm {rn {nml o {k {rn |
  1
:;8: {rn {nmk {nnk {nom {nmj o |
  1
):-+:' {rn {nnl {nmi |
  1
,+->687+r<*-): {rn nlqllmnhmjifmfnhhn fqfkjojomkigokkknf o n rnqmmkioiljlgmmlhhl:roni o V V |
  1
/061+ {rn nlqjkmnhmjifmfnifk fqfkjojomkigokkknf o |
  1
<0:;8: {rn {nmh {noh {rn {nmg o {k {rn |
  1
:;8: {rn {nnf {nmf {noh {nlo o |
  1
):-+:' {rn {nog {nln |
  1
:336/,:r<*-): {rn nnqhkinghjmjlloknl noqokoojomkigokkif o o o n roqomnmnlmolkljjfhmmj oqomnmnlmolkljjfhmlm o n V V |
  1
/061+ {rn nnqhkinghjmjlloknl noqohoojomkigokkkm o |
  1
<0:;8: {rn {nnm {nlm {rn {nll o {k {rn |
  1
:;8: {rn {nlk {nmk {nnm {nlj o |
  1
):-+:' {rn {nml {nli |
  1
:336/,:r<*-): {rn nlqllmnhmjifmfnhhn fqfloojomkigokkjji o o o rn roqonoioiionhnhhfginm oqonoioiionhnhhfgini o n V V |
  1
/061+ {rn nlqllmnhmjifmfnhhn fqfkjojomkigokkknf o |
  1
<0:;8: {rn {nlh {nnh {rn {nlg o {k {rn |
  1
:;8: {rn {nmf {nlf {nnh {nko o |
  1
):-+:' {rn {nng {nkn |
  1
,+->687+r<*-): {rn nnqhninghjmjllokk noqokoojomkigokkif o rnqmmkioiljlgmmlhhl:roni rn o V V |
  1
/061+ {rn nnqhninghjmjllokk noqokoojomkigokkif o |
  1
<0:;8: {rn {nmm {nkm {rn {nkl o {k {rn |
  1
:;8: {rn {nkk {nlk {nmm {nkj o |
  1
):-+:' {rn {nll {nki |
  1
,+->687+r<*-): {rn nlqlnhnhmjifmfnhgj fqgjoojomkigokkhnj o nqmmkioiljlgmmlhhl:roni n o V V |
  1
/061+ {rn nlqlnhnhmjifmfnhgj fqfloojomkigokkjji o |
  1
<0:;8: {rn {nkh {nmh {rn {nkg o {k {rn |
  1
:;8: {rn {nlf {nkf {nmh {njo o |
  1
):-+:' {rn {nmg {njn |
  1
:336/,:r<*-): {rn nnqhkinghjmjlloknl fqfhjojomkigokkhnj o o o n roqomnmnlmolkljjfhmlf roqomnmnlmolkljjfhmlm o n V V |
  1
/061+ {rn nnqhninghjmjllokk fqfhjojomkigokkhnj o |
  1
<0:;8: {rn {nlm {nkh {rn {njm o {k {rn |
  1
:;8: {rn {njl {nkk {nlm {njk o |
  1
):-+:' {rn {nkl {njj |
  1
:336/,:r<*-): {rn nlqmghnhmjifmfngnm fqgjoojomkigokkhnj o o o n oqomnmnlmolkljjfhmmj roqomnmnlmolkljjfhmlm o n V V |
  1
/061+ {rn nlqlnhnhmjifmfnhgj fqgjoojomkigokkhnj o |
  1
<0:;8: {rn {nkm {nlh {rn {nji o {k {rn |
  1
:;8: {rn {nkf {njh {nlh {njg o |
  1
):-+:' {rn {nlg {njf |
  1
,+->687+r<*-): {rn nnqhkinghjmjlloknl fqfkjojomkigokkknf o n rnqmmkioiljlgmmlhhl:roni o V V |
  1
/061+ {rn nnqhkinghjmjlloknl fqfkjojomkigokkknf o |
  1
:;8: {rn {nio {njl {nkm {nin o |
  1
):-+:' {rn {njm {nim |
  1
,+->687+r<*-): {rn nmqoonnghjmjllojmm fqgmoojomkigokkknf o n rnqmmkioiljlgmmlhhl:roni o V V |
  1
/061+ {rn nlqmghnhmjifmfngnm fqgmoojomkigokkknf o |
  1
:;8: {rn {njh {nio {nkh {nil o |
  1
):-+:' {rn {nkg {nik |
  1
:336/,:r<*-): {rn nnqfjinghjmjllokkf fqfloojomkigokkjji o o o rn oqonoioiionhnhhfgini oqonoioiionhnhhfginm o n V V |
  1
/061+ {rn nnqfjinghjmjllokkf fqfkjojomkigokkknf o |
  1
):-+:' {rn {nji {nij |
  1
:336/,:r<*-): {rn nmqoonnghjmjllojmm fqgjoojomkigokkhnj o o o n roqomnmnlmolkljjfhmlf roqomnmnlmolkljjfhmlm o n V V |
  1
/061+ {rn nmqoonnghjmjllojmm fqgmoojomkigokkknf o |
  1
,+->687+r<*-): {rn nnqfhnnghjmjllokli fqfloojomkigokkjji o rnqmmkioiljlgmmlhhl:roni rn o V V |
  1
/061+ {rn nnqfhnnghjmjllokli fqfloojomkigokkjji o |
  1
/061+ {rn nnqfhnnghjmjllokli fqgjoojomkigokkhnj o |
  0
ARC
  5
F3
100
AcDbEntity
  8
R-DOOR-DETL
  6
CONTINUOUS
100
AcDbCircle
 10
13.573242
 20
12.00983
 30
0.0
 40
0.025
100
AcDbArc
 50
90.0
 51
270.0
  0
LEADER
  5
F4
100
AcDbEntity
  8
R-DOOR-ANNO
  6
CONTINUOUS
100
AcDbLeader
  3
STANDARD
 73
     0
 74
     0
 75
     1
 40
0.36
 41
4.097143
 76
     3
 10
12.830652
 20
15.282233
 30
0.0
 10
15.022627
 20
16.927443
 30
0.0
 10
15.522627
 20
16.927443
 30
0.0
 77
   256
340
E8
213
-0.0199999999999996
223
0.0
233
0.0
1001
ACAD
1000
DSTYLE
1002
{
1070
   173
1070
     1
1070
     6
1000
_DOTSMALL
1070
    41
1040
0.5
1002
}
  0
REGION
  5
F5
100
AcDbEntity
  8
R-DOOR-DETL
  6
CONTINUOUS
100
AcDbModelerGeometry
 70
     1
  1
noi nki n o         
  1
=0;& {rn {n {rn {rn |
  1
3*2/ {rn {rn {m {o |
  1
,7:33 {rn {rn {rn {l {n |
  1
9><: {rn {rn {k {m {rn {j 90-(>-; ;0*=3: 0*+ |
  1
300/ {rn {rn {i {l |
  1
/3>1:r,*-9><: {rn nlqolgjkhmfjifhngj njqfohgmknlhgmikgn o o o n n o o o V V V V |
  1
<0:;8: {rn {h {g {rn {f n {k {rn |
  1
<0:;8: {rn {no {i {rn {nn n {k {rn |
  1
<0:;8: {rn {i {nm {rn {nl n {k {rn |
  1
:;8: {rn {nk {nj {i {ni o |
  1
<0:;8: {rn {nh {h {rn {ng n {k {rn |
  1
:;8: {rn {nf {nk {h {mo o |
  1
<0:;8: {rn {g {mn {rn {mm n {k {rn |
  1
:;8: {rn {nj {ml {g {mk o |
  1
):-+:' {rn {f {mj |
  1
):-+:' {rn {f {mi |
  1
,+->687+r<*-): {rn nlqnhfgolmfmifmkkn njqgngnjiiffjhfkkh o oqihjjfomohinjiinom oqhlhmhhllignonmlkm o V V |
  1
<0:;8: {rn {mh {no {rn {mg n {k {rn |
  1
:;8: {rn {mf {nf {no {lo o |
  1
):-+:' {rn {ng {ln |
  1
,+->687+r<*-): {rn nlqnhfgolmfmifmkkn niqomghfnifjhlgihi o o rn o V V |
  1
<0:;8: {rn {nm {lm {rn {ll n {k {rn |
  1
:;8: {rn {ml {lk {nm {lj o |
  1
):-+:' {rn {nl {li |
  1
:336/,:r<*-): {rn nlqmjimmkomjgjomgh njqgfokjlgfnogjjff o o o rn oqoojoiifmijjhnmonjkf oqoojjmfjgoomiohhfjnj o n V V |
  1
/061+ {rn nlqnhfgolmfmifmkkn njqgngnjiiffjhfkkh o |
  1
/061+ {rn nlqmjoifkkkjgmkmml njqgfjjmognhikmhoj o |
  1
<0:;8: {rn {lh {nh {rn {lg n {k {rn |
  1
:;8: {rn {lf {mf {nh {ko o |
  1
):-+:' {rn {mg {kn |
  1
,+->687+r<*-): {rn nlqmkjgolmfmifmkkl niqomghfnifjhlgihi o rn o o V V |
  1
/061+ {rn nlqnhfgolmfmifmkkn niqomghfnifjhlgihi o |
  1
<0:;8: {rn {mn {km {rn {kl n {k {rn |
  1
:;8: {rn {lk {kk {mn {kj o |
  1
):-+:' {rn {mm {ki |
  1
,+->687+r<*-): {rn nlqminhjliojghiljn njqggjlgifikjmgkfl o roqihjjfomohinjhljhk roqhlhmhhllignoojkgn o V V |
  1
/061+ {rn nlqminhjliojghiljn njqggjlgifikjmgkfl o |
  1
<0:;8: {rn {kh {mh {rn {kg n {k {rn |
  1
:;8: {rn {kf {lf {mh {jo o |
  1
):-+:' {rn {lg {jn |
  1
,+->687+r<*-): {rn nlqmkjgolmfmifmkkl niqokjhfnifjhlgihn o o rn o V V |
  1
/061+ {rn nlqmkjgolmfmifmkkl niqomghfnifjhlgihi o |
  1
<0:;8: {rn {lm {jm {rn {jl n {k {rn |
  1
:;8: {rn {kk {jk {lm {jj o |
  1
):-+:' {rn {ll {ji |
  1
:336/,:r<*-): {rn nlqnhlmolnlkhmfohf njqgnofjlgfnogjiol o o o rn oqooioknmoolkhgfnhmj roqonlhmfihmngihhighf o n V V |
  1
/061+ {rn nlqngkmimmfkhgnlm njqgoogmoolhfhnlfn o |
  1
<0:;8: {rn {jh {lh {rn {jg n {k {rn |
  1
:;8: {rn {jf {kf {lh {io o |
  1
):-+:' {rn {kg {in |
  1
:336/,:r<*-): {rn nlqmlogolmfmifmkjh niqokjhfnifjhlgihn o o o rn oqonoioiionhnhhfgink oqonoioiionhnhhfgink o n V V |
  1
/061+ {rn nlqmkjgolmfmifmkkl niqokjhfnifjhlgihn o |
  1
<0:;8: {rn {km {im {rn {il n {k {rn |
  1
:;8: {rn {jk {ik {km {ij o |
  1
):-+:' {rn {kl {ii |
  1
,+->687+r<*-): {rn nlqnhlmolnlkhmfohf njqhfjfjlgfnogjinh o rn mqlhikofiikmifinml:ronl o V V |
  1
/061+ {rn nlqnhlmolnlkhmfohf njqhfjfjlgfnogjinh o |
  1
<0:;8: {rn {ih {kh {rn {ig n {k {rn |
  1
:;8: {rn {if {jf {kh {ho o |
  1
):-+:' {rn {jg {hn |
  1
,+->687+r<*-): {rn nmqfoggolmfmifmkgl niqoiohfnifjhlgijg o n kqknllogfnhhikhjkh:ronk o V V |
  1
/061+ {rn nlqmlogolmfmifmkjh niqoiohfnifjhlgijg o |
  1
<0:;8: {rn {jm {hm {rn {hl n {k {rn |
  1
:;8: {rn {ik {hk {jm {hj o |
  1
):-+:' {rn {jl {hi |
  1
:336/,:r<*-): {rn nlqnnlkolkjoijjgmk njqgnofjlgfnogjiol o o o rn roqooioknmoolkhgfnghmj roqonlhmfihmngihfkgji o n V V |
  1
/061+ {rn nlqnnlkolkjoijjgmk njqhfjfjlgfnogjinh o |
  1
<0:;8: {rn {hh {jh {rn {hg n {k {rn |
  1
:;8: {rn {hf {if {jh {go o |
  1
):-+:' {rn {ig {gn |
  1
,+->687+r<*-): {rn nmqhlilkmnljgonjhg niqofnmonmjogmmhoi o oqfgkgohhjlonmmnnlj roqnhlikgnhhiiifnnfl o V V |
  1
/061+ {rn nmqfoggolmfmifmkgl niqoiohfnifjhlgijg o |
  1
<0:;8: {rn {im {gm {rn {gl n {k {rn |
  1
:;8: {rn {hk {gk {im {gj o |
  1
):-+:' {rn {il {gi |
  1
,+->687+r<*-): {rn nlqnomlkkmfoiolifi njqgoogmoolhfhnlfn o roqihjjfomohinjiigki oqhlhmhhllignonnijl o V V |
  1
/061+ {rn nlqnomlkkmfoiolifi njqgoogmoolhfhnlfn o |
  1
<0:;8: {rn {gh {ih {rn {gg n {k {rn |
  1
:;8: {rn {gf {hf {ih {fo o |
  1
):-+:' {rn {hg {fn |
  1
:336/,:r<*-): {rn nmqhlllolmfmifmkmi niqohlfihnnjnkkffj o o o rn roqonhmlknljihhhnnolg oqoololggklnofnhliglk o n V V |
  1
/061+ {rn nmqhlilkmnljgonjhg niqofnmonmjogmmhoi o |
  1
<0:;8: {rn {hm {fm {rn {fl n {k {rn |
  1
:;8: {rn {gk {fk {hm {fj o |
  1
):-+:' {rn {hl {fi |
  1
:336/,:r<*-): {rn nlqololgmjjfjlkhon njqgfokjlgfnogjjff o o o rn roqoojoiifmijjhnmonjkf oqoojjmfjgoomiohhfjnj o n V V |
  1
/061+ {rn nlqomkgjmfhfjogjml njqggjlgifikjmgkfl o |
  1
<0:;8: {rn {fh {hh {rn {fg n {k {rn |
  1
:;8: {rn {ff {gf {hh {noo o |
  1
):-+:' {rn {gg {non |
  1
,+->687+r<*-): {rn nmqgfikogonjljhkjn niqomhklhlginjongl o roqfgkgohhjlonmmojkh oqnhlikgnhhiiifkkhf o V V |
  1
/061+ {rn nmqhlomikkkfjglmhk niqojihlmfhfkihmgk o |
  1
<0:;8: {rn {gm {nom {rn {nol n {k {rn |
  1
:;8: {rn {fk {nok {gm {noj o |
  1
):-+:' {rn {gl {noi |
  1
,+->687+r<*-): {rn nlqoljfnmnlfjioijn njqgfjjmognhikmhll o oqihjjfomohinjjfogj roqhlhmhhllignonghjf o V V |
  1
/061+ {rn nlqoljfnmnlfjioijn njqgfjjmognhikmhll o |
  1
<0:;8: {rn {noh {gh {rn {nog n {k {rn |
  1
:;8: {rn {nof {ff {gh {nno o |
  1
):-+:' {rn {fg {nnn |
  1
:336/,:r<*-): {rn nmqgflgolmfmifmkfi niqonmiijmifgjjooi o o o n oqonnkfoiiiikihgongm oqoofikngnknkjmfmjllj o n V V |
  1
/061+ {rn nmqgfikogonjljhkjn niqomhklhlginjongl o |
  1
<0:;8: {rn {fm {nnm {rn {nnl n {k {rn |
  1
:;8: {rn {nok {nnk {fm {nnj o |
  1
):-+:' {rn {fl {nni |
  1
,+->687+r<*-): {rn nlqnommnogmgmhjlin njqgmlnigkfjolgijg o roqniilfhknhjigiiiff oqfgiojghhohhhnnif o V V |
  1
/061+ {rn nlqnommnogmgmhjlin njqgmlnigkfjolgijg o |
  1
<0:;8: {rn {nnh {fh {rn {nng n {k {rn |
  1
:;8: {rn {nnf {nof {fh {nmo o |
  1
):-+:' {rn {nog {nmn |
  1
,+->687+r<*-): {rn nmqfoggolmfmifmkgl njqhkmhfnifjhlgiki o o n o V V |
  1
/061+ {rn nmqfoggolmfmifmkgl niqonmiijmifgjjooi o |
  1
<0:;8: {rn {nom {nmm {rn {nml n {k {rn |
  1
:;8: {rn {nnk {nmk {nom {nmj o |
  1
):-+:' {rn {nol {nmi |
  1
:336/,:r<*-): {rn nlqoiiifiihnmmlmnm njqfklkhhnmfmhkmkl o o o n oqoogikghfmjiokijkghm oqonmmjjjkjnilnjjgnj o n V V |
  1
/061+ {rn nlqognkghjjmhgkgfl njqfkjfhlofojlhhfn o |
  1
<0:;8: {rn {nmh {noh {rn {nmg n {k {rn |
  1
:;8: {rn {nmf {nnf {noh {nlo o |
  1
):-+:' {rn {nng {nln |
  1
,+->687+r<*-): {rn nmqgjgkmfkgnhojigk njqglooknifjhlgijh o oqkffffffffffffhkgj roqgiiomjkolhgkkjlmj o V V |
  1
/061+ {rn nmqfoggolmfmifmkgl njqhkmhfnifjhlgiki o |
  1
<0:;8: {rn {nnm {nmh {rn {nlm n {k {rn |
  1
:;8: {rn {nmk {nll {nnm {nlk o |
  1
):-+:' {rn {nnl {nlj |
  1
,+->687+r<*-): {rn nlqoikofnfkgjjgmjh njqfjgmkfmkjjifkkg o roqfgkgohhjlonmniiin roqnhlikgnhhiihnijkg o V V |
  1
/061+ {rn nlqoikofnfkgjjgmjh njqfjgmkfmkjjifkkg o |
  1
<0:;8: {rn {nmm {nnh {rn {nli n {k {rn |
  1
:;8: {rn {nlh {nmf {nnh {nlg o |
  1
):-+:' {rn {nmg {nlf |
  1
:336/,:r<*-): {rn nmqgkjooioghfkhonl njqgmmmfnifjhlgih o o o rn roqoohhjooooooooonkhhf oqonlkmllflhjgijhnfg o n V V |
  1
/061+ {rn nmqgjgkmfkgnhojigk njqglooknifjhlgijh o |
  1
:;8: {rn {nll {nko {nmm {nkn o |
  1
):-+:' {rn {nml {nkm |
  1
:336/,:r<*-): {rn nlqommgolmfmifmjnj njqfljhlhjkmlikgkg o o o n roqonnkfoiiiikihgongm oqoofikngnknkjmfmjllj o n V V |
  1
/061+ {rn nlqomonfgjhoomhkki njqfjojofijgijfffi o |
  1
:;8: {rn {nko {nlh {nmh {nkl o |
  1
):-+:' {rn {nli {nkk |
  1
,+->687+r<*-): {rn nmqgfoigjoljmojnlg njqhnmnhlklgmjnlkn o roqjooooooooooooflh oqgiiomjkolhgklgkjl o V V |
  1
/061+ {rn nmqglnjgmifkngglkm njqgnkjknifjhlgijk o |
  1
):-+:' {rn {nlm {nkj |
  1
,+->687+r<*-): {rn nlqoohgolmfmifmknj njqfljhlhjkmlikgkg o hqlfkkiljiflokfooi:ronk rn o V V |
  1
/061+ {rn nlqoohgolmfmifmknj njqfljhlhjkmlikgkg o |
  1
:336/,:r<*-): {rn nmqfkjolfgohiihnhm njqhkljjjngohikonf o o o rn oqonimkklgjminjhihnj roqoioimkghnnllggimlf o n V V |
  1
/061+ {rn nmqgfoigjoljmojnlg njqhnmnhlklgmjnlkn o |
  1
/061+ {rn nlqoohgolmfmifmknj njqhkljjjngohikonf o |
  0
REGION
  5
F6
100
AcDbEntity
  8
R-DOOR-DETL
  6
CONTINUOUS
100
AcDbModelerGeometry
 70
     1
  1
noi nki n o         
  1
=0;& {rn {n {rn {rn |
  1
3*2/ {rn {rn {m {o |
  1
,7:33 {rn {rn {rn {l {n |
  1
9><: {rn {rn {k {m {rn {j -:):-,:; ;0*=3: 0*+ |
  1
300/ {rn {rn {i {l |
  1
/3>1:r,*-9><: {rn nmqmkjfjnfooonghgn njqfohgmknlhgmikgn o o o rn rn o o o V V V V |
  1
<0:;8: {rn {h {g {rn {f o {k {rn |
  1
<0:;8: {rn {no {i {rn {nn o {k {rn |
  1
<0:;8: {rn {i {nm {rn {nl o {k {rn |
  1
:;8: {rn {nk {nj {i {ni o |
  1
<0:;8: {rn {nh {h {rn {ng o {k {rn |
  1
:;8: {rn {nj {nf {h {mo o |
  1
<0:;8: {rn {g {mn {rn {mm o {k {rn |
  1
:;8: {rn {ml {nk {g {mk o |
  1
):-+:' {rn {f {mj |
  1
):-+:' {rn {f {mi |
  1
,+->687+r<*-): {rn nmqnokifjfolomljmi njqgngnjiiffjhfkkh o roqihjjfomohinjiinom oqhlhmhhllignonmlkm o V V |
  1
<0:;8: {rn {mh {no {rn {mg o {k {rn |
  1
:;8: {rn {nf {mf {no {lo o |
  1
):-+:' {rn {nn {ln |
  1
:336/,:r<*-): {rn nmqomgmhjnifgijijn njqgfokjlgfnogjjff o o o n roqoojoiifmijjhnmonjkf oqoojjmfjgoomiohhfjnj o n V V |
  1
<0:;8: {rn {nm {lm {rn {ll o {k {rn |
  1
:;8: {rn {lk {ml {nm {lj o |
  1
):-+:' {rn {mm {li |
  1
,+->687+r<*-): {rn nmqnokifjfolomljmi niqomghfnifjhlgihi o o rn o V V |
  1
/061+ {rn nmqnokifjfolomljmi njqgngnjiiffjhfkkh o |
  1
/061+ {rn nmqollgokhkfgfnhnj njqgfjjmognhikmhoj o |
  1
<0:;8: {rn {lh {nh {rn {lg o {k {rn |
  1
:;8: {rn {mf {lf {nh {ko o |
  1
):-+:' {rn {ng {kn |
  1
,+->687+r<*-): {rn nmqommhkjjgfglfjgh njqggjlgifikjmgkfl o oqihjjfomohinjhljhk roqhlhmhhllignoojkgn o V V |
  1
/061+ {rn nmqommhkjjgfglfjgh njqggjlgifikjmgkfl o |
  1
<0:;8: {rn {mn {km {rn {kl o {k {rn |
  1
:;8: {rn {kk {lk {mn {kj o |
  1
):-+:' {rn {ll {ki |
  1
,+->687+r<*-): {rn nmqolgifjfolomlkfj niqomghfnifjhlgihi o n o o V V |
  1
/061+ {rn nmqnokifjfolomljmi niqomghfnifjhlgihi o |
  1
<0:;8: {rn {kh {mh {rn {kg o {k {rn |
  1
:;8: {rn {lf {kf {mh {jo o |
  1
):-+:' {rn {mg {jn |
  1
:336/,:r<*-): {rn nmqnnnmfioiofgiggg njqgnofjlgfnogjiol o o o n roqooioknmoolkhgfnhmj roqonlhmfihmngihhighf o n V V |
  1
/061+ {rn nmqnoomlifooflkhi njqgoogmoolhfhnlfn o |
  1
<0:;8: {rn {lm {jm {rn {jl o {k {rn |
  1
:;8: {rn {jk {kk {lm {jj o |
  1
):-+:' {rn {kl {ji |
  1
,+->687+r<*-): {rn nmqolgifjfolomlkfj niqokjhfnifjhlgihn o o rn o V V |
  1
/061+ {rn nmqolgifjfolomlkfj niqomghfnifjhlgihi o |
  1
<0:;8: {rn {jh {lh {rn {jg o {k {rn |
  1
:;8: {rn {kf {jf {lh {io o |
  1
):-+:' {rn {lg {in |
  1
,+->687+r<*-): {rn nmqnnnmfioiofgiggg njqhfjfjlgfnogjinh o n mqlhikofiikmifinml:ronl o V V |
  1
/061+ {rn nmqnnnmfioiofgiggg njqhfjfjlgfnogjinh o |
  1
<0:;8: {rn {km {im {rn {il o {k {rn |
  1
:;8: {rn {ik {jk {km {ij o |
  1
):-+:' {rn {jl {ii |
  1
:336/,:r<*-): {rn nmqojlifjfolomlkgn niqokjhfnifjhlgihn o o o n roqonoioiionhnhhfgink oqonoioiionhnhhfgink o n V V |
  1
/061+ {rn nmqolgifjfolomlkfj niqokjhfnifjhlgihn o |
  1
<0:;8: {rn {ih {kh {rn {ig o {k {rn |
  1
:;8: {rn {jf {if {kh {ho o |
  1
):-+:' {rn {kg {hn |
  1
:336/,:r<*-): {rn nmqnhnofjhkjoionkl njqgnofjlgfnogjiol o o o n oqooioknmoolkhgfnghmj roqonlhmfihmngihfkgji o n V V |
  1
/061+ {rn nmqnhnofjhkjoionkl njqhfjfjlgfnogjinh o |
  1
<0:;8: {rn {jm {hm {rn {hl o {k {rn |
  1
:;8: {rn {hk {ik {jm {hj o |
  1
):-+:' {rn {il {hi |
  1
,+->687+r<*-): {rn nmqlhjifjfolomlkgk niqoiohfnifjhlgijg o rn kqknllogfnhhikhjkh:ronk o V V |
  1
/061+ {rn nmqojlifjfolomlkgn niqoiohfnifjhlgijg o |
  1
<0:;8: {rn {hh {jh {rn {hg o {k {rn |
  1
:;8: {rn {if {hf {jh {go o |
  1
):-+:' {rn {jg {gn |
  1
,+->687+r<*-): {rn nmqngmnjkfojnnmmh njqgoogmoolhfhnlfn o oqihjjfomohinjiigki oqhlhmhhllignonnijl o V V |
  1
/061+ {rn nmqngmnjkfojnnmmh njqgoogmoolhfhnlfn o |
  1
<0:;8: {rn {im {gm {rn {gl o {k {rn |
  1
:;8: {rn {gk {hk {im {gj o |
  1
):-+:' {rn {hl {gi |
  1
,+->687+r<*-): {rn nmqjkgnjhojffnkmhk niqofnmonmjogmmhoi o roqfgkgohhjlonmmnnlj roqnhlikgnhhiiifnnfl o V V |
  1
/061+ {rn nmqlhjifjfolomlkgk niqoiohfnifjhlgijg o |
  1
<0:;8: {rn {gh {ih {rn {gg o {k {rn |
  1
:;8: {rn {hf {gf {ih {fo o |
  1
):-+:' {rn {ig {fn |
  1
:336/,:r<*-): {rn nmqmjknniilingnlhf njqgfokjlgfnogjjff o o o n oqoojoiifmijjhnmonjkf oqoojjmfjgoomiohhfjnj o n V V |
  1
/061+ {rn nmqmjfikimnimohkkl njqggjlgifikjmgkfl o |
  1
<0:;8: {rn {hm {fm {rn {fl o {k {rn |
  1
:;8: {rn {fk {gk {hm {fj o |
  1
):-+:' {rn {gl {fi |
  1
:336/,:r<*-): {rn nmqjjnnfjfolomljk niqohlfihnnjnkkffj o o o n oqonhmlknljihhhnnolg oqoololggklnofnhliglk o n V V |
  1
/061+ {rn nmqjkgnjhojffnkmhk niqofnmonmjogmmhoi o |
  1
<0:;8: {rn {fh {hh {rn {fg o {k {rn |
  1
:;8: {rn {gf {ff {hh {noo o |
  1
):-+:' {rn {hg {non |
  1
,+->687+r<*-): {rn nmqmkgjghojinjjmom njqgfjjmognhikmhll o roqihjjfomohinjjfogj roqhlhmhhllignonghjf o V V |
  1
/061+ {rn nmqmkgjghojinjjmom njqgfjjmognhikmhll o |
  1
<0:;8: {rn {gm {nom {rn {nol o {k {rn |
  1
:;8: {rn {nok {fk {gm {noj o |
  1
):-+:' {rn {fl {noi |
  1
,+->687+r<*-): {rn nmqlggofnngoljgjnj niqomhklhlginjongl o oqfgkgohhjlonmmojkh oqnhlikgnhhiiifkkhf o V V |
  1
/061+ {rn nmqjjkmlkhkinlmifl niqojihlmfhfkihmgk o |
  1
<0:;8: {rn {noh {gh {rn {nog o {k {rn |
  1
:;8: {rn {ff {nof {gh {nno o |
  1
):-+:' {rn {gg {nnn |
  1
,+->687+r<*-): {rn nmqngmmgglihkkoioi njqgmlnigkfjolgijg o oqniilfhknhjigiiiff oqfgiojghhohhhnnif o V V |
  1
/061+ {rn nmqngmmgglihkkoioi njqgmlnigkfjolgijg o |
  1
<0:;8: {rn {fm {nnm {rn {nnl o {k {rn |
  1
:;8: {rn {nnk {nok {fm {nnj o |
  1
):-+:' {rn {nol {nni |
  1
:336/,:r<*-): {rn nmqlfoifjfolomlkh niqonmiijmifgjjooi o o o rn roqonnkfoiiiikihgongm oqoofikngnknkjmfmjllj o n V V |
  1
/061+ {rn nmqlggofnngoljgjnj niqomhklhlginjongl o |
  1
<0:;8: {rn {nnh {fh {rn {nng o {k {rn |
  1
:;8: {rn {nof {nnf {fh {nmo o |
  1
):-+:' {rn {fg {nmn |
  1
:336/,:r<*-): {rn nmqmnhgomjmkkfmhjk njqfklkhhnmfmhkmkl o o o rn roqoogikghfmjiokijkghm oqonmmjjjkjnilnjjgnj o n V V |
  1
/061+ {rn nmqmolonnikmflnohk njqfkjfhlofojlhhfn o |
  1
<0:;8: {rn {nom {nmm {rn {nml o {k {rn |
  1
:;8: {rn {nmk {nnk {nom {nmj o |
  1
):-+:' {rn {nnl {nmi |
  1
,+->687+r<*-): {rn nmqlhjifjfolomlkgk njqhkmhfnifjhlgiki o o n o V V |
  1
/061+ {rn nmqlhjifjfolomlkgk niqonmiijmifgjjooi o |
  1
<0:;8: {rn {nmh {noh {rn {nmg o {k {rn |
  1
:;8: {rn {nnf {nmf {noh {nlo o |
  1
):-+:' {rn {nog {nln |
  1
,+->687+r<*-): {rn nmqmmokohmkhnjhhof njqfjgmkfmkjjifkkg o oqfgkgohhjlonmniiin roqnhlikgnhhiihnijkg o V V |
  1
/061+ {rn nmqmmokohmkhnjhhof njqfjgmkfmkjjifkkg o |
  1
<0:;8: {rn {nnm {nmh {rn {nlm o {k {rn |
  1
:;8: {rn {nll {nmk {nnm {nlk o |
  1
):-+:' {rn {nml {nlj |
  1
,+->687+r<*-): {rn nmqkmioifhnkonomgm njqglooknifjhlgijh o roqkffffffffffffhkgj roqgiiomjkolhgkkjlmj o V V |
  1
/061+ {rn nmqlhjifjfolomlkgk njqhkmhfnifjhlgiki o |
  1
<0:;8: {rn {nmm {nnh {rn {nli o {k {rn |
  1
:;8: {rn {nmf {nlh {nnh {nlg o |
  1
):-+:' {rn {nng {nlf |
  1
:336/,:r<*-): {rn nmqminifjfolomljij njqfljhlhjkmlikgkg o o o rn oqonnkfoiiiikihgongm oqoofikngnknkjmfmjllj o n V V |
  1
/061+ {rn nmqmiklooimjiggjm njqfjojofijgijfffi o |
  1
:;8: {rn {nko {nll {nmm {nkn o |
  1
):-+:' {rn {nlm {nkm |
  1
:336/,:r<*-): {rn nmqklfkflnohhigfjl njqgmmmfnifjhlgih o o o n oqoohhjooooooooonkhhf oqonlkmllflhjgijhnfg o n V V |
  1
/061+ {rn nmqkmioifhnkonomgm njqglooknifjhlgijh o |
  1
:;8: {rn {nlh {nko {nmh {nkl o |
  1
):-+:' {rn {nmg {nkk |
  1
,+->687+r<*-): {rn nmqmhiifjfolomljjn njqfljhlhjkmlikgkg o rhqlfkkiljiflokfooi:ronk rn o V V |
  1
/061+ {rn nmqmhiifjfolomljjn njqfljhlhjkmlikgkg o |
  1
):-+:' {rn {nli {nkj |
  1
,+->687+r<*-): {rn nmqlflgnkniojnogmf njqhnmnhlklgmjnlkn o oqjooooooooooooflh oqgiiomjkolhgklgkjl o V V |
  1
/061+ {rn nmqkjmfnijonjmhimj njqgnkjknifjhlgijk o |
  1
:336/,:r<*-): {rn nmqllfkjflggokgfog njqhkljjjngohikonf o o o n roqonimkklgjminjhihnj roqoioimkghnnllggimlf o n V V |
  1
/061+ {rn nmqmhiifjfolomlklh njqhkljjjngohikonf o |
  1
/061+ {rn nmqlflgnkniojnogmf njqhnmnhlklgmjnlkn o |
  0
LINE
  5
F7
100
AcDbEntity
  8
R-DOOR-DETL
100
AcDbLine
 10
12.457807
 20
18.678532
 30
0.0
 11
12.457807
 21
15.4496
 31
0.0
  0
LINE
  5
F8
100
AcDbEntity
  8
R-DOOR-DETL
100
AcDbLine
 10
12.399293
 20
18.696647
 30
0.0
 11
12.399293
 21
15.4496
 31
0.0
  0
LINE
  5
F9
100
AcDbEntity
  8
R-DOOR-DETL
100
AcDbLine
 10
12.582807
 20
18.741955
 30
0.0
 11
12.582807
 21
15.4496
 31
0.0
  0
LINE
  5
FA
100
AcDbEntity
  8
R-DOOR-DETL
100
AcDbLine
 10
12.520307
 20
18.703224
 30
0.0
 11
12.520307
 21
15.4496
 31
0.0
  0
LINE
  5
FB
100
AcDbEntity
  8
R-DOOR-DETL
100
AcDbLine
 10
12.832807
 20
18.742839
 30
0.0
 11
12.832807
 21
15.4496
 31
0.0
  0
LINE
  5
FC
100
AcDbEntity
  8
R-DOOR-DETL
100
AcDbLine
 10
12.770307
 20
18.731759
 30
0.0
 11
12.770307
 21
15.4496
 31
0.0
  0
LINE
  5
FD
100
AcDbEntity
  8
R-DOOR-DETL
100
AcDbLine
 10
12.707807
 20
18.684884
 30
0.0
 11
12.707807
 21
15.4496
 31
0.0
  0
LINE
  5
FE
100
AcDbEntity
  8
R-DOOR-DETL
100
AcDbLine
 10
12.891291
 20
18.705057
 30
0.0
 11
12.891291
 21
15.4496
 31
0.0
  0
REGION
  5
101
100
AcDbEntity
  8
R-DOOR-DETL
  6
CONTINUOUS
100
AcDbModelerGeometry
 70
     1
  1
noi mi n o          
  1
=0;& {rn {n {rn {rn |
  1
3*2/ {rn {rn {m {o |
  1
,7:33 {rn {rn {rn {l {n |
  1
9><: {rn {rn {k {m {rn {j -:):-,:; ;0*=3: 0*+ |
  1
300/ {rn {rn {i {l |
  1
/3>1:r,*-9><: {rn nmqikmfmhfogolokjg njqlghnoomkfkihofi o o o rn rn o o o V V V V |
  1
<0:;8: {rn {h {g {rn {f o {k {rn |
  1
<0:;8: {rn {no {i {rn {nn o {k {rn |
  1
<0:;8: {rn {i {no {rn {nm o {k {rn |
  1
:;8: {rn {nl {nk {i {nj o |
  1
<0:;8: {rn {g {h {rn {ni o {k {rn |
  1
:;8: {rn {nk {nh {h {ng o |
  1
:;8: {rn {nf {nl {g {mo o |
  1
):-+:' {rn {f {mn |
  1
):-+:' {rn {f {mm |
  1
,+->687+r<*-): {rn nmqfjhfmhfogololff njqlmkioomkfkihofi o o n o V V |
  1
:;8: {rn {nh {nf {no {ml o |
  1
):-+:' {rn {nn {mk |
  1
,+->687+r<*-): {rn nmqfjhfmhfogololff njqkkfioomkfkihofi o rn o o V V |
  1
):-+:' {rn {ni {mj |
  1
,+->687+r<*-): {rn nmqlmhfmhfogolokok njqlmkioomkfkihofi o n o o V V |
  1
/061+ {rn nmqfjhfmhfogololff njqlmkioomkfkihofi o |
  1
/061+ {rn nmqfjhfmhfogololff njqkkfioomkfkihofi o |
  1
,+->687+r<*-): {rn nmqlmhfmhfogolokok njqkkfioomkfkihofi o o rn o V V |
  1
/061+ {rn nmqlmhfmhfogolokok njqkkfioomkfkihofi o |
  1
/061+ {rn nmqlmhfmhfogolokok njqlmkioomkfkihofi o |
  0
ARC
  5
102
100
AcDbEntity
  8
R-DOOR-DETL
  6
CONTINUOUS
 62
     3
100
AcDbCircle
 10
12.577928
 20
15.0746
 30
0.0
 40
0.125
100
AcDbArc
 50
90.0
 51
180.0
  0
LINE
  5
103
100
AcDbEntity
  8
R-DOOR-DETL
  6
CONTINUOUS
 62
     3
100
AcDbLine
 10
12.452928
 20
14.5146
 30
0.0
 11
12.327928
 21
14.5146
 31
0.0
  0
LINE
  5
106
100
AcDbEntity
  8
R-DOOR-DETL
  6
CONTINUOUS
 62
     3
100
AcDbLine
 10
12.327928
 20
14.5146
 30
0.0
 11
12.327928
 21
15.3246
 31
0.0
  0
ARC
  5
10B
100
AcDbEntity
  8
R-DOOR-DETL
  6
CONTINUOUS
 62
     3
100
AcDbCircle
 10
12.707928
 20
15.0746
 30
0.0
 40
0.125
100
AcDbArc
 50
0.0
 51
90.0
  0
LINE
  5
10C
100
AcDbEntity
  8
R-DOOR-DETL
  6
CONTINUOUS
 62
     3
100
AcDbLine
 10
12.957928
 20
15.3246
 30
0.0
 11
12.957928
 21
14.5146
 31
0.0
  0
LINE
  5
10D
100
AcDbEntity
  8
R-DOOR-DETL
  6
CONTINUOUS
 62
     3
100
AcDbLine
 10
12.957928
 20
14.5146
 30
0.0
 11
12.832928
 21
14.5146
 31
0.0
  0
LINE
  5
10E
100
AcDbEntity
  8
R-DOOR-DETL
  6
CONTINUOUS
 62
     3
100
AcDbLine
 10
12.832928
 20
14.5146
 30
0.0
 11
12.832928
 21
15.0746
 31
0.0
  0
LINE
  5
10F
100
AcDbEntity
  8
R-DOOR-DETL
  6
CONTINUOUS
 62
     3
100
AcDbLine
 10
12.452928
 20
15.0746
 30
0.0
 11
12.452928
 21
14.5146
 31
0.0
  0
LINE
  5
110
100
AcDbEntity
  8
R-DOOR-DETL
  6
CONTINUOUS
 62
     3
100
AcDbLine
 10
12.707928
 20
15.1996
 30
0.0
 11
12.577928
 21
15.1996
 31
0.0
  0
LINE
  5
111
100
AcDbEntity
  8
R-DOOR-DETL
100
AcDbLine
 10
12.495855
 20
18.666545
 30
0.0
 11
12.400307
 21
18.696647
 31
0.0
  0
LINE
  5
112
100
AcDbEntity
  8
R-DOOR-DETL
100
AcDbLine
 10
12.885734
 20
18.705057
 30
0.0
 11
12.808355
 21
18.760295
 31
0.0
  0
LINE
  5
113
100
AcDbEntity
  8
R-DOOR-DETL
100
AcDbLine
 10
12.683355
 20
18.666545
 30
0.0
 11
12.558355
 21
18.760295
 31
0.0
  0
LINE
  5
114
100
AcDbEntity
  8
R-DOOR-DETL
100
AcDbLine
 10
12.558355
 20
18.760295
 30
0.0
 11
12.495855
 21
18.666545
 31
0.0
  0
LINE
  5
115
100
AcDbEntity
  8
R-DOOR-DETL
100
AcDbLine
 10
12.808355
 20
18.760295
 30
0.0
 11
12.683355
 21
18.666545
 31
0.0
  0
HATCH
  5
117
100
AcDbEntity
  8
R-DOOR-PATT
  6
CONTINUOUS
 62
     5
100
AcDbHatch
 10
0.0
 20
0.0
 30
0.0
210
0.0
220
0.0
230
1.0
  2
ANSI31
 70
     0
 71
     0
 91
        1
 92
        7
 72
     0
 73
     1
 93
        4
 10
15.66015135584498
 20
26.88167540227952
 10
9.660151355844988
 20
26.88167540227952
 10
9.660151355844988
 20
28.88167540227952
 10
15.66015135584498
 20
28.88167540227952
 97
        0
 75
     0
 76
     1
 52
180.0
 41
2.5
 77
     0
 78
     1
 53
225.0
 43
-301.903012
 44
-12.402601
 45
0.2209708691207961
 46
-0.2209708691207961
 79
     0
 47
0.011976
 98
        1
 10
12.38735
 20
27.690769
  0
LINE
  5
118
100
AcDbEntity
  8
R-DOOR-DETL
 62
     3
100
AcDbLine
 10
9.660151
 20
26.881675
 30
0.0
 11
15.660151
 21
26.881675
 31
0.0
  0
TEXT
  5
119
100
AcDbEntity
  8
4-2
 62
     4
100
AcDbText
 10
2.42791
 20
30.028181
 30
0.0
 40
0.35
  1
CLEAR OPENING LESS 7-3/16"[183mm]
100
AcDbText
  0
MTEXT
  5
11A
102
{ACAD_REACTORS
330
11B
102
}
100
AcDbEntity
  8
R-DOOR-ANNO
  6
CONTINUOUS
100
AcDbMText
 10
15.917146
 20
24.189912
 30
0.0
 40
0.36
 41
0.0
 71
     4
 72
     1
  1
CLADDING
  7
ROMANS
  0
LEADER
  5
11B
100
AcDbEntity
  8
R-DOOR-ANNO
  6
CONTINUOUS
100
AcDbLeader
  3
STANDARD
 73
     0
 74
     0
 75
     1
 40
0.36
 41
2.451429
 76
     3
 10
13.563927
 20
25.496633
 30
0.0
 10
15.307146
 20
24.189912
 30
0.0
 10
15.807146
 20
24.189912
 30
0.0
 77
   256
340
11A
213
-0.0199999999999996
223
0.0
233
0.0
1001
ACAD
1000
DSTYLE
1002
{
1070
   173
1070
     1
1070
     6
1000
_DOTSMALL
1070
    41
1040
0.5
1002
}
  0
LINE
  5
11C
100
AcDbEntity
  8
R-DOOR-DETL
100
AcDbLine
 10
12.410151
 20
20.755842
 30
0.0
 11
12.410151
 21
25.832175
 31
0.0
  0
LINE
  5
11D
100
AcDbEntity
  8
R-DOOR-DETL
100
AcDbLine
 10
12.781135
 20
20.753708
 30
0.0
 11
12.781135
 21
25.832175
 31
0.0
  0
LINE
  5
11E
100
AcDbEntity
  8
R-DOOR-DETL
100
AcDbLine
 10
12.843635
 20
20.7784
 30
0.0
 11
12.843635
 21
25.832175
 31
0.0
  0
LINE
  5
11F
100
AcDbEntity
  8
R-DOOR-DETL
100
AcDbLine
 10
12.468635
 20
20.714093
 30
0.0
 11
12.468635
 21
25.832175
 31
0.0
  0
LINE
  5
120
100
AcDbEntity
  8
R-DOOR-DETL
100
AcDbLine
 10
12.531135
 20
20.725172
 30
0.0
 11
12.531135
 21
25.832175
 31
0.0
  0
LINE
  5
121
100
AcDbEntity
  8
R-DOOR-DETL
100
AcDbLine
 10
12.593635
 20
20.772047
 30
0.0
 11
12.593635
 21
25.832175
 31
0.0
  0
LINE
  5
122
100
AcDbEntity
  8
R-DOOR-DETL
100
AcDbLine
 10
12.718635
 20
20.714977
 30
0.0
 11
12.718635
 21
25.832175
 31
0.0
  0
LINE
  5
123
100
AcDbEntity
  8
R-DOOR-DETL
100
AcDbLine
 10
12.895578
 20
20.762035
 30
0.0
 11
12.895578
 21
25.832175
 31
0.0
  0
LWPOLYLINE
  5
124
100
AcDbEntity
  8
R-DOOR-DETL
100
AcDbPolyline
 90
        6
 70
     0
 43
0.0
 10
12.410151
 20
20.755842
 10
12.493088
 20
20.696637
 10
12.618088
 20
20.790387
 10
12.743088
 20
20.696637
 10
12.805588
 20
20.790387
 10
12.895578
 20
20.762035
  0
LINE
  5
125
100
AcDbEntity
  8
R-DOOR-DETL
100
AcDbLine
 10
12.410151
 20
25.832175
 30
0.0
 11
12.895578
 21
25.832175
 31
0.0
  0
LWPOLYLINE
  5
126
100
AcDbEntity
  8
R-DOOR-DETL
  6
CONTINUOUS
 62
     3
100
AcDbPolyline
 90
       28
 70
     1
 43
0.0
 10
12.122598
 20
25.466578
 10
12.051707
 20
25.389214
 42
-1.0
 10
12.040647
 20
25.399348
 10
12.118139
 20
25.483915
 42
-0.210277
 10
12.129198
 20
25.488781
 10
12.188998
 20
25.488781
 42
-0.210277
 10
12.200057
 20
25.483915
 10
12.277548
 20
25.399348
 42
-1.0
 10
12.266489
 20
25.389214
 10
12.20019
 20
25.461567
 10
12.220913
 20
25.338762
 42
0.41637
 10
12.238309
 20
25.326486
 10
12.282202
 20
25.334225
 42
0.36397
 10
12.294598
 20
25.348998
 10
12.294598
 20
25.54118
 42
-0.767327
 10
12.411716
 20
25.572562
 10
12.470818
 20
25.470193
 42
-1.0
 10
12.443971
 20
25.454693
 10
12.393598
 20
25.541943
 10
12.393598
 20
25.27207
 42
0.36397
 10
12.405993
 20
25.257298
 10
12.572137
 20
25.228002
 42
-1.0
 10
12.566059
 20
25.193534
 10
12.393598
 20
25.223943
 10
12.071598
 20
25.223943
 42
-0.414214
 10
12.056598
 20
25.238943
 10
12.056598
 20
25.255943
 10
12.122598
 20
25.255943
  0
LWPOLYLINE
  5
127
100
AcDbEntity
  8
R-DOOR-DETL
  6
CONTINUOUS
 62
     3
100
AcDbPolyline
 90
       85
 70
     1
 43
0.0
 10
13.105855
 20
26.718932
 10
13.135151
 20
26.769675
 10
13.300151
 20
26.769675
 42
-0.414214
 10
13.360151
 20
26.709675
 10
13.360151
 20
26.029349
 42
0.198912
 10
13.269093
 20
26.041337
 10
13.284622
 20
25.983381
 42
-3.732051
 10
13.242196
 20
25.940955
 10
13.18424
 20
25.956484
 42
0.668179
 10
13.360151
 20
25.821502
 10
13.360151
 20
25.380675
 42
-0.414214
 10
13.345151
 20
25.365675
 10
13.311151
 20
25.365675
 42
-0.414214
 10
13.296151
 20
25.380675
 10
13.296151
 20
25.474238
 42
0.217649
 10
13.290969
 20
25.485578
 10
13.186509
 20
25.576016
 42
0.180309
 10
13.17669
 20
25.579675
 10
13.050151
 20
25.579675
 42
0.414214
 10
13.035151
 20
25.564675
 10
13.035151
 20
25.344675
 42
0.414214
 10
13.050151
 20
25.329675
 10
13.083151
 20
25.329675
 42
1.0
 10
13.083151
 20
25.365675
 10
13.065151
 20
25.365675
 10
13.092788
 20
25.507544
 42
-0.358921
 10
13.107511
 20
25.519675
 10
13.154326
 20
25.519675
 42
-0.180309
 10
13.164144
 20
25.516016
 10
13.230969
 20
25.458162
 42
-0.217649
 10
13.236151
 20
25.446821
 10
13.236151
 20
25.365675
 10
13.201151
 20
25.365675
 10
13.252247
 20
25.277175
 42
0.267949
 10
13.265237
 20
25.269675
 10
13.457151
 20
25.269675
 42
0.414214
 10
13.472151
 20
25.284675
 10
13.472151
 20
26.866675
 42
0.414214
 10
13.457151
 20
26.881675
 10
11.863151
 20
26.881675
 42
0.414214
 10
11.848151
 20
26.866675
 10
11.848151
 20
25.284675
 42
0.414214
 10
11.863151
 20
25.269675
 10
12.055065
 20
25.269675
 42
0.267949
 10
12.068056
 20
25.277175
 10
12.119151
 20
25.365675
 10
12.084151
 20
25.365675
 10
12.084151
 20
25.446821
 42
-0.217649
 10
12.089333
 20
25.458162
 10
12.156158
 20
25.516016
 42
-0.180309
 10
12.165976
 20
25.519675
 10
12.212791
 20
25.519675
 42
-0.358921
 10
12.227515
 20
25.507544
 10
12.255151
 20
25.365675
 10
12.237151
 20
25.365675
 42
1.0
 10
12.237151
 20
25.329675
 10
12.270151
 20
25.329675
 42
0.414214
 10
12.285151
 20
25.344675
 10
12.285151
 20
25.564675
 42
0.414214
 10
12.270151
 20
25.579675
 10
12.143612
 20
25.579675
 42
0.180309
 10
12.133794
 20
25.576016
 10
12.029333
 20
25.485578
 42
0.217649
 10
12.024151
 20
25.474238
 10
12.024151
 20
25.380675
 42
-0.414214
 10
12.009151
 20
25.365675
 10
11.975151
 20
25.365675
 42
-0.414214
 10
11.960151
 20
25.380675
 10
11.960151
 20
25.821502
 42
0.668179
 10
12.136062
 20
25.956484
 10
12.078107
 20
25.940955
 42
-3.732051
 10
12.03568
 20
25.983381
 10
12.05121
 20
26.041337
 42
0.198912
 10
11.960151
 20
26.029349
 10
11.960151
 20
26.709675
 42
-0.414214
 10
12.020151
 20
26.769675
 10
12.185151
 20
26.769675
 10
12.214448
 20
26.718932
 42
0.57735
 10
12.295855
 20
26.718932
 10
12.325151
 20
26.769675
 10
12.650151
 20
26.769675
 10
12.660151
 20
26.779675
 10
12.670151
 20
26.769675
 10
12.995151
 20
26.769675
 10
13.024448
 20
26.718932
 42
0.57735
  0
REGION
  5
128
100
AcDbEntity
  8
R-DOOR-DETL
  6
CONTINUOUS
100
AcDbModelerGeometry
 70
     1
  1
noi ki n o          
  1
=0;& {rn {n {rn {rn |
  1
3*2/ {rn {rn {m {o |
  1
,7:33 {rn {rn {rn {l {n |
  1
9><: {rn {rn {k {m {rn {j 90-(>-; ;0*=3: 0*+ |
  1
300/ {rn {rn {i {l |
  1
/3>1:r,*-9><: {rn nlqkkkjgnjfjjnhjll mjqjgnnoffjgklfhjh o o o n n o o n V V V V |
  1
<0:;8: {rn {h {g {rn {f o {k {rn |
  1
<0:;8: {rn {no {i {rn {nn o {k {rn |
  1
<0:;8: {rn {i {nm {rn {nl n {k {rn |
  1
:;8: {rn {nk {nj {i {ni o |
  1
<0:;8: {rn {nh {h {rn {ng o {k {rn |
  1
:;8: {rn {nj {nf {h {mo o |
  1
<0:;8: {rn {g {mn {rn {mm o {k {rn |
  1
:;8: {rn {nk {ml {g {mk o |
  1
):-+:' {rn {f {mj |
  1
):-+:' {rn {f {mi |
  1
,+->687+r<*-): {rn nlqjmioijklflllmfk mjqmhfihjllmlkmiii o kqkljjikmklliihilj:ronj n o V V |
  1
<0:;8: {rn {mh {no {rn {mg o {k {rn |
  1
:;8: {rn {nf {mf {no {lo o |
  1
):-+:' {rn {nn {ln |
  1
,+->687+r<*-): {rn nlqjmioijklflllmfk miqggnjfhmoonifhmf o rn o o V V |
  1
<0:;8: {rn {nm {mh {rn {lm o {k {rn |
  1
:;8: {rn {ll {ml {nm {lk o |
  1
):-+:' {rn {mm {lj |
  1
:336/,:r<*-): {rn nlqkiioijklflllmfm mjqmhfihjllmlkmiii o o o rn oqoioooooooooooommhk o o n V V |
  1
/061+ {rn nlqjmioijklflllmfk mjqmhfihjllmlkmiii o |
  1
/061+ {rn nlqjmioijklflllmfk miqggnjfhmoonifhmf o |
  1
<0:;8: {rn {mn {nh {rn {li o {k {rn |
  1
:;8: {rn {mf {lh {nh {lg o |
  1
):-+:' {rn {ng {lf |
  1
,+->687+r<*-): {rn nlqkhioijklflllmfh miqggnjfhmoonifhmf o o rn o V V |
  1
/061+ {rn nlqkhioijklflllmfh miqggnjfhmoonifhmf o |
  1
:;8: {rn {ko {ll {mn {kn o |
  1
):-+:' {rn {lm {km |
  1
,+->687+r<*-): {rn nlqmilgfhkgmfnmflg mjqmnfihjllmlkmiik o n o o V V |
  1
/061+ {rn nlqkiioijklflllmfm mjqmnfihjllmlkmiik o |
  1
:;8: {rn {lh {ko {mh {kl o |
  1
):-+:' {rn {mg {kk |
  1
:336/,:r<*-): {rn nlqkiioijklflllmfm mjqmhfihjllmlkmiii o o o rn oqonoooooooooooojnni o o n V V |
  1
/061+ {rn nlqkhioijklflllmfh mjqmhfihjllmlkmiii o |
  1
):-+:' {rn {li {kj |
  1
,+->687+r<*-): {rn nlqmilgfhkgmfnmflg mjqmifihjllmlkmihj o o rn o V V |
  1
/061+ {rn nlqmilgfhkgmfnmflg mjqmnfihjllmlkmiik o |
  1
,+->687+r<*-): {rn nlqkiioijklflllmfm mjqmifihjllmlkmihj o rn o o V V |
  1
/061+ {rn nlqkiioijklflllmfm mjqmifihjllmlkmihj o |
  1
/061+ {rn nlqmilgfhkgmfnmflg mjqmifihjllmlkmihj o |
  0
LWPOLYLINE
  5
129
100
AcDbEntity
  8
R-DOOR-DETL
  6
CONTINUOUS
 62
     3
100
AcDbPolyline
 90
       28
 70
     1
 43
0.0
 10
13.197705
 20
25.466578
 10
13.268596
 20
25.389214
 42
1.0
 10
13.279655
 20
25.399348
 10
13.202164
 20
25.483915
 42
0.210277
 10
13.191105
 20
25.488781
 10
13.131305
 20
25.488781
 42
0.210277
 10
13.120246
 20
25.483915
 10
13.042755
 20
25.399348
 42
1.0
 10
13.053814
 20
25.389214
 10
13.120113
 20
25.461567
 10
13.099389
 20
25.338762
 42
-0.41637
 10
13.081994
 20
25.326486
 10
13.0381
 20
25.334225
 42
-0.36397
 10
13.025705
 20
25.348998
 10
13.025705
 20
25.54118
 42
0.767327
 10
12.908587
 20
25.572562
 10
12.849484
 20
25.470193
 42
1.0
 10
12.876331
 20
25.454693
 10
12.926705
 20
25.541943
 10
12.926705
 20
25.27207
 42
-0.36397
 10
12.91431
 20
25.257298
 10
12.748166
 20
25.228002
 42
1.0
 10
12.754244
 20
25.193534
 10
12.926705
 20
25.223943
 10
13.248705
 20
25.223943
 42
0.414214
 10
13.263705
 20
25.238943
 10
13.263705
 20
25.255943
 10
13.197705
 20
25.255943
  0
TEXT
  5
12A
100
AcDbEntity
  8
4-2
 62
     4
100
AcDbText
 10
2.42791
 20
31.896573
 30
0.0
 40
0.35
  1
AND NON CLAD U-CHANNEL AND RAIL
100
AcDbText
  0
TEXT
  5
12B
100
AcDbEntity
  8
4-2
 62
     4
100
AcDbText
 10
2.42791
 20
30.659913
 30
0.0
 40
0.35
  1
THRESHOLD) REVERSE SADDLE. GLASS WILL BE
100
AcDbText
  0
TEXT
  5
12C
100
AcDbEntity
  8
4-2
 62
     4
100
AcDbText
 10
1.631381
 20
31.243246
 30
0.0
 40
0.35
  1
2. FOR 3/4"[19mm] SADDLE (TO MATCH 1/2"[13mm]
100
AcDbText
  0
TEXT
  5
12D
100
AcDbEntity
  8
4-2
 62
     4
100
AcDbText
 10
1.744476
 20
32.479907
 30
0.0
 40
0.35
  1
1. DIMENSIONS ARE THE SAME FOR CLAD
100
AcDbText
  0
TEXT
  5
12E
100
AcDbEntity
  8
4-2
 62
     4
100
AcDbText
 10
1.744476
 20
33.06324
 30
0.0
 40
0.35
  1
NOTE:
100
AcDbText
  0
LINE
  5
19D
100
AcDbEntity
  8
R-DOOR-ANNO
100
AcDbLine
 10
25.693238
 20
34.200072
 30
0.0
 11
0.0
 21
34.200072
 31
0.0
  0
LINE
  5
19E
100
AcDbEntity
  8
R-DOOR-ANNO
100
AcDbLine
 10
0.0
 20
34.200072
 30
0.0
 11
0.0
 21
0.0
 31
0.0
  0
LINE
  5
19F
100
AcDbEntity
  8
R-DOOR-ANNO
100
AcDbLine
 10
0.0
 20
0.0
 30
0.0
 11
25.693238
 21
0.0
 31
0.0
  0
LINE
  5
1A0
100
AcDbEntity
  8
R-DOOR-ANNO
100
AcDbLine
 10
25.693238
 20
0.0
 30
0.0
 11
25.693238
 21
34.200072
 31
0.0
  0
INSERT
  5
1CF
100
AcDbEntity
  8
0
100
AcDbBlockReference
  2
A$C46F93324
 10
0.070918
 20
0.254077
 30
0.0
  0
LINE
  5
3B6
100
AcDbEntity
  8
EXTRUSION
  6
CONTINUOUS
100
AcDbLine
 10
13.634209
 20
10.096957
 30
0.0
 11
13.634209
 21
15.87141
 31
0.0
  0
LINE
  5
3B7
100
AcDbEntity
  8
EXTRUSION
  6
CONTINUOUS
100
AcDbLine
 10
11.652224
 20
10.096957
 30
0.0
 11
11.652224
 21
15.87141
 31
0.0
  0
LINE
  5
3B9
100
AcDbEntity
  8
EXTRUSION
  6
CONTINUOUS
100
AcDbLine
 10
13.540209
 20
12.116237
 30
0.0
 11
13.540209
 21
13.808253
 31
0.0
  0
LINE
  5
3BA
100
AcDbEntity
  8
EXTRUSION
  6
CONTINUOUS
100
AcDbLine
 10
11.746224
 20
12.116237
 30
0.0
 11
11.746224
 21
13.808253
 31
0.0
  0
ARC
  5
3BB
100
AcDbEntity
  8
EXTRUSION
  6
CONTINUOUS
100
AcDbCircle
 10
13.477709
 20
12.116237
 30
0.0
 40
0.0625
100
AcDbArc
 50
270.0
 51
360.0
  0
ARC
  5
3BC
100
AcDbEntity
  8
EXTRUSION
  6
CONTINUOUS
100
AcDbCircle
 10
13.477709
 20
11.897237
 30
0.0
 40
0.0625
100
AcDbArc
 50
0.0
 51
90.0
  0
LINE
  5
3BD
100
AcDbEntity
  8
EXTRUSION
  6
CONTINUOUS
100
AcDbLine
 10
13.439217
 20
11.090957
 30
0.0
 11
13.525209
 21
11.090957
 31
0.0
  0
ARC
  5
3BE
100
AcDbEntity
  8
EXTRUSION
  6
CONTINUOUS
100
AcDbCircle
 10
13.477709
 20
10.684457
 30
0.0
 40
0.0625
100
AcDbArc
 50
360.0
 51
90.0
  0
LINE
  5
3C2
100
AcDbEntity
  8
EXTRUSION
  6
CONTINUOUS
100
AcDbLine
 10
13.339209
 20
10.160957
 30
0.0
 11
13.510209
 21
10.160957
 31
0.0
  0
LINE
  5
3C3
100
AcDbEntity
  8
EXTRUSION
  6
CONTINUOUS
100
AcDbLine
 10
13.339209
 20
10.066957
 30
0.0
 11
13.604209
 21
10.066957
 31
0.0
  0
LINE
  5
3C4
100
AcDbEntity
  8
EXTRUSION
  6
CONTINUOUS
100
AcDbLine
 10
11.746224
 20
11.105957
 30
0.0
 11
11.746224
 21
11.897237
 31
0.0
  0
LINE
  5
3C5
100
AcDbEntity
  8
EXTRUSION
  6
CONTINUOUS
100
AcDbLine
 10
11.892217
 20
10.840957
 30
0.0
 11
12.643217
 21
10.840957
 31
0.0
  0
LINE
  5
3C6
100
AcDbEntity
  8
EXTRUSION
  6
CONTINUOUS
100
AcDbLine
 10
11.808724
 20
10.746957
 30
0.0
 11
12.643217
 21
10.746957
 31
0.0
  0
LINE
  5
3C7
100
AcDbEntity
  8
EXTRUSION
  6
CONTINUOUS
100
AcDbLine
 10
11.746224
 20
10.190957
 30
0.0
 11
11.746224
 21
10.684457
 31
0.0
  0
ARC
  5
3C8
100
AcDbEntity
  8
EXTRUSION
  6
CONTINUOUS
100
AcDbCircle
 10
11.776224
 20
10.190957
 30
0.0
 40
0.03
100
AcDbArc
 50
180.0
 51
270.0
  0
LINE
  5
3C9
100
AcDbEntity
  8
EXTRUSION
  6
CONTINUOUS
100
AcDbLine
 10
11.947224
 20
10.066957
 30
0.0
 11
11.682224
 21
10.066957
 31
0.0
  0
ARC
  5
3CA
100
AcDbEntity
  8
EXTRUSION
  6
CONTINUOUS
100
AcDbCircle
 10
11.682224
 20
10.096957
 30
0.0
 40
0.03
100
AcDbArc
 50
180.0
 51
270.0
  0
LINE
  5
3CB
100
AcDbEntity
  8
EXTRUSION
  6
CONTINUOUS
100
AcDbLine
 10
11.947224
 20
10.160957
 30
0.0
 11
11.776224
 21
10.160957
 31
0.0
  0
LINE
  5
3CC
100
AcDbEntity
  8
EXTRUSION
  6
CONTINUOUS
100
AcDbLine
 10
11.962224
 20
10.145957
 30
0.0
 11
11.962224
 21
10.081957
 31
0.0
  0
ARC
  5
3CD
100
AcDbEntity
  8
EXTRUSION
  6
CONTINUOUS
100
AcDbCircle
 10
11.947224
 20
10.081957
 30
0.0
 40
0.015
100
AcDbArc
 50
270.0
 51
0.0
  0
ARC
  5
3CE
100
AcDbEntity
  8
EXTRUSION
  6
CONTINUOUS
100
AcDbCircle
 10
11.947224
 20
10.145957
 30
0.0
 40
0.015
100
AcDbArc
 50
0.0
 51
90.0
  0
ARC
  5
3CF
100
AcDbEntity
  8
EXTRUSION
  6
CONTINUOUS
100
AcDbCircle
 10
11.808724
 20
10.684457
 30
0.0
 40
0.0625
100
AcDbArc
 50
90.0
 51
180.0
  0
LINE
  5
3D0
100
AcDbEntity
  8
EXTRUSION
  6
CONTINUOUS
100
AcDbLine
 10
11.847217
 20
11.090957
 30
0.0
 11
11.761224
 21
11.090957
 31
0.0
  0
ARC
  5
3D1
100
AcDbEntity
  8
EXTRUSION
  6
CONTINUOUS
100
AcDbCircle
 10
11.761224
 20
11.105957
 30
0.0
 40
0.015
100
AcDbArc
 50
180.0
 51
270.0
  0
LINE
  5
3D2
100
AcDbEntity
  8
EXTRUSION
  6
CONTINUOUS
100
AcDbLine
 10
11.862217
 20
10.870957
 30
0.0
 11
11.862217
 21
11.075957
 31
0.0
  0
ARC
  5
3D3
100
AcDbEntity
  8
EXTRUSION
  6
CONTINUOUS
100
AcDbCircle
 10
11.892217
 20
10.870957
 30
0.0
 40
0.03
100
AcDbArc
 50
180.0
 51
270.0
  0
ARC
  5
3D4
100
AcDbEntity
  8
EXTRUSION
  6
CONTINUOUS
100
AcDbCircle
 10
11.847217
 20
11.075957
 30
0.0
 40
0.015
100
AcDbArc
 50
0.0
 51
90.0
  0
LINE
  5
3D5
100
AcDbEntity
  8
EXTRUSION
  6
CONTINUOUS
100
AcDbLine
 10
13.324209
 20
10.145957
 30
0.0
 11
13.324209
 21
10.081957
 31
0.0
  0
ARC
  5
3D6
100
AcDbEntity
  8
EXTRUSION
  6
CONTINUOUS
100
AcDbCircle
 10
13.339209
 20
10.145957
 30
0.0
 40
0.015
100
AcDbArc
 50
90.0
 51
180.0
  0
ARC
  5
3D7
100
AcDbEntity
  8
EXTRUSION
  6
CONTINUOUS
100
AcDbCircle
 10
13.339209
 20
10.081957
 30
0.0
 40
0.015
100
AcDbArc
 50
180.0
 51
270.0
  0
LINE
  5
3D8
100
AcDbEntity
  8
EXTRUSION
  6
CONTINUOUS
100
AcDbLine
 10
13.394217
 20
10.840957
 30
0.0
 11
12.643217
 21
10.840957
 31
0.0
  0
LINE
  5
3D9
100
AcDbEntity
  8
EXTRUSION
  6
CONTINUOUS
100
AcDbLine
 10
13.477709
 20
10.746957
 30
0.0
 11
12.643217
 21
10.746957
 31
0.0
  0
LINE
  5
3DA
100
AcDbEntity
  8
EXTRUSION
  6
CONTINUOUS
100
AcDbLine
 10
13.424217
 20
10.870957
 30
0.0
 11
13.424217
 21
11.075957
 31
0.0
  0
ARC
  5
3DB
100
AcDbEntity
  8
EXTRUSION
  6
CONTINUOUS
100
AcDbCircle
 10
13.394217
 20
10.870957
 30
0.0
 40
0.03
100
AcDbArc
 50
270.0
 51
360.0
  0
ARC
  5
3DC
100
AcDbEntity
  8
EXTRUSION
  6
CONTINUOUS
100
AcDbCircle
 10
13.439217
 20
11.075957
 30
0.0
 40
0.015
100
AcDbArc
 50
90.0
 51
180.0
  0
LINE
  5
3DD
100
AcDbEntity
  8
EXTRUSION
  6
CONTINUOUS
100
AcDbLine
 10
11.808724
 20
12.053737
 30
0.0
 11
12.633217
 21
12.053737
 31
0.0
  0
LINE
  5
3DE
100
AcDbEntity
  8
EXTRUSION
  6
CONTINUOUS
100
AcDbLine
 10
11.808724
 20
11.959737
 30
0.0
 11
12.459336
 21
11.959737
 31
0.0
  0
ARC
  5
3DF
100
AcDbEntity
  8
EXTRUSION
  6
CONTINUOUS
100
AcDbCircle
 10
11.808724
 20
12.116237
 30
0.0
 40
0.0625
100
AcDbArc
 50
180.0
 51
270.0
  0
ARC
  5
3E0
100
AcDbEntity
  8
EXTRUSION
  6
CONTINUOUS
100
AcDbCircle
 10
11.808724
 20
11.897237
 30
0.0
 40
0.0625
100
AcDbArc
 50
90.0
 51
180.0
  0
ARC
  5
3E1
100
AcDbEntity
  8
EXTRUSION
  6
CONTINUOUS
100
AcDbCircle
 10
12.827097
 20
11.929737
 30
0.0
 40
0.03
100
AcDbArc
 50
90.0
 51
190.107743
  0
ARC
  5
3E2
100
AcDbEntity
  8
EXTRUSION
  6
CONTINUOUS
100
AcDbCircle
 10
12.643217
 20
11.896957
 30
0.0
 40
0.15678
100
AcDbArc
 50
325.437475
 51
10.107743
  0
LINE
  5
3E3
100
AcDbEntity
  8
EXTRUSION
  6
CONTINUOUS
100
AcDbLine
 10
13.477709
 20
12.053737
 30
0.0
 11
12.653217
 21
12.053737
 31
0.0
  0
LINE
  5
3E4
100
AcDbEntity
  8
0
  6
CONTINUOUS
 62
     3
100
AcDbLine
 10
12.643217
 20
12.043737
 30
0.0
 11
12.653217
 21
12.053737
 31
0.0
  0
ARC
  5
3E5
100
AcDbEntity
  8
EXTRUSION
  6
CONTINUOUS
100
AcDbCircle
 10
12.459336
 20
11.929737
 30
0.0
 40
0.03
100
AcDbArc
 50
349.892257
 51
90.0
  0
ARC
  5
3E6
100
AcDbEntity
  8
EXTRUSION
  6
CONTINUOUS
100
AcDbCircle
 10
12.643217
 20
11.896957
 30
0.0
 40
0.059055
100
AcDbArc
 50
319.488274
 51
220.511726
  0
ARC
  5
3E7
100
AcDbEntity
  8
EXTRUSION
  6
CONTINUOUS
100
AcDbCircle
 10
12.643217
 20
11.896957
 30
0.0
 40
0.059055
100
AcDbArc
 50
319.488274
 51
220.511726
  0
LINE
  5
3E8
100
AcDbEntity
  8
0
  6
CONTINUOUS
 62
     3
100
AcDbLine
 10
12.643217
 20
12.043737
 30
0.0
 11
12.633217
 21
12.053737
 31
0.0
  0
ARC
  5
3E9
100
AcDbEntity
  8
EXTRUSION
  6
CONTINUOUS
100
AcDbCircle
 10
12.554634
 20
11.835933
 30
0.0
 40
0.049213
100
AcDbArc
 50
214.562525
 51
27.417802
  0
ARC
  5
3EA
100
AcDbEntity
  8
EXTRUSION
  6
CONTINUOUS
100
AcDbCircle
 10
12.643217
 20
11.896957
 30
0.0
 40
0.15678
100
AcDbArc
 50
169.892257
 51
214.562525
  0
ARC
  5
3EB
100
AcDbEntity
  8
EXTRUSION
  6
CONTINUOUS
100
AcDbCircle
 10
12.731799
 20
11.835933
 30
0.0
 40
0.049213
100
AcDbArc
 50
152.582198
 51
325.437475
  0
LINE
  5
3EC
100
AcDbEntity
  8
EXTRUSION
  6
CONTINUOUS
100
AcDbLine
 10
13.477709
 20
11.959737
 30
0.0
 11
12.827097
 21
11.959737
 31
0.0
  0
LINE
  5
3ED
100
AcDbEntity
  8
EXTRUSION
  6
CONTINUOUS
100
AcDbLine
 10
13.540209
 20
11.105957
 30
0.0
 11
13.540209
 21
11.897237
 31
0.0
  0
LINE
  5
3EF
100
AcDbEntity
  8
EXTRUSION
  6
CONTINUOUS
100
AcDbLine
 10
13.540209
 20
10.190957
 30
0.0
 11
13.540209
 21
10.684457
 31
0.0
  0
ARC
  5
3F0
100
AcDbEntity
  8
EXTRUSION
  6
CONTINUOUS
100
AcDbCircle
 10
13.604209
 20
10.096957
 30
0.0
 40
0.03
100
AcDbArc
 50
270.0
 51
360.0
  0
ARC
  5
3F1
100
AcDbEntity
  8
EXTRUSION
  6
CONTINUOUS
100
AcDbCircle
 10
13.510209
 20
10.190957
 30
0.0
 40
0.03
100
AcDbArc
 50
270.0
 51
360.0
  0
ARC
  5
3F2
100
AcDbEntity
  8
EXTRUSION
  6
CONTINUOUS
100
AcDbCircle
 10
13.525209
 20
11.105957
 30
0.0
 40
0.015
100
AcDbArc
 50
270.0
 51
360.0
  0
LINE
  5
3F3
100
AcDbEntity
  8
EXTRUSION
  6
CONTINUOUS
100
AcDbLine
 10
13.439217
 20
15.620394
 30
0.0
 11
13.525209
 21
15.620394
 31
0.0
  0
ARC
  5
3F4
100
AcDbEntity
  8
EXTRUSION
  6
CONTINUOUS
100
AcDbCircle
 10
13.465209
 20
15.87641
 30
0.0
 40
0.075
100
AcDbArc
 50
0.0
 51
90.0
  0
ARC
  5
3F5
100
AcDbEntity
  8
EXTRUSION
  6
CONTINUOUS
100
AcDbCircle
 10
13.434209
 20
15.87141
 30
0.0
 40
0.2
100
AcDbArc
 50
360.0
 51
90.0
  0
LINE
  5
3F6
100
AcDbEntity
  8
EXTRUSION
  6
CONTINUOUS
100
AcDbLine
 10
13.439217
 20
15.420394
 30
0.0
 11
13.525209
 21
15.420394
 31
0.0
  0
ARC
  5
3F7
100
AcDbEntity
  8
EXTRUSION
  6
CONTINUOUS
100
AcDbCircle
 10
13.477709
 20
13.808253
 30
0.0
 40
0.0625
100
AcDbArc
 50
360.0
 51
90.0
  0
ARC
  5
3F8
100
AcDbEntity
  8
EXTRUSION
  6
CONTINUOUS
100
AcDbCircle
 10
13.477709
 20
14.027253
 30
0.0
 40
0.0625
100
AcDbArc
 50
270.0
 51
360.0
  0
LINE
  5
403
100
AcDbEntity
  8
EXTRUSION
  6
CONTINUOUS
100
AcDbLine
 10
11.746224
 20
14.027253
 30
0.0
 11
11.746224
 21
15.405394
 31
0.0
  0
LINE
  5
404
100
AcDbEntity
  8
EXTRUSION
  6
CONTINUOUS
 62
     3
100
AcDbLine
 10
12.293666
 20
14.541328
 30
0.0
 11
12.268217
 21
15.270112
 31
0.0
  0
LINE
  5
405
100
AcDbEntity
  8
EXTRUSION
  6
CONTINUOUS
 62
     3
100
AcDbLine
 10
12.992767
 20
14.541328
 30
0.0
 11
13.018217
 21
15.270112
 31
0.0
  0
LINE
  5
40B
100
AcDbEntity
  8
EXTRUSION
  6
CONTINUOUS
 62
     3
100
AcDbLine
 10
13.092504
 20
14.532047
 30
0.0
 11
13.130731
 21
15.626724
 31
0.0
  0
LINE
  5
40C
100
AcDbEntity
  8
EXTRUSION
  6
CONTINUOUS
 62
     3
100
AcDbLine
 10
12.193929
 20
14.532047
 30
0.0
 11
12.155702
 21
15.626724
 31
0.0
  0
LINE
  5
40D
100
AcDbEntity
  8
EXTRUSION
  6
CONTINUOUS
100
AcDbLine
 10
11.808724
 20
13.964753
 30
0.0
 11
12.633217
 21
13.964753
 31
0.0
  0
LINE
  5
40E
100
AcDbEntity
  8
EXTRUSION
  6
CONTINUOUS
100
AcDbLine
 10
11.808724
 20
13.870753
 30
0.0
 11
12.459336
 21
13.870753
 31
0.0
  0
ARC
  5
40F
100
AcDbEntity
  8
EXTRUSION
  6
CONTINUOUS
100
AcDbCircle
 10
11.808724
 20
13.808253
 30
0.0
 40
0.0625
100
AcDbArc
 50
90.0
 51
180.0
  0
ARC
  5
410
100
AcDbEntity
  8
EXTRUSION
  6
CONTINUOUS
100
AcDbCircle
 10
11.808724
 20
14.027253
 30
0.0
 40
0.0625
100
AcDbArc
 50
180.0
 51
270.0
  0
ARC
  5
411
100
AcDbEntity
  8
EXTRUSION
  6
CONTINUOUS
100
AcDbCircle
 10
12.827097
 20
13.840753
 30
0.0
 40
0.03
100
AcDbArc
 50
90.0
 51
190.107743
  0
ARC
  5
412
100
AcDbEntity
  8
EXTRUSION
  6
CONTINUOUS
100
AcDbCircle
 10
12.459336
 20
13.840753
 30
0.0
 40
0.03
100
AcDbArc
 50
349.892257
 51
90.0
  0
ARC
  5
413
100
AcDbEntity
  8
EXTRUSION
  6
CONTINUOUS
100
AcDbCircle
 10
12.643217
 20
13.807973
 30
0.0
 40
0.059055
100
AcDbArc
 50
319.488274
 51
220.511726
  0
ARC
  5
414
100
AcDbEntity
  8
EXTRUSION
  6
CONTINUOUS
100
AcDbCircle
 10
12.643217
 20
13.807973
 30
0.0
 40
0.059055
100
AcDbArc
 50
319.488274
 51
220.511726
  0
ARC
  5
415
100
AcDbEntity
  8
EXTRUSION
  6
CONTINUOUS
100
AcDbCircle
 10
12.643217
 20
13.807973
 30
0.0
 40
0.15678
100
AcDbArc
 50
325.437475
 51
10.107743
  0
ARC
  5
416
100
AcDbEntity
  8
EXTRUSION
  6
CONTINUOUS
100
AcDbCircle
 10
12.554634
 20
13.746949
 30
0.0
 40
0.049213
100
AcDbArc
 50
214.562525
 51
27.417802
  0
ARC
  5
417
100
AcDbEntity
  8
EXTRUSION
  6
CONTINUOUS
100
AcDbCircle
 10
12.643217
 20
13.807973
 30
0.0
 40
0.15678
100
AcDbArc
 50
169.892257
 51
214.562525
  0
ARC
  5
418
100
AcDbEntity
  8
EXTRUSION
  6
CONTINUOUS
100
AcDbCircle
 10
12.731799
 20
13.746949
 30
0.0
 40
0.049213
100
AcDbArc
 50
152.582198
 51
325.437475
  0
LINE
  5
419
100
AcDbEntity
  8
EXTRUSION
  6
CONTINUOUS
100
AcDbLine
 10
12.96758
 20
14.41141
 30
0.0
 11
12.643217
 21
14.41141
 31
0.0
  0
LINE
  5
41A
100
AcDbEntity
  8
EXTRUSION
  6
CONTINUOUS
100
AcDbLine
 10
12.961786
 20
14.51141
 30
0.0
 11
12.324647
 21
14.51141
 31
0.0
  0
LINE
  5
41B
100
AcDbEntity
  8
EXTRUSION
  6
CONTINUOUS
100
AcDbLine
 10
13.477709
 20
13.964753
 30
0.0
 11
12.653217
 21
13.964753
 31
0.0
  0
LINE
  5
41C
100
AcDbEntity
  8
0
  6
CONTINUOUS
 62
     3
100
AcDbLine
 10
12.643217
 20
13.954753
 30
0.0
 11
12.653217
 21
13.964753
 31
0.0
  0
LINE
  5
41D
100
AcDbEntity
  8
0
  6
CONTINUOUS
 62
     3
100
AcDbLine
 10
12.643217
 20
13.954753
 30
0.0
 11
12.633217
 21
13.964753
 31
0.0
  0
LINE
  5
41E
100
AcDbEntity
  8
EXTRUSION
  6
CONTINUOUS
100
AcDbLine
 10
12.318853
 20
14.41141
 30
0.0
 11
12.643217
 21
14.41141
 31
0.0
  0
ARC
  5
41F
100
AcDbEntity
  8
EXTRUSION
  6
CONTINUOUS
 62
     3
100
AcDbCircle
 10
12.318853
 20
14.53641
 30
0.0
 40
0.125
100
AcDbArc
 50
182.0
 51
270.0
  0
ARC
  5
420
100
AcDbEntity
  8
EXTRUSION
  6
CONTINUOUS
 62
     3
100
AcDbCircle
 10
12.324647
 20
14.54241
 30
0.0
 40
0.031
100
AcDbArc
 50
182.0
 51
270.0
  0
LINE
  5
422
100
AcDbEntity
  8
EXTRUSION
  6
CONTINUOUS
100
AcDbLine
 10
13.477709
 20
13.870753
 30
0.0
 11
12.827097
 21
13.870753
 31
0.0
  0
ARC
  5
424
100
AcDbEntity
  8
EXTRUSION
  6
CONTINUOUS
 62
     3
100
AcDbCircle
 10
12.961786
 20
14.54241
 30
0.0
 40
0.031
100
AcDbArc
 50
270.0
 51
358.0
  0
ARC
  5
425
100
AcDbEntity
  8
EXTRUSION
  6
CONTINUOUS
 62
     3
100
AcDbCircle
 10
12.96758
 20
14.53641
 30
0.0
 40
0.125
100
AcDbArc
 50
270.0
 51
358.0
  0
LINE
  5
426
100
AcDbEntity
  8
EXTRUSION
  6
CONTINUOUS
100
AcDbLine
 10
12.139224
 20
15.825069
 30
0.0
 11
12.072398
 21
15.882923
 31
0.0
  0
LINE
  5
428
100
AcDbEntity
  8
EXTRUSION
  6
CONTINUOUS
100
AcDbLine
 10
12.135011
 20
15.669992
 30
0.0
 11
11.95758
 21
15.823604
 31
0.0
  0
LINE
  5
429
100
AcDbEntity
  8
EXTRUSION
  6
CONTINUOUS
100
AcDbLine
 10
11.746224
 20
15.635394
 30
0.0
 11
11.746224
 21
15.87641
 31
0.0
  0
LINE
  5
42A
100
AcDbEntity
  8
EXTRUSION
  6
CONTINUOUS
100
AcDbLine
 10
11.847217
 20
15.620394
 30
0.0
 11
11.761224
 21
15.620394
 31
0.0
  0
LINE
  5
42B
100
AcDbEntity
  8
EXTRUSION
  6
CONTINUOUS
100
AcDbLine
 10
11.847217
 20
15.420394
 30
0.0
 11
11.761224
 21
15.420394
 31
0.0
  0
ARC
  5
42C
100
AcDbEntity
  8
EXTRUSION
  6
CONTINUOUS
100
AcDbCircle
 10
11.761224
 20
15.635394
 30
0.0
 40
0.015
100
AcDbArc
 50
180.0
 51
270.0
  0
ARC
  5
42D
100
AcDbEntity
  8
EXTRUSION
  6
CONTINUOUS
100
AcDbCircle
 10
11.761224
 20
15.405394
 30
0.0
 40
0.015
100
AcDbArc
 50
90.0
 51
180.0
  0
ARC
  5
42E
100
AcDbEntity
  8
EXTRUSION
  6
CONTINUOUS
100
AcDbCircle
 10
11.847217
 20
15.605394
 30
0.0
 40
0.015
100
AcDbArc
 50
360.0
 51
90.0
  0
ARC
  5
42F
100
AcDbEntity
  8
EXTRUSION
  6
CONTINUOUS
100
AcDbCircle
 10
11.847217
 20
15.435394
 30
0.0
 40
0.015
100
AcDbArc
 50
270.0
 51
360.0
  0
LINE
  5
430
100
AcDbEntity
  8
EXTRUSION
  6
CONTINUOUS
100
AcDbLine
 10
11.862217
 20
15.435394
 30
0.0
 11
11.862217
 21
15.605394
 31
0.0
  0
ARC
  5
431
100
AcDbEntity
  8
EXTRUSION
  6
CONTINUOUS
100
AcDbCircle
 10
11.852224
 20
15.87141
 30
0.0
 40
0.2
100
AcDbArc
 50
90.0
 51
180.0
  0
ARC
  5
432
100
AcDbEntity
  8
EXTRUSION
  6
CONTINUOUS
100
AcDbCircle
 10
11.821224
 20
15.87641
 30
0.0
 40
0.075
100
AcDbArc
 50
90.0
 51
180.0
  0
ARC
  5
433
100
AcDbEntity
  8
EXTRUSION
  6
CONTINUOUS
100
AcDbCircle
 10
12.038131
 20
16.05641
 30
0.0
 40
0.015
100
AcDbArc
 50
30.0
 51
90.0
  0
LINE
  5
434
100
AcDbEntity
  8
EXTRUSION
  6
CONTINUOUS
100
AcDbLine
 10
12.067217
 20
15.97541
 30
0.0
 11
12.102217
 21
15.97541
 31
0.0
  0
LINE
  5
435
100
AcDbEntity
  8
EXTRUSION
  6
CONTINUOUS
100
AcDbLine
 10
12.102217
 20
15.97541
 30
0.0
 11
12.051121
 21
16.06391
 31
0.0
  0
ARC
  5
436
100
AcDbEntity
  8
EXTRUSION
  6
CONTINUOUS
100
AcDbCircle
 10
12.082217
 20
15.894264
 30
0.0
 40
0.015
100
AcDbArc
 50
180.0
 51
229.115454
  0
LINE
  5
437
100
AcDbEntity
  8
EXTRUSION
  6
CONTINUOUS
100
AcDbLine
 10
12.067217
 20
15.894264
 30
0.0
 11
12.067217
 21
15.97541
 31
0.0
  0
ARC
  5
438
100
AcDbEntity
  8
EXTRUSION
  6
CONTINUOUS
100
AcDbCircle
 10
11.884717
 20
15.88891
 30
0.0
 40
0.0625
100
AcDbArc
 50
0.0
 51
90.0
  0
LINE
  5
439
100
AcDbEntity
  8
EXTRUSION
  6
CONTINUOUS
100
AcDbLine
 10
11.884717
 20
15.95141
 30
0.0
 11
11.821224
 21
15.95141
 31
0.0
  0
LINE
  5
43A
100
AcDbEntity
  8
EXTRUSION
  6
CONTINUOUS
100
AcDbLine
 10
11.947217
 20
15.846285
 30
0.0
 11
11.947217
 21
15.88891
 31
0.0
  0
ARC
  5
43B
100
AcDbEntity
  8
EXTRUSION
  6
CONTINUOUS
100
AcDbCircle
 10
11.977217
 20
15.846285
 30
0.0
 40
0.03
100
AcDbArc
 50
180.0
 51
229.115454
  0
LINE
  5
43C
100
AcDbEntity
  8
EXTRUSION
  6
CONTINUOUS
100
AcDbLine
 10
12.038131
 20
16.07141
 30
0.0
 11
11.852224
 21
16.07141
 31
0.0
  0
ARC
  5
43D
100
AcDbEntity
  8
EXTRUSION
  6
CONTINUOUS
100
AcDbCircle
 10
13.190694
 20
15.624631
 30
0.0
 40
0.06
100
AcDbArc
 50
130.884546
 51
178.0
  0
ARC
  5
43E
100
AcDbEntity
  8
EXTRUSION
  6
CONTINUOUS
100
AcDbCircle
 10
12.095739
 20
15.624631
 30
0.0
 40
0.06
100
AcDbArc
 50
2.0
 51
49.115454
  0
LINE
  5
43F
100
AcDbEntity
  8
EXTRUSION
  6
CONTINUOUS
 62
     3
100
AcDbLine
 10
12.268217
 20
15.99641
 30
0.0
 11
12.268217
 21
15.270112
 31
0.0
  0
LINE
  5
440
100
AcDbEntity
  8
EXTRUSION
  6
CONTINUOUS
 62
     3
100
AcDbLine
 10
13.018217
 20
15.99641
 30
0.0
 11
13.018217
 21
15.270112
 31
0.0
  0
LINE
  5
448
100
AcDbEntity
  8
EXTRUSION
  6
CONTINUOUS
100
AcDbLine
 10
13.424217
 20
15.435394
 30
0.0
 11
13.424217
 21
15.605394
 31
0.0
  0
ARC
  5
449
100
AcDbEntity
  8
EXTRUSION
  6
CONTINUOUS
100
AcDbCircle
 10
13.439217
 20
15.605394
 30
0.0
 40
0.015
100
AcDbArc
 50
90.0
 51
180.0
  0
ARC
  5
44A
100
AcDbEntity
  8
EXTRUSION
  6
CONTINUOUS
100
AcDbCircle
 10
13.439217
 20
15.435394
 30
0.0
 40
0.015
100
AcDbArc
 50
180.0
 51
270.0
  0
LINE
  5
44C
100
AcDbEntity
  8
EXTRUSION
  6
CONTINUOUS
100
AcDbLine
 10
12.253217
 20
16.01141
 30
0.0
 11
12.220217
 21
16.01141
 31
0.0
  0
LINE
  5
44D
100
AcDbEntity
  8
EXTRUSION
  6
CONTINUOUS
100
AcDbLine
 10
12.220217
 20
15.97541
 30
0.0
 11
12.238217
 21
15.97541
 31
0.0
  0
POINT
  5
44E
100
AcDbEntity
  8
DEFPOINTS
  6
BYBLOCK
 62
     0
100
AcDbPoint
 10
12.238217
 20
15.97541
 30
0.0
  0
ARC
  5
44F
100
AcDbEntity
  8
EXTRUSION
  6
CONTINUOUS
100
AcDbCircle
 10
12.220217
 20
15.99341
 30
0.0
 40
0.018
100
AcDbArc
 50
90.0
 51
270.0
  0
ARC
  5
450
100
AcDbEntity
  8
EXTRUSION
  6
CONTINUOUS
100
AcDbCircle
 10
12.253217
 20
15.99641
 30
0.0
 40
0.015
100
AcDbArc
 50
360.0
 51
90.0
  0
ARC
  5
451
100
AcDbEntity
  8
EXTRUSION
  6
CONTINUOUS
100
AcDbCircle
 10
12.195857
 20
15.83641
 30
0.0
 40
0.015
100
AcDbArc
 50
270.0
 51
348.976544
  0
POINT
  5
452
100
AcDbEntity
  8
DEFPOINTS
  6
BYBLOCK
 62
     0
100
AcDbPoint
 10
12.21058
 20
15.833542
 30
0.0
  0
POINT
  5
453
100
AcDbEntity
  8
DEFPOINTS
  6
BYBLOCK
 62
     0
100
AcDbPoint
 10
12.21058
 20
15.833542
 30
0.0
  0
ARC
  5
454
100
AcDbEntity
  8
EXTRUSION
  6
CONTINUOUS
100
AcDbCircle
 10
12.149042
 20
15.83641
 30
0.0
 40
0.015
100
AcDbArc
 50
229.115454
 51
270.0
  0
LINE
  5
455
100
AcDbEntity
  8
EXTRUSION
  6
CONTINUOUS
100
AcDbLine
 10
12.195857
 20
15.82141
 30
0.0
 11
12.149042
 21
15.82141
 31
0.0
  0
LINE
  5
456
100
AcDbEntity
  8
EXTRUSION
  6
CONTINUOUS
100
AcDbLine
 10
12.238217
 20
15.97541
 30
0.0
 11
12.21058
 21
15.833542
 31
0.0
  0
ARC
  5
457
100
AcDbEntity
  8
EXTRUSION
  6
CONTINUOUS
100
AcDbCircle
 10
13.137391
 20
15.83641
 30
0.0
 40
0.015
100
AcDbArc
 50
270.0
 51
310.884546
  0
LINE
  5
458
100
AcDbEntity
  8
EXTRUSION
  6
CONTINUOUS
100
AcDbLine
 10
13.033217
 20
16.01141
 30
0.0
 11
13.066217
 21
16.01141
 31
0.0
  0
LINE
  5
459
100
AcDbEntity
  8
EXTRUSION
  6
CONTINUOUS
100
AcDbLine
 10
13.066217
 20
15.97541
 30
0.0
 11
13.048217
 21
15.97541
 31
0.0
  0
POINT
  5
45A
100
AcDbEntity
  8
DEFPOINTS
  6
BYBLOCK
 62
     0
100
AcDbPoint
 10
13.048217
 20
15.97541
 30
0.0
  0
ARC
  5
45B
100
AcDbEntity
  8
EXTRUSION
  6
CONTINUOUS
100
AcDbCircle
 10
13.033217
 20
15.99641
 30
0.0
 40
0.015
100
AcDbArc
 50
90.0
 51
180.0
  0
ARC
  5
45C
100
AcDbEntity
  8
EXTRUSION
  6
CONTINUOUS
100
AcDbCircle
 10
13.066217
 20
15.99341
 30
0.0
 40
0.018
100
AcDbArc
 50
270.0
 51
90.0
  0
ARC
  5
45D
100
AcDbEntity
  8
EXTRUSION
  6
CONTINUOUS
100
AcDbCircle
 10
13.090576
 20
15.83641
 30
0.0
 40
0.015
100
AcDbArc
 50
191.023456
 51
270.0
  0
POINT
  5
45E
100
AcDbEntity
  8
DEFPOINTS
  6
BYBLOCK
 62
     0
100
AcDbPoint
 10
13.075853
 20
15.833542
 30
0.0
  0
POINT
  5
45F
100
AcDbEntity
  8
DEFPOINTS
  6
BYBLOCK
 62
     0
100
AcDbPoint
 10
13.075853
 20
15.833542
 30
0.0
  0
LINE
  5
460
100
AcDbEntity
  8
EXTRUSION
  6
CONTINUOUS
100
AcDbLine
 10
13.090576
 20
15.82141
 30
0.0
 11
13.137391
 21
15.82141
 31
0.0
  0
LINE
  5
461
100
AcDbEntity
  8
EXTRUSION
  6
CONTINUOUS
100
AcDbLine
 10
13.048217
 20
15.97541
 30
0.0
 11
13.075853
 21
15.833542
 31
0.0
  0
ARC
  5
462
100
AcDbEntity
  8
EXTRUSION
  6
CONTINUOUS
100
AcDbCircle
 10
13.248302
 20
16.05641
 30
0.0
 40
0.015
100
AcDbArc
 50
90.0
 51
150.0
  0
LINE
  5
463
100
AcDbEntity
  8
EXTRUSION
  6
CONTINUOUS
100
AcDbLine
 10
13.219217
 20
15.97541
 30
0.0
 11
13.184217
 21
15.97541
 31
0.0
  0
LINE
  5
464
100
AcDbEntity
  8
EXTRUSION
  6
CONTINUOUS
100
AcDbLine
 10
13.184217
 20
15.97541
 30
0.0
 11
13.235312
 21
16.06391
 31
0.0
  0
LINE
  5
465
100
AcDbEntity
  8
EXTRUSION
  6
CONTINUOUS
100
AcDbLine
 10
13.151422
 20
15.669992
 30
0.0
 11
13.328853
 21
15.823604
 31
0.0
  0
ARC
  5
466
100
AcDbEntity
  8
EXTRUSION
  6
CONTINUOUS
100
AcDbCircle
 10
13.401717
 20
15.88891
 30
0.0
 40
0.0625
100
AcDbArc
 50
90.0
 51
180.0
  0
LINE
  5
467
100
AcDbEntity
  8
EXTRUSION
  6
CONTINUOUS
100
AcDbLine
 10
13.14721
 20
15.825069
 30
0.0
 11
13.214035
 21
15.882923
 31
0.0
  0
LINE
  5
468
100
AcDbEntity
  8
EXTRUSION
  6
CONTINUOUS
100
AcDbLine
 10
13.339217
 20
15.846285
 30
0.0
 11
13.339217
 21
15.88891
 31
0.0
  0
ARC
  5
469
100
AcDbEntity
  8
EXTRUSION
  6
CONTINUOUS
100
AcDbCircle
 10
13.309217
 20
15.846285
 30
0.0
 40
0.03
100
AcDbArc
 50
310.884546
 51
360.0
  0
ARC
  5
46A
100
AcDbEntity
  8
EXTRUSION
  6
CONTINUOUS
100
AcDbCircle
 10
13.204217
 20
15.894264
 30
0.0
 40
0.015
100
AcDbArc
 50
310.884546
 51
0.0
  0
LINE
  5
46B
100
AcDbEntity
  8
EXTRUSION
  6
CONTINUOUS
100
AcDbLine
 10
13.219217
 20
15.894264
 30
0.0
 11
13.219217
 21
15.97541
 31
0.0
  0
LINE
  5
46C
100
AcDbEntity
  8
EXTRUSION
  6
CONTINUOUS
100
AcDbLine
 10
13.248302
 20
16.07141
 30
0.0
 11
13.434209
 21
16.07141
 31
0.0
  0
LINE
  5
46D
100
AcDbEntity
  8
EXTRUSION
  6
CONTINUOUS
100
AcDbLine
 10
13.401717
 20
15.95141
 30
0.0
 11
13.465209
 21
15.95141
 31
0.0
  0
LINE
  5
46E
100
AcDbEntity
  8
EXTRUSION
  6
CONTINUOUS
100
AcDbLine
 10
13.540209
 20
14.027253
 30
0.0
 11
13.540209
 21
15.405394
 31
0.0
  0
LINE
  5
46F
100
AcDbEntity
  8
EXTRUSION
  6
CONTINUOUS
100
AcDbLine
 10
13.540209
 20
15.635394
 30
0.0
 11
13.540209
 21
15.87641
 31
0.0
  0
ARC
  5
470
100
AcDbEntity
  8
EXTRUSION
  6
CONTINUOUS
100
AcDbCircle
 10
13.525209
 20
15.635394
 30
0.0
 40
0.015
100
AcDbArc
 50
270.0
 51
360.0
  0
ARC
  5
471
100
AcDbEntity
  8
EXTRUSION
  6
CONTINUOUS
100
AcDbCircle
 10
13.525209
 20
15.405394
 30
0.0
 40
0.015
100
AcDbArc
 50
360.0
 51
90.0
  0
ARC
  5
576
100
AcDbEntity
  8
GREEN
  6
CONTINUOUS
100
AcDbCircle
 39
1.8
 10
21.3923
 20
29.776994
 30
0.0
 40
0.016501
100
AcDbArc
 50
252.745313
 51
1.373158
  0
LINE
  5
577
100
AcDbEntity
  8
GREEN
  6
CONTINUOUS
100
AcDbLine
 39
1.8
 10
21.408796
 20
30.379489
 30
0.0
 11
21.408796
 21
29.777389
 31
0.0
  0
ARC
  5
578
100
AcDbEntity
  8
GREEN
  6
CONTINUOUS
100
AcDbCircle
 39
1.8
 10
21.359819
 20
30.395901
 30
0.0
 40
0.051654
100
AcDbArc
 50
341.47451
 51
98.091202
  0
LINE
  5
579
100
AcDbEntity
  8
GREEN
  6
CONTINUOUS
100
AcDbLine
 39
1.8
 10
21.278357
 20
30.469124
 30
0.0
 11
21.352548
 21
30.447041
 31
0.0
  0
ARC
  5
57A
100
AcDbEntity
  8
GREEN
  6
CONTINUOUS
100
AcDbCircle
 39
1.8
 10
21.278357
 20
30.479249
 30
0.0
 40
0.010125
100
AcDbArc
 50
90.0
 51
270.0
  0
LINE
  5
57B
100
AcDbEntity
  8
GREEN
  6
CONTINUOUS
100
AcDbLine
 39
1.8
 10
21.292982
 20
30.489374
 30
0.0
 11
21.278357
 21
30.489374
 31
0.0
  0
LINE
  5
57C
100
AcDbEntity
  8
GREEN
  6
CONTINUOUS
100
AcDbLine
 39
1.8
 10
21.334269
 20
30.50859
 30
0.0
 11
21.292982
 21
30.489374
 31
0.0
  0
LINE
  5
57D
100
AcDbEntity
  8
GREEN
  6
CONTINUOUS
100
AcDbLine
 39
1.8
 10
21.322325
 20
30.51416
 30
0.0
 11
21.334269
 21
30.50859
 31
0.0
  0
ARC
  5
57E
100
AcDbEntity
  8
GREEN
  6
CONTINUOUS
100
AcDbCircle
 39
1.8
 10
21.326129
 20
30.522316
 30
0.0
 40
0.009
100
AcDbArc
 50
90.0
 51
245.0
  0
LINE
  5
57F
100
AcDbEntity
  8
GREEN
  6
CONTINUOUS
100
AcDbLine
 39
1.8
 10
21.439674
 20
30.465761
 30
0.0
 11
21.326129
 21
30.531316
 31
0.0
  0
ARC
  5
580
100
AcDbEntity
  8
GREEN
  6
CONTINUOUS
100
AcDbCircle
 39
1.8
 10
21.42568
 20
30.451767
 30
0.0
 40
0.01979
100
AcDbArc
 50
15.0
 51
45.0
  0
LINE
  5
581
100
AcDbEntity
  8
GREEN
  6
CONTINUOUS
100
AcDbLine
 39
1.8
 10
21.444796
 20
29.676139
 30
0.0
 11
21.444796
 21
30.456889
 31
0.0
  0
LINE
  5
582
100
AcDbEntity
  8
GREEN
  6
CONTINUOUS
100
AcDbLine
 39
1.8
 10
19.691094
 20
30.688639
 30
0.0
 11
21.444796
 21
29.676139
 31
0.0
  0
LINE
  5
583
100
AcDbEntity
  8
GREEN
  6
CONTINUOUS
100
AcDbLine
 39
1.8
 10
21.387405
 20
29.761236
 30
0.0
 11
19.793485
 21
30.681486
 31
0.0
  0
LINE
  5
584
100
AcDbEntity
  8
GREEN
  6
CONTINUOUS
100
AcDbLine
 39
1.8
 10
19.691094
 20
31.469389
 30
0.0
 11
19.691094
 21
30.688639
 31
0.0
  0
ARC
  5
585
100
AcDbEntity
  8
GREEN
  6
CONTINUOUS
100
AcDbCircle
 39
1.8
 10
19.697844
 20
31.469389
 30
0.0
 40
0.00675
100
AcDbArc
 50
90.0
 51
180.0
  0
LINE
  5
586
100
AcDbEntity
  8
GREEN
  6
CONTINUOUS
100
AcDbLine
 39
1.8
 10
19.810359
 20
31.409554
 30
0.0
 11
19.697844
 21
31.476139
 31
0.0
  0
ARC
  5
587
100
AcDbEntity
  8
GREEN
  6
CONTINUOUS
100
AcDbCircle
 39
1.8
 10
19.805859
 20
31.40176
 30
0.0
 40
0.009
100
AcDbArc
 50
265.0
 51
60.0
  0
LINE
  5
588
100
AcDbEntity
  8
GREEN
  6
CONTINUOUS
100
AcDbLine
 39
1.8
 10
19.791946
 20
31.393943
 30
0.0
 11
19.805074
 21
31.392794
 31
0.0
  0
LINE
  5
589
100
AcDbEntity
  8
GREEN
  6
CONTINUOUS
100
AcDbLine
 39
1.8
 10
19.783278
 20
31.375792
 30
0.0
 11
19.791946
 21
31.393943
 31
0.0
  0
LINE
  5
58A
100
AcDbEntity
  8
GREEN
  6
CONTINUOUS
100
AcDbLine
 39
1.8
 10
19.795944
 20
31.351709
 30
0.0
 11
19.783278
 21
31.375792
 31
0.0
  0
ARC
  5
58B
100
AcDbEntity
  8
GREEN
  6
CONTINUOUS
100
AcDbCircle
 39
1.8
 10
19.790881
 20
31.34294
 30
0.0
 40
0.010125
100
AcDbArc
 50
240.0
 51
60.0
  0
LINE
  5
58C
100
AcDbEntity
  8
GREEN
  6
CONTINUOUS
100
AcDbLine
 39
1.8
 10
19.740344
 20
31.376303
 30
0.0
 11
19.785819
 21
31.334172
 31
0.0
  0
ARC
  5
58D
100
AcDbEntity
  8
GREEN
  6
CONTINUOUS
100
AcDbCircle
 39
1.8
 10
19.733715
 20
31.374843
 30
0.0
 40
0.006787
100
AcDbArc
 50
12.423788
 51
197.604591
  0
LINE
  5
58E
100
AcDbEntity
  8
GREEN
  6
CONTINUOUS
100
AcDbLine
 39
1.8
 10
19.727094
 20
30.789889
 30
0.0
 11
19.727246
 21
31.37279
 31
0.0
  0
ARC
  5
58F
100
AcDbEntity
  8
GREEN
  6
CONTINUOUS
100
AcDbCircle
 39
1.8
 10
19.866844
 20
30.800945
 30
0.0
 40
0.140186
100
AcDbArc
 50
184.523413
 51
238.446514
  0
LINE
  5
590
100
AcDbEntity
  8
2
  6
CONTINUOUS
 62
     4
100
AcDbLine
 10
20.805052
 20
30.87646
 30
0.0
 11
21.194764
 21
30.65146
 31
0.0
  0
LINE
  5
591
100
AcDbEntity
  8
2
  6
CONTINUOUS
 62
     4
100
AcDbLine
 10
20.805052
 20
30.86746
 30
0.0
 11
21.194764
 21
30.64246
 31
0.0
  0
LINE
  5
592
100
AcDbEntity
  8
2
  6
CONTINUOUS
 62
     4
100
AcDbLine
 10
21.387601
 20
31.212794
 30
0.0
 11
20.805052
 21
30.87646
 31
0.0
  0
MTEXT
  5
593
100
AcDbEntity
  8
2
  6
CONTINUOUS
 62
     9
100
AcDbMText
 10
19.651664
 20
28.763291
 30
0.0
 40
0.6939
 41
4.9041
 71
     1
 72
     5
  1
\fArial|b1|i0|c0|p34;\C7;C L A D
  7
ROMANS
  0
LWPOLYLINE
  5
594
102
{ACAD_REACTORS
330
5D0
102
}
100
AcDbEntity
  8
1
  6
CONTINUOUS
 62
     5
100
AcDbPolyline
 90
        2
 70
     0
 43
0.0225
 10
21.588903
 20
33.140275
 42
70374.114908
 10
21.589022
 20
33.14026
 42
70374.114908
  0
HATCH
  5
595
100
AcDbEntity
  8
1
  6
CONTINUOUS
 62
     5
100
AcDbHatch
 10
0.0
 20
0.0
 30
0.0
210
0.0
220
0.0
230
1.0
  2
SOLID
 70
     1
 71
     0
 91
        7
 92
        7
 72
     1
 73
     1
 93
        4
 10
21.60585327561915
 20
33.13776209842357
 42
0.003817909443379
 10
21.57382353409358
 20
33.1417697185317
 42
0.0
 10
19.71910412683467
 20
32.07094696947955
 42
0.0
 10
19.73858969841982
 20
32.05969696947954
 42
0.0
 97
        0
 92
        7
 72
     0
 73
     1
 93
        4
 10
19.73858969841982
 20
32.05969696947954
 10
19.71910412683467
 20
32.07094696947955
 10
19.71910412683467
 20
31.48841369202214
 10
19.73858969841982
 20
31.49966369202215
 97
        0
 92
        7
 72
     0
 73
     1
 93
        4
 10
20.05673456674889
 20
32.0031266121006
 10
20.05673456674889
 20
31.98062661210059
 10
21.84161292394863
 20
30.96137661210059
 10
21.84161292394863
 20
30.97262661210059
 97
        0
 92
        7
 72
     1
 73
     1
 93
        4
 10
23.30306121950282
 20
31.79389417894554
 42
0.002332807343841
 10
23.29596353198984
 20
31.81229632714928
 42
0.0
 10
21.84161292394863
 20
30.97262661210059
 42
0.0
 10
21.84161292394863
 20
30.9501266121006
 42
0.0
 97
        0
 92
        7
 72
     1
 73
     1
 93
        4
 10
23.41669873298172
 20
31.36296690169346
 42
0.0024685623280776
 10
23.41343218773615
 20
31.38358096091661
 42
0.0
 10
22.16154458239882
 20
30.66080331497995
 42
0.0
 10
22.18103015398398
 20
30.64955331497995
 42
0.0
 97
        0
 92
        7
 72
     1
 73
     1
 93
        8
 10
22.18103015398398
 20
30.64955331497995
 42
0.0
 10
22.16154458239882
 20
30.66080331497995
 42
0.0
 10
22.16154458239882
 20
29.82918600088213
 42
-0.5773502691896262
 10
22.14129458239883
 20
29.81749465793104
 42
0.0
 10
21.99007155244951
 20
29.90480331497995
 42
0.0
 10
21.99007155244951
 20
29.88230331497995
 42
0.0
 10
22.13715515398397
 20
29.79738455804064
 42
0.577350269189633
 10
22.18103015398398
 20
29.82271580110133
 42
0.0
 97
        0
 92
        7
 72
     0
 73
     1
 93
        3
 10
20.05673456674891
 20
31.98062661210058
 10
21.84161292394863
 20
30.9501266121006
 10
21.84161292394863
 20
30.96137661210059
 97
        0
 75
     0
 76
     1
 47
0.006507
 98
        7
 10
19.761165
 20
32.086338
 10
19.728486
 20
32.033805
 10
20.069487
 20
31.988372
 10
21.976246
 20
31.043062
 10
22.348417
 20
30.76194
 10
22.172588
 20
30.595024
 10
21.785765
 20
30.990351
  0
HATCH
  5
596
100
AcDbEntity
  8
1
  6
CONTINUOUS
 62
     5
100
AcDbHatch
 10
0.0
 20
0.0
 30
0.0
210
0.0
220
0.0
230
1.0
  2
SOLID
 70
     1
 71
     0
 91
        7
 92
        7
 72
     1
 73
     1
 93
        4
 10
21.60585327561915
 20
33.13776209842357
 42
0.003817909443379
 10
21.57382353409358
 20
33.1417697185317
 42
0.0
 10
19.71910412683467
 20
32.07094696947955
 42
0.0
 10
19.73858969841982
 20
32.05969696947954
 42
0.0
 97
        0
 92
        7
 72
     0
 73
     1
 93
        4
 10
19.73858969841982
 20
32.05969696947954
 10
19.71910412683467
 20
32.07094696947955
 10
19.71910412683467
 20
31.48841369202214
 10
19.73858969841982
 20
31.49966369202214
 97
        0
 92
        7
 72
     0
 73
     1
 93
        4
 10
20.05673456674889
 20
32.0031266121006
 10
20.05673456674889
 20
31.98062661210059
 10
21.84161292394863
 20
30.96137661210059
 10
21.84161292394863
 20
30.97262661210059
 97
        0
 92
        7
 72
     1
 73
     1
 93
        4
 10
23.30306121950282
 20
31.79389417894554
 42
0.002332807343841
 10
23.29596353198984
 20
31.81229632714928
 42
0.0
 10
21.84161292394863
 20
30.97262661210059
 42
0.0
 10
21.84161292394863
 20
30.9501266121006
 42
0.0
 97
        0
 92
        7
 72
     1
 73
     1
 93
        4
 10
23.41669873298172
 20
31.36296690169346
 42
0.0024685623280776
 10
23.41343218773615
 20
31.38358096091661
 42
0.0
 10
22.16154458239882
 20
30.66080331497994
 42
0.0
 10
22.18103015398398
 20
30.64955331497995
 42
0.0
 97
        0
 92
        7
 72
     1
 73
     1
 93
        8
 10
22.18103015398398
 20
30.64955331497995
 42
0.0
 10
22.16154458239882
 20
30.66080331497995
 42
0.0
 10
22.16154458239882
 20
29.82918600088213
 42
-0.5773502691896262
 10
22.14129458239883
 20
29.81749465793104
 42
0.0
 10
21.99007155244951
 20
29.90480331497995
 42
0.0
 10
21.99007155244951
 20
29.88230331497995
 42
0.0
 10
22.13715515398397
 20
29.79738455804064
 42
0.577350269189633
 10
22.18103015398398
 20
29.82271580110133
 42
0.0
 97
        0
 92
        7
 72
     0
 73
     1
 93
        3
 10
20.05673456674891
 20
31.98062661210058
 10
21.84161292394863
 20
30.9501266121006
 10
21.84161292394863
 20
30.96137661210059
 97
        0
 75
     0
 76
     1
 47
0.006507
 98
        7
 10
19.761165
 20
32.086338
 10
19.728486
 20
32.033805
 10
20.069487
 20
31.988372
 10
21.976246
 20
31.043062
 10
22.348417
 20
30.76194
 10
22.172588
 20
30.595024
 10
21.785765
 20
30.990351
  0
HATCH
  5
597
100
AcDbEntity
  8
2
  6
CONTINUOUS
 62
     9
100
AcDbHatch
 10
0.0
 20
0.0
 30
0.0
210
0.0
220
0.0
230
1.0
  2
SOLID
 70
     1
 71
     0
 91
        2
 92
       23
 72
     1
 73
     1
 93
       20
 10
21.2801630089534
 20
30.51615749729586
 42
0.0
 10
21.27464586610005
 20
30.50660152556124
 42
0.6681786379192962
 10
21.28730036615003
 20
30.49010986001549
 42
0.0
 10
21.31499690818608
 20
30.49753112608718
 42
0.6681786379192695
 10
21.31716753678016
 20
30.51401868715784
 42
0.0
 10
21.31015355059502
 20
30.51806821396993
 42
-0.6681786379192408
 10
21.31123886489207
 20
30.52631199450527
 42
0.0
 10
21.32316020851569
 20
30.52950630890191
 42
0.6681786379193185
 10
21.32370286566422
 20
30.53362819916958
 42
0.0
 10
20.97740415644766
 20
30.73356385215577
 42
0.0
 10
19.81582913210846
 20
31.40419950514196
 42
0.668178637919208
 10
19.8125307989993
 20
31.40166860513197
 42
0.0
 10
19.81572511339595
 20
31.38974726150832
 42
-0.6681786379193225
 10
19.80912844717765
 20
31.38468546148834
 42
0.0
 10
19.80211446099251
 20
31.38873498830042
 42
0.6681786379193126
 10
19.78892112855591
 20
31.37861138826044
 42
0.0
 10
19.7963423946276
 20
31.35091484622439
 42
0.6681786379193007
 10
19.81695184596594
 20
31.34820156048179
 42
0.0
 10
19.82246898881928
 20
31.3577575322164
 42
0.0
 10
20.00221259161682
 20
31.25398251475612
 42
0.0
 97
        0
 92
        7
 72
     1
 73
     1
 93
       37
 10
19.69784449854297
 20
31.47613943990505
 42
0.4142135623731299
 10
19.69109449854296
 20
31.46938943990507
 42
0.0
 10
19.69109449854296
 20
30.68863943990506
 42
0.0
 10
21.44479594120645
 20
29.67613943990507
 42
0.0
 10
21.44479594120646
 20
30.45688943990506
 42
0.1316524975873667
 10
21.439673912652
 20
30.46576105359918
 42
0.0
 10
21.32612880480821
 20
30.53131635217795
 42
0.0376464264871547
 10
21.32477928215951
 20
30.53121459855691
 42
-0.2823673447488831
 10
21.32316020851569
 20
30.52950630890191
 42
0.0
 10
21.31965311308943
 20
30.52856658551467
 42
0.5149511874561723
 10
21.32232524045255
 20
30.51415958209462
 42
0.0
 10
21.33426930083475
 20
30.50858997526893
 42
0.0
 10
21.32077035827546
 20
30.50230728048145
 42
-0.2180320882791709
 10
21.31499690818608
 20
30.49753112608718
 42
0.0
 10
21.30441785219022
 20
30.49469647657641
 42
0.0
 10
21.29298201409965
 20
30.48937399446001
 42
0.0
 10
21.27835701409964
 20
30.48937399446001
 42
1.0
 10
21.27835701409964
 20
30.46912399446001
 42
0.0
 10
21.35254845361088
 20
30.44704086133451
 42
-0.5578319223640622
 10
21.40879594120645
 20
30.37948943990507
 42
0.0
 10
21.40879594120645
 20
29.77738943990506
 42
-0.5129809895031772
 10
21.38740509770733
 20
29.76123558307536
 42
0.0
 10
19.79348534204208
 20
30.68148558307536
 42
-0.2397239142270584
 10
19.72709449854296
 20
30.78988943990506
 42
0.0
 10
19.72724571081577
 20
31.37279006162077
 42
-1.046264757040728
 10
19.74034357190055
 20
31.37630309973046
 42
0.0
 10
19.78581893722737
 20
31.3341718441161
 42
0.6309633877406034
 10
19.80088173465053
 20
31.34452454716595
 42
-0.1798205534880095
 10
19.7963423946276
 20
31.35091484622439
 42
0.0
 10
19.79632252955651
 20
31.35098898367902
 42
0.0
 10
19.78327831569701
 20
31.37579192064217
 42
0.0
 10
19.7919455866309
 20
31.39394257938342
 42
0.0
 10
19.80507424975907
 20
31.39279397019245
 42
0.293926452988122
 10
19.81369323143669
 20
31.39733034821529
 42
0.0
 10
19.8125307989993
 20
31.40166860513197
 42
-0.4565659268922137
 10
19.81443613598114
 20
31.40448493054286
 42
0.1814616707363846
 10
19.81052543528651
 20
31.40945524900473
 42
0.0
 97
        0
 75
     0
 76
     1
 47
0.011788
 98
        2
 10
20.031861
 20
31.253913
 10
19.761143
 20
31.413047
  0
LINE
  5
598
100
AcDbEntity
  8
1
  6
CONTINUOUS
100
AcDbLine
 39
0.09
 10
20.056735
 20
32.003127
 30
0.0
 11
21.841613
 21
30.972627
 31
0.0
  0
LINE
  5
599
100
AcDbEntity
  8
1
  6
CONTINUOUS
100
AcDbLine
 39
0.09
 10
20.056735
 20
31.980627
 30
0.0
 11
21.841613
 21
30.950127
 31
0.0
  0
LINE
  5
59A
100
AcDbEntity
  8
1
  6
CONTINUOUS
100
AcDbLine
 10
20.056735
 20
31.980627
 30
0.0
 11
21.841613
 21
30.961377
 31
0.0
  0
LINE
  5
59B
100
AcDbEntity
  8
1
  6
CONTINUOUS
 62
     5
100
AcDbLine
 39
0.09
 10
20.056735
 20
32.003127
 30
0.0
 11
21.841613
 21
30.972627
 31
0.0
  0
LINE
  5
59C
100
AcDbEntity
  8
1
  6
CONTINUOUS
 62
     5
100
AcDbLine
 39
0.09
 10
20.056735
 20
31.980627
 30
0.0
 11
21.841613
 21
30.950127
 31
0.0
  0
LINE
  5
59D
100
AcDbEntity
  8
1
  6
CONTINUOUS
 62
     5
100
AcDbLine
 10
19.719104
 20
32.070947
 30
0.0
 11
21.573824
 21
33.14177
 31
0.0
  0
LINE
  5
59E
100
AcDbEntity
  8
1
  6
CONTINUOUS
100
AcDbLine
 10
19.73859
 20
32.059697
 30
0.0
 11
21.605853
 21
33.137762
 31
0.0
  0
LINE
  5
59F
100
AcDbEntity
  8
1
  6
CONTINUOUS
 62
     5
100
AcDbLine
 10
19.719104
 20
32.070947
 30
0.0
 11
21.573824
 21
33.14177
 31
0.0
  0
LINE
  5
5A0
100
AcDbEntity
  8
1
  6
CONTINUOUS
 62
     5
100
AcDbLine
 10
19.73859
 20
32.059697
 30
0.0
 11
21.605853
 21
33.137762
 31
0.0
  0
LINE
  5
5A1
100
AcDbEntity
  8
1
  6
CONTINUOUS
 62
     5
100
AcDbLine
 10
20.058985
 20
31.999229
 30
0.0
 11
21.913639
 21
33.070015
 31
0.0
  0
HATCH
  5
5A2
100
AcDbEntity
  8
2
  6
CONTINUOUS
 62
     9
100
AcDbHatch
 10
0.0
 20
0.0
 30
0.0
210
0.0
220
0.0
230
1.0
  2
ANSI31
 70
     0
 71
     0
 91
        1
 92
        7
 72
     1
 73
     1
 93
        8
 10
21.91605997137882
 20
33.07297132827889
 42
0.0
 10
21.91296379307064
 20
33.07118374889921
 42
0.0
 10
21.91318879307065
 20
33.07079403746751
 42
0.0
 10
21.91341379307064
 20
33.07040432603581
 42
0.0
 10
21.91363879307065
 20
33.0700146146041
 42
0.0
 10
20.0612345667489
 20
32.00052853588924
 42
0.0
 10
21.84161292394863
 20
30.97262661210059
 42
0.0
 10
23.2964342683918
 20
31.81256810693767
 42
0.2330962772361932
 97
        0
 75
     0
 76
     1
 52
0.0
 41
0.05
 77
     0
 78
     1
 53
45.0
 43
-2.869635
 44
-2.287775
 45
-0.0044194173824159
 46
0.0044194173824159
 79
     0
 47
0.017346
 98
        1
 10
21.723074
 20
32.133707
  0
HATCH
  5
5A3
100
AcDbEntity
  8
2
  6
CONTINUOUS
 62
     9
100
AcDbHatch
 10
0.0
 20
0.0
 30
0.0
210
0.0
220
0.0
230
1.0
  2
ANSI31
 70
     0
 71
     0
 91
        1
 92
        7
 72
     1
 73
     1
 93
        7
 10
20.05673456674889
 20
31.98062661210059
 42
0.0
 10
20.05673456674889
 20
32.0031266121006
 42
0.0
 10
21.91185952947253
 20
33.07418350870948
 42
0.0369683020279065
 10
21.60632401202134
 20
33.13803387821209
 42
0.0
 10
19.73858969841982
 20
32.05969696947954
 42
0.0
 10
19.73858969841982
 20
31.49966369202214
 42
0.0
 10
20.31418823965064
 20
31.83198566474692
 42
0.0
 97
        0
 75
     0
 76
     1
 52
0.0
 41
0.05
 77
     0
 78
     1
 53
45.0
 43
-2.869635
 44
-2.287775
 45
-0.0044194173824159
 46
0.0044194173824159
 79
     0
 47
0.022773
 98
        1
 10
20.009169
 20
31.932666
  0
LINE
  5
5A4
100
AcDbEntity
  8
1
  6
CONTINUOUS
100
AcDbLine
 10
20.056735
 20
31.980627
 30
0.0
 11
21.841613
 21
30.961377
 31
0.0
  0
LWPOLYLINE
  5
5A5
100
AcDbEntity
  8
1
100
AcDbPolyline
 90
        2
 70
     0
 43
0.01
 10
20.056735
 20
32.003127
 10
21.911389
 20
33.073912
  0
LINE
  5
5A6
100
AcDbEntity
  8
0
 62
     3
100
AcDbLine
 10
19.815829
 20
31.4042
 30
0.0
 11
20.977404
 21
30.733564
 31
0.0
  0
LINE
  5
5A7
100
AcDbEntity
  8
2
  6
CONTINUOUS
 62
     4
100
AcDbLine
 10
20.997889
 20
31.437794
 30
0.0
 11
20.415341
 21
31.10146
 31
0.0
  0
LINE
  5
5A8
100
AcDbEntity
  8
2
  6
CONTINUOUS
 62
     4
100
AcDbLine
 10
21.005684
 20
31.433294
 30
0.0
 11
20.415341
 21
31.09246
 31
0.0
  0
LINE
  5
5A9
100
AcDbEntity
  8
0
 62
     3
100
AcDbLine
 10
21.280163
 20
30.516157
 30
0.0
 11
20.002213
 21
31.253983
 31
0.0
  0
LINE
  5
5AA
100
AcDbEntity
  8
1
  6
CONTINUOUS
 62
     5
100
AcDbLine
 39
0.09
 10
20.056735
 20
32.003127
 30
0.0
 11
20.056735
 21
31.980627
 31
0.0
  0
LINE
  5
5AB
100
AcDbEntity
  8
1
  6
CONTINUOUS
 62
     5
100
AcDbLine
 39
0.09
 10
20.056735
 20
32.003127
 30
0.0
 11
20.056735
 21
31.980627
 31
0.0
  0
LINE
  5
5AC
100
AcDbEntity
  8
GREEN
100
AcDbLine
 10
19.813938
 20
31.405725
 30
0.0
 11
20.433686
 21
31.763537
 31
0.0
  0
LINE
  5
5AD
100
AcDbEntity
  8
GREEN
100
AcDbLine
 10
19.697844
 20
31.476139
 30
0.0
 11
20.314659
 21
31.832257
 31
0.0
  0
LINE
  5
5AE
100
AcDbEntity
  8
0
 62
     3
100
AcDbLine
 10
20.002213
 20
31.253983
 30
0.0
 11
19.822469
 21
31.357758
 31
0.0
  0
LINE
  5
5AF
100
AcDbEntity
  8
1
  6
CONTINUOUS
 62
     5
100
AcDbLine
 10
19.719104
 20
31.488414
 30
0.0
 11
19.719104
 21
32.070947
 31
0.0
  0
LINE
  5
5B0
100
AcDbEntity
  8
1
  6
CONTINUOUS
 62
     5
100
AcDbLine
 10
19.719104
 20
31.488414
 30
0.0
 11
19.719104
 21
32.070947
 31
0.0
  0
LINE
  5
5B1
100
AcDbEntity
  8
1
  6
CONTINUOUS
 62
     5
100
AcDbLine
 10
19.73859
 20
31.499664
 30
0.0
 11
19.73859
 21
32.059697
 31
0.0
  0
LINE
  5
5B2
100
AcDbEntity
  8
1
  6
CONTINUOUS
 62
     5
100
AcDbLine
 10
19.73859
 20
31.499664
 30
0.0
 11
19.73859
 21
32.059697
 31
0.0
  0
LINE
  5
5B3
100
AcDbEntity
  8
0
 62
     3
100
AcDbLine
 10
19.815725
 20
31.389747
 30
0.0
 11
19.812531
 21
31.401669
 31
0.0
  0
LINE
  5
5B4
100
AcDbEntity
  8
0
 62
     3
100
AcDbLine
 10
19.822469
 20
31.357758
 30
0.0
 11
19.816952
 21
31.348202
 31
0.0
  0
ARC
  5
5B5
100
AcDbEntity
  8
0
 62
     3
100
AcDbCircle
 10
19.811378
 20
31.388583
 30
0.0
 40
0.0045
100
AcDbArc
 50
240.0
 51
15.0
  0
ARC
  5
5B6
100
AcDbEntity
  8
0
 62
     3
100
AcDbCircle
 10
19.814704
 20
31.402251
 30
0.0
 40
0.00225
100
AcDbArc
 50
60.0
 51
195.0
  0
LINE
  5
5B7
100
AcDbEntity
  8
0
 62
     3
100
AcDbLine
 10
19.796342
 20
31.350915
 30
0.0
 11
19.788921
 21
31.378611
 31
0.0
  0
ARC
  5
5B8
100
AcDbEntity
  8
0
 62
     3
100
AcDbCircle
 10
19.797614
 20
31.380941
 30
0.0
 40
0.009
100
AcDbArc
 50
60.0
 51
195.0
  0
ARC
  5
5B9
100
AcDbEntity
  8
0
 62
     3
100
AcDbCircle
 10
19.807209
 20
31.353827
 30
0.0
 40
0.01125
100
AcDbArc
 50
195.0
 51
330.0
  0
LINE
  5
5BA
100
AcDbEntity
  8
0
 62
     3
100
AcDbLine
 10
19.802114
 20
31.388735
 30
0.0
 11
19.809128
 21
31.384685
 31
0.0
  0
LINE
  5
5BB
100
AcDbEntity
  8
1
  6
CONTINUOUS
 62
     5
100
AcDbLine
 10
19.719104
 20
32.070947
 30
0.0
 11
19.73859
 21
32.059697
 31
0.0
  0
LINE
  5
5BC
100
AcDbEntity
  8
1
  6
CONTINUOUS
 62
     5
100
AcDbLine
 10
19.719104
 20
32.070947
 30
0.0
 11
19.73859
 21
32.059697
 31
0.0
  0
LINE
  5
5BD
100
AcDbEntity
  8
2
  6
CONTINUOUS
 62
     4
100
AcDbLine
 10
20.025629
 20
31.32646
 30
0.0
 11
20.415341
 21
31.10146
 31
0.0
  0
LINE
  5
5BE
100
AcDbEntity
  8
2
  6
CONTINUOUS
 62
     4
100
AcDbLine
 10
20.025629
 20
31.31746
 30
0.0
 11
20.415341
 21
31.09246
 31
0.0
  0
LINE
  5
5BF
100
AcDbEntity
  8
2
  6
CONTINUOUS
 62
     4
100
AcDbLine
 10
20.608178
 20
31.662794
 30
0.0
 11
20.025629
 21
31.32646
 31
0.0
  0
LINE
  5
5C0
100
AcDbEntity
  8
2
  6
CONTINUOUS
 62
     4
100
AcDbLine
 10
20.025629
 20
31.32646
 30
0.0
 11
20.025629
 21
31.31746
 31
0.0
  0
LINE
  5
5C1
100
AcDbEntity
  8
2
  6
CONTINUOUS
 62
     4
100
AcDbLine
 10
20.415341
 20
31.10146
 30
0.0
 11
20.415341
 21
31.09246
 31
0.0
  0
LINE
  5
5C2
100
AcDbEntity
  8
2
  6
CONTINUOUS
 62
     4
100
AcDbLine
 10
20.805052
 20
30.87646
 30
0.0
 11
20.805052
 21
30.86746
 31
0.0
  0
LINE
  5
5C3
100
AcDbEntity
  8
1
  6
CONTINUOUS
 62
     5
100
AcDbLine
 10
20.056735
 20
32.003127
 30
0.0
 11
20.056735
 21
31.980627
 31
0.0
  0
LINE
  5
5C4
100
AcDbEntity
  8
1
  6
CONTINUOUS
 62
     5
100
AcDbLine
 10
20.056735
 20
32.003127
 30
0.0
 11
20.056735
 21
31.980627
 31
0.0
  0
LINE
  5
5C5
100
AcDbEntity
  8
1
  6
CONTINUOUS
100
AcDbLine
 39
0.09
 10
21.841613
 20
30.972627
 30
0.0
 11
21.841613
 21
30.950127
 31
0.0
  0
LINE
  5
5C6
100
AcDbEntity
  8
GREEN
100
AcDbLine
 10
21.321763
 20
30.530187
 30
0.0
 11
23.338583
 21
31.694598
 31
0.0
  0
LINE
  5
5C7
100
AcDbEntity
  8
1
  6
CONTINUOUS
 62
     5
100
AcDbLine
 10
22.161545
 20
30.660803
 30
0.0
 11
23.413432
 21
31.383581
 31
0.0
  0
LINE
  5
5C8
102
{ACAD_REACTORS
330
5D0
102
}
100
AcDbEntity
  8
1
  6
CONTINUOUS
 62
     5
100
AcDbLine
 10
22.18103
 20
30.649553
 30
0.0
 11
23.416699
 21
31.362967
 31
0.0
  0
LINE
  5
5C9
100
AcDbEntity
  8
2
  6
CONTINUOUS
 62
     4
100
AcDbLine
 10
21.480488
 20
30.300913
 30
0.0
 11
23.408717
 21
31.414176
 31
0.0
  0
LINE
  5
5CA
100
AcDbEntity
  8
2
  6
CONTINUOUS
 62
     4
100
AcDbLine
 10
21.496077
 20
30.291913
 30
0.0
 11
23.41157
 21
31.397823
 31
0.0
  0
LINE
  5
5CB
100
AcDbEntity
  8
GREEN
100
AcDbLine
 10
21.444796
 20
30.456889
 30
0.0
 11
23.374527
 21
31.57102
 31
0.0
  0
LINE
  5
5CC
100
AcDbEntity
  8
1
  6
CONTINUOUS
100
AcDbLine
 10
21.841613
 20
30.950127
 30
0.0
 11
23.303061
 21
31.793894
 31
0.0
  0
LINE
  5
5CD
100
AcDbEntity
  8
1
  6
CONTINUOUS
100
AcDbLine
 10
21.841613
 20
30.972627
 30
0.0
 11
23.295964
 21
31.812296
 31
0.0
  0
LINE
  5
5CE
100
AcDbEntity
  8
1
  6
CONTINUOUS
 62
     5
100
AcDbLine
 10
22.166405
 20
29.797385
 30
0.0
 11
23.367963
 21
30.491104
 31
0.0
  0
LWPOLYLINE
  5
5CF
102
{ACAD_REACTORS
330
5D0
102
}
100
AcDbEntity
  8
1
  6
CONTINUOUS
 62
     5
100
AcDbPolyline
 90
        2
 70
     0
 43
0.009
 10
22.165916
 20
29.802273
 10
23.367473
 20
30.495993
  0
HATCH
  5
5D0
100
AcDbEntity
  8
2
  6
CONTINUOUS
 62
     9
100
AcDbHatch
 10
0.0
 20
0.0
 30
0.0
210
0.0
220
0.0
230
1.0
  2
ANSI31
 70
     0
 71
     1
 91
        2
 92
        7
 72
     1
 73
     1
 93
        5
 10
22.18103015398398
 20
30.64955331497995
 42
0.0
 10
22.18103015398398
 20
29.82271580110134
 42
-0.1222318301882331
 10
22.17763622134976
 20
29.80904004589819
 42
0.0
 10
23.37007733097551
 20
30.4974962415334
 42
0.1036486555291187
 10
23.41716946933823
 20
31.36323868145561
 42
0.0
 97
        5
330
5C8
330
5D4
330
5DC
330
5CF
330
594
 92
        7
 72
     1
 73
     1
 93
        4
 10
22.14129458239883
 20
29.81749465793104
 42
0.5773502691893225
 10
22.16154458239882
 20
29.82918600088213
 42
0.0
 10
22.16154458239882
 20
29.99863333703819
 42
0.0
 10
21.99454888468408
 20
29.90221832600907
 42
0.0
 97
        4
330
5E2
330
5E0
330
5E6
330
5D2
 75
     0
 76
     1
 52
0.0
 41
0.05
 77
     0
 78
     1
 53
45.0
 43
-2.869635
 44
-2.287775
 45
-0.0044194173824159
 46
0.0044194173824159
 79
     0
 47
0.022773
 98
        2
 10
22.788245
 20
30.62097
 10
22.101167
 20
29.893388
  0
LINE
  5
5D1
100
AcDbEntity
  8
1
  6
CONTINUOUS
 62
     5
100
AcDbLine
 10
22.161545
 20
29.829186
 30
0.0
 11
22.161545
 21
30.660803
 31
0.0
  0
LINE
  5
5D2
102
{ACAD_REACTORS
330
5D0
102
}
100
AcDbEntity
  8
1
  6
CONTINUOUS
 62
     5
100
AcDbLine
 10
22.161545
 20
29.829186
 30
0.0
 11
22.161545
 21
30.660803
 31
0.0
  0
LINE
  5
5D3
100
AcDbEntity
  8
1
  6
CONTINUOUS
 62
     5
100
AcDbLine
 10
22.18103
 20
29.822716
 30
0.0
 11
22.18103
 21
30.649553
 31
0.0
  0
LINE
  5
5D4
102
{ACAD_REACTORS
330
5D0
102
}
100
AcDbEntity
  8
1
  6
CONTINUOUS
 62
     5
100
AcDbLine
 10
22.18103
 20
29.822716
 30
0.0
 11
22.18103
 21
30.649553
 31
0.0
  0
LINE
  5
5D5
100
AcDbEntity
  8
GREEN
100
AcDbLine
 10
21.444796
 20
29.676139
 30
0.0
 11
22.162015
 21
30.090226
 31
0.0
  0
LINE
  5
5D6
100
AcDbEntity
  8
2
  6
CONTINUOUS
 62
     4
100
AcDbLine
 10
21.496077
 20
29.841913
 30
0.0
 11
22.162015
 21
30.226392
 31
0.0
  0
LINE
  5
5D7
100
AcDbEntity
  8
2
  6
CONTINUOUS
 62
     4
100
AcDbLine
 10
21.480488
 20
30.300913
 30
0.0
 11
21.496077
 21
30.291913
 31
0.0
  0
LINE
  5
5D8
100
AcDbEntity
  8
2
  6
CONTINUOUS
 62
     4
100
AcDbLine
 10
21.480488
 20
29.850913
 30
0.0
 11
21.496077
 21
29.841913
 31
0.0
  0
LINE
  5
5D9
100
AcDbEntity
  8
2
  6
CONTINUOUS
 62
     4
100
AcDbLine
 10
21.480488
 20
30.300913
 30
0.0
 11
21.480488
 21
29.850913
 31
0.0
  0
LINE
  5
5DA
100
AcDbEntity
  8
2
  6
CONTINUOUS
 62
     4
100
AcDbLine
 10
21.496077
 20
30.291913
 30
0.0
 11
21.496077
 21
29.841913
 31
0.0
  0
ARC
  5
5DB
100
AcDbEntity
  8
1
  6
CONTINUOUS
 62
     5
100
AcDbCircle
 10
22.15178
 20
29.822716
 30
0.0
 40
0.02925
100
AcDbArc
 50
240.0
 51
0.0
  0
ARC
  5
5DC
102
{ACAD_REACTORS
330
5D0
102
}
100
AcDbEntity
  8
1
  6
CONTINUOUS
 62
     5
100
AcDbCircle
 10
22.15178
 20
29.822716
 30
0.0
 40
0.02925
100
AcDbArc
 50
240.0
 51
0.0
  0
LINE
  5
5DD
100
AcDbEntity
  8
1
  6
CONTINUOUS
 62
     5
100
AcDbLine
 10
22.137155
 20
29.797385
 30
0.0
 11
21.990072
 21
29.882303
 31
0.0
  0
LINE
  5
5DE
100
AcDbEntity
  8
1
  6
CONTINUOUS
 62
     5
100
AcDbLine
 10
22.137155
 20
29.797385
 30
0.0
 11
21.990072
 21
29.882303
 31
0.0
  0
LINE
  5
5DF
100
AcDbEntity
  8
1
  6
CONTINUOUS
 62
     5
100
AcDbLine
 10
22.141295
 20
29.817495
 30
0.0
 11
21.990072
 21
29.904803
 31
0.0
  0
LINE
  5
5E0
102
{ACAD_REACTORS
330
5D0
102
}
100
AcDbEntity
  8
1
  6
CONTINUOUS
 62
     5
100
AcDbLine
 10
22.141295
 20
29.817495
 30
0.0
 11
21.990072
 21
29.904803
 31
0.0
  0
LINE
  5
5E1
100
AcDbEntity
  8
1
  6
CONTINUOUS
 62
     5
100
AcDbLine
 10
21.990072
 20
29.904803
 30
0.0
 11
22.161545
 21
30.003803
 31
0.0
  0
LWPOLYLINE
  5
5E2
102
{ACAD_REACTORS
330
5D0
102
}
100
AcDbEntity
  8
1
  6
CONTINUOUS
 62
     5
100
AcDbPolyline
 90
        2
 70
     0
 43
0.009
 10
21.992345
 20
29.900946
 10
22.163818
 20
29.999946
  0
LINE
  5
5E3
100
AcDbEntity
  8
1
  6
CONTINUOUS
 62
     5
100
AcDbLine
 10
21.990072
 20
29.904803
 30
0.0
 11
21.990072
 21
29.882303
 31
0.0
  0
LINE
  5
5E4
100
AcDbEntity
  8
1
  6
CONTINUOUS
 62
     5
100
AcDbLine
 10
21.990072
 20
29.904803
 30
0.0
 11
21.990072
 21
29.882303
 31
0.0
  0
ARC
  5
5E5
100
AcDbEntity
  8
1
  6
CONTINUOUS
 62
     5
100
AcDbCircle
 10
22.148045
 20
29.829186
 30
0.0
 40
0.0135
100
AcDbArc
 50
240.0
 51
0.0
  0
ARC
  5
5E6
102
{ACAD_REACTORS
330
5D0
102
}
100
AcDbEntity
  8
1
  6
CONTINUOUS
 62
     5
100
AcDbCircle
 10
22.148045
 20
29.829186
 30
0.0
 40
0.0135
100
AcDbArc
 50
240.0
 51
0.0
  0
LINE
  5
5E7
100
AcDbEntity
  8
2
  6
CONTINUOUS
 62
     4
100
AcDbLine
 10
21.777312
 20
30.987794
 30
0.0
 11
21.194764
 21
30.65146
 31
0.0
  0
LINE
  5
5E8
100
AcDbEntity
  8
2
  6
CONTINUOUS
 62
     4
100
AcDbLine
 10
21.785106
 20
30.983294
 30
0.0
 11
21.194764
 21
30.64246
 31
0.0
  0
LINE
  5
5E9
100
AcDbEntity
  8
0
 62
     3
100
AcDbLine
 10
20.977404
 20
30.733564
 30
0.0
 11
21.323703
 21
30.533628
 31
0.0
  0
LINE
  5
5EA
100
AcDbEntity
  8
0
 62
     3
100
AcDbLine
 10
21.32316
 20
30.529506
 30
0.0
 11
21.311239
 21
30.526312
 31
0.0
  0
ARC
  5
5EB
100
AcDbEntity
  8
0
 62
     3
100
AcDbCircle
 10
21.312668
 20
30.506224
 30
0.0
 40
0.009
100
AcDbArc
 50
285.0
 51
60.0
  0
ARC
  5
5EC
100
AcDbEntity
  8
0
 62
     3
100
AcDbCircle
 10
21.322578
 20
30.53168
 30
0.0
 40
0.00225
100
AcDbArc
 50
285.0
 51
60.0
  0
LINE
  5
5ED
100
AcDbEntity
  8
0
 62
     3
100
AcDbLine
 10
21.274646
 20
30.506602
 30
0.0
 11
21.280163
 21
30.516157
 31
0.0
  0
ARC
  5
5EE
100
AcDbEntity
  8
0
 62
     3
100
AcDbCircle
 10
21.284389
 20
30.500977
 30
0.0
 40
0.01125
100
AcDbArc
 50
150.0
 51
285.0
  0
LINE
  5
5EF
100
AcDbEntity
  8
0
 62
     3
100
AcDbLine
 10
21.314997
 20
30.497531
 30
0.0
 11
21.2873
 21
30.49011
 31
0.0
  0
LINE
  5
5F0
100
AcDbEntity
  8
0
 62
     3
100
AcDbLine
 10
21.310154
 20
30.518068
 30
0.0
 11
21.317168
 21
30.514019
 31
0.0
  0
ARC
  5
5F1
100
AcDbEntity
  8
0
 62
     3
100
AcDbCircle
 10
21.312404
 20
30.521965
 30
0.0
 40
0.0045
100
AcDbArc
 50
105.0
 51
240.0
  0
LINE
  5
5F2
100
AcDbEntity
  8
2
  6
CONTINUOUS
 62
     4
100
AcDbLine
 10
21.194764
 20
30.65146
 30
0.0
 11
21.194764
 21
30.64246
 31
0.0
  0
LINE
  5
5F3
100
AcDbEntity
  8
1
  6
CONTINUOUS
 62
     5
100
AcDbLine
 10
22.161545
 20
30.660803
 30
0.0
 11
22.18103
 21
30.649553
 31
0.0
  0
LINE
  5
5F4
100
AcDbEntity
  8
1
  6
CONTINUOUS
 62
     5
100
AcDbLine
 10
22.161545
 20
30.660803
 30
0.0
 11
22.18103
 21
30.649553
 31
0.0
  0
LINE
  5
71E
100
AcDbEntity
  8
R-DOOR-ANNO
100
AcDbLine
 10
7.905683
 20
20.350135
 30
0.0
 11
7.858524
 21
20.242426
 31
0.0
  0
LINE
  5
71F
100
AcDbEntity
  8
R-DOOR-ANNO
100
AcDbLine
 10
7.838313
 20
20.350135
 30
0.0
 11
7.791155
 21
20.242426
 31
0.0
  0
TEXT
  5
720
100
AcDbEntity
  8
R-DOOR-ANNO
 62
     0
100
AcDbText
 10
5.132924
 20
19.986166
 30
0.0
 40
0.354375
  1
LESS 
100
AcDbText
  0
TEXT
  5
721
100
AcDbEntity
  8
R-DOOR-ANNO
100
AcDbText
 10
6.804129
 20
20.03244
 30
0.0
 40
0.3375
  1
6
100
AcDbText
  0
TEXT
  5
722
100
AcDbEntity
  8
R-DOOR-ANNO
 62
     0
100
AcDbText
 10
5.537684
 20
19.232992
 30
0.0
 40
0.354375
  1
[170mm]
100
AcDbText
  0
LINE
  5
723
100
AcDbEntity
  8
R-DOOR-ANNO
100
AcDbLine
 10
7.219545
 20
20.187751
 30
0.0
 11
7.601436
 21
20.187751
 31
0.0
  0
TEXT
  5
724
100
AcDbEntity
  8
R-DOOR-ANNO
100
AcDbText
 10
7.32838
 20
19.791324
 30
0.0
 40
0.30375
  1
16
100
AcDbText
  0
TEXT
  5
725
100
AcDbEntity
  8
R-DOOR-ANNO
 62
     0
100
AcDbText
 10
4.356434
 20
20.73934
 30
0.0
 40
0.354375
  1
CLEAR OPENING
100
AcDbText
  0
TEXT
  5
726
100
AcDbEntity
  8
R-DOOR-ANNO
 62
     0
100
AcDbText
 10
5.714871
 20
21.329965
 30
0.0
 40
0.354375
  1
GLASS 
100
AcDbText
  0
TEXT
  5
727
100
AcDbEntity
  8
R-DOOR-ANNO
100
AcDbText
 10
7.334449
 20
20.297574
 30
0.0
 40
0.30375
  1
11
100
AcDbText
  0
DIMENSION
  5
735
100
AcDbEntity
  8
0
100
AcDbDimension
  2
*D43
 10
6.501251
 20
25.832175
 30
0.0
 11
6.501251
 21
26.356925
 31
0.0
 70
   160
  3
STANDARD
100
AcDbAlignedDimension
 13
9.660151
 23
26.881675
 33
0.0
 14
12.410151
 24
25.832175
 34
0.0
 50
90.0
100
AcDbRotatedDimension
1001
ACAD
1000
DSTYLE
1002
{
1070
   288
1070
     1
1070
   270
1070
     4
1070
    40
1040
2.0
1070
     4
1000
mm
1070
   274
1070
     0
1070
   171
1070
     0
1070
   170
1070
     1
1002
}
  0
DIMENSION
  5
744
100
AcDbEntity
  8
0
100
AcDbDimension
  2
*D44
 10
6.500665
 20
9.82005
 30
0.0
 11
6.500665
 21
12.706073
 31
0.0
 70
   160
  3
STANDARD
100
AcDbAlignedDimension
 13
12.327928
 23
15.4496
 33
0.0
 14
9.639452
 24
9.82005
 34
0.0
 50
90.0
100
AcDbRotatedDimension
1001
ACAD
1000
DSTYLE
1002
{
1070
   288
1070
     1
1070
   270
1070
     4
1070
    40
1040
2.0
1070
     4
1000
mm
1070
   274
1070
     0
1070
   171
1070
     0
1070
   170
1070
     1
1002
}
  0
LEADER
  5
745
100
AcDbEntity
  8
0
100
AcDbLeader
  3
STANDARD
 76
     2
 10
6.500665
 20
15.4496
 30
0.0
 10
6.500665
 20
18.978357
 30
0.0
 77
   256
1001
ACAD
1000
DSTYLE
1002
{
1070
   288
1070
     1
1070
   270
1070
     4
1070
    40
1040
2.0
1070
     4
1000
mm
1070
   274
1070
     0
1070
   171
1070
     0
1070
   170
1070
     1
1002
}
  0
LINE
  5
746
100
AcDbEntity
  8
0
100
AcDbLine
 10
6.501251
 20
25.112175
 30
0.0
 11
6.501251
 21
21.922995
 31
0.0
  0
DIMENSION
  5
755
100
AcDbEntity
  8
0
100
AcDbDimension
  2
*D45
 10
18.496252
 20
9.82005
 30
0.0
 11
20.236252
 21
10.984001
 31
0.0
 70
   160
  3
STANDARD
100
AcDbAlignedDimension
 13
13.437173
 23
10.07005
 33
0.0
 14
15.639452
 24
9.82005
 34
0.0
 50
90.0
100
AcDbRotatedDimension
1001
ACAD
1000
DSTYLE
1002
{
1070
   288
1070
     1
1070
   270
1070
     4
1070
    40
1040
2.0
1070
     4
1000
mm
1070
   274
1070
     0
1070
   171
1070
     0
1070
   170
1070
     1
1002
}
  0
ENDSEC
  0
SECTION
  2
OBJECTS
  0
DICTIONARY
  5
C
100
AcDbDictionary
  3
ACAD_GROUP
350
D
  3
ACAD_MLINESTYLE
350
1B
  0
DICTIONARY
  5
D
102
{ACAD_REACTORS
330
C
102
}
100
AcDbDictionary
  0
DICTIONARY
  5
1B
102
{ACAD_REACTORS
330
C
102
}
100
AcDbDictionary
  3
STANDARD
350
1C
  0
MLINESTYLE
  5
1C
102
{ACAD_REACTORS
330
1B
102
}
100
AcDbMlineStyle
  2
STANDARD
 70
     0
  3

 62
   256
 51
90.0
 52
90.0
 71
     2
 49
0.5
 62
   256
  6
BYLAYER
 49
-0.5
 62
   256
  6
BYLAYER
  0
ENDSEC
  0
EOF
