  0
SECTION
  2
HEADER
  9
$ACADVER
  1
AC1014
999
I-DEAS 11 NX Not Encoded
  9
$EXTMIN
 10
0.0
 20
0.0
  9
$EXTMAX
 10
5.94E+002
 20
4.2E+002
  9
$TEXTSIZE
 40
1.25E-001
  9
$LTSCALE
 40
1.0
  9
$CLAYER
  8
104
  9
$CECOLOR
 62
40
  9
$DIMASZ
 40
1.25E-001
  9
$DIMEXO
 40
6.25E-002
  9
$DIMDLI
 40
2.5E-001
  9
$DIMEXE
 40
1.25E-001
  9
$DIMTP
 40
5.0E-003
  9
$DIMTM
 40
-5.0E-003
  9
$DIMTXT
 40
3.0
  9
$DIMLIM
 70
0
  9
$DIMTIH
 70
1
  9
$DIMTOH
 70
1
  9
$DIMSE1
 70
0
  9
$DIMSE2
 70
0
  9
$DIMTAD
 70
0
  9
$DIMASO
 70
1
  9
$DIMALT
 70
0
  9
$DIMALTD
 70
0
  9
$DIMTOFL
 70
1
  9
$DIMTIX
 70
0
  9
$DIMSAH
 70
0
  9
$DIMTFAC
 40
1.0
  9
$DIMGAP
 40
6.25E-002
  9
$LUNITS
 70
2
  9
$LUPREC
 70
3
  9
$FILLETRAD
 40
2.0
  9
$AUNITS
 70
0
  9
$AUPREC
 70
1
  9
$CHAMFERA
 40
1.0E+001
  9
$CHAMFERB
 40
1.0E+001
  9
$ANGBASE
 50
0.0
  9
$ANGDIR
 70
0
  9
$PEXTMIN
 10
0.0
 20
0.0
 30
0.0
  9
$PEXTMAX
 10
5.94E+002
 20
4.2E+002
 30
0.0
  9
$PLIMMIN
 10
0.0
 20
0.0
  9
$PLIMMAX
 10
5.94E+002
 20
4.2E+002
  9
$PDMODE
 70
2
  9
$PDSIZE
 40
-1.0E-002
  9
$SPLINETYPE
 70
6
  9
$TILEMODE
 70
0
  9
$HANDLING
 70
1
  9
$HANDSEED
  5
f4240
  0
ENDSEC
  0
SECTION
  2
TABLES
  0
TABLE
  2
VPORT
  5
64
100
AcDbSymbolTable
 70
2
  0
VPORT
  5
65
100
AcDbSymbolTableRecord
100
AcDbViewportTableRecord
  2
*Active
 70
0
 10
0.0
 20
0.0
 11
5.94E+002
 21
4.2E+002
 12
2.97E+002
 22
2.1E+002
 13
0.0
 23
0.0
 14
1.0
 24
1.0
 15
0.0
 25
0.0
 16
0.0
 26
0.0
 36
1.0
 17
0.0
 27
0.0
 37
0.0
 40
4.2E+002
 41
1.4142857
 42
5.0E+001
 43
0.0
 44
0.0
 50
0.0
 51
0.0
 71
0
 72
1000
 73
1
 74
3
 75
0
 76
0
 77
0
 78
0
  0
ENDTAB
  0
TABLE
  2
LTYPE
  5
66
100
AcDbSymbolTable
 70
7
  0
LTYPE
  5
67
100
AcDbSymbolTableRecord
100
AcDbLinetypeTableRecord
  2
BYBLOCK
 70
0
  3

 72
65
 73
0
 40
0.0
  0
LTYPE
  5
68
100
AcDbSymbolTableRecord
100
AcDbLinetypeTableRecord
  2
BYLAYER
 70
0
  3

 72
65
 73
0
 40
0.0
  0
LTYPE
  5
69
100
AcDbSymbolTableRecord
100
AcDbLinetypeTableRecord
  2
CONTINUOUS
 70
0
  3

 72
65
 73
0
 40
0.0
  0
LTYPE
  5
6a
100
AcDbSymbolTableRecord
100
AcDbLinetypeTableRecord
  2
HIDDENNEW0
  3
_ 
 70
64
 72
65
 73
3
 40
4.5
 49
1.5
 74
0
 49
-1.5
 74
0
 49
1.5
 74
0
  0
LTYPE
  5
6b
100
AcDbSymbolTableRecord
100
AcDbLinetypeTableRecord
  2
HIDDENNEW1
  3
_ 
 70
64
 72
65
 73
3
 40
4.5
 49
1.5
 74
0
 49
-1.5
 74
0
 49
1.5
 74
0
  0
LTYPE
  5
6c
100
AcDbSymbolTableRecord
100
AcDbLinetypeTableRecord
  2
HIDDEN
  3
_ 
 70
64
 72
65
 73
3
 40
4.5
 49
1.5
 74
0
 49
-1.5
 74
0
 49
1.5
 74
0
  0
LTYPE
  5
6d
100
AcDbSymbolTableRecord
100
AcDbLinetypeTableRecord
  2
CENTERLINE
  3
_ 
 70
64
 72
65
 73
5
 40
3.0E+001
 49
1.2E+001
 74
0
 49
-1.5
 74
0
 49
3.0
 74
0
 49
-1.5
 74
0
 49
1.2E+001
 74
0
  0
LTYPE
  5
6e
100
AcDbSymbolTableRecord
100
AcDbLinetypeTableRecord
  2
PHANTOM
  3
_ 
 70
64
 72
65
 73
7
 40
2.95E+001
 49
9.5
 74
0
 49
-1.5
 74
0
 49
3.0
 74
0
 49
-1.5
 74
0
 49
3.0
 74
0
 49
-1.5
 74
0
 49
9.5
 74
0
  0
LTYPE
  5
6f
100
AcDbSymbolTableRecord
100
AcDbLinetypeTableRecord
  2
SHORT_DASH
  3
_ 
 70
64
 72
65
 73
3
 40
3.0
 49
7.5E-001
 74
0
 49
-1.5
 74
0
 49
7.5E-001
 74
0
  0
LTYPE
  5
70
100
AcDbSymbolTableRecord
100
AcDbLinetypeTableRecord
  2
LONG_DASH
  3
_ 
 70
64
 72
65
 73
3
 40
9.0
 49
2.25
 74
0
 49
-4.5
 74
0
 49
2.25
 74
0
  0
ENDTAB
  0
TABLE
  2
LAYER
  5
71
100
AcDbSymbolTable
 70
258
  0
LAYER
  5
72
100
AcDbSymbolTableRecord
100
AcDbLayerTableRecord
  2
0
 70
0
 62
7
  6
CONTINUOUS
  0
LAYER
  5
73
100
AcDbSymbolTableRecord
100
AcDbLayerTableRecord
  2
1
 70
0
 62
7
  6
CONTINUOUS
  0
LAYER
  5
74
100
AcDbSymbolTableRecord
100
AcDbLayerTableRecord
  2
2
 70
0
 62
7
  6
CONTINUOUS
  0
LAYER
  5
75
100
AcDbSymbolTableRecord
100
AcDbLayerTableRecord
  2
Drafting_Hidden_Entities
 70
1
 62
7
  6
CONTINUOUS
  0
ENDTAB
  0
TABLE
  2
STYLE
  5
76
100
AcDbSymbolTable
 70
1
  0
STYLE
  5
77
100
AcDbSymbolTableRecord
100
AcDbTextStyleTableRecord
  2
STANDARD
 70
64
 40
0.0
 41
1.0
 50
0.0
 71
0
 42
1.0
  3
monotxt.shx
  4

  0
ENDTAB
  0
TABLE
  2
VIEW
  5
78
100
AcDbSymbolTable
 70
0
  0
ENDTAB
  0
TABLE
  2
UCS
  5
79
100
AcDbSymbolTable
 70
0
  0
ENDTAB
  0
TABLE
  2
APPID
  5
7a
100
AcDbSymbolTable
 70
1
  0
APPID
  5
7b
100
AcDbSymbolTableRecord
100
AcDbRegAppTableRecord
  2
ACAD
 70
1
  0
ENDTAB
  0
TABLE
  2
DIMSTYLE
  5
7c
100
AcDbSymbolTable
 70
1
  0
DIMSTYLE
105
7d
100
AcDbSymbolTableRecord
100
AcDbDimStyleTableRecord
  2
DSTYLE1
 70
0
  3

  4

  5

  6

  7

 40
1.0
 41
4.0
 42
0.0
 43
3.8E-001
 44
1.5
 45
1.0E-003
 46
0.0
 47
1.0E-001
 48
1.0E-001
 71
0
 72
0
 73
0
 74
0
 75
0
 76
0
 77
1
 78
11
140
3.5
141
9.0E-002
142
0.0
143
3.9370079E-002
144
1.0
145
0.0
146
1.0
147
1.5
170
0
171
2
172
0
173
0
174
0
175
0
176
0
177
0
178
0
270
2
271
3
272
4
273
2
274
2
275
0
280
0
281
0
282
0
283
1
284
0
285
0
286
0
287
3
288
0
  0
ENDTAB
  0
TABLE
  2
BLOCK_RECORD
  5
7e
100
AcDbSymbolTable
 70
0
  0
BLOCK_RECORD
  5
7f
100
AcDbSymbolTableRecord
100
AcDbBlockTableRecord
  2
*MODEL_SPACE
  0
BLOCK_RECORD
  5
80
100
AcDbSymbolTableRecord
100
AcDbBlockTableRecord
  2
*PAPER_SPACE
  0
BLOCK_RECORD
  5
81
100
AcDbSymbolTableRecord
100
AcDbBlockTableRecord
  2
*D43
  0
BLOCK_RECORD
  5
82
100
AcDbSymbolTableRecord
100
AcDbBlockTableRecord
  2
*D693
  0
BLOCK_RECORD
  5
83
100
AcDbSymbolTableRecord
100
AcDbBlockTableRecord
  2
*D694
  0
BLOCK_RECORD
  5
84
100
AcDbSymbolTableRecord
100
AcDbBlockTableRecord
  2
*D695
  0
BLOCK_RECORD
  5
85
100
AcDbSymbolTableRecord
100
AcDbBlockTableRecord
  2
*D696
  0
BLOCK_RECORD
  5
86
100
AcDbSymbolTableRecord
100
AcDbBlockTableRecord
  2
*D699
  0
BLOCK_RECORD
  5
87
100
AcDbSymbolTableRecord
100
AcDbBlockTableRecord
  2
*D700
  0
BLOCK_RECORD
  5
88
100
AcDbSymbolTableRecord
100
AcDbBlockTableRecord
  2
*D701
  0
BLOCK_RECORD
  5
89
100
AcDbSymbolTableRecord
100
AcDbBlockTableRecord
  2
*D702
  0
BLOCK_RECORD
  5
8a
100
AcDbSymbolTableRecord
100
AcDbBlockTableRecord
  2
_AH1
  0
BLOCK_RECORD
  5
8b
100
AcDbSymbolTableRecord
100
AcDbBlockTableRecord
  2
_AH2
  0
BLOCK_RECORD
  5
8c
100
AcDbSymbolTableRecord
100
AcDbBlockTableRecord
  2
_AH12
  3
_AH
  0
BLOCK_RECORD
  5
8d
100
AcDbSymbolTableRecord
100
AcDbBlockTableRecord
  2
_AH13
  3
_AH
  0
BLOCK_RECORD
  5
8e
100
AcDbSymbolTableRecord
100
AcDbBlockTableRecord
  2
_AH14
  3
_AH
  0
BLOCK_RECORD
  5
8f
100
AcDbSymbolTableRecord
100
AcDbBlockTableRecord
  2
_AH15
  3
_AH
  0
BLOCK_RECORD
  5
90
100
AcDbSymbolTableRecord
100
AcDbBlockTableRecord
  2
_AH16
  3
_AH
  0
BLOCK_RECORD
  5
91
100
AcDbSymbolTableRecord
100
AcDbBlockTableRecord
  2
_AH17
  3
_AH
  0
BLOCK_RECORD
  5
92
100
AcDbSymbolTableRecord
100
AcDbBlockTableRecord
  2
_AH18
  3
_AH
  0
BLOCK_RECORD
  5
93
100
AcDbSymbolTableRecord
100
AcDbBlockTableRecord
  2
_AH19
  3
_AH
  0
BLOCK_RECORD
  5
94
100
AcDbSymbolTableRecord
100
AcDbBlockTableRecord
  2
_AH20
  3
_AH
  0
BLOCK_RECORD
  5
95
100
AcDbSymbolTableRecord
100
AcDbBlockTableRecord
  2
_AH21
  3
_AH
  0
ENDTAB
  0
ENDSEC
  0
SECTION
  2
BLOCKS
  0
BLOCK
  5
96
100
AcDbEntity
100
AcDbBlockBegin
  2
*MODEL_SPACE
 70
0
 10
0.0
 20
0.0
 30
0.0
  3
*MODEL_SPACE
  1

  0
ENDBLK
  5
97
100
AcDbEntity
100
AcDbBlockEnd
  0
BLOCK
  5
98
100
AcDbEntity
100
AcDbBlockBegin
  2
*PAPER_SPACE
 70
0
 10
0.0
 20
0.0
 30
0.0
  3
*PAPER_SPACE
  1

  0
ENDBLK
  5
99
100
AcDbEntity
100
AcDbBlockEnd
  0
BLOCK
  5
9a
100
AcDbEntity
100
AcDbBlockBegin
  2
_AH12
  3
_AH
 10
0.0
 20
0.0
 70
64
  0
LINE
  5
9b
100
AcDbEntity
  8
0
100
AcDbLine
  6
CONTINUOUS
 62
0
 10
0.0
 20
0.0
 11
1.0
 21
0.0
  0
LINE
  5
9c
100
AcDbEntity
  8
0
100
AcDbLine
  6
CONTINUOUS
 62
0
 10
0.0
 20
0.0
 11
-1.0
 21
0.0
  0
ENDBLK
  5
9d
100
AcDbEntity
100
AcDbBlockEnd
  0
BLOCK
  5
9e
100
AcDbEntity
100
AcDbBlockBegin
  2
_AH13
  3
_AH
 10
0.0
 20
0.0
 70
64
  0
SOLID
  5
9f
100
AcDbEntity
  8
0
100
AcDbTrace
  6
CONTINUOUS
 62
0
 10
0.0
 20
0.0
 11
1.0
 21
-1.66667E-001
 12
1.0
 22
1.66667E-001
 13
0.0
 23
0.0
  0
ENDBLK
  5
a0
100
AcDbEntity
100
AcDbBlockEnd
  0
BLOCK
  5
a1
100
AcDbEntity
100
AcDbBlockBegin
  2
_AH14
  3
_AH
 10
0.0
 20
0.0
 70
64
  0
ENDBLK
  5
a2
100
AcDbEntity
100
AcDbBlockEnd
  0
BLOCK
  5
a3
100
AcDbEntity
100
AcDbBlockBegin
  2
_AH15
  3
_AH
 10
0.0
 20
0.0
 70
64
  0
CIRCLE
  5
a4
100
AcDbEntity
  8
0
100
AcDbCircle
  6
CONTINUOUS
 62
0
 10
0.0
 20
0.0
 40
1.66667E-001
  0
LINE
  5
a5
100
AcDbEntity
  8
0
100
AcDbLine
  6
CONTINUOUS
 62
0
 10
0.0
 20
0.0
 11
-1.0
 21
0.0
  0
ENDBLK
  5
a6
100
AcDbEntity
100
AcDbBlockEnd
  0
BLOCK
  5
a7
100
AcDbEntity
100
AcDbBlockBegin
  2
_AH16
  3
_AH
 10
0.0
 20
0.0
 70
64
  0
POLYLINE
  5
a8
100
AcDbEntity
  8
0
100
AcDb2dPolyline
  6
CONTINUOUS
 62
0
 66
1
 40
0.0
 41
0.0
 70
0
  0
VERTEX
  5
a9
100
AcDbEntity
  8
0
100
AcDbVertex
100
AcDb2dVertex
 42
1.0
 10
8.3335E-002
 20
0.0
 70
0
  0
VERTEX
  5
aa
100
AcDbEntity
  8
0
100
AcDbVertex
100
AcDb2dVertex
 42
1.0
 10
-8.3335E-002
 20
0.0
 70
0
  0
VERTEX
  5
ab
100
AcDbEntity
  8
0
100
AcDbVertex
100
AcDb2dVertex
 42
0.0
 10
8.3335E-002
 20
0.0
 70
0
  0
SEQEND
  5
ac
100
AcDbEntity
  0
LINE
  5
ad
100
AcDbEntity
  8
0
100
AcDbLine
  6
CONTINUOUS
 62
0
 10
0.0
 20
0.0
 11
-1.0
 21
0.0
  0
ENDBLK
  5
ae
100
AcDbEntity
100
AcDbBlockEnd
  0
BLOCK
  5
af
100
AcDbEntity
100
AcDbBlockBegin
  2
_AH17
  3
_AH
 10
0.0
 20
0.0
 70
64
  0
LINE
  5
b0
100
AcDbEntity
  8
0
100
AcDbLine
  6
CONTINUOUS
 62
0
 10
-1.66667E-001
 20
-1.66667E-001
 11
1.66667E-001
 21
-1.66667E-001
  0
LINE
  5
b1
100
AcDbEntity
  8
0
100
AcDbLine
  6
CONTINUOUS
 62
0
 10
1.66667E-001
 20
-1.66667E-001
 11
1.66667E-001
 21
1.66667E-001
  0
LINE
  5
b2
100
AcDbEntity
  8
0
100
AcDbLine
  6
CONTINUOUS
 62
0
 10
1.66667E-001
 20
1.66667E-001
 11
-1.66667E-001
 21
1.66667E-001
  0
LINE
  5
b3
100
AcDbEntity
  8
0
100
AcDbLine
  6
CONTINUOUS
 62
0
 10
-1.66667E-001
 20
1.66667E-001
 11
-1.66667E-001
 21
-1.66667E-001
  0
LINE
  5
b4
100
AcDbEntity
  8
0
100
AcDbLine
  6
CONTINUOUS
 62
0
 10
0.0
 20
0.0
 11
-1.0
 21
0.0
  0
ENDBLK
  5
b5
100
AcDbEntity
100
AcDbBlockEnd
  0
BLOCK
  5
b6
100
AcDbEntity
100
AcDbBlockBegin
  2
_AH18
  3
_AH
 10
0.0
 20
0.0
 70
64
  0
SOLID
  5
b7
100
AcDbEntity
  8
0
100
AcDbTrace
  6
CONTINUOUS
 62
0
 10
-1.66667E-001
 20
-1.66667E-001
 11
1.66667E-001
 21
-1.66667E-001
 12
-1.66667E-001
 22
1.66667E-001
 13
1.66667E-001
 23
1.66667E-001
  0
LINE
  5
b8
100
AcDbEntity
  8
0
100
AcDbLine
  6
CONTINUOUS
 62
0
 10
0.0
 20
0.0
 11
-1.0
 21
0.0
  0
ENDBLK
  5
b9
100
AcDbEntity
100
AcDbBlockEnd
  0
BLOCK
  5
ba
100
AcDbEntity
100
AcDbBlockBegin
  2
_AH19
  3
_AH
 10
0.0
 20
0.0
 70
64
  0
LINE
  5
bb
100
AcDbEntity
  8
0
100
AcDbLine
  6
CONTINUOUS
 62
0
 10
-5.0E-001
 20
-5.0E-001
 11
5.0E-001
 21
5.0E-001
  0
LINE
  5
bc
100
AcDbEntity
  8
0
100
AcDbLine
  6
CONTINUOUS
 62
0
 10
0.0
 20
0.0
 11
-1.0
 21
0.0
  0
ENDBLK
  5
bd
100
AcDbEntity
100
AcDbBlockEnd
  0
BLOCK
  5
be
100
AcDbEntity
100
AcDbBlockBegin
  2
_AH20
  3
_AH
 10
0.0
 20
0.0
 70
64
  0
POLYLINE
  5
bf
100
AcDbEntity
  8
0
100
AcDb2dPolyline
  6
CONTINUOUS
 62
0
 66
1
 40
5.0E-001
 41
5.0E-001
 70
0
  0
VERTEX
  5
c0
100
AcDbEntity
  8
0
100
AcDbVertex
100
AcDb2dVertex
 42
4.1421356E-001
 10
-1.66667E-001
 20
-1.66667E-001
 70
0
  0
VERTEX
  5
c1
100
AcDbEntity
  8
0
100
AcDbVertex
100
AcDb2dVertex
 42
0.0
 10
0.0
 20
0.0
 70
0
  0
SEQEND
  5
c2
100
AcDbEntity
  0
POLYLINE
  5
c3
100
AcDbEntity
  8
0
100
AcDb2dPolyline
  6
CONTINUOUS
 62
0
 66
1
 40
5.0E-001
 41
5.0E-001
 70
0
  0
VERTEX
  5
c4
100
AcDbEntity
  8
0
100
AcDbVertex
100
AcDb2dVertex
 42
4.1421356E-001
 10
1.66667E-001
 20
1.66667E-001
 70
0
  0
VERTEX
  5
c5
100
AcDbEntity
  8
0
100
AcDbVertex
100
AcDb2dVertex
 42
0.0
 10
0.0
 20
0.0
 70
0
  0
SEQEND
  5
c6
100
AcDbEntity
  0
LINE
  5
c7
100
AcDbEntity
  8
0
100
AcDbLine
  6
CONTINUOUS
 62
0
 10
0.0
 20
0.0
 11
-1.0
 21
0.0
  0
ENDBLK
  5
c8
100
AcDbEntity
100
AcDbBlockEnd
  0
BLOCK
  5
c9
100
AcDbEntity
100
AcDbBlockBegin
  2
_AH21
  3
_AH
 10
0.0
 20
0.0
 70
64
  0
LINE
  5
ca
100
AcDbEntity
  8
0
100
AcDbLine
  6
CONTINUOUS
 62
0
 10
0.0
 20
0.0
 11
-1.0
 21
-1.66667E-001
  0
LINE
  5
cb
100
AcDbEntity
  8
0
100
AcDbLine
  6
CONTINUOUS
 62
0
 10
-1.0
 20
-1.66667E-001
 11
-1.0
 21
1.66667E-001
  0
LINE
  5
cc
100
AcDbEntity
  8
0
100
AcDbLine
  6
CONTINUOUS
 62
0
 10
-1.0
 20
1.66667E-001
 11
0.0
 21
0.0
  0
ENDBLK
  5
cd
100
AcDbEntity
100
AcDbBlockEnd
  0
BLOCK
  5
ce
100
AcDbEntity
100
AcDbBlockBegin
  2
_AH1
 70
0
 10
0.0
 20
0.0
  3
_AH1
  0
LINE
  5
cf
100
AcDbEntity
  8
0
100
AcDbLine
  6
CONTINUOUS
 62
0
 10
-1.0
 20
1.66667E-001
 11
0.0
 21
0.0
  0
LINE
  5
d0
100
AcDbEntity
  8
0
100
AcDbLine
  6
CONTINUOUS
 62
0
 10
0.0
 20
0.0
 11
-1.0
 21
-1.66667E-001
  0
LINE
  5
d1
100
AcDbEntity
  8
0
100
AcDbLine
  6
CONTINUOUS
 62
0
 10
-1.0
 20
1.66667E-001
 11
-1.0
 21
-1.66667E-001
  0
LINE
  5
d2
100
AcDbEntity
  8
0
100
AcDbLine
  6
CONTINUOUS
 62
0
 10
0.0
 20
0.0
 11
-1.0
 21
0.0
  0
ENDBLK
  5
d3
100
AcDbEntity
100
AcDbBlockEnd
  0
BLOCK
  5
d4
100
AcDbEntity
100
AcDbBlockBegin
  2
_AH2
 70
0
 10
0.0
 20
0.0
  3
_AH2
  0
LINE
  5
d5
100
AcDbEntity
  8
0
100
AcDbLine
  6
CONTINUOUS
 62
0
 10
-1.0
 20
1.66667E-001
 11
0.0
 21
0.0
  0
LINE
  5
d6
100
AcDbEntity
  8
0
100
AcDbLine
  6
CONTINUOUS
 62
0
 10
0.0
 20
0.0
 11
-1.0
 21
-1.66667E-001
  0
LINE
  5
d7
100
AcDbEntity
  8
0
100
AcDbLine
  6
CONTINUOUS
 62
0
 10
0.0
 20
0.0
 11
-1.0
 21
0.0
  0
ENDBLK
  5
d8
100
AcDbEntity
100
AcDbBlockEnd
  0
BLOCK
  5
d9
100
AcDbEntity
100
AcDbBlockBegin
  2
*D43
  3
*D
 10
0.0
 20
0.0
 70
65
  0
LINE
  5
da
100
AcDbEntity
  8
1
100
AcDbLine
  6
CONTINUOUS
 62
1
 10
4.3012931E+002
 20
1.4085973E+002
 11
4.3012931E+002
 21
1.1871606E+002
  0
LINE
  5
db
100
AcDbEntity
  8
1
100
AcDbLine
  6
CONTINUOUS
 62
1
 10
4.3212931E+002
 20
1.4124493E+002
 11
4.3212931E+002
 21
1.1871606E+002
  0
LINE
  5
dc
100
AcDbEntity
  8
1
100
AcDbLine
  6
CONTINUOUS
 62
1
 10
4.2212931E+002
 20
1.2021606E+002
 11
4.3212931E+002
 21
1.2021606E+002
  0
LINE
  5
dd
100
AcDbEntity
  8
1
100
AcDbLine
  6
CONTINUOUS
 62
1
 10
4.3212931E+002
 20
1.2021606E+002
 11
4.5139145E+002
 21
1.2021606E+002
  0
TEXT
  5
de
100
AcDbEntity
  8
1
100
AcDbText
  6
CONTINUOUS
 62
1
 10
4.4709145E+002
 20
1.2171706E+002
 40
3.5
  1
2
 41
8.0E-001
100
AcDbText
  0
INSERT
  5
df
100
AcDbEntity
100
AcDbBlockReference
  2
_AH13
  8
1
 62
1
 10
4.3012931E+002
 20
1.2021606E+002
 41
4.0
 42
4.0
 43
4.0
 50
1.8E+002
  0
INSERT
  5
e0
100
AcDbEntity
100
AcDbBlockReference
  2
_AH13
  8
1
 62
1
 10
4.3212931E+002
 20
1.2021606E+002
 41
4.0
 42
4.0
 43
4.0
 50
3.6E+002
  0
ENDBLK
  5
e1
100
AcDbEntity
100
AcDbBlockEnd
  0
BLOCK
  5
e2
100
AcDbEntity
100
AcDbBlockBegin
  2
*D693
  3
*D
 10
0.0
 20
0.0
 70
65
  0
LINE
  5
e3
100
AcDbEntity
  8
1
100
AcDbLine
  6
CONTINUOUS
 62
1
 10
7.6059577E+001
 20
1.4624493E+002
 11
4.6600145E+001
 21
1.4624493E+002
  0
LINE
  5
e4
100
AcDbEntity
  8
1
100
AcDbLine
  6
CONTINUOUS
 62
1
 10
7.6059577E+001
 20
4.1244927E+001
 11
4.6600145E+001
 21
4.1244927E+001
  0
LINE
  5
e5
100
AcDbEntity
  8
1
100
AcDbLine
  6
CONTINUOUS
 62
1
 10
4.8100145E+001
 20
1.4624493E+002
 11
4.8100145E+001
 21
9.4447023E+001
  0
LINE
  5
e6
100
AcDbEntity
  8
1
100
AcDbLine
  6
CONTINUOUS
 62
1
 10
4.8100145E+001
 20
4.1244927E+001
 11
4.8100145E+001
 21
9.4447023E+001
  0
TEXT
  5
e7
100
AcDbEntity
  8
1
100
AcDbText
  6
CONTINUOUS
 62
1
 10
4.6599145E+001
 20
9.0247023E+001
 40
3.5
  1
105
 41
8.0E-001
 50
9.0E+001
100
AcDbText
  0
INSERT
  5
e8
100
AcDbEntity
100
AcDbBlockReference
  2
_AH13
  8
1
 62
1
 10
4.8100145E+001
 20
1.4624493E+002
 41
4.0
 42
4.0
 43
4.0
 50
2.7E+002
  0
INSERT
  5
e9
100
AcDbEntity
100
AcDbBlockReference
  2
_AH13
  8
1
 62
1
 10
4.8100145E+001
 20
4.1244927E+001
 41
4.0
 42
4.0
 43
4.0
 50
4.5E+002
  0
ENDBLK
  5
ea
100
AcDbEntity
100
AcDbBlockEnd
  0
BLOCK
  5
eb
100
AcDbEntity
100
AcDbBlockBegin
  2
*D694
  3
*D
 10
0.0
 20
0.0
 70
65
  0
LINE
  5
ec
100
AcDbEntity
  8
1
100
AcDbLine
  6
CONTINUOUS
 62
1
 10
7.6059577E+001
 20
1.4624493E+002
 11
7.6059577E+001
 21
1.6128883E+002
  0
LINE
  5
ed
100
AcDbEntity
  8
1
100
AcDbLine
  6
CONTINUOUS
 62
1
 10
3.8405958E+002
 20
1.4624493E+002
 11
3.8405958E+002
 21
1.6128883E+002
  0
LINE
  5
ee
100
AcDbEntity
  8
1
100
AcDbLine
  6
CONTINUOUS
 62
1
 10
7.6059577E+001
 20
1.5978883E+002
 11
2.3163264E+002
 21
1.5978883E+002
  0
LINE
  5
ef
100
AcDbEntity
  8
1
100
AcDbLine
  6
CONTINUOUS
 62
1
 10
3.8405958E+002
 20
1.5978883E+002
 11
2.3163264E+002
 21
1.5978883E+002
  0
TEXT
  5
f0
100
AcDbEntity
  8
1
100
AcDbText
  6
CONTINUOUS
 62
1
 10
2.2743264E+002
 20
1.6128983E+002
 40
3.5
  1
308
 41
8.0E-001
100
AcDbText
  0
INSERT
  5
f1
100
AcDbEntity
100
AcDbBlockReference
  2
_AH13
  8
1
 62
1
 10
7.6059577E+001
 20
1.5978883E+002
 41
4.0
 42
4.0
 43
4.0
 50
0.0
  0
INSERT
  5
f2
100
AcDbEntity
100
AcDbBlockReference
  2
_AH13
  8
1
 62
1
 10
3.8405958E+002
 20
1.5978883E+002
 41
4.0
 42
4.0
 43
4.0
 50
1.8E+002
  0
ENDBLK
  5
f3
100
AcDbEntity
100
AcDbBlockEnd
  0
BLOCK
  5
f4
100
AcDbEntity
100
AcDbBlockBegin
  2
*D695
  3
*D
 10
0.0
 20
0.0
 70
65
  0
LINE
  5
f5
100
AcDbEntity
  8
1
100
AcDbLine
  6
CONTINUOUS
 62
1
 10
1.3405958E+002
 20
2.1100717E+002
 11
1.3405958E+002
 21
1.8994705E+002
  0
LINE
  5
f6
100
AcDbEntity
  8
1
100
AcDbLine
  6
CONTINUOUS
 62
1
 10
8.3059596E+001
 20
2.0975909E+002
 11
8.3059596E+001
 21
1.8994705E+002
  0
LINE
  5
f7
100
AcDbEntity
  8
1
100
AcDbLine
  6
CONTINUOUS
 62
1
 10
1.3405958E+002
 20
1.9144705E+002
 11
1.0499976E+002
 21
1.9144705E+002
  0
LINE
  5
f8
100
AcDbEntity
  8
1
100
AcDbLine
  6
CONTINUOUS
 62
1
 10
8.3059596E+001
 20
1.9144705E+002
 11
1.0499976E+002
 21
1.9144705E+002
  0
TEXT
  5
f9
100
AcDbEntity
  8
1
100
AcDbText
  6
CONTINUOUS
 62
1
 10
9.7999763E+001
 20
1.9294805E+002
 40
3.5
  1
51
 41
8.0E-001
 50
3.6E+002
100
AcDbText
  0
TEXT
  5
fa
100
AcDbEntity
  8
1
100
AcDbText
  6
CONTINUOUS
 62
1
 10
1.0359976E+002
 20
1.9294805E+002
 40
3.5
  1
-57
 41
8.0E-001
 50
3.6E+002
100
AcDbText
  0
INSERT
  5
fb
100
AcDbEntity
100
AcDbBlockReference
  2
_AH13
  8
1
 62
1
 10
1.3405958E+002
 20
1.9144705E+002
 41
4.0
 42
4.0
 43
4.0
 50
1.8E+002
  0
INSERT
  5
fc
100
AcDbEntity
100
AcDbBlockReference
  2
_AH13
  8
1
 62
1
 10
8.3059596E+001
 20
1.9144705E+002
 41
4.0
 42
4.0
 43
4.0
 50
3.6E+002
  0
ENDBLK
  5
fd
100
AcDbEntity
100
AcDbBlockEnd
  0
BLOCK
  5
fe
100
AcDbEntity
100
AcDbBlockBegin
  2
*D696
  3
*D
 10
0.0
 20
0.0
 70
65
  0
LINE
  5
ff
100
AcDbEntity
  8
1
100
AcDbLine
  6
CONTINUOUS
 62
1
 10
8.3059596E+001
 20
2.0975909E+002
 11
8.3059596E+001
 21
1.778114E+002
  0
LINE
  5
100
100
AcDbEntity
  8
1
100
AcDbLine
  6
CONTINUOUS
 62
1
 10
3.6805955E+002
 20
2.0975909E+002
 11
3.6805955E+002
 21
1.778114E+002
  0
LINE
  5
101
100
AcDbEntity
  8
1
100
AcDbLine
  6
CONTINUOUS
 62
1
 10
8.3059596E+001
 20
1.793114E+002
 11
2.3638138E+002
 21
1.793114E+002
  0
LINE
  5
102
100
AcDbEntity
  8
1
100
AcDbLine
  6
CONTINUOUS
 62
1
 10
3.6805955E+002
 20
1.793114E+002
 11
2.3638138E+002
 21
1.793114E+002
  0
TEXT
  5
103
100
AcDbEntity
  8
1
100
AcDbText
  6
CONTINUOUS
 62
1
 10
2.3218138E+002
 20
1.808124E+002
 40
3.5
  1
285
 41
8.0E-001
100
AcDbText
  0
INSERT
  5
104
100
AcDbEntity
100
AcDbBlockReference
  2
_AH13
  8
1
 62
1
 10
8.3059596E+001
 20
1.793114E+002
 41
4.0
 42
4.0
 43
4.0
 50
0.0
  0
INSERT
  5
105
100
AcDbEntity
100
AcDbBlockReference
  2
_AH13
  8
1
 62
1
 10
3.6805955E+002
 20
1.793114E+002
 41
4.0
 42
4.0
 43
4.0
 50
1.8E+002
  0
ENDBLK
  5
106
100
AcDbEntity
100
AcDbBlockEnd
  0
BLOCK
  5
107
100
AcDbEntity
100
AcDbBlockBegin
  2
*D699
  3
*D
 10
0.0
 20
0.0
 70
65
  0
LINE
  5
108
100
AcDbEntity
  8
1
100
AcDbLine
  6
CONTINUOUS
 62
1
 10
8.3059596E+001
 20
2.0975909E+002
 11
6.1373981E+001
 21
2.0975909E+002
  0
LINE
  5
109
100
AcDbEntity
  8
1
100
AcDbLine
  6
CONTINUOUS
 62
1
 10
7.5361743E+001
 20
2.5075908E+002
 11
6.1373981E+001
 21
2.5075908E+002
  0
LINE
  5
10a
100
AcDbEntity
  8
1
100
AcDbLine
  6
CONTINUOUS
 62
1
 10
6.2873981E+001
 20
2.0975909E+002
 11
6.2873981E+001
 21
2.3163264E+002
  0
LINE
  5
10b
100
AcDbEntity
  8
1
100
AcDbLine
  6
CONTINUOUS
 62
1
 10
6.2873981E+001
 20
2.5075908E+002
 11
6.2873981E+001
 21
2.3163264E+002
  0
TEXT
  5
10c
100
AcDbEntity
  8
1
100
AcDbText
  6
CONTINUOUS
 62
1
 10
6.1372981E+001
 20
2.2463264E+002
 40
3.5
  1
36-42
 41
8.0E-001
 50
9.0E+001
100
AcDbText
  0
INSERT
  5
10d
100
AcDbEntity
100
AcDbBlockReference
  2
_AH13
  8
1
 62
1
 10
6.2873981E+001
 20
2.0975909E+002
 41
4.0
 42
4.0
 43
4.0
 50
9.0E+001
  0
INSERT
  5
10e
100
AcDbEntity
100
AcDbBlockReference
  2
_AH13
  8
1
 62
1
 10
6.2873981E+001
 20
2.5075908E+002
 41
4.0
 42
4.0
 43
4.0
 50
2.7E+002
  0
ENDBLK
  5
10f
100
AcDbEntity
100
AcDbBlockEnd
  0
BLOCK
  5
110
100
AcDbEntity
100
AcDbBlockBegin
  2
*D700
  3
*D
 10
0.0
 20
0.0
 70
65
  0
LINE
  5
111
100
AcDbEntity
  8
1
100
AcDbLine
  6
CONTINUOUS
 62
1
 10
7.5361743E+001
 20
2.5075908E+002
 11
6.0846344E+001
 21
2.5075908E+002
  0
LINE
  5
112
100
AcDbEntity
  8
1
100
AcDbLine
  6
CONTINUOUS
 62
1
 10
8.3059596E+001
 20
2.918591E+002
 11
6.0846344E+001
 21
2.918591E+002
  0
LINE
  5
113
100
AcDbEntity
  8
1
100
AcDbLine
  6
CONTINUOUS
 62
1
 10
6.2346344E+001
 20
2.5075908E+002
 11
6.2346344E+001
 21
2.7437124E+002
  0
LINE
  5
114
100
AcDbEntity
  8
1
100
AcDbLine
  6
CONTINUOUS
 62
1
 10
6.2346344E+001
 20
2.918591E+002
 11
6.2346344E+001
 21
2.7437124E+002
  0
TEXT
  5
115
100
AcDbEntity
  8
1
100
AcDbText
  6
CONTINUOUS
 62
1
 10
6.0845344E+001
 20
2.6737124E+002
 40
3.5
  1
36-42
 41
8.0E-001
 50
9.0E+001
100
AcDbText
  0
INSERT
  5
116
100
AcDbEntity
100
AcDbBlockReference
  2
_AH13
  8
1
 62
1
 10
6.2346344E+001
 20
2.5075908E+002
 41
4.0
 42
4.0
 43
4.0
 50
9.0E+001
  0
INSERT
  5
117
100
AcDbEntity
100
AcDbBlockReference
  2
_AH13
  8
1
 62
1
 10
6.2346344E+001
 20
2.918591E+002
 41
4.0
 42
4.0
 43
4.0
 50
2.7E+002
  0
ENDBLK
  5
118
100
AcDbEntity
100
AcDbBlockEnd
  0
BLOCK
  5
119
100
AcDbEntity
100
AcDbBlockBegin
  2
*D701
  3
*D
 10
0.0
 20
0.0
 70
65
  0
LINE
  5
11a
100
AcDbEntity
  8
1
100
AcDbLine
  6
CONTINUOUS
 62
1
 10
3.680596E+002
 20
3.6414917E+002
 11
3.8887074E+002
 21
3.6414917E+002
  0
LINE
  5
11b
100
AcDbEntity
  8
1
100
AcDbLine
  6
CONTINUOUS
 62
1
 10
3.680596E+002
 20
3.1464918E+002
 11
3.8887074E+002
 21
3.1464918E+002
  0
LINE
  5
11c
100
AcDbEntity
  8
1
100
AcDbLine
  6
CONTINUOUS
 62
1
 10
3.8737074E+002
 20
3.6414917E+002
 11
3.8737074E+002
 21
3.3768768E+002
  0
LINE
  5
11d
100
AcDbEntity
  8
1
100
AcDbLine
  6
CONTINUOUS
 62
1
 10
3.8737074E+002
 20
3.1464918E+002
 11
3.8737074E+002
 21
3.3768768E+002
  0
TEXT
  5
11e
100
AcDbEntity
  8
1
100
AcDbText
  6
CONTINUOUS
 62
1
 10
3.8586974E+002
 20
3.3488768E+002
 40
3.5
  1
50
 41
8.0E-001
 50
9.0E+001
100
AcDbText
  0
INSERT
  5
11f
100
AcDbEntity
100
AcDbBlockReference
  2
_AH13
  8
1
 62
1
 10
3.8737074E+002
 20
3.6414917E+002
 41
4.0
 42
4.0
 43
4.0
 50
2.7E+002
  0
INSERT
  5
120
100
AcDbEntity
100
AcDbBlockReference
  2
_AH13
  8
1
 62
1
 10
3.8737074E+002
 20
3.1464918E+002
 41
4.0
 42
4.0
 43
4.0
 50
4.5E+002
  0
ENDBLK
  5
121
100
AcDbEntity
100
AcDbBlockEnd
  0
BLOCK
  5
122
100
AcDbEntity
100
AcDbBlockBegin
  2
*D702
  3
*D
 10
0.0
 20
0.0
 70
65
  0
LINE
  5
123
100
AcDbEntity
  8
1
100
AcDbLine
  6
CONTINUOUS
 62
1
 10
4.2688771E+002
 20
3.1464918E+002
 11
4.2688771E+002
 21
2.9283627E+002
  0
LINE
  5
124
100
AcDbEntity
  8
1
100
AcDbLine
  6
CONTINUOUS
 62
1
 10
5.0888771E+002
 20
3.1464918E+002
 11
5.0888771E+002
 21
2.9283627E+002
  0
LINE
  5
125
100
AcDbEntity
  8
1
100
AcDbLine
  6
CONTINUOUS
 62
1
 10
4.2688771E+002
 20
2.9433627E+002
 11
4.6801402E+002
 21
2.9433627E+002
  0
LINE
  5
126
100
AcDbEntity
  8
1
100
AcDbLine
  6
CONTINUOUS
 62
1
 10
5.0888771E+002
 20
2.9433627E+002
 11
4.6801402E+002
 21
2.9433627E+002
  0
TEXT
  5
127
100
AcDbEntity
  8
1
100
AcDbText
  6
CONTINUOUS
 62
1
 10
4.6521402E+002
 20
2.9583727E+002
 40
3.5
  1
82
 41
8.0E-001
100
AcDbText
  0
INSERT
  5
128
100
AcDbEntity
100
AcDbBlockReference
  2
_AH13
  8
1
 62
1
 10
4.2688771E+002
 20
2.9433627E+002
 41
4.0
 42
4.0
 43
4.0
 50
0.0
  0
INSERT
  5
129
100
AcDbEntity
100
AcDbBlockReference
  2
_AH13
  8
1
 62
1
 10
5.0888771E+002
 20
2.9433627E+002
 41
4.0
 42
4.0
 43
4.0
 50
1.8E+002
  0
ENDBLK
  5
12a
100
AcDbEntity
100
AcDbBlockEnd
  0
ENDSEC
  0
SECTION
  2
ENTITIES
  0
TEXT
  5
12b
100
AcDbEntity
  8
1
100
AcDbText
  6
CONTINUOUS
 62
7
 10
1.2
 20
1.2
 40
1.0
  1
2-MFORM_DATABASE
 41
3.0
 50
1.0
100
AcDbText
  0
TEXT
  5
12c
100
AcDbEntity
  8
1
100
AcDbText
  6
CONTINUOUS
 62
40
 10
4.6576105E+002
 20
3.3429165E+001
 40
7.0
  1
BTS75V Brückenbefestigung
 41
6.609375E-001
 72
1
 11
5.2359308E+002
 21
3.6929165E+001
100
AcDbText
 73
2
  0
DIMENSION
  5
12d
100
AcDbEntity
  8
1
100
AcDbDimension
  6
CONTINUOUS
 62
1
  2
*D43
  3
DSTYLE1
 10
4.3212931E+002
 20
1.2021606E+002
 11
4.4849145E+002
 21
1.2346706E+002
 70
128
100
AcDbAlignedDimension
 13
4.3012931E+002
 23
1.4085973E+002
 14
4.3212931E+002
 24
1.4124493E+002
 40
5.0
 50
0.0
100
AcDbRotatedDimension
1001
ACAD
1000
DSTYLE
1002
{
1070
173
1070
0
1070
5
1000
_AH13
1002
}
  0
LINE
  5
12e
100
AcDbEntity
  8
1
100
AcDbLine
  6
CENTERLINE
 62
1
 10
4.6788768E+002
 20
3.6227649E+002
 11
4.6788768E+002
 21
3.6860901E+002
  0
LINE
  5
12f
100
AcDbEntity
  8
1
100
AcDbLine
  6
CENTERLINE
 62
1
 10
1.2265959E+002
 20
3.9208893E+002
 11
1.2339329E+002
 21
4.0608893E+002
  0
LINE
  5
130
100
AcDbEntity
  8
1
100
AcDbLine
  6
CENTERLINE
 62
1
 10
1.2339329E+002
 20
4.0608893E+002
 11
1.4472588E+002
 21
4.0608893E+002
  0
LINE
  5
131
100
AcDbEntity
  8
1
100
AcDbLine
  6
CENTERLINE
 62
1
 10
1.4472588E+002
 20
4.0608893E+002
 11
1.4545958E+002
 21
3.9208896E+002
  0
LINE
  5
132
100
AcDbEntity
  8
1
100
AcDbLine
  6
CENTERLINE
 62
1
 10
1.4272313E+002
 20
4.0608893E+002
 11
1.4345683E+002
 21
3.9208896E+002
  0
LINE
  5
133
100
AcDbEntity
  8
1
100
AcDbLine
  6
CENTERLINE
 62
1
 10
1.2539604E+002
 20
4.0608893E+002
 11
1.2466234E+002
 21
3.9208896E+002
  0
LINE
  5
134
100
AcDbEntity
  8
1
100
AcDbLine
  6
CENTERLINE
 62
1
 10
1.2680959E+002
 20
3.8908899E+002
 11
1.2807448E+002
 21
3.8008896E+002
  0
LINE
  5
135
100
AcDbEntity
  8
1
100
AcDbLine
  6
CENTERLINE
 62
1
 10
1.2807448E+002
 20
3.8008896E+002
 11
1.4004472E+002
 21
3.8008896E+002
  0
LINE
  5
136
100
AcDbEntity
  8
1
100
AcDbLine
  6
CENTERLINE
 62
1
 10
1.4004472E+002
 20
3.8008896E+002
 11
1.4130959E+002
 21
3.8908899E+002
  0
LINE
  5
137
100
AcDbEntity
  8
1
100
AcDbLine
  6
CENTERLINE
 62
1
 10
1.4655959E+002
 20
3.8908896E+002
 11
1.2155959E+002
 21
3.8908896E+002
  0
LINE
  5
138
100
AcDbEntity
  8
1
100
AcDbLine
  6
CENTERLINE
 62
1
 10
1.2155959E+002
 20
3.8908896E+002
 11
1.2155959E+002
 21
3.9208896E+002
  0
LINE
  5
139
100
AcDbEntity
  8
1
100
AcDbLine
  6
CENTERLINE
 62
1
 10
1.2155959E+002
 20
3.9208896E+002
 11
1.4655959E+002
 21
3.9208896E+002
  0
LINE
  5
13a
100
AcDbEntity
  8
1
100
AcDbLine
  6
CENTERLINE
 62
1
 10
1.4655959E+002
 20
3.9208896E+002
 11
1.4655959E+002
 21
3.8908896E+002
  0
LINE
  5
13b
100
AcDbEntity
  8
1
100
AcDbLine
  6
CENTERLINE
 62
1
 10
1.3405959E+002
 20
3.7657444E+002
 11
1.3405959E+002
 21
4.087656E+002
  0
LINE
  5
13c
100
AcDbEntity
  8
1
100
AcDbLine
  6
CONTINUOUS
 62
40
 10
3.54017E+002
 20
2.3182356E+002
 11
3.6104501E+002
 21
2.3885156E+002
  0
LINE
  5
13d
100
AcDbEntity
  8
1
100
AcDbLine
  6
CONTINUOUS
 62
40
 10
3.6208542E+002
 20
2.3777066E+002
 11
3.5507397E+002
 21
2.3075922E+002
  0
LINE
  5
13e
100
AcDbEntity
  8
1
100
AcDbLine
  6
CONTINUOUS
 62
40
 10
3.5619379E+002
 20
2.2963159E+002
 11
3.5287283E+002
 21
2.3297573E+002
  0
ARC
  5
13f
100
AcDbEntity
  8
1
100
AcDbCircle
  6
CONTINUOUS
 62
40
 10
3.5805955E+002
 20
2.3480551E+002
 40
5.5000138
100
AcDbArc
 50
1.8963269E+002
 51
1.994319E+002
  0
LINE
  5
140
100
AcDbEntity
  8
1
100
AcDbLine
  6
CONTINUOUS
 62
40
 10
3.5263708E+002
 20
2.3388519E+002
 11
3.538237E+002
 21
2.3831367E+002
  0
ARC
  5
141
100
AcDbEntity
  8
1
100
AcDbCircle
  6
CONTINUOUS
 62
40
 10
3.5805949E+002
 20
2.3480537E+002
 40
5.5000119
100
AcDbArc
 50
1.3056777E+002
 51
1.4036665E+002
  0
LINE
  5
142
100
AcDbEntity
  8
1
100
AcDbLine
  6
CONTINUOUS
 62
40
 10
3.5448257E+002
 20
2.3898338E+002
 11
3.5903067E+002
 21
2.4021902E+002
  0
ARC
  5
143
100
AcDbEntity
  8
1
100
AcDbCircle
  6
CONTINUOUS
 62
40
 10
3.5805954E+002
 20
2.3480545E+002
 40
5.4999822
100
AcDbArc
 50
7.017048E+001
 51
7.9830022E+001
  0
LINE
  5
144
100
AcDbEntity
  8
1
100
AcDbLine
  6
CONTINUOUS
 62
40
 10
3.5992526E+002
 20
2.3997932E+002
 11
3.6324658E+002
 21
2.3663424E+002
  0
ARC
  5
145
100
AcDbEntity
  8
1
100
AcDbCircle
  6
CONTINUOUS
 62
40
 10
3.5805964E+002
 20
2.3480518E+002
 40
5.4999864
100
AcDbArc
 50
9.6227671
 51
1.94241E+001
  0
LINE
  5
146
100
AcDbEntity
  8
1
100
AcDbLine
  6
CONTINUOUS
 62
40
 10
3.6348224E+002
 20
2.3572456E+002
 11
3.6229614E+002
 21
2.3129814E+002
  0
ARC
  5
147
100
AcDbEntity
  8
1
100
AcDbCircle
  6
CONTINUOUS
 62
40
 10
3.5805947E+002
 20
2.3480534E+002
 40
5.499991
100
AcDbArc
 50
3.1058004E+002
 51
3.2038132E+002
  0
LINE
  5
148
100
AcDbEntity
  8
1
100
AcDbLine
  6
CONTINUOUS
 62
40
 10
3.6163727E+002
 20
2.3062811E+002
 11
3.5708835E+002
 21
2.2939189E+002
  0
ARC
  5
149
100
AcDbEntity
  8
1
100
AcDbCircle
  6
CONTINUOUS
 62
40
 10
3.5805954E+002
 20
2.3480545E+002
 40
5.4999892
100
AcDbArc
 50
2.5017015E+002
 51
2.5982936E+002
  0
ARC
  5
14a
100
AcDbEntity
  8
1
100
AcDbCircle
  6
CONTINUOUS
 62
40
 10
3.5305945E+002
 20
2.787591E+002
 40
2.499999
100
AcDbArc
 50
3.4745752E+002
 51
4.9254241E+002
  0
LINE
  5
14b
100
AcDbEntity
  8
1
100
AcDbLine
  6
CONTINUOUS
 62
40
 10
3.5549978E+002
 20
2.7821619E+002
 11
3.5136911E+002
 21
2.8060104E+002
  0
ARC
  5
14c
100
AcDbEntity
  8
1
100
AcDbCircle
  6
CONTINUOUS
 62
40
 10
3.5305945E+002
 20
2.7875909E+002
 40
2.5000024
100
AcDbArc
 50
1.67458E+002
 51
3.125421E+002
  0
LINE
  5
14d
100
AcDbEntity
  8
1
100
AcDbLine
  6
CONTINUOUS
 62
40
 10
3.5474978E+002
 20
2.7691714E+002
 11
3.5061911E+002
 21
2.7930198E+002
  0
ARC
  5
14e
100
AcDbEntity
  8
1
100
AcDbCircle
  6
CONTINUOUS
 62
40
 10
3.5305945E+002
 20
2.7875907E+002
 40
2.5000209
100
AcDbArc
 50
1.3254206E+002
 51
1.674574E+002
  0
ARC
  5
14f
100
AcDbEntity
  8
1
100
AcDbCircle
  6
CONTINUOUS
 62
40
 10
3.5305944E+002
 20
2.7875905E+002
 40
2.4999803
100
AcDbArc
 50
3.1254301E+002
 51
3.4745871E+002
  0
ARC
  5
150
100
AcDbEntity
  8
1
100
AcDbCircle
  6
CONTINUOUS
 62
40
 10
3.5305945E+002
 20
2.2275911E+002
 40
2.4999986
100
AcDbArc
 50
3.4745752E+002
 51
4.9254243E+002
  0
LINE
  5
151
100
AcDbEntity
  8
1
100
AcDbLine
  6
CONTINUOUS
 62
40
 10
3.5549978E+002
 20
2.222162E+002
 11
3.5136911E+002
 21
2.2460105E+002
  0
ARC
  5
152
100
AcDbEntity
  8
1
100
AcDbCircle
  6
CONTINUOUS
 62
40
 10
3.5305945E+002
 20
2.227591E+002
 40
2.5000026
100
AcDbArc
 50
1.6745802E+002
 51
3.1254208E+002
  0
LINE
  5
153
100
AcDbEntity
  8
1
100
AcDbLine
  6
CONTINUOUS
 62
40
 10
3.5474978E+002
 20
2.2091715E+002
 11
3.5061911E+002
 21
2.2330199E+002
  0
ARC
  5
154
100
AcDbEntity
  8
1
100
AcDbCircle
  6
CONTINUOUS
 62
40
 10
3.5305945E+002
 20
2.2275908E+002
 40
2.5000206
100
AcDbArc
 50
1.3254205E+002
 51
1.6745737E+002
  0
ARC
  5
155
100
AcDbEntity
  8
1
100
AcDbCircle
  6
CONTINUOUS
 62
40
 10
3.5305944E+002
 20
2.2275906E+002
 40
2.4999808
100
AcDbArc
 50
3.1254301E+002
 51
3.4745871E+002
  0
LINE
  5
156
100
AcDbEntity
  8
1
100
AcDbLine
  6
CONTINUOUS
 62
40
 10
3.4105946E+002
 20
2.297591E+002
 11
3.4105946E+002
 21
2.177591E+002
  0
LINE
  5
157
100
AcDbEntity
  8
1
100
AcDbLine
  6
CONTINUOUS
 62
40
 10
3.4105946E+002
 20
2.7175909E+002
 11
3.4105946E+002
 21
2.837591E+002
  0
CIRCLE
  5
158
100
AcDbEntity
  8
1
100
AcDbCircle
  6
CONTINUOUS
 62
40
 10
3.3405946E+002
 20
2.237591E+002
 40
2.0
  0
CIRCLE
  5
159
100
AcDbEntity
  8
1
100
AcDbCircle
  6
CONTINUOUS
 62
40
 10
3.3405946E+002
 20
2.7775908E+002
 40
2.0
  0
LINE
  5
15a
100
AcDbEntity
  8
1
100
AcDbLine
  6
CONTINUOUS
 62
40
 10
3.5355472E+002
 20
2.380091E+002
 11
3.5205945E+002
 21
2.380091E+002
  0
ARC
  5
15b
100
AcDbEntity
  8
1
100
AcDbCircle
  6
CONTINUOUS
 62
40
 10
3.5205945E+002
 20
2.347591E+002
 40
3.25
100
AcDbArc
 50
9.0E+001
 51
2.7E+002
  0
LINE
  5
15c
100
AcDbEntity
  8
1
100
AcDbLine
  6
CONTINUOUS
 62
40
 10
3.5205945E+002
 20
2.315091E+002
 11
3.5411676E+002
 21
2.315091E+002
  0
LINE
  5
15d
100
AcDbEntity
  8
1
100
AcDbLine
  6
CONTINUOUS
 62
40
 10
3.5855948E+002
 20
2.2984594E+002
 11
3.5855948E+002
 21
2.197591E+002
  0
ARC
  5
15e
100
AcDbEntity
  8
1
100
AcDbCircle
  6
CONTINUOUS
 62
40
 10
3.5655948E+002
 20
2.197591E+002
 40
1.9999948
100
AcDbArc
 50
2.6999985E+002
 51
3.6000015E+002
  0
LINE
  5
15f
100
AcDbEntity
  8
1
100
AcDbLine
  6
CONTINUOUS
 62
40
 10
3.5655948E+002
 20
2.177591E+002
 11
3.3105946E+002
 21
2.177591E+002
  0
ARC
  5
160
100
AcDbEntity
  8
1
100
AcDbCircle
  6
CONTINUOUS
 62
40
 10
3.3105946E+002
 20
2.197591E+002
 40
2.0000026
100
AcDbArc
 50
1.8000007E+002
 51
2.6999993E+002
  0
LINE
  5
161
100
AcDbEntity
  8
1
100
AcDbLine
  6
CONTINUOUS
 62
40
 10
3.2905946E+002
 20
2.197591E+002
 11
3.2905946E+002
 21
2.277591E+002
  0
ARC
  5
162
100
AcDbEntity
  8
1
100
AcDbCircle
  6
CONTINUOUS
 62
40
 10
3.3105946E+002
 20
2.277591E+002
 40
1.9999985
100
AcDbArc
 50
8.9999958E+001
 51
1.8000004E+002
  0
LINE
  5
163
100
AcDbEntity
  8
1
100
AcDbLine
  6
CONTINUOUS
 62
40
 10
3.3105946E+002
 20
2.297591E+002
 11
3.4105946E+002
 21
2.297591E+002
  0
LINE
  5
164
100
AcDbEntity
  8
1
100
AcDbLine
  6
CONTINUOUS
 62
40
 10
3.4105946E+002
 20
2.297591E+002
 11
3.4105946E+002
 21
2.7175909E+002
  0
LINE
  5
165
100
AcDbEntity
  8
1
100
AcDbLine
  6
CONTINUOUS
 62
40
 10
3.4105946E+002
 20
2.7175909E+002
 11
3.3105946E+002
 21
2.7175909E+002
  0
ARC
  5
166
100
AcDbEntity
  8
1
100
AcDbCircle
  6
CONTINUOUS
 62
40
 10
3.3105946E+002
 20
2.7375909E+002
 40
1.9999991
100
AcDbArc
 50
1.7999997E+002
 51
2.7000003E+002
  0
LINE
  5
167
100
AcDbEntity
  8
1
100
AcDbLine
  6
CONTINUOUS
 62
40
 10
3.2905946E+002
 20
2.7375909E+002
 11
3.2905946E+002
 21
2.8175909E+002
  0
ARC
  5
168
100
AcDbEntity
  8
1
100
AcDbCircle
  6
CONTINUOUS
 62
40
 10
3.3105945E+002
 20
2.817591E+002
 40
1.999986
100
AcDbArc
 50
9.0000028E+001
 51
1.800004E+002
  0
LINE
  5
169
100
AcDbEntity
  8
1
100
AcDbLine
  6
CONTINUOUS
 62
40
 10
3.3105945E+002
 20
2.8375909E+002
 11
3.5655948E+002
 21
2.837591E+002
  0
ARC
  5
16a
100
AcDbEntity
  8
1
100
AcDbCircle
  6
CONTINUOUS
 62
40
 10
3.5655949E+002
 20
2.8175911E+002
 40
1.9999924
100
AcDbArc
 50
3.5999978E+002
 51
4.5000022E+002
  0
LINE
  5
16b
100
AcDbEntity
  8
1
100
AcDbLine
  6
CONTINUOUS
 62
40
 10
3.5855948E+002
 20
2.817591E+002
 11
3.5855948E+002
 21
2.687591E+002
  0
LINE
  5
16c
100
AcDbEntity
  8
1
100
AcDbLine
  6
CONTINUOUS
 62
40
 10
3.5855948E+002
 20
2.687591E+002
 11
3.6055948E+002
 21
2.6675909E+002
  0
LINE
  5
16d
100
AcDbEntity
  8
1
100
AcDbLine
  6
CONTINUOUS
 62
40
 10
3.6055948E+002
 20
2.6675909E+002
 11
3.6055948E+002
 21
2.3934056E+002
  0
LINE
  5
16e
100
AcDbEntity
  8
1
100
AcDbLine
  6
CONTINUOUS
 62
40
 10
3.3805946E+002
 20
2.297591E+002
 11
3.3805946E+002
 21
2.7175909E+002
  0
LINE
  5
16f
100
AcDbEntity
  8
1
100
AcDbLine
  6
CONTINUOUS
 62
40
 10
3.4105946E+002
 20
2.3475911E+002
 11
3.4455945E+002
 21
2.347591E+002
  0
ARC
  5
170
100
AcDbEntity
  8
1
100
AcDbCircle
  6
CONTINUOUS
 62
40
 10
3.4455946E+002
 20
2.377591E+002
 40
2.9999992
100
AcDbArc
 50
2.699997E+002
 51
3.6000002E+002
  0
LINE
  5
171
100
AcDbEntity
  8
1
100
AcDbLine
  6
CONTINUOUS
 62
40
 10
3.4755946E+002
 20
2.377591E+002
 11
3.4755946E+002
 21
2.6375911E+002
  0
ARC
  5
172
100
AcDbEntity
  8
1
100
AcDbCircle
  6
CONTINUOUS
 62
40
 10
3.4455946E+002
 20
2.6375911E+002
 40
3.0000017
100
AcDbArc
 50
3.2406E-005
 51
8.9999968E+001
  0
LINE
  5
173
100
AcDbEntity
  8
1
100
AcDbLine
  6
CONTINUOUS
 62
40
 10
3.4455946E+002
 20
2.6675911E+002
 11
3.4105946E+002
 21
2.6675911E+002
  0
LINE
  5
174
100
AcDbEntity
  8
1
100
AcDbLine
  6
CONTINUOUS
 62
40
 10
3.3555959E+002
 20
2.6864767E+002
 11
3.3555959E+002
 21
2.6995908E+002
  0
LINE
  5
175
100
AcDbEntity
  8
1
100
AcDbLine
  6
CONTINUOUS
 62
40
 10
3.3555959E+002
 20
2.6995908E+002
 11
3.3805948E+002
 21
2.6995908E+002
  0
LINE
  5
176
100
AcDbEntity
  8
1
100
AcDbLine
  6
CONTINUOUS
 62
40
 10
3.3555957E+002
 20
2.3287051E+002
 11
3.3555957E+002
 21
2.3155908E+002
  0
LINE
  5
177
100
AcDbEntity
  8
1
100
AcDbLine
  6
CONTINUOUS
 62
40
 10
3.3555957E+002
 20
2.3155908E+002
 11
3.3805948E+002
 21
2.3155908E+002
  0
LINE
  5
178
100
AcDbEntity
  8
1
100
AcDbLine
  6
CONTINUOUS
 62
40
 10
3.2532867E+002
 20
2.3981987E+002
 11
3.2720312E+002
 21
2.3287056E+002
  0
LINE
  5
179
100
AcDbEntity
  8
1
100
AcDbLine
  6
CONTINUOUS
 62
40
 10
3.2720312E+002
 20
2.3287056E+002
 11
3.2720312E+002
 21
2.1976001E+002
  0
ARC
  5
17a
100
AcDbEntity
  8
1
100
AcDbCircle
  6
CONTINUOUS
 62
40
 10
3.2520314E+002
 20
2.1975999E+002
 40
1.9999845
100
AcDbArc
 50
2.6999956E+002
 51
3.6000044E+002
  0
LINE
  5
17b
100
AcDbEntity
  8
1
100
AcDbLine
  6
CONTINUOUS
 62
40
 10
3.2520312E+002
 20
2.1776001E+002
 11
3.1315364E+002
 21
2.1776001E+002
  0
ARC
  5
17c
100
AcDbEntity
  8
1
100
AcDbCircle
  6
CONTINUOUS
 62
40
 10
3.1315365E+002
 20
2.1976002E+002
 40
2.0000148
100
AcDbArc
 50
1.8000042E+002
 51
2.6999958E+002
  0
LINE
  5
17d
100
AcDbEntity
  8
1
100
AcDbLine
  6
CONTINUOUS
 62
40
 10
3.1115364E+002
 20
2.1976001E+002
 11
3.1115364E+002
 21
2.3282893E+002
  0
LINE
  5
17e
100
AcDbEntity
  8
1
100
AcDbLine
  6
CONTINUOUS
 62
40
 10
3.1115364E+002
 20
2.3282893E+002
 11
3.1281221E+002
 21
2.3978114E+002
  0
LINE
  5
17f
100
AcDbEntity
  8
1
100
AcDbLine
  6
CONTINUOUS
 62
40
 10
3.3505948E+002
 20
2.507591E+002
 11
3.3505948E+002
 21
2.4281774E+002
  0
ARC
  5
180
100
AcDbEntity
  8
1
100
AcDbCircle
  6
CONTINUOUS
 62
40
 10
3.3305949E+002
 20
2.4281772E+002
 40
1.9999849
100
AcDbArc
 50
2.6999957E+002
 51
3.6000043E+002
  0
LINE
  5
181
100
AcDbEntity
  8
1
100
AcDbLine
  6
CONTINUOUS
 62
40
 10
3.3305948E+002
 20
2.4081774E+002
 11
3.2705951E+002
 21
2.4081774E+002
  0
ARC
  5
182
100
AcDbEntity
  8
1
100
AcDbCircle
  6
CONTINUOUS
 62
40
 10
3.2705953E+002
 20
2.3881771E+002
 40
2.0000246
100
AcDbArc
 50
9.0000703E+001
 51
1.799993E+002
  0
LINE
  5
183
100
AcDbEntity
  8
1
100
AcDbLine
  6
CONTINUOUS
 62
40
 10
3.2505951E+002
 20
2.3881774E+002
 11
3.2505949E+002
 21
2.1976002E+002
  0
ARC
  5
184
100
AcDbEntity
  8
1
100
AcDbCircle
  6
CONTINUOUS
 62
40
 10
3.2305951E+002
 20
2.1976E+002
 40
1.9999857
100
AcDbArc
 50
2.6999959E+002
 51
3.6000041E+002
  0
LINE
  5
185
100
AcDbEntity
  8
1
100
AcDbLine
  6
CONTINUOUS
 62
40
 10
3.2305949E+002
 20
2.1776002E+002
 11
3.1505949E+002
 21
2.1776002E+002
  0
ARC
  5
186
100
AcDbEntity
  8
1
100
AcDbCircle
  6
CONTINUOUS
 62
40
 10
3.1505951E+002
 20
2.1976003E+002
 40
2.0000164
100
AcDbArc
 50
1.8000047E+002
 51
2.6999953E+002
  0
LINE
  5
187
100
AcDbEntity
  8
1
100
AcDbLine
  6
CONTINUOUS
 62
40
 10
3.1305949E+002
 20
2.1976002E+002
 11
3.1305951E+002
 21
2.3881774E+002
  0
ARC
  5
188
100
AcDbEntity
  8
1
100
AcDbCircle
  6
CONTINUOUS
 62
40
 10
3.1105952E+002
 20
2.3881775E+002
 40
1.9999887
100
AcDbArc
 50
3.5999968E+002
 51
4.5000032E+002
  0
LINE
  5
189
100
AcDbEntity
  8
1
100
AcDbLine
  6
CONTINUOUS
 62
40
 10
3.1105951E+002
 20
2.4081774E+002
 11
1.8305955E+002
 21
2.4081774E+002
  0
ARC
  5
18a
100
AcDbEntity
  8
1
100
AcDbCircle
  6
CONTINUOUS
 62
40
 10
1.8305959E+002
 20
2.3881769E+002
 40
2.0000473
100
AcDbArc
 50
9.0001354E+001
 51
1.7999865E+002
  0
LINE
  5
18b
100
AcDbEntity
  8
1
100
AcDbLine
  6
CONTINUOUS
 62
40
 10
1.8105955E+002
 20
2.3881774E+002
 11
1.8105955E+002
 21
2.1976008E+002
  0
ARC
  5
18c
100
AcDbEntity
  8
1
100
AcDbCircle
  6
CONTINUOUS
 62
40
 10
1.7905957E+002
 20
2.1976005E+002
 40
1.9999761
100
AcDbArc
 50
2.6999932E+002
 51
3.6000068E+002
  0
LINE
  5
18d
100
AcDbEntity
  8
1
100
AcDbLine
  6
CONTINUOUS
 62
40
 10
1.7905955E+002
 20
2.1776008E+002
 11
1.629963E+002
 21
2.1776008E+002
  0
ARC
  5
18e
100
AcDbEntity
  8
1
100
AcDbCircle
  6
CONTINUOUS
 62
40
 10
1.6105955E+002
 20
2.1825908E+002
 40
1.9999988
100
AcDbArc
 50
2.7000005E+002
 51
3.4555186E+002
  0
LINE
  5
18f
100
AcDbEntity
  8
1
100
AcDbLine
  6
CONTINUOUS
 62
40
 10
1.6855957E+002
 20
2.5075905E+002
 11
1.6855957E+002
 21
2.1976008E+002
  0
ARC
  5
190
100
AcDbEntity
  8
1
100
AcDbCircle
  6
CONTINUOUS
 62
40
 10
1.7055959E+002
 20
2.197601E+002
 40
2.0000198
100
AcDbArc
 50
1.8000057E+002
 51
2.6999943E+002
  0
CIRCLE
  5
191
100
AcDbEntity
  8
1
100
AcDbCircle
  6
CONTINUOUS
 62
40
 10
1.7405957E+002
 20
2.2375816E+002
 40
4.75
  0
CIRCLE
  5
192
100
AcDbEntity
  8
1
100
AcDbCircle
  6
CONTINUOUS
 62
40
 10
1.7405957E+002
 20
2.2375816E+002
 40
2.0
  0
CIRCLE
  5
193
100
AcDbEntity
  8
1
100
AcDbCircle
  6
CONTINUOUS
 62
40
 10
1.7405957E+002
 20
2.7775816E+002
 40
4.75
  0
CIRCLE
  5
194
100
AcDbEntity
  8
1
100
AcDbCircle
  6
CONTINUOUS
 62
40
 10
1.7405957E+002
 20
2.7775816E+002
 40
2.0
  0
CIRCLE
  5
195
100
AcDbEntity
  8
1
100
AcDbCircle
  6
CONTINUOUS
 62
40
 10
3.1905949E+002
 20
2.2375819E+002
 40
4.75
  0
CIRCLE
  5
196
100
AcDbEntity
  8
1
100
AcDbCircle
  6
CONTINUOUS
 62
40
 10
3.1905949E+002
 20
2.2375819E+002
 40
2.0
  0
CIRCLE
  5
197
100
AcDbEntity
  8
1
100
AcDbCircle
  6
CONTINUOUS
 62
40
 10
3.1905951E+002
 20
2.7775816E+002
 40
4.75
  0
CIRCLE
  5
198
100
AcDbEntity
  8
1
100
AcDbCircle
  6
CONTINUOUS
 62
40
 10
3.1905951E+002
 20
2.7775816E+002
 40
2.0
  0
LINE
  5
199
100
AcDbEntity
  8
1
100
AcDbLine
  6
CONTINUOUS
 62
40
 10
8.6559619E+001
 20
2.3200909E+002
 11
8.7559611E+001
 21
2.3100911E+002
  0
LINE
  5
19a
100
AcDbEntity
  8
1
100
AcDbLine
  6
CONTINUOUS
 62
40
 10
8.7559611E+001
 20
2.3100911E+002
 11
9.9162379E+001
 21
2.3100918E+002
  0
ARC
  5
19b
100
AcDbEntity
  8
1
100
AcDbCircle
  6
CONTINUOUS
 62
40
 10
9.9162604E+001
 20
2.2700996E+002
 40
3.9992213
100
AcDbArc
 50
5.999728E+001
 51
9.0003219E+001
  0
LINE
  5
19c
100
AcDbEntity
  8
1
100
AcDbLine
  6
CONTINUOUS
 62
40
 10
1.0116238E+002
 20
2.3047329E+002
 11
1.1005955E+002
 21
2.2533651E+002
  0
ARC
  5
19d
100
AcDbEntity
  8
1
100
AcDbCircle
  6
CONTINUOUS
 62
40
 10
1.0905975E+002
 20
2.2360458E+002
 40
1.9997964
100
AcDbArc
 50
3.5999651E+002
 51
4.2000337E+002
  0
LINE
  5
19e
100
AcDbEntity
  8
1
100
AcDbLine
  6
CONTINUOUS
 62
40
 10
1.1105955E+002
 20
2.2360446E+002
 11
1.1105955E+002
 21
2.1825912E+002
  0
ARC
  5
19f
100
AcDbEntity
  8
1
100
AcDbCircle
  6
CONTINUOUS
 62
40
 10
1.1305957E+002
 20
2.1825914E+002
 40
2.0000226
100
AcDbArc
 50
1.8000065E+002
 51
2.6999935E+002
  0
ARC
  5
1a0
100
AcDbEntity
  8
1
100
AcDbCircle
  6
CONTINUOUS
 62
40
 10
1.1305956E+002
 20
2.8325905E+002
 40
2.0000113
100
AcDbArc
 50
9.0000324E+001
 51
1.7999968E+002
  0
LINE
  5
1a1
100
AcDbEntity
  8
1
100
AcDbLine
  6
CONTINUOUS
 62
40
 10
1.1105955E+002
 20
2.8325906E+002
 11
1.1105955E+002
 21
2.7791372E+002
  0
ARC
  5
1a2
100
AcDbEntity
  8
1
100
AcDbCircle
  6
CONTINUOUS
 62
40
 10
1.090597E+002
 20
2.7791363E+002
 40
1.9998516
100
AcDbArc
 50
2.9999755E+002
 51
3.600026E+002
  0
LINE
  5
1a3
100
AcDbEntity
  8
1
100
AcDbLine
  6
CONTINUOUS
 62
40
 10
1.1005955E+002
 20
2.7618167E+002
 11
1.0116238E+002
 21
2.7104489E+002
  0
ARC
  5
1a4
100
AcDbEntity
  8
1
100
AcDbCircle
  6
CONTINUOUS
 62
40
 10
9.9162324E+001
 20
2.7450927E+002
 40
4.000272
100
AcDbArc
 50
2.7000079E+002
 51
2.9999866E+002
  0
LINE
  5
1a5
100
AcDbEntity
  8
1
100
AcDbLine
  6
CONTINUOUS
 62
40
 10
9.9162379E+001
 20
2.70509E+002
 11
8.7559611E+001
 21
2.7050908E+002
  0
LINE
  5
1a6
100
AcDbEntity
  8
1
100
AcDbLine
  6
CONTINUOUS
 62
40
 10
8.7559611E+001
 20
2.7050908E+002
 11
8.6559619E+001
 21
2.6950909E+002
  0
LINE
  5
1a7
100
AcDbEntity
  8
1
100
AcDbLine
  6
CONTINUOUS
 62
40
 10
8.4559619E+001
 20
2.5075908E+002
 11
8.4559619E+001
 21
2.3400908E+002
  0
LINE
  5
1a8
100
AcDbEntity
  8
1
100
AcDbLine
  6
CONTINUOUS
 62
40
 10
8.4559619E+001
 20
2.3400908E+002
 11
8.6559619E+001
 21
2.3200908E+002
  0
LINE
  5
1a9
100
AcDbEntity
  8
1
100
AcDbLine
  6
CONTINUOUS
 62
40
 10
8.6559619E+001
 20
2.3200908E+002
 11
8.6559615E+001
 21
2.2975905E+002
  0
ARC
  5
1aa
100
AcDbEntity
  8
1
100
AcDbCircle
  6
CONTINUOUS
 62
40
 10
8.7559628E+001
 20
2.2975906E+002
 40
1.000013
100
AcDbArc
 50
1.8000074E+002
 51
2.6999926E+002
  0
LINE
  5
1ab
100
AcDbEntity
  8
1
100
AcDbLine
  6
CONTINUOUS
 62
40
 10
8.7559615E+001
 20
2.2875905E+002
 11
9.1192969E+001
 21
2.2875905E+002
  0
LINE
  5
1ac
100
AcDbEntity
  8
1
100
AcDbLine
  6
CONTINUOUS
 62
40
 10
9.1194285E+001
 20
2.2175906E+002
 11
8.7559619E+001
 21
2.2175906E+002
  0
LINE
  5
1ad
100
AcDbEntity
  8
1
100
AcDbLine
  6
CONTINUOUS
 62
40
 10
8.7250602E+001
 20
2.2171011E+002
 11
8.7099967E+001
 21
2.2166117E+002
  0
LINE
  5
1ae
100
AcDbEntity
  8
1
100
AcDbLine
  6
CONTINUOUS
 62
40
 10
8.6843696E+001
 20
2.2147497E+002
 11
8.6750602E+001
 21
2.2134684E+002
  0
LINE
  5
1af
100
AcDbEntity
  8
1
100
AcDbLine
  6
CONTINUOUS
 62
40
 10
8.6750602E+001
 20
2.2134684E+002
 11
8.6657508E+001
 21
2.212187E+002
  0
LINE
  5
1b0
100
AcDbEntity
  8
1
100
AcDbLine
  6
CONTINUOUS
 62
40
 10
8.6657508E+001
 20
2.212187E+002
 11
8.6608561E+001
 21
2.2106808E+002
  0
LINE
  5
1b1
100
AcDbEntity
  8
1
100
AcDbLine
  6
CONTINUOUS
 62
40
 10
8.6608561E+001
 20
2.2106808E+002
 11
8.6608561E+001
 21
2.2091744E+002
  0
LINE
  5
1b2
100
AcDbEntity
  8
1
100
AcDbLine
  6
CONTINUOUS
 62
40
 10
8.6608561E+001
 20
2.2091744E+002
 11
8.6559615E+001
 21
2.2091744E+002
  0
LINE
  5
1b3
100
AcDbEntity
  8
1
100
AcDbLine
  6
CONTINUOUS
 62
40
 10
8.6559615E+001
 20
2.2091744E+002
 11
8.6559615E+001
 21
2.2106808E+002
  0
LINE
  5
1b4
100
AcDbEntity
  8
1
100
AcDbLine
  6
CONTINUOUS
 62
40
 10
8.6559615E+001
 20
2.2106808E+002
 11
8.6608561E+001
 21
2.2106808E+002
  0
LINE
  5
1b5
100
AcDbEntity
  8
1
100
AcDbLine
  6
CONTINUOUS
 62
40
 10
8.6559619E+001
 20
2.2075906E+002
 11
8.6559619E+001
 21
2.2025906E+002
  0
LINE
  5
1b6
100
AcDbEntity
  8
1
100
AcDbLine
  6
CONTINUOUS
 62
40
 10
8.6559619E+001
 20
2.2025906E+002
 11
8.6636474E+001
 21
2.1947869E+002
  0
LINE
  5
1b7
100
AcDbEntity
  8
1
100
AcDbLine
  6
CONTINUOUS
 62
40
 10
8.6636474E+001
 20
2.1947869E+002
 11
8.6713328E+001
 21
2.1909229E+002
  0
LINE
  5
1b8
100
AcDbEntity
  8
1
100
AcDbLine
  6
CONTINUOUS
 62
40
 10
8.6713328E+001
 20
2.1909229E+002
 11
8.6864093E+001
 21
2.1872831E+002
  0
LINE
  5
1b9
100
AcDbEntity
  8
1
100
AcDbLine
  6
CONTINUOUS
 62
40
 10
8.6864093E+001
 20
2.1872831E+002
 11
8.7014853E+001
 21
2.1836433E+002
  0
LINE
  5
1ba
100
AcDbEntity
  8
1
100
AcDbLine
  6
CONTINUOUS
 62
40
 10
8.7014853E+001
 20
2.1836433E+002
 11
8.7233726E+001
 21
2.1803675E+002
  0
ARC
  5
1bb
100
AcDbEntity
  8
1
100
AcDbCircle
  6
CONTINUOUS
 62
40
 10
9.0561744E+001
 20
2.2026073E+002
 40
4.0027206
100
AcDbArc
 50
2.1375315E+002
 51
2.2499556E+002
  0
ARC
  5
1bc
100
AcDbEntity
  8
1
100
AcDbCircle
  6
CONTINUOUS
 62
40
 10
9.0558027E+001
 20
2.2025711E+002
 40
3.9975327
100
AcDbArc
 50
2.2499654E+002
 51
2.3625353E+002
  0
ARC
  5
1bd
100
AcDbEntity
  8
1
100
AcDbCircle
  6
CONTINUOUS
 62
40
 10
9.0560756E+001
 20
2.2026114E+002
 40
4.0024018
100
AcDbArc
 50
2.362531E+002
 51
2.4749636E+002
  0
ARC
  5
1be
100
AcDbEntity
  8
1
100
AcDbCircle
  6
CONTINUOUS
 62
40
 10
9.0559888E+001
 20
2.2025987E+002
 40
4.0008973
100
AcDbArc
 50
2.4750089E+002
 51
2.5874851E+002
  0
ARC
  5
1bf
100
AcDbEntity
  8
1
100
AcDbCircle
  6
CONTINUOUS
 62
40
 10
9.0559603E+001
 20
2.202597E+002
 40
4.0006717
100
AcDbArc
 50
2.5875204E+002
 51
2.7000023E+002
  0
LINE
  5
1c0
100
AcDbEntity
  8
1
100
AcDbLine
  6
CONTINUOUS
 62
40
 10
9.0559619E+001
 20
2.1625903E+002
 11
1.6106748E+002
 21
2.16259E+002
  0
LINE
  5
1c1
100
AcDbEntity
  8
1
100
AcDbLine
  6
CONTINUOUS
 62
40
 10
1.6106748E+002
 20
2.16259E+002
 11
2.0305957E+002
 21
2.1625906E+002
  0
LINE
  5
1c2
100
AcDbEntity
  8
1
100
AcDbLine
  6
CONTINUOUS
 62
40
 10
2.1355955E+002
 20
2.8525908E+002
 11
1.6106748E+002
 21
2.8525908E+002
  0
LINE
  5
1c3
100
AcDbEntity
  8
1
100
AcDbLine
  6
CONTINUOUS
 62
40
 10
1.6106748E+002
 20
2.8525908E+002
 11
9.0559619E+001
 21
2.8525914E+002
  0
ARC
  5
1c4
100
AcDbEntity
  8
1
100
AcDbCircle
  6
CONTINUOUS
 62
40
 10
9.0559618E+001
 20
2.8125915E+002
 40
3.9999986
100
AcDbArc
 50
8.999998E+001
 51
1.8000089E+002
  0
LINE
  5
1c5
100
AcDbEntity
  8
1
100
AcDbLine
  6
CONTINUOUS
 62
40
 10
8.6559619E+001
 20
2.8125908E+002
 11
8.6559619E+001
 21
2.8075899E+002
  0
ARC
  5
1c6
100
AcDbEntity
  8
1
100
AcDbCircle
  6
CONTINUOUS
 62
40
 10
8.7559627E+001
 20
2.80759E+002
 40
1.0000079
100
AcDbArc
 50
1.8000045E+002
 51
2.6999955E+002
  0
LINE
  5
1c7
100
AcDbEntity
  8
1
100
AcDbLine
  6
CONTINUOUS
 62
40
 10
8.7559619E+001
 20
2.7975899E+002
 11
9.0821494E+001
 21
2.7975899E+002
  0
LINE
  5
1c8
100
AcDbEntity
  8
1
100
AcDbLine
  6
CONTINUOUS
 62
40
 10
9.1489329E+001
 20
2.7275899E+002
 11
8.7559615E+001
 21
2.7275899E+002
  0
LINE
  5
1c9
100
AcDbEntity
  8
1
100
AcDbLine
  6
CONTINUOUS
 62
40
 10
8.7559615E+001
 20
2.7275899E+002
 11
8.7427958E+001
 21
2.7275898E+002
  0
LINE
  5
1ca
100
AcDbEntity
  8
1
100
AcDbLine
  6
CONTINUOUS
 62
40
 10
8.7427958E+001
 20
2.7275898E+002
 11
8.7300792E+001
 21
2.727249E+002
  0
LINE
  5
1cb
100
AcDbEntity
  8
1
100
AcDbLine
  6
CONTINUOUS
 62
40
 10
8.7300792E+001
 20
2.727249E+002
 11
8.7173625E+001
 21
2.7269083E+002
  0
LINE
  5
1cc
100
AcDbEntity
  8
1
100
AcDbLine
  6
CONTINUOUS
 62
40
 10
8.7173625E+001
 20
2.7269083E+002
 11
8.7059611E+001
 21
2.72625E+002
  0
LINE
  5
1cd
100
AcDbEntity
  8
1
100
AcDbLine
  6
CONTINUOUS
 62
40
 10
8.7059611E+001
 20
2.72625E+002
 11
8.6945598E+001
 21
2.7255918E+002
  0
LINE
  5
1ce
100
AcDbEntity
  8
1
100
AcDbLine
  6
CONTINUOUS
 62
40
 10
8.6945598E+001
 20
2.7255918E+002
 11
8.6852504E+001
 21
2.7246608E+002
  0
LINE
  5
1cf
100
AcDbEntity
  8
1
100
AcDbLine
  6
CONTINUOUS
 62
40
 10
8.6852504E+001
 20
2.7246608E+002
 11
8.6759414E+001
 21
2.7237299E+002
  0
LINE
  5
1d0
100
AcDbEntity
  8
1
100
AcDbLine
  6
CONTINUOUS
 62
40
 10
8.6759414E+001
 20
2.7237299E+002
 11
8.6693587E+001
 21
2.7225898E+002
  0
LINE
  5
1d1
100
AcDbEntity
  8
1
100
AcDbLine
  6
CONTINUOUS
 62
40
 10
8.6693587E+001
 20
2.7225898E+002
 11
8.6627765E+001
 21
2.7214496E+002
  0
LINE
  5
1d2
100
AcDbEntity
  8
1
100
AcDbLine
  6
CONTINUOUS
 62
40
 10
8.6627765E+001
 20
2.7214496E+002
 11
8.6593688E+001
 21
2.7201779E+002
  0
ARC
  5
1d3
100
AcDbEntity
  8
1
100
AcDbCircle
  6
CONTINUOUS
 62
40
 10
8.7557879E+001
 20
2.7175921E+002
 40
9.9826348E-001
100
AcDbArc
 50
1.6498716E+002
 51
1.8001339E+002
  0
LINE
  5
1d4
100
AcDbEntity
  8
1
100
AcDbLine
  6
CONTINUOUS
 62
40
 10
8.6559615E+001
 20
2.7175898E+002
 11
8.6559619E+001
 21
2.6950908E+002
  0
LINE
  5
1d5
100
AcDbEntity
  8
1
100
AcDbLine
  6
CONTINUOUS
 62
40
 10
8.6559619E+001
 20
2.6950908E+002
 11
8.4559619E+001
 21
2.6750908E+002
  0
LINE
  5
1d6
100
AcDbEntity
  8
1
100
AcDbLine
  6
CONTINUOUS
 62
40
 10
8.4559619E+001
 20
2.6750908E+002
 11
8.4559619E+001
 21
2.5075908E+002
  0
LINE
  5
1d7
100
AcDbEntity
  8
1
100
AcDbLine
  6
CONTINUOUS
 62
40
 10
2.2459737E+002
 20
2.2997905E+002
 11
2.2459736E+002
 21
2.2125895E+002
  0
ARC
  5
1d8
100
AcDbEntity
  8
1
100
AcDbCircle
  6
CONTINUOUS
 62
40
 10
2.334816E+002
 20
2.2124333E+002
 40
8.884252
100
AcDbArc
 50
1.7989925E+002
 51
1.8292164E+002
  0
ARC
  5
1d9
100
AcDbEntity
  8
1
100
AcDbCircle
  6
CONTINUOUS
 62
40
 10
2.3041023E+002
 20
2.2108156E+002
 40
5.8086381
100
AcDbArc
 50
1.8287228E+002
 51
1.8688602E+002
  0
ARC
  5
1da
100
AcDbEntity
  8
1
100
AcDbCircle
  6
CONTINUOUS
 62
40
 10
2.2822163E+002
 20
2.2081208E+002
 40
3.6035209
100
AcDbArc
 50
1.8680427E+002
 51
1.9232498E+002
  0
ARC
  5
1db
100
AcDbEntity
  8
1
100
AcDbCircle
  6
CONTINUOUS
 62
40
 10
2.2676764E+002
 20
2.204893E+002
 40
2.1141442
100
AcDbArc
 50
1.9219031E+002
 51
2.000721E+002
  0
ARC
  5
1dc
100
AcDbEntity
  8
1
100
AcDbCircle
  6
CONTINUOUS
 62
40
 10
2.2607686E+002
 20
2.2024303E+002
 40
1.380816
100
AcDbArc
 50
2.0031112E+002
 51
2.0553521E+002
  0
ARC
  5
1dd
100
AcDbEntity
  8
1
100
AcDbCircle
  6
CONTINUOUS
 62
40
 10
2.2576122E+002
 20
2.2009171E+002
 40
1.0307792
100
AcDbArc
 50
2.0550886E+002
 51
2.1185709E+002
  0
ARC
  5
1de
100
AcDbEntity
  8
1
100
AcDbCircle
  6
CONTINUOUS
 62
40
 10
2.2554576E+002
 20
2.199575E+002
 40
7.7693399E-001
100
AcDbArc
 50
2.1183679E+002
 51
2.1950098E+002
  0
ARC
  5
1df
100
AcDbEntity
  8
1
100
AcDbCircle
  6
CONTINUOUS
 62
40
 10
2.2541189E+002
 20
2.1984714E+002
 40
6.0343902E-001
100
AcDbArc
 50
2.1950133E+002
 51
2.2857007E+002
  0
ARC
  5
1e0
100
AcDbEntity
  8
1
100
AcDbCircle
  6
CONTINUOUS
 62
40
 10
2.2534101E+002
 20
2.1976735E+002
 40
4.9671081E-001
100
AcDbArc
 50
2.2860937E+002
 51
2.3893187E+002
  0
ARC
  5
1e1
100
AcDbEntity
  8
1
100
AcDbCircle
  6
CONTINUOUS
 62
40
 10
2.2531458E+002
 20
2.1972475E+002
 40
4.4658693E-001
100
AcDbArc
 50
2.390159E+002
 51
2.500948E+002
  0
ARC
  5
1e2
100
AcDbEntity
  8
1
100
AcDbCircle
  6
CONTINUOUS
 62
40
 10
2.2531416E+002
 20
2.1972599E+002
 40
4.4760358E-001
100
AcDbArc
 50
2.5019909E+002
 51
2.6126126E+002
  0
ARC
  5
1e3
100
AcDbEntity
  8
1
100
AcDbCircle
  6
CONTINUOUS
 62
40
 10
2.2532139E+002
 20
2.1977776E+002
 40
4.9987698E-001
100
AcDbArc
 50
2.6134373E+002
 51
2.7162271E+002
  0
ARC
  5
1e4
100
AcDbEntity
  8
1
100
AcDbCircle
  6
CONTINUOUS
 62
40
 10
1.9326991E+002
 20
2.2222974E+002
 40
1.9977691
100
AcDbArc
 50
1.1719751E+001
 51
5.0911243E+001
  0
ARC
  5
1e5
100
AcDbEntity
  8
1
100
AcDbCircle
  6
CONTINUOUS
 62
40
 10
1.9326542E+002
 20
2.2222422E+002
 40
2.0048865
100
AcDbArc
 50
5.0911181E+001
 51
9.0009984E+001
  0
LINE
  5
1e6
100
AcDbEntity
  8
1
100
AcDbLine
  6
CONTINUOUS
 62
40
 10
1.9326507E+002
 20
2.2422911E+002
 11
1.8305954E+002
 21
2.2422911E+002
  0
ARC
  5
1e7
100
AcDbEntity
  8
1
100
AcDbCircle
  6
CONTINUOUS
 62
40
 10
1.8305957E+002
 20
2.2222908E+002
 40
2.0000277
100
AcDbArc
 50
9.0000794E+001
 51
1.7999921E+002
  0
ARC
  5
1e8
100
AcDbEntity
  8
1
100
AcDbCircle
  6
CONTINUOUS
 62
40
 10
2.0305957E+002
 20
2.2425907E+002
 40
8.0000075
100
AcDbArc
 50
9.0E+001
 51
2.7E+002
  0
LINE
  5
1e9
100
AcDbEntity
  8
1
100
AcDbLine
  6
CONTINUOUS
 62
40
 10
2.0305957E+002
 20
2.3225908E+002
 11
2.0805958E+002
 21
2.3225908E+002
  0
ARC
  5
1ea
100
AcDbEntity
  8
1
100
AcDbCircle
  6
CONTINUOUS
 62
40
 10
2.0805958E+002
 20
2.2425908E+002
 40
8.0
100
AcDbArc
 50
2.7E+002
 51
4.5E+002
  0
LINE
  5
1eb
100
AcDbEntity
  8
1
100
AcDbLine
  6
CONTINUOUS
 62
40
 10
2.0805958E+002
 20
2.1625908E+002
 11
2.0305957E+002
 21
2.1625906E+002
  0
CIRCLE
  5
1ec
100
AcDbEntity
  8
1
100
AcDbCircle
  6
CENTERLINE
 62
1
 10
1.3405958E+002
 20
2.5075906E+002
 40
1.1999985E+001
  0
CIRCLE
  5
1ed
100
AcDbEntity
  8
1
100
AcDbCircle
  6
CONTINUOUS
 62
40
 10
2.1355956E+002
 20
2.7725909E+002
 40
8.0
  0
LINE
  5
1ee
100
AcDbEntity
  8
1
100
AcDbLine
  6
CONTINUOUS
 62
40
 10
2.2155961E+002
 20
2.7153909E+002
 11
2.2459737E+002
 21
2.7153909E+002
  0
ARC
  5
1ef
100
AcDbEntity
  8
1
100
AcDbCircle
  6
CONTINUOUS
 62
40
 10
2.2676771E+002
 20
2.7153306E+002
 40
2.1703457
100
AcDbArc
 50
1.6801586E+002
 51
1.7984095E+002
  0
ARC
  5
1f0
100
AcDbEntity
  8
1
100
AcDbCircle
  6
CONTINUOUS
 62
40
 10
2.2713783E+002
 20
2.7145562E+002
 40
2.5484821
100
AcDbArc
 50
1.5741652E+002
 51
1.6804059E+002
  0
ARC
  5
1f1
100
AcDbEntity
  8
1
100
AcDbCircle
  6
CONTINUOUS
 62
40
 10
2.2749504E+002
 20
2.7130902E+002
 40
2.9345976
100
AcDbArc
 50
1.477822E+002
 51
1.5745192E+002
  0
ARC
  5
1f2
100
AcDbEntity
  8
1
100
AcDbCircle
  6
CONTINUOUS
 62
40
 10
2.277743E+002
 20
2.7113554E+002
 40
3.2633551
100
AcDbArc
 50
1.3881122E+002
 51
1.4781937E+002
  0
ARC
  5
1f3
100
AcDbEntity
  8
1
100
AcDbCircle
  6
CONTINUOUS
 62
40
 10
2.2795309E+002
 20
2.7098085E+002
 40
3.4997653
100
AcDbArc
 50
1.216382E+002
 51
1.3883307E+002
  0
ARC
  5
1f4
100
AcDbEntity
  8
1
100
AcDbCircle
  6
CONTINUOUS
 62
40
 10
2.2790919E+002
 20
2.710617E+002
 40
3.4079056
100
AcDbArc
 50
1.1297148E+002
 51
1.2172274E+002
  0
ARC
  5
1f5
100
AcDbEntity
  8
1
100
AcDbCircle
  6
CONTINUOUS
 62
40
 10
2.278081E+002
 20
2.7130533E+002
 40
3.1441501
100
AcDbArc
 50
1.0377336E+002
 51
1.1300805E+002
  0
LINE
  5
1f6
100
AcDbEntity
  8
1
100
AcDbLine
  6
CONTINUOUS
 62
40
 10
2.2705953E+002
 20
2.7435907E+002
 11
2.2705953E+002
 21
2.8025921E+002
  0
ARC
  5
1f7
100
AcDbEntity
  8
1
100
AcDbCircle
  6
CONTINUOUS
 62
40
 10
2.250596E+002
 20
2.8025929E+002
 40
1.9999262
100
AcDbArc
 50
3.5999788E+002
 51
4.5000297E+002
  0
LINE
  5
1f8
100
AcDbEntity
  8
1
100
AcDbLine
  6
CONTINUOUS
 62
40
 10
2.250595E+002
 20
2.8225921E+002
 11
2.2456959E+002
 21
2.8225921E+002
  0
LINE
  5
1f9
100
AcDbEntity
  8
1
100
AcDbLine
  6
CONTINUOUS
 62
40
 10
2.2456959E+002
 20
2.8225921E+002
 11
2.2305958E+002
 21
2.8225921E+002
  0
LINE
  5
1fa
100
AcDbEntity
  8
1
100
AcDbLine
  6
CONTINUOUS
 62
40
 10
2.2305958E+002
 20
2.8225921E+002
 11
2.1980445E+002
 21
2.8225921E+002
  0
ARC
  5
1fb
100
AcDbEntity
  8
1
100
AcDbCircle
  6
CONTINUOUS
 62
40
 10
3.1305952E+002
 20
2.441567E+002
 40
2.0000292
100
AcDbArc
 50
1.8000084E+002
 51
2.6999916E+002
  0
LINE
  5
1fc
100
AcDbEntity
  8
1
100
AcDbLine
  6
CONTINUOUS
 62
40
 10
3.1105949E+002
 20
2.4415667E+002
 11
3.1105949E+002
 21
2.5715667E+002
  0
ARC
  5
1fd
100
AcDbEntity
  8
1
100
AcDbCircle
  6
CONTINUOUS
 62
40
 10
3.1305952E+002
 20
2.5715664E+002
 40
2.0000293
100
AcDbArc
 50
9.000084E+001
 51
1.7999916E+002
  0
LINE
  5
1fe
100
AcDbEntity
  8
1
100
AcDbLine
  6
CONTINUOUS
 62
40
 10
3.1305949E+002
 20
2.5915667E+002
 11
3.2505949E+002
 21
2.5915667E+002
  0
ARC
  5
1ff
100
AcDbEntity
  8
1
100
AcDbCircle
  6
CONTINUOUS
 62
40
 10
3.2505953E+002
 20
2.5715671E+002
 40
1.9999675
100
AcDbArc
 50
3.5999907E+002
 51
4.5000093E+002
  0
LINE
  5
200
100
AcDbEntity
  8
1
100
AcDbLine
  6
CONTINUOUS
 62
40
 10
3.2705949E+002
 20
2.5715667E+002
 11
3.2705949E+002
 21
2.4415667E+002
  0
ARC
  5
201
100
AcDbEntity
  8
1
100
AcDbCircle
  6
CONTINUOUS
 62
40
 10
3.2505952E+002
 20
2.4415665E+002
 40
1.9999766
100
AcDbArc
 50
2.6999933E+002
 51
3.6000067E+002
  0
LINE
  5
202
100
AcDbEntity
  8
1
100
AcDbLine
  6
CONTINUOUS
 62
40
 10
3.2505949E+002
 20
2.4215667E+002
 11
3.1305949E+002
 21
2.4215667E+002
  0
LINE
  5
203
100
AcDbEntity
  8
1
100
AcDbLine
  6
CONTINUOUS
 62
40
 10
2.2405956E+002
 20
2.5075906E+002
 11
2.2405956E+002
 21
2.5725906E+002
  0
ARC
  5
204
100
AcDbEntity
  8
1
100
AcDbCircle
  6
CONTINUOUS
 62
40
 10
2.2605957E+002
 20
2.5725906E+002
 40
2.0000038
100
AcDbArc
 50
9.0000997E+001
 51
1.7999989E+002
  0
LINE
  5
205
100
AcDbEntity
  8
1
100
AcDbLine
  6
CONTINUOUS
 62
40
 10
2.2605953E+002
 20
2.5925906E+002
 11
2.6205951E+002
 21
2.5925904E+002
  0
ARC
  5
206
100
AcDbEntity
  8
1
100
AcDbCircle
  6
CONTINUOUS
 62
40
 10
2.6205953E+002
 20
2.5725907E+002
 40
1.9999751
100
AcDbArc
 50
3.5999929E+002
 51
4.5000071E+002
  0
LINE
  5
207
100
AcDbEntity
  8
1
100
AcDbLine
  6
CONTINUOUS
 62
40
 10
2.6405951E+002
 20
2.5725904E+002
 11
2.6405951E+002
 21
2.4425904E+002
  0
ARC
  5
208
100
AcDbEntity
  8
1
100
AcDbCircle
  6
CONTINUOUS
 62
40
 10
2.620595E+002
 20
2.4425905E+002
 40
2.0000068
100
AcDbArc
 50
2.6999976E+002
 51
3.5999981E+002
  0
LINE
  5
209
100
AcDbEntity
  8
1
100
AcDbLine
  6
CONTINUOUS
 62
40
 10
2.6205949E+002
 20
2.4225904E+002
 11
2.2605956E+002
 21
2.4225909E+002
  0
ARC
  5
20a
100
AcDbEntity
  8
1
100
AcDbCircle
  6
CONTINUOUS
 62
40
 10
2.2605964E+002
 20
2.4425917E+002
 40
2.0000799
100
AcDbArc
 50
1.8000229E+002
 51
2.6999771E+002
  0
LINE
  5
20b
100
AcDbEntity
  8
1
100
AcDbLine
  6
CONTINUOUS
 62
40
 10
2.2405956E+002
 20
2.4425909E+002
 11
2.2405956E+002
 21
2.5075906E+002
  0
LINE
  5
20c
100
AcDbEntity
  8
1
100
AcDbLine
  6
CONTINUOUS
 62
40
 10
2.2705953E+002
 20
2.2675903E+002
 11
2.9123987E+002
 21
2.2675903E+002
  0
LINE
  5
20d
100
AcDbEntity
  8
1
100
AcDbLine
  6
CONTINUOUS
 62
40
 10
2.9123987E+002
 20
2.2675903E+002
 11
2.9819556E+002
 21
2.2675906E+002
  0
LINE
  5
20e
100
AcDbEntity
  8
1
100
AcDbLine
  6
CONTINUOUS
 62
40
 10
2.9819556E+002
 20
2.2675906E+002
 11
3.0805951E+002
 21
2.2675906E+002
  0
ARC
  5
20f
100
AcDbEntity
  8
1
100
AcDbCircle
  6
CONTINUOUS
 62
40
 10
3.0805955E+002
 20
2.2475907E+002
 40
1.9999901
100
AcDbArc
 50
3.5999972E+002
 51
4.5000117E+002
  0
LINE
  5
210
100
AcDbEntity
  8
1
100
AcDbLine
  6
CONTINUOUS
 62
40
 10
3.1005954E+002
 20
2.2475906E+002
 11
3.1005954E+002
 21
2.2375906E+002
  0
LINE
  5
211
100
AcDbEntity
  8
1
100
AcDbLine
  6
CONTINUOUS
 62
40
 10
3.1005954E+002
 20
2.2375906E+002
 11
3.1005951E+002
 21
2.1975908E+002
  0
ARC
  5
212
100
AcDbEntity
  8
1
100
AcDbCircle
  6
CONTINUOUS
 62
40
 10
3.1205953E+002
 20
2.1975908E+002
 40
2.0000209
100
AcDbArc
 50
1.8000017E+002
 51
2.699994E+002
  0
LINE
  5
213
100
AcDbEntity
  8
1
100
AcDbLine
  6
CONTINUOUS
 62
40
 10
3.1205951E+002
 20
2.1775906E+002
 11
3.3605945E+002
 21
2.1775906E+002
  0
LINE
  5
214
100
AcDbEntity
  8
1
100
AcDbLine
  6
CONTINUOUS
 62
40
 10
3.3555957E+002
 20
2.3287057E+002
 11
3.2720311E+002
 21
2.3287057E+002
  0
LINE
  5
215
100
AcDbEntity
  8
1
100
AcDbLine
  6
CONTINUOUS
 62
40
 10
3.1116354E+002
 20
2.328706E+002
 11
3.1105951E+002
 21
2.328706E+002
  0
ARC
  5
216
100
AcDbEntity
  8
1
100
AcDbCircle
  6
CONTINUOUS
 62
40
 10
3.1106068E+002
 20
2.3218803E+002
 40
6.8256706E-001
100
AcDbArc
 50
9.0098387E+001
 51
1.0671105E+002
  0
ARC
  5
217
100
AcDbEntity
  8
1
100
AcDbCircle
  6
CONTINUOUS
 62
40
 10
3.1107739E+002
 20
2.3213039E+002
 40
7.4258101E-001
100
AcDbArc
 50
1.066666E+002
 51
1.1451931E+002
  0
ARC
  5
218
100
AcDbEntity
  8
1
100
AcDbCircle
  6
CONTINUOUS
 62
40
 10
3.1110714E+002
 20
2.3206549E+002
 40
8.1397827E-001
100
AcDbArc
 50
1.1452938E+002
 51
1.2191617E+002
  0
ARC
  5
219
100
AcDbEntity
  8
1
100
AcDbCircle
  6
CONTINUOUS
 62
40
 10
3.111569E+002
 20
2.3198571E+002
 40
9.080063E-001
100
AcDbArc
 50
1.2191952E+002
 51
1.2878732E+002
  0
ARC
  5
21a
100
AcDbEntity
  8
1
100
AcDbCircle
  6
CONTINUOUS
 62
40
 10
3.1122887E+002
 20
2.318961E+002
 40
1.0229314
100
AcDbArc
 50
1.2878555E+002
 51
1.351289E+002
  0
ARC
  5
21b
100
AcDbEntity
  8
1
100
AcDbCircle
  6
CONTINUOUS
 62
40
 10
3.1137557E+002
 20
2.3175489E+002
 40
1.226536
100
AcDbArc
 50
1.352888E+002
 51
1.4653395E+002
  0
ARC
  5
21c
100
AcDbEntity
  8
1
100
AcDbCircle
  6
CONTINUOUS
 62
40
 10
3.1163246E+002
 20
2.3158321E+002
 40
1.5355073
100
AcDbArc
 50
1.4647597E+002
 51
1.5615557E+002
  0
ARC
  5
21d
100
AcDbEntity
  8
1
100
AcDbCircle
  6
CONTINUOUS
 62
40
 10
3.1191156E+002
 20
2.314579E+002
 40
1.8414382
100
AcDbArc
 50
1.5609992E+002
 51
1.6467383E+002
  0
ARC
  5
21e
100
AcDbEntity
  8
1
100
AcDbCircle
  6
CONTINUOUS
 62
40
 10
3.1221505E+002
 20
2.3137683E+002
 40
2.1555665
100
AcDbArc
 50
1.6472767E+002
 51
1.8016551E+002
  0
LINE
  5
21f
100
AcDbEntity
  8
1
100
AcDbLine
  6
CONTINUOUS
 62
40
 10
3.1005949E+002
 20
2.313706E+002
 11
3.1005949E+002
 21
2.3087057E+002
  0
LINE
  5
220
100
AcDbEntity
  8
1
100
AcDbLine
  6
CONTINUOUS
 62
40
 10
3.1005949E+002
 20
2.3087057E+002
 11
3.1005954E+002
 21
2.2475906E+002
  0
LINE
  5
221
100
AcDbEntity
  8
1
100
AcDbLine
  6
CONTINUOUS
 62
40
 10
3.3555957E+002
 20
2.328705E+002
 11
3.3555957E+002
 21
2.5075905E+002
  0
LINE
  5
222
100
AcDbEntity
  8
1
100
AcDbLine
  6
CONTINUOUS
 62
40
 10
3.1116356E+002
 20
2.6864758E+002
 11
3.1105952E+002
 21
2.6864758E+002
  0
ARC
  5
223
100
AcDbEntity
  8
1
100
AcDbCircle
  6
CONTINUOUS
 62
40
 10
3.1106065E+002
 20
2.693301E+002
 40
6.825262E-001
100
AcDbArc
 50
2.5329183E+002
 51
2.6990542E+002
  0
ARC
  5
224
100
AcDbEntity
  8
1
100
AcDbCircle
  6
CONTINUOUS
 62
40
 10
3.1107735E+002
 20
2.6938773E+002
 40
7.4251678E-001
100
AcDbArc
 50
2.4548293E+002
 51
2.5333622E+002
  0
ARC
  5
225
100
AcDbEntity
  8
1
100
AcDbCircle
  6
CONTINUOUS
 62
40
 10
3.111071E+002
 20
2.6945262E+002
 40
8.1390281E-001
100
AcDbArc
 50
2.3808549E+002
 51
2.4547286E+002
  0
ARC
  5
226
100
AcDbEntity
  8
1
100
AcDbCircle
  6
CONTINUOUS
 62
40
 10
3.1115685E+002
 20
2.695324E+002
 40
9.0792362E-001
100
AcDbArc
 50
2.3121381E+002
 51
2.3808214E+002
  0
ARC
  5
227
100
AcDbEntity
  8
1
100
AcDbCircle
  6
CONTINUOUS
 62
40
 10
3.1122881E+002
 20
2.69622E+002
 40
1.0228463
100
AcDbArc
 50
2.2487178E+002
 51
2.3121558E+002
  0
ARC
  5
228
100
AcDbEntity
  8
1
100
AcDbCircle
  6
CONTINUOUS
 62
40
 10
3.1137552E+002
 20
2.6976322E+002
 40
1.2264582
100
AcDbArc
 50
2.1346604E+002
 51
2.2471184E+002
  0
ARC
  5
229
100
AcDbEntity
  8
1
100
AcDbCircle
  6
CONTINUOUS
 62
40
 10
3.1163244E+002
 20
2.6993491E+002
 40
1.5354608
100
AcDbArc
 50
2.0384407E+002
 51
2.1352403E+002
  0
ARC
  5
22a
100
AcDbEntity
  8
1
100
AcDbCircle
  6
CONTINUOUS
 62
40
 10
3.1191159E+002
 20
2.7006025E+002
 40
1.841447
100
AcDbArc
 50
1.9532571E+002
 51
2.0389973E+002
  0
ARC
  5
22b
100
AcDbEntity
  8
1
100
AcDbCircle
  6
CONTINUOUS
 62
40
 10
3.1221518E+002
 20
2.7014134E+002
 40
2.1556812
100
AcDbArc
 50
1.7983427E+002
 51
1.9527182E+002
  0
LINE
  5
22c
100
AcDbEntity
  8
1
100
AcDbLine
  6
CONTINUOUS
 62
40
 10
3.1005951E+002
 20
2.7014758E+002
 11
3.1005951E+002
 21
2.7064761E+002
  0
LINE
  5
22d
100
AcDbEntity
  8
1
100
AcDbLine
  6
CONTINUOUS
 62
40
 10
3.1005951E+002
 20
2.7064761E+002
 11
3.1005955E+002
 21
2.7675912E+002
  0
LINE
  5
22e
100
AcDbEntity
  8
1
100
AcDbLine
  6
CONTINUOUS
 62
40
 10
3.2532867E+002
 20
2.616983E+002
 11
3.2720312E+002
 21
2.6864761E+002
  0
LINE
  5
22f
100
AcDbEntity
  8
1
100
AcDbLine
  6
CONTINUOUS
 62
40
 10
3.2720312E+002
 20
2.6864761E+002
 11
3.2720312E+002
 21
2.8175816E+002
  0
ARC
  5
230
100
AcDbEntity
  8
1
100
AcDbCircle
  6
CONTINUOUS
 62
40
 10
3.2520315E+002
 20
2.8175818E+002
 40
1.9999755
100
AcDbArc
 50
3.599993E+002
 51
4.500007E+002
  0
LINE
  5
231
100
AcDbEntity
  8
1
100
AcDbLine
  6
CONTINUOUS
 62
40
 10
3.2520312E+002
 20
2.8375816E+002
 11
3.1315364E+002
 21
2.8375816E+002
  0
ARC
  5
232
100
AcDbEntity
  8
1
100
AcDbCircle
  6
CONTINUOUS
 62
40
 10
3.1315365E+002
 20
2.8175815E+002
 40
2.0000058
100
AcDbArc
 50
9.0000167E+001
 51
1.7999983E+002
  0
LINE
  5
233
100
AcDbEntity
  8
1
100
AcDbLine
  6
CONTINUOUS
 62
40
 10
3.1115364E+002
 20
2.8175816E+002
 11
3.1115364E+002
 21
2.6868924E+002
  0
LINE
  5
234
100
AcDbEntity
  8
1
100
AcDbLine
  6
CONTINUOUS
 62
40
 10
3.1115364E+002
 20
2.6868924E+002
 11
3.1281221E+002
 21
2.6173703E+002
  0
LINE
  5
235
100
AcDbEntity
  8
1
100
AcDbLine
  6
CONTINUOUS
 62
40
 10
3.3505948E+002
 20
2.5075908E+002
 11
3.3505948E+002
 21
2.5870044E+002
  0
ARC
  5
236
100
AcDbEntity
  8
1
100
AcDbCircle
  6
CONTINUOUS
 62
40
 10
3.330595E+002
 20
2.5870046E+002
 40
1.9999752
100
AcDbArc
 50
3.5999929E+002
 51
4.5000071E+002
  0
LINE
  5
237
100
AcDbEntity
  8
1
100
AcDbLine
  6
CONTINUOUS
 62
40
 10
3.3305948E+002
 20
2.6070044E+002
 11
3.2705951E+002
 21
2.6070044E+002
  0
ARC
  5
238
100
AcDbEntity
  8
1
100
AcDbCircle
  6
CONTINUOUS
 62
40
 10
3.2705954E+002
 20
2.6270047E+002
 40
2.0000349
100
AcDbArc
 50
1.80001E+002
 51
2.69999E+002
  0
LINE
  5
239
100
AcDbEntity
  8
1
100
AcDbLine
  6
CONTINUOUS
 62
40
 10
3.2505951E+002
 20
2.6270044E+002
 11
3.2505949E+002
 21
2.8175816E+002
  0
ARC
  5
23a
100
AcDbEntity
  8
1
100
AcDbCircle
  6
CONTINUOUS
 62
40
 10
3.2305952E+002
 20
2.8175819E+002
 40
1.9999721
100
AcDbArc
 50
3.599992E+002
 51
4.500008E+002
  0
LINE
  5
23b
100
AcDbEntity
  8
1
100
AcDbLine
  6
CONTINUOUS
 62
40
 10
3.2305949E+002
 20
2.8375816E+002
 11
3.1505949E+002
 21
2.8375816E+002
  0
ARC
  5
23c
100
AcDbEntity
  8
1
100
AcDbCircle
  6
CONTINUOUS
 62
40
 10
3.150595E+002
 20
2.8175816E+002
 40
2.0000038
100
AcDbArc
 50
9.000011E+001
 51
1.7999989E+002
  0
LINE
  5
23d
100
AcDbEntity
  8
1
100
AcDbLine
  6
CONTINUOUS
 62
40
 10
3.1305949E+002
 20
2.8175816E+002
 11
3.1305951E+002
 21
2.6270044E+002
  0
ARC
  5
23e
100
AcDbEntity
  8
1
100
AcDbCircle
  6
CONTINUOUS
 62
40
 10
3.1105951E+002
 20
2.6270043E+002
 40
1.9999991
100
AcDbArc
 50
2.6999997E+002
 51
3.6000003E+002
  0
LINE
  5
23f
100
AcDbEntity
  8
1
100
AcDbLine
  6
CONTINUOUS
 62
40
 10
3.1105951E+002
 20
2.6070044E+002
 11
1.8305955E+002
 21
2.6070044E+002
  0
ARC
  5
240
100
AcDbEntity
  8
1
100
AcDbCircle
  6
CONTINUOUS
 62
40
 10
1.830596E+002
 20
2.6270049E+002
 40
2.0000576
100
AcDbArc
 50
1.8000165E+002
 51
2.6999835E+002
  0
LINE
  5
241
100
AcDbEntity
  8
1
100
AcDbLine
  6
CONTINUOUS
 62
40
 10
1.8105955E+002
 20
2.6270044E+002
 11
1.8105955E+002
 21
2.817581E+002
  0
ARC
  5
242
100
AcDbEntity
  8
1
100
AcDbCircle
  6
CONTINUOUS
 62
40
 10
1.7905958E+002
 20
2.8175813E+002
 40
1.9999701
100
AcDbArc
 50
3.5999914E+002
 51
4.5000086E+002
  0
LINE
  5
243
100
AcDbEntity
  8
1
100
AcDbLine
  6
CONTINUOUS
 62
40
 10
1.7905955E+002
 20
2.837581E+002
 11
1.629963E+002
 21
2.837581E+002
  0
ARC
  5
244
100
AcDbEntity
  8
1
100
AcDbCircle
  6
CONTINUOUS
 62
40
 10
1.6105955E+002
 20
2.8325909E+002
 40
1.9999988
100
AcDbArc
 50
1.4448136E+001
 51
8.9999955E+001
  0
LINE
  5
245
100
AcDbEntity
  8
1
100
AcDbLine
  6
CONTINUOUS
 62
40
 10
1.8105955E+002
 20
2.7499401E+002
 11
1.8105953E+002
 21
2.7193905E+002
  0
ARC
  5
246
100
AcDbEntity
  8
1
100
AcDbCircle
  6
CONTINUOUS
 62
40
 10
1.8305959E+002
 20
2.7193912E+002
 40
2.0000633
100
AcDbArc
 50
1.8000181E+002
 51
2.6999819E+002
  0
LINE
  5
247
100
AcDbEntity
  8
1
100
AcDbLine
  6
CONTINUOUS
 62
40
 10
1.8305953E+002
 20
2.6993905E+002
 11
2.0355956E+002
 21
2.6993905E+002
  0
ARC
  5
248
100
AcDbEntity
  8
1
100
AcDbCircle
  6
CONTINUOUS
 62
40
 10
2.035596E+002
 20
2.7193901E+002
 40
1.9999595
100
AcDbArc
 50
2.6999884E+002
 51
3.6000116E+002
  0
LINE
  5
249
100
AcDbEntity
  8
1
100
AcDbLine
  6
CONTINUOUS
 62
40
 10
2.0555956E+002
 20
2.7193905E+002
 11
2.0555956E+002
 21
2.7725909E+002
  0
ARC
  5
24a
100
AcDbEntity
  8
1
100
AcDbCircle
  6
CONTINUOUS
 62
40
 10
1.8305959E+002
 20
2.792891E+002
 40
2.00004
100
AcDbArc
 50
1.8000115E+002
 51
2.6999865E+002
  0
LINE
  5
24b
100
AcDbEntity
  8
1
100
AcDbLine
  6
CONTINUOUS
 62
40
 10
1.8305954E+002
 20
2.7728906E+002
 11
2.0376508E+002
 21
2.7728906E+002
  0
ARC
  5
24c
100
AcDbEntity
  8
1
100
AcDbCircle
  6
CONTINUOUS
 62
40
 10
2.0376543E+002
 20
2.7929393E+002
 40
2.0048726
100
AcDbArc
 50
2.6998977E+002
 51
3.0908882E+002
  0
ARC
  5
24d
100
AcDbEntity
  8
1
100
AcDbCircle
  6
CONTINUOUS
 62
40
 10
2.0376991E+002
 20
2.7928842E+002
 40
1.9977709
100
AcDbArc
 50
3.090888E+002
 51
3.4828034E+002
  0
LINE
  5
24e
100
AcDbEntity
  8
1
100
AcDbLine
  6
CONTINUOUS
 62
40
 10
1.8105955E+002
 20
2.274096E+002
 11
1.8105955E+002
 21
2.295791E+002
  0
ARC
  5
24f
100
AcDbEntity
  8
1
100
AcDbCircle
  6
CONTINUOUS
 62
40
 10
1.8305957E+002
 20
2.2957908E+002
 40
2.0000201
100
AcDbArc
 50
9.0000575E+001
 51
1.7999943E+002
  0
LINE
  5
250
100
AcDbEntity
  8
1
100
AcDbLine
  6
CONTINUOUS
 62
40
 10
1.8305955E+002
 20
2.315791E+002
 11
1.9305955E+002
 21
2.3157908E+002
  0
ARC
  5
251
100
AcDbEntity
  8
1
100
AcDbCircle
  6
CONTINUOUS
 62
40
 10
1.9305958E+002
 20
2.2957912E+002
 40
1.9999633
100
AcDbArc
 50
3.5999895E+002
 51
4.5000085E+002
  0
LINE
  5
252
100
AcDbEntity
  8
1
100
AcDbLine
  6
CONTINUOUS
 62
40
 10
1.9505954E+002
 20
2.2957908E+002
 11
1.9505956E+002
 21
2.2425906E+002
  0
LINE
  5
253
100
AcDbEntity
  8
1
100
AcDbLine
  6
CONTINUOUS
 62
40
 10
2.2459736E+002
 20
2.7153908E+002
 11
2.2459734E+002
 21
2.8025919E+002
  0
ARC
  5
254
100
AcDbEntity
  8
1
100
AcDbCircle
  6
CONTINUOUS
 62
40
 10
2.3348158E+002
 20
2.8027481E+002
 40
8.8842489
100
AcDbArc
 50
1.7707836E+002
 51
1.8010075E+002
  0
ARC
  5
255
100
AcDbEntity
  8
1
100
AcDbCircle
  6
CONTINUOUS
 62
40
 10
2.3041022E+002
 20
2.8043657E+002
 40
5.8086362
100
AcDbArc
 50
1.7311397E+002
 51
1.7712772E+002
  0
ARC
  5
256
100
AcDbEntity
  8
1
100
AcDbCircle
  6
CONTINUOUS
 62
40
 10
2.2822162E+002
 20
2.8070606E+002
 40
3.6035199
100
AcDbArc
 50
1.6767501E+002
 51
1.7319572E+002
  0
ARC
  5
257
100
AcDbEntity
  8
1
100
AcDbCircle
  6
CONTINUOUS
 62
40
 10
2.2676762E+002
 20
2.8102883E+002
 40
2.1141439
100
AcDbArc
 50
1.5992789E+002
 51
1.6780968E+002
  0
ARC
  5
258
100
AcDbEntity
  8
1
100
AcDbCircle
  6
CONTINUOUS
 62
40
 10
2.2607685E+002
 20
2.8127511E+002
 40
1.3808161
100
AcDbArc
 50
1.5446477E+002
 51
1.5968886E+002
  0
ARC
  5
259
100
AcDbEntity
  8
1
100
AcDbCircle
  6
CONTINUOUS
 62
40
 10
2.2576121E+002
 20
2.8142642E+002
 40
1.0307795
100
AcDbArc
 50
1.4814289E+002
 51
1.5449112E+002
  0
ARC
  5
25a
100
AcDbEntity
  8
1
100
AcDbCircle
  6
CONTINUOUS
 62
40
 10
2.2554575E+002
 20
2.8156064E+002
 40
7.7693441E-001
100
AcDbArc
 50
1.40499E+002
 51
1.4816319E+002
  0
ARC
  5
25b
100
AcDbEntity
  8
1
100
AcDbCircle
  6
CONTINUOUS
 62
40
 10
2.2541187E+002
 20
2.8167099E+002
 40
6.0343956E-001
100
AcDbArc
 50
1.3142991E+002
 51
1.4049865E+002
  0
ARC
  5
25c
100
AcDbEntity
  8
1
100
AcDbCircle
  6
CONTINUOUS
 62
40
 10
2.2534099E+002
 20
2.8175079E+002
 40
4.9671147E-001
100
AcDbArc
 50
1.2106811E+002
 51
1.3139061E+002
  0
ARC
  5
25d
100
AcDbEntity
  8
1
100
AcDbCircle
  6
CONTINUOUS
 62
40
 10
2.2531457E+002
 20
2.8179339E+002
 40
4.4658771E-001
100
AcDbArc
 50
1.0990518E+002
 51
1.2098408E+002
  0
ARC
  5
25e
100
AcDbEntity
  8
1
100
AcDbCircle
  6
CONTINUOUS
 62
40
 10
2.2531415E+002
 20
2.8179215E+002
 40
4.476045E-001
100
AcDbArc
 50
9.8738737E+001
 51
1.098009E+002
  0
ARC
  5
25f
100
AcDbEntity
  8
1
100
AcDbCircle
  6
CONTINUOUS
 62
40
 10
2.2532138E+002
 20
2.8174038E+002
 40
4.9987808E-001
100
AcDbArc
 50
8.8377296E+001
 51
9.8656265E+001
  0
LINE
  5
260
100
AcDbEntity
  8
1
100
AcDbLine
  6
CONTINUOUS
 62
40
 10
2.1605955E+002
 20
2.2997906E+002
 11
2.2459737E+002
 21
2.2997906E+002
  0
ARC
  5
261
100
AcDbEntity
  8
1
100
AcDbCircle
  6
CONTINUOUS
 62
40
 10
2.2676783E+002
 20
2.2998508E+002
 40
2.1704701
100
AcDbArc
 50
1.8015902E+002
 51
1.9198379E+002
  0
ARC
  5
262
100
AcDbEntity
  8
1
100
AcDbCircle
  6
CONTINUOUS
 62
40
 10
2.271379E+002
 20
2.3006251E+002
 40
2.5485519
100
AcDbArc
 50
1.9195907E+002
 51
2.0258307E+002
  0
ARC
  5
263
100
AcDbEntity
  8
1
100
AcDbCircle
  6
CONTINUOUS
 62
40
 10
2.2749504E+002
 20
2.3020909E+002
 40
2.9345945
100
AcDbArc
 50
2.0254768E+002
 51
2.1221752E+002
  0
ARC
  5
264
100
AcDbEntity
  8
1
100
AcDbCircle
  6
CONTINUOUS
 62
40
 10
2.2777424E+002
 20
2.3038253E+002
 40
3.2632725
100
AcDbArc
 50
2.1218036E+002
 51
2.2118876E+002
  0
ARC
  5
265
100
AcDbEntity
  8
1
100
AcDbCircle
  6
CONTINUOUS
 62
40
 10
2.2795296E+002
 20
2.3053715E+002
 40
3.4995887
100
AcDbArc
 50
2.211669E+002
 51
2.3836255E+002
  0
ARC
  5
266
100
AcDbEntity
  8
1
100
AcDbCircle
  6
CONTINUOUS
 62
40
 10
2.2790903E+002
 20
2.3045627E+002
 40
3.4076913
100
AcDbArc
 50
2.3827804E+002
 51
2.4702977E+002
  0
ARC
  5
267
100
AcDbEntity
  8
1
100
AcDbCircle
  6
CONTINUOUS
 62
40
 10
2.2780796E+002
 20
2.3021266E+002
 40
3.1439569
100
AcDbArc
 50
2.4699321E+002
 51
2.5622839E+002
  0
LINE
  5
268
100
AcDbEntity
  8
1
100
AcDbLine
  6
CONTINUOUS
 62
40
 10
2.2705953E+002
 20
2.2715908E+002
 11
2.2705953E+002
 21
2.2125894E+002
  0
ARC
  5
269
100
AcDbEntity
  8
1
100
AcDbCircle
  6
CONTINUOUS
 62
40
 10
2.2505956E+002
 20
2.2125891E+002
 40
1.9999726
100
AcDbArc
 50
2.6999836E+002
 51
3.6000078E+002
  0
LINE
  5
26a
100
AcDbEntity
  8
1
100
AcDbLine
  6
CONTINUOUS
 62
40
 10
2.250595E+002
 20
2.1925894E+002
 11
2.2456959E+002
 21
2.1925894E+002
  0
LINE
  5
26b
100
AcDbEntity
  8
1
100
AcDbLine
  6
CONTINUOUS
 62
40
 10
2.2456959E+002
 20
2.1925894E+002
 11
2.2305958E+002
 21
2.1925894E+002
  0
LINE
  5
26c
100
AcDbEntity
  8
1
100
AcDbLine
  6
CONTINUOUS
 62
40
 10
2.2305958E+002
 20
2.1925894E+002
 11
2.1430445E+002
 21
2.1925894E+002
  0
CIRCLE
  5
26d
100
AcDbEntity
  8
1
100
AcDbCircle
  6
CONTINUOUS
 62
40
 10
1.0755962E+002
 20
2.2125906E+002
 40
2.5
  0
CIRCLE
  5
26e
100
AcDbEntity
  8
1
100
AcDbCircle
  6
CONTINUOUS
 62
40
 10
1.0755962E+002
 20
2.2125906E+002
 40
3.5
  0
ARC
  5
26f
100
AcDbEntity
  8
1
100
AcDbCircle
  6
CONTINUOUS
 62
40
 10
1.830596E+002
 20
2.3805906E+002
 40
2.0000478
100
AcDbArc
 50
1.8000137E+002
 51
2.6999863E+002
  0
LINE
  5
270
100
AcDbEntity
  8
1
100
AcDbLine
  6
CONTINUOUS
 62
40
 10
1.8305955E+002
 20
2.3605902E+002
 11
1.8605957E+002
 21
2.3605902E+002
  0
LINE
  5
271
100
AcDbEntity
  8
1
100
AcDbLine
  6
CONTINUOUS
 62
40
 10
1.8605957E+002
 20
2.3605902E+002
 11
2.1405955E+002
 21
2.3604339E+002
  0
ARC
  5
272
100
AcDbEntity
  8
1
100
AcDbCircle
  6
CONTINUOUS
 62
40
 10
2.1405959E+002
 20
2.3404343E+002
 40
1.9999593
100
AcDbArc
 50
3.5999883E+002
 51
4.5000117E+002
  0
LINE
  5
273
100
AcDbEntity
  8
1
100
AcDbLine
  6
CONTINUOUS
 62
40
 10
2.1605955E+002
 20
2.3404339E+002
 11
2.1605955E+002
 21
2.2425908E+002
  0
CIRCLE
  5
274
100
AcDbEntity
  8
1
100
AcDbCircle
  6
CONTINUOUS
 62
40
 10
1.0755962E+002
 20
2.8025912E+002
 40
2.5
  0
LINE
  5
275
100
AcDbEntity
  8
1
100
AcDbLine
  6
CENTERLINE
 62
1
 10
1.3405958E+002
 20
2.5075909E+002
 11
1.3405958E+002
 21
2.9019238E+002
  0
CIRCLE
  5
276
100
AcDbEntity
  8
1
100
AcDbCircle
  6
CONTINUOUS
 62
40
 10
1.0755962E+002
 20
2.8025912E+002
 40
3.5
  0
LINE
  5
277
100
AcDbEntity
  8
1
100
AcDbLine
  6
CONTINUOUS
 62
40
 10
2.2155956E+002
 20
2.7725909E+002
 11
2.2155959E+002
 21
2.6745913E+002
  0
ARC
  5
278
100
AcDbEntity
  8
1
100
AcDbCircle
  6
CONTINUOUS
 62
40
 10
2.1955964E+002
 20
2.6745909E+002
 40
1.999952
100
AcDbArc
 50
2.6999863E+002
 51
3.6000137E+002
  0
LINE
  5
279
100
AcDbEntity
  8
1
100
AcDbLine
  6
CONTINUOUS
 62
40
 10
2.1955959E+002
 20
2.6545913E+002
 11
1.8605957E+002
 21
2.6545913E+002
  0
LINE
  5
27a
100
AcDbEntity
  8
1
100
AcDbLine
  6
CONTINUOUS
 62
40
 10
1.8605957E+002
 20
2.6545913E+002
 11
1.8305952E+002
 21
2.654591E+002
  0
ARC
  5
27b
100
AcDbEntity
  8
1
100
AcDbCircle
  6
CONTINUOUS
 62
40
 10
1.8305956E+002
 20
2.6345909E+002
 40
2.0000167
100
AcDbArc
 50
9.0000908E+001
 51
1.7999952E+002
  0
LINE
  5
27c
100
AcDbEntity
  8
1
100
AcDbLine
  6
CONTINUOUS
 62
40
 10
1.6855957E+002
 20
2.5075911E+002
 11
1.6855957E+002
 21
2.8175809E+002
  0
ARC
  5
27d
100
AcDbEntity
  8
1
100
AcDbCircle
  6
CONTINUOUS
 62
40
 10
1.7055958E+002
 20
2.8175808E+002
 40
2.0000145
100
AcDbArc
 50
9.0000415E+001
 51
1.7999958E+002
  0
LINE
  5
27e
100
AcDbEntity
  8
1
100
AcDbLine
  6
CONTINUOUS
 62
40
 10
3.3555959E+002
 20
2.6864767E+002
 11
3.3555959E+002
 21
2.5075912E+002
  0
LINE
  5
27f
100
AcDbEntity
  8
1
100
AcDbLine
  6
CONTINUOUS
 62
40
 10
2.2705953E+002
 20
2.7475912E+002
 11
2.9819557E+002
 21
2.7475912E+002
  0
LINE
  5
280
100
AcDbEntity
  8
1
100
AcDbLine
  6
CONTINUOUS
 62
40
 10
2.9819557E+002
 20
2.7475912E+002
 11
3.0805952E+002
 21
2.7475912E+002
  0
ARC
  5
281
100
AcDbEntity
  8
1
100
AcDbCircle
  6
CONTINUOUS
 62
40
 10
3.0805953E+002
 20
2.7675914E+002
 40
2.0000203
100
AcDbArc
 50
2.6999972E+002
 51
3.5999942E+002
  0
LINE
  5
282
100
AcDbEntity
  8
1
100
AcDbLine
  6
CONTINUOUS
 62
40
 10
3.1005955E+002
 20
2.7675912E+002
 11
3.1005955E+002
 21
2.7775912E+002
  0
LINE
  5
283
100
AcDbEntity
  8
1
100
AcDbLine
  6
CONTINUOUS
 62
40
 10
3.1005955E+002
 20
2.7775912E+002
 11
3.1005954E+002
 21
2.8175903E+002
  0
ARC
  5
284
100
AcDbEntity
  8
1
100
AcDbCircle
  6
CONTINUOUS
 62
40
 10
3.1205954E+002
 20
2.8175905E+002
 40
1.9999967
100
AcDbArc
 50
9.0000334E+001
 51
1.8000052E+002
  0
LINE
  5
285
100
AcDbEntity
  8
1
100
AcDbLine
  6
CONTINUOUS
 62
40
 10
3.1205952E+002
 20
2.8375904E+002
 11
3.1905952E+002
 21
2.8375904E+002
  0
LINE
  5
286
100
AcDbEntity
  8
1
100
AcDbLine
  6
CONTINUOUS
 62
40
 10
3.1905952E+002
 20
2.8375904E+002
 11
3.3605951E+002
 21
2.8375906E+002
  0
LINE
  5
287
100
AcDbEntity
  8
1
100
AcDbLine
  6
CONTINUOUS
 62
40
 10
3.3555959E+002
 20
2.6864767E+002
 11
3.2720312E+002
 21
2.6864761E+002
  0
LINE
  5
288
100
AcDbEntity
  8
1
100
AcDbLine
  6
CONTINUOUS
 62
40
 10
3.4105946E+002
 20
2.5075909E+002
 11
3.459331E+002
 21
2.5075909E+002
  0
LINE
  5
289
100
AcDbEntity
  8
1
100
AcDbLine
  6
CONTINUOUS
 62
40
 10
3.459331E+002
 20
2.5075909E+002
 11
3.4105946E+002
 21
2.5075909E+002
  0
LINE
  5
28a
100
AcDbEntity
  8
1
100
AcDbLine
  6
CONTINUOUS
 62
40
 10
3.3805946E+002
 20
2.4500911E+002
 11
3.3805946E+002
 21
2.565091E+002
  0
LINE
  5
28b
100
AcDbEntity
  8
1
100
AcDbLine
  6
CONTINUOUS
 62
40
 10
3.3805946E+002
 20
2.4475908E+002
 11
3.3815947E+002
 21
2.4475908E+002
  0
LINE
  5
28c
100
AcDbEntity
  8
1
100
AcDbLine
  6
CONTINUOUS
 62
40
 10
3.4105946E+002
 20
2.457591E+002
 11
3.4605946E+002
 21
2.4575908E+002
  0
ARC
  5
28d
100
AcDbEntity
  8
1
100
AcDbCircle
  6
CONTINUOUS
 62
40
 10
3.3966431E+002
 20
2.4822443E+002
 40
6.8538999
100
AcDbArc
 50
3.3891827E+002
 51
3.499617E+002
  0
ARC
  5
28e
100
AcDbEntity
  8
1
100
AcDbCircle
  6
CONTINUOUS
 62
40
 10
3.4001375E+002
 20
2.4816376E+002
 40
6.4992307
100
AcDbArc
 50
3.4995139E+002
 51
3.6139311E+002
  0
ARC
  5
28f
100
AcDbEntity
  8
1
100
AcDbCircle
  6
CONTINUOUS
 62
40
 10
3.4037953E+002
 20
2.4817291E+002
 40
6.13334
100
AcDbArc
 50
1.390682
 51
1.3283041E+001
  0
ARC
  5
290
100
AcDbEntity
  8
1
100
AcDbCircle
  6
CONTINUOUS
 62
40
 10
3.406894E+002
 20
2.4824525E+002
 40
5.8151298
100
AcDbArc
 50
1.3290871E+001
 51
2.5613086E+001
  0
ARC
  5
291
100
AcDbEntity
  8
1
100
AcDbCircle
  6
CONTINUOUS
 62
40
 10
3.4068959E+002
 20
2.5327287E+002
 40
5.8149419
100
AcDbArc
 50
3.3438654E+002
 51
3.4670903E+002
  0
ARC
  5
292
100
AcDbEntity
  8
1
100
AcDbCircle
  6
CONTINUOUS
 62
40
 10
3.4037961E+002
 20
2.5334523E+002
 40
6.1332564
100
AcDbArc
 50
3.4671686E+002
 51
3.5860934E+002
  0
ARC
  5
293
100
AcDbEntity
  8
1
100
AcDbCircle
  6
CONTINUOUS
 62
40
 10
3.400137E+002
 20
2.5335439E+002
 40
6.4992799
100
AcDbArc
 50
3.5860691E+002
 51
3.7004858E+002
  0
ARC
  5
294
100
AcDbEntity
  8
1
100
AcDbCircle
  6
CONTINUOUS
 62
40
 10
3.3966412E+002
 20
2.532937E+002
 40
6.8540897
100
AcDbArc
 50
1.0038271E+001
 51
2.1081501E+001
  0
LINE
  5
295
100
AcDbEntity
  8
1
100
AcDbLine
  6
CONTINUOUS
 62
40
 10
3.4605946E+002
 20
2.5575908E+002
 11
3.4105946E+002
 21
2.557591E+002
  0
LINE
  5
296
100
AcDbEntity
  8
1
100
AcDbLine
  6
CONTINUOUS
 62
40
 10
3.3555959E+002
 20
2.6995908E+002
 11
3.3755946E+002
 21
2.6995908E+002
  0
LINE
  5
297
100
AcDbEntity
  8
1
100
AcDbLine
  6
CONTINUOUS
 62
40
 10
3.3755946E+002
 20
2.6995908E+002
 11
3.3805946E+002
 21
2.6945907E+002
  0
LINE
  5
298
100
AcDbEntity
  8
1
100
AcDbLine
  6
CONTINUOUS
 62
40
 10
3.3805946E+002
 20
2.6945907E+002
 11
3.3805946E+002
 21
2.3205908E+002
  0
LINE
  5
299
100
AcDbEntity
  8
1
100
AcDbLine
  6
CONTINUOUS
 62
40
 10
3.3805946E+002
 20
2.3205908E+002
 11
3.3755946E+002
 21
2.3155908E+002
  0
LINE
  5
29a
100
AcDbEntity
  8
1
100
AcDbLine
  6
CONTINUOUS
 62
40
 10
3.3755946E+002
 20
2.3155908E+002
 11
3.3555957E+002
 21
2.3155908E+002
  0
LINE
  5
29b
100
AcDbEntity
  8
1
100
AcDbLine
  6
CENTERLINE
 62
1
 10
7.5361743E+001
 20
2.5075908E+002
 11
2.2040031E+002
 21
2.5075908E+002
  0
LINE
  5
29c
100
AcDbEntity
  8
1
100
AcDbLine
  6
CENTERLINE
 62
1
 10
2.2040031E+002
 20
2.5075908E+002
 11
3.775254E+002
 21
2.5075908E+002
  0
CIRCLE
  5
29d
100
AcDbEntity
  8
1
100
AcDbCircle
  6
CONTINUOUS
 62
40
 10
1.3405958E+002
 20
2.5075909E+002
 40
2.0547703E+001
  0
CIRCLE
  5
29e
100
AcDbEntity
  8
1
100
AcDbCircle
  6
CONTINUOUS
 62
40
 10
1.6305955E+002
 20
2.2575912E+002
 40
1.9750039
  0
CIRCLE
  5
29f
100
AcDbEntity
  8
1
100
AcDbCircle
  6
CONTINUOUS
 62
40
 10
1.6305955E+002
 20
2.2575912E+002
 40
3.8500017
  0
CIRCLE
  5
2a0
100
AcDbEntity
  8
1
100
AcDbCircle
  6
CONTINUOUS
 62
40
 10
1.1605958E+002
 20
2.2125917E+002
 40
1.9750039
  0
CIRCLE
  5
2a1
100
AcDbEntity
  8
1
100
AcDbCircle
  6
CONTINUOUS
 62
40
 10
1.1605958E+002
 20
2.2125917E+002
 40
3.8500017
  0
CIRCLE
  5
2a2
100
AcDbEntity
  8
1
100
AcDbCircle
  6
CONTINUOUS
 62
40
 10
9.0059581E+001
 20
2.3600906E+002
 40
1.9750011
  0
CIRCLE
  5
2a3
100
AcDbEntity
  8
1
100
AcDbCircle
  6
CONTINUOUS
 62
40
 10
9.0059581E+001
 20
2.3600906E+002
 40
3.8499984
  0
CIRCLE
  5
2a4
100
AcDbEntity
  8
1
100
AcDbCircle
  6
CONTINUOUS
 62
40
 10
9.0059581E+001
 20
2.6550915E+002
 40
1.9750011
  0
CIRCLE
  5
2a5
100
AcDbEntity
  8
1
100
AcDbCircle
  6
CONTINUOUS
 62
40
 10
9.0059581E+001
 20
2.6550915E+002
 40
3.8499984
  0
CIRCLE
  5
2a6
100
AcDbEntity
  8
1
100
AcDbCircle
  6
CONTINUOUS
 62
40
 10
1.6305955E+002
 20
2.7575912E+002
 40
1.9749979
  0
CIRCLE
  5
2a7
100
AcDbEntity
  8
1
100
AcDbCircle
  6
CONTINUOUS
 62
40
 10
1.6305955E+002
 20
2.7575912E+002
 40
3.8499956
  0
CIRCLE
  5
2a8
100
AcDbEntity
  8
1
100
AcDbCircle
  6
CONTINUOUS
 62
40
 10
1.1605958E+002
 20
2.8025915E+002
 40
1.9750039
  0
CIRCLE
  5
2a9
100
AcDbEntity
  8
1
100
AcDbCircle
  6
CONTINUOUS
 62
40
 10
1.1605958E+002
 20
2.8025915E+002
 40
3.8500017
  0
LINE
  5
2aa
100
AcDbEntity
  8
1
100
AcDbLine
  6
CONTINUOUS
 62
40
 10
9.0056025E+001
 20
2.2604487E+002
 11
9.9995112E+001
 21
2.2604487E+002
  0
LINE
  5
2ab
100
AcDbEntity
  8
1
100
AcDbLine
  6
CONTINUOUS
 62
40
 10
9.9966487E+001
 20
2.2454487E+002
 11
9.0050807E+001
 21
2.2454487E+002
  0
LINE
  5
2ac
100
AcDbEntity
  8
1
100
AcDbLine
  6
CONTINUOUS
 62
40
 10
9.0045268E+001
 20
2.229557E+002
 11
9.0061686E+001
 21
2.2766861E+002
  0
ARC
  5
2ad
100
AcDbEntity
  8
1
100
AcDbCircle
  6
CONTINUOUS
 62
40
 10
9.502309E+001
 20
2.2529493E+002
 40
5.4999889
100
AcDbArc
 50
1.4463293E+002
 51
1.544322E+002
  0
LINE
  5
2ae
100
AcDbEntity
  8
1
100
AcDbLine
  6
CONTINUOUS
 62
40
 10
9.0538066E+001
 20
2.284784E+002
 11
9.4508525E+001
 21
2.3077076E+002
  0
ARC
  5
2af
100
AcDbEntity
  8
1
100
AcDbCircle
  6
CONTINUOUS
 62
40
 10
9.5022931E+001
 20
2.2529487E+002
 40
5.4999967
100
AcDbArc
 50
8.556769E+001
 51
9.5366632E+001
  0
LINE
  5
2b0
100
AcDbEntity
  8
1
100
AcDbLine
  6
CONTINUOUS
 62
40
 10
9.5447978E+001
 20
2.3077842E+002
 11
9.95377E+001
 21
2.2843616E+002
  0
ARC
  5
2b1
100
AcDbEntity
  8
1
100
AcDbCircle
  6
CONTINUOUS
 62
40
 10
9.5023035E+001
 20
2.252949E+002
 40
5.4999765
100
AcDbArc
 50
2.5170364E+001
 51
3.4829862E+001
  0
LINE
  5
2b2
100
AcDbEntity
  8
1
100
AcDbLine
  6
CONTINUOUS
 62
40
 10
1.0000077E+002
 20
2.276341E+002
 11
9.9983989E+001
 21
2.2292023E+002
  0
ARC
  5
2b3
100
AcDbEntity
  8
1
100
AcDbCircle
  6
CONTINUOUS
 62
40
 10
9.5022948E+001
 20
2.2529469E+002
 40
5.4999981
100
AcDbArc
 50
3.2462187E+002
 51
3.3442324E+002
  0
LINE
  5
2b4
100
AcDbEntity
  8
1
100
AcDbLine
  6
CONTINUOUS
 62
40
 10
9.9507365E+001
 20
2.2211036E+002
 11
9.5538737E+001
 21
2.198191E+002
  0
ARC
  5
2b5
100
AcDbEntity
  8
1
100
AcDbCircle
  6
CONTINUOUS
 62
40
 10
9.5022978E+001
 20
2.2529487E+002
 40
5.5000042
100
AcDbArc
 50
2.6557928E+002
 51
2.7538078E+002
  0
LINE
  5
2b6
100
AcDbEntity
  8
1
100
AcDbLine
  6
CONTINUOUS
 62
40
 10
9.459904E+001
 20
2.1981123E+002
 11
9.0508342E+001
 21
2.2215363E+002
  0
ARC
  5
2b7
100
AcDbEntity
  8
1
100
AcDbCircle
  6
CONTINUOUS
 62
40
 10
9.5023026E+001
 20
2.2529491E+002
 40
5.5000005
100
AcDbArc
 50
2.051704E+002
 51
2.1482986E+002
  0
LINE
  5
2b8
100
AcDbEntity
  8
1
100
AcDbLine
  6
CONTINUOUS
 62
40
 10
9.1017085E+001
 20
2.7327717E+002
 11
9.8045085E+001
 21
2.8030517E+002
  0
LINE
  5
2b9
100
AcDbEntity
  8
1
100
AcDbLine
  6
CONTINUOUS
 62
40
 10
9.908549E+001
 20
2.7922427E+002
 11
9.2074046E+001
 21
2.7221281E+002
  0
LINE
  5
2ba
100
AcDbEntity
  8
1
100
AcDbLine
  6
CONTINUOUS
 62
40
 10
9.3193843E+001
 20
2.7108519E+002
 11
8.987292E+001
 21
2.7442933E+002
  0
ARC
  5
2bb
100
AcDbEntity
  8
1
100
AcDbCircle
  6
CONTINUOUS
 62
40
 10
9.5059615E+001
 20
2.7625911E+002
 40
5.4999885
100
AcDbArc
 50
1.8963268E+002
 51
1.9943194E+002
  0
LINE
  5
2bc
100
AcDbEntity
  8
1
100
AcDbLine
  6
CONTINUOUS
 62
40
 10
8.9637172E+001
 20
2.7533879E+002
 11
9.0823756E+001
 21
2.7976727E+002
  0
ARC
  5
2bd
100
AcDbEntity
  8
1
100
AcDbCircle
  6
CONTINUOUS
 62
40
 10
9.5059497E+001
 20
2.7625893E+002
 40
5.4999958
100
AcDbArc
 50
1.3056702E+002
 51
1.4036604E+002
  0
LINE
  5
2be
100
AcDbEntity
  8
1
100
AcDbLine
  6
CONTINUOUS
 62
40
 10
9.1482646E+001
 20
2.8043698E+002
 11
9.6030726E+001
 21
2.8167263E+002
  0
ARC
  5
2bf
100
AcDbEntity
  8
1
100
AcDbCircle
  6
CONTINUOUS
 62
40
 10
9.5059606E+001
 20
2.7625907E+002
 40
5.4999817
100
AcDbArc
 50
7.0170544E+001
 51
7.9830087E+001
  0
LINE
  5
2c0
100
AcDbEntity
  8
1
100
AcDbLine
  6
CONTINUOUS
 62
40
 10
9.6925319E+001
 20
2.8143293E+002
 11
1.0024665E+002
 21
2.7808786E+002
  0
ARC
  5
2c1
100
AcDbEntity
  8
1
100
AcDbCircle
  6
CONTINUOUS
 62
40
 10
9.5059693E+001
 20
2.762588E+002
 40
5.4999989
100
AcDbArc
 50
9.6224729
 51
1.9423935E+001
  0
LINE
  5
2c2
100
AcDbEntity
  8
1
100
AcDbLine
  6
CONTINUOUS
 62
40
 10
1.0048231E+002
 20
2.7717816E+002
 11
9.9296229E+001
 21
2.7275175E+002
  0
ARC
  5
2c3
100
AcDbEntity
  8
1
100
AcDbCircle
  6
CONTINUOUS
 62
40
 10
9.5059606E+001
 20
2.7625904E+002
 40
5.5000043
100
AcDbArc
 50
3.1057884E+002
 51
3.2038034E+002
  0
LINE
  5
2c4
100
AcDbEntity
  8
1
100
AcDbLine
  6
CONTINUOUS
 62
40
 10
9.8637324E+001
 20
2.7208172E+002
 11
9.4088435E+001
 21
2.7084549E+002
  0
ARC
  5
2c5
100
AcDbEntity
  8
1
100
AcDbCircle
  6
CONTINUOUS
 62
40
 10
9.5059567E+001
 20
2.7625908E+002
 40
5.5000058
100
AcDbArc
 50
2.501705E+002
 51
2.5983001E+002
  0
LINE
  5
2c6
100
AcDbEntity
  8
1
100
AcDbLine
  6
CONTINUOUS
 62
40
 10
1.0534294E+002
 20
2.2241507E+002
 11
1.0871563E+002
 21
2.1904239E+002
  0
LINE
  5
2c7
100
AcDbEntity
  8
1
100
AcDbLine
  6
CONTINUOUS
 62
40
 10
1.0977629E+002
 20
2.2010304E+002
 11
1.064036E+002
 21
2.2347573E+002
  0
LINE
  5
2c8
100
AcDbEntity
  8
1
100
AcDbLine
  6
CONTINUOUS
 62
40
 10
1.0534294E+002
 20
2.791031E+002
 11
1.0871563E+002
 21
2.8247578E+002
  0
LINE
  5
2c9
100
AcDbEntity
  8
1
100
AcDbLine
  6
CONTINUOUS
 62
40
 10
1.0977629E+002
 20
2.8141513E+002
 11
1.064036E+002
 21
2.7804245E+002
  0
CIRCLE
  5
2ca
100
AcDbEntity
  8
1
100
AcDbCircle
  6
CONTINUOUS
 62
40
 10
9.3059592E+001
 20
2.5075906E+002
 40
4.7499962
  0
CIRCLE
  5
2cb
100
AcDbEntity
  8
1
100
AcDbCircle
  6
CONTINUOUS
 62
40
 10
9.3059592E+001
 20
2.5075906E+002
 40
1.8499985
  0
LINE
  5
2cc
100
AcDbEntity
  8
1
100
AcDbLine
  6
CONTINUOUS
 62
40
 10
8.4559592E+001
 20
2.5075906E+002
 11
8.4559592E+001
 21
2.3600906E+002
  0
ARC
  5
2cd
100
AcDbEntity
  8
1
100
AcDbCircle
  6
CONTINUOUS
 62
40
 10
8.9559609E+001
 20
2.3600908E+002
 40
5.0000169
100
AcDbArc
 50
1.8000019E+002
 51
2.6999981E+002
  0
LINE
  5
2ce
100
AcDbEntity
  8
1
100
AcDbLine
  6
CONTINUOUS
 62
40
 10
8.9559592E+001
 20
2.3100906E+002
 11
9.9162398E+001
 21
2.3100906E+002
  0
ARC
  5
2cf
100
AcDbEntity
  8
1
100
AcDbCircle
  6
CONTINUOUS
 62
40
 10
9.9162477E+001
 20
2.2700929E+002
 40
3.9997671
100
AcDbArc
 50
5.9999375E+001
 51
9.0001123E+001
  0
LINE
  5
2d0
100
AcDbEntity
  8
1
100
AcDbLine
  6
CONTINUOUS
 62
40
 10
1.011624E+002
 20
2.3047317E+002
 11
1.1005957E+002
 21
2.2533638E+002
  0
ARC
  5
2d1
100
AcDbEntity
  8
1
100
AcDbCircle
  6
CONTINUOUS
 62
40
 10
1.0905967E+002
 20
2.2360438E+002
 40
1.9999005
100
AcDbArc
 50
3.5999866E+002
 51
4.2000165E+002
  0
LINE
  5
2d2
100
AcDbEntity
  8
1
100
AcDbLine
  6
CONTINUOUS
 62
40
 10
1.1105957E+002
 20
2.2360434E+002
 11
1.1105959E+002
 21
2.18259E+002
  0
ARC
  5
2d3
100
AcDbEntity
  8
1
100
AcDbCircle
  6
CONTINUOUS
 62
40
 10
1.1305962E+002
 20
2.1825903E+002
 40
2.0000289
100
AcDbArc
 50
1.8000083E+002
 51
2.6999917E+002
  0
LINE
  5
2d4
100
AcDbEntity
  8
1
100
AcDbLine
  6
CONTINUOUS
 62
40
 10
1.1305959E+002
 20
2.16259E+002
 11
1.6105955E+002
 21
2.16259E+002
  0
ARC
  5
2d5
100
AcDbEntity
  8
1
100
AcDbCircle
  6
CONTINUOUS
 62
40
 10
1.6105957E+002
 20
2.1825899E+002
 40
1.9999914
100
AcDbArc
 50
2.6999952E+002
 51
3.6000025E+002
  0
LINE
  5
2d6
100
AcDbEntity
  8
1
100
AcDbLine
  6
CONTINUOUS
 62
40
 10
1.6305956E+002
 20
2.18259E+002
 11
1.6305956E+002
 21
2.1825904E+002
  0
ARC
  5
2d7
100
AcDbEntity
  8
1
100
AcDbCircle
  6
CONTINUOUS
 62
40
 10
1.6505957E+002
 20
2.1825903E+002
 40
2.0000122
100
AcDbArc
 50
9.000035E+001
 51
1.7999965E+002
  0
LINE
  5
2d8
100
AcDbEntity
  8
1
100
AcDbLine
  6
CONTINUOUS
 62
40
 10
1.6505956E+002
 20
2.2025904E+002
 11
1.6655957E+002
 21
2.2025904E+002
  0
ARC
  5
2d9
100
AcDbEntity
  8
1
100
AcDbCircle
  6
CONTINUOUS
 62
40
 10
1.6655958E+002
 20
2.2225903E+002
 40
1.9999875
100
AcDbArc
 50
2.6999964E+002
 51
3.6000036E+002
  0
LINE
  5
2da
100
AcDbEntity
  8
1
100
AcDbLine
  6
CONTINUOUS
 62
40
 10
1.6855957E+002
 20
2.2225904E+002
 11
1.6855956E+002
 21
2.5075906E+002
  0
LINE
  5
2db
100
AcDbEntity
  8
1
100
AcDbLine
  6
CENTERLINE
 62
1
 10
1.3405958E+002
 20
2.5075906E+002
 11
1.3405958E+002
 21
2.1100717E+002
  0
CIRCLE
  5
2dc
100
AcDbEntity
  8
1
100
AcDbCircle
  6
CONTINUOUS
 62
40
 10
9.3059592E+001
 20
2.5075906E+002
 40
4.75
  0
CIRCLE
  5
2dd
100
AcDbEntity
  8
1
100
AcDbCircle
  6
CONTINUOUS
 62
40
 10
9.3059592E+001
 20
2.5075906E+002
 40
1.8500023
  0
LINE
  5
2de
100
AcDbEntity
  8
1
100
AcDbLine
  6
CENTERLINE
 62
1
 10
1.3405958E+002
 20
2.5075906E+002
 11
1.3405958E+002
 21
2.8651094E+002
  0
LINE
  5
2df
100
AcDbEntity
  8
1
100
AcDbLine
  6
CONTINUOUS
 62
40
 10
8.4559592E+001
 20
2.5075906E+002
 11
8.4559592E+001
 21
2.6550904E+002
  0
ARC
  5
2e0
100
AcDbEntity
  8
1
100
AcDbCircle
  6
CONTINUOUS
 62
40
 10
8.9559604E+001
 20
2.6550903E+002
 40
5.0000116
100
AcDbArc
 50
9.0000133E+001
 51
1.7999987E+002
  0
LINE
  5
2e1
100
AcDbEntity
  8
1
100
AcDbLine
  6
CONTINUOUS
 62
40
 10
8.9559592E+001
 20
2.7050904E+002
 11
9.9162398E+001
 21
2.7050904E+002
  0
ARC
  5
2e2
100
AcDbEntity
  8
1
100
AcDbCircle
  6
CONTINUOUS
 62
40
 10
9.9162407E+001
 20
2.7450897E+002
 40
3.9999295
100
AcDbArc
 50
2.6999987E+002
 51
3.0000043E+002
  0
LINE
  5
2e3
100
AcDbEntity
  8
1
100
AcDbLine
  6
CONTINUOUS
 62
40
 10
1.011624E+002
 20
2.7104495E+002
 11
1.1005957E+002
 21
2.7618173E+002
  0
ARC
  5
2e4
100
AcDbEntity
  8
1
100
AcDbCircle
  6
CONTINUOUS
 62
40
 10
1.0905961E+002
 20
2.7791376E+002
 40
1.9999606
100
AcDbArc
 50
2.9999935E+002
 51
3.6000034E+002
  0
LINE
  5
2e5
100
AcDbEntity
  8
1
100
AcDbLine
  6
CONTINUOUS
 62
40
 10
1.1105957E+002
 20
2.7791377E+002
 11
1.1105959E+002
 21
2.832591E+002
  0
ARC
  5
2e6
100
AcDbEntity
  8
1
100
AcDbCircle
  6
CONTINUOUS
 62
40
 10
1.1305962E+002
 20
2.8325908E+002
 40
2.0000261
100
AcDbArc
 50
9.0000748E+001
 51
1.7999925E+002
  0
LINE
  5
2e7
100
AcDbEntity
  8
1
100
AcDbLine
  6
CONTINUOUS
 62
40
 10
1.1305959E+002
 20
2.852591E+002
 11
1.6105955E+002
 21
2.852591E+002
  0
ARC
  5
2e8
100
AcDbEntity
  8
1
100
AcDbCircle
  6
CONTINUOUS
 62
40
 10
1.6105956E+002
 20
2.8325911E+002
 40
1.9999975
100
AcDbArc
 50
3.5999993E+002
 51
4.500003E+002
  0
LINE
  5
2e9
100
AcDbEntity
  8
1
100
AcDbLine
  6
CONTINUOUS
 62
40
 10
1.6305956E+002
 20
2.832591E+002
 11
1.6305956E+002
 21
2.8325908E+002
  0
ARC
  5
2ea
100
AcDbEntity
  8
1
100
AcDbCircle
  6
CONTINUOUS
 62
40
 10
1.6505959E+002
 20
2.832591E+002
 40
2.0000251
100
AcDbArc
 50
1.8000072E+002
 51
2.6999928E+002
  0
LINE
  5
2eb
100
AcDbEntity
  8
1
100
AcDbLine
  6
CONTINUOUS
 62
40
 10
1.6505956E+002
 20
2.8125908E+002
 11
1.6655957E+002
 21
2.8125908E+002
  0
ARC
  5
2ec
100
AcDbEntity
  8
1
100
AcDbCircle
  6
CONTINUOUS
 62
40
 10
1.6655959E+002
 20
2.792591E+002
 40
1.9999747
100
AcDbArc
 50
3.5999927E+002
 51
4.5000073E+002
  0
LINE
  5
2ed
100
AcDbEntity
  8
1
100
AcDbLine
  6
CONTINUOUS
 62
40
 10
1.6855957E+002
 20
2.7925908E+002
 11
1.6855957E+002
 21
2.5075906E+002
  0
LINE
  5
2ee
100
AcDbEntity
  8
1
100
AcDbLine
  6
CENTERLINE
 62
1
 10
1.3405958E+002
 20
2.5075906E+002
 11
1.3405958E+002
 21
2.8651095E+002
  0
CIRCLE
  5
2ef
100
AcDbEntity
  8
1
100
AcDbCircle
  6
CENTERLINE
 62
1
 10
1.3405957E+002
 20
2.5075909E+002
 40
2.150002
  0
LINE
  5
2f0
100
AcDbEntity
  8
1
100
AcDbLine
  6
CENTERLINE
 62
1
 10
1.243051E+002
 20
2.4485911E+002
 11
1.4381406E+002
 21
2.4485911E+002
  0
ARC
  5
2f1
100
AcDbEntity
  8
1
100
AcDbCircle
  6
CENTERLINE
 62
1
 10
1.3405957E+002
 20
2.5075911E+002
 40
1.1399996E+001
100
AcDbArc
 50
3.2883239E+002
 51
3.9116762E+002
  0
LINE
  5
2f2
100
AcDbEntity
  8
1
100
AcDbLine
  6
CENTERLINE
 62
1
 10
1.4381406E+002
 20
2.566591E+002
 11
1.243051E+002
 21
2.566591E+002
  0
ARC
  5
2f3
100
AcDbEntity
  8
1
100
AcDbCircle
  6
CENTERLINE
 62
1
 10
1.3405957E+002
 20
2.5075911E+002
 40
1.1399984E+001
100
AcDbArc
 50
1.4883234E+002
 51
2.1116765E+002
  0
LINE
  5
2f4
100
AcDbEntity
  8
1
100
AcDbLine
  6
CONTINUOUS
 62
40
 10
2.0487119E+002
 20
2.2183139E+002
 11
2.1078728E+002
 21
2.2774746E+002
  0
LINE
  5
2f5
100
AcDbEntity
  8
1
100
AcDbLine
  6
CONTINUOUS
 62
40
 10
2.1184794E+002
 20
2.2668679E+002
 11
2.0593185E+002
 21
2.2077072E+002
  0
CIRCLE
  5
2f6
100
AcDbEntity
  8
1
100
AcDbCircle
  6
CONTINUOUS
 62
40
 10
2.0835957E+002
 20
2.2425909E+002
 40
4.25
  0
LINE
  5
2f7
100
AcDbEntity
  8
1
100
AcDbLine
  6
CONTINUOUS
 62
40
 10
2.1007121E+002
 20
2.7483137E+002
 11
2.159873E+002
 21
2.8074745E+002
  0
LINE
  5
2f8
100
AcDbEntity
  8
1
100
AcDbLine
  6
CONTINUOUS
 62
40
 10
2.1704796E+002
 20
2.7968678E+002
 11
2.1113187E+002
 21
2.737707E+002
  0
CIRCLE
  5
2f9
100
AcDbEntity
  8
1
100
AcDbCircle
  6
CONTINUOUS
 62
40
 10
2.1355959E+002
 20
2.7725908E+002
 40
4.25
  0
LINE
  5
2fa
100
AcDbEntity
  8
1
100
AcDbLine
  6
CONTINUOUS
 62
40
 10
3.6805955E+002
 20
2.0975909E+002
 11
8.3059596E+001
 21
2.0975909E+002
  0
LINE
  5
2fb
100
AcDbEntity
  8
1
100
AcDbLine
  6
CONTINUOUS
 62
40
 10
8.3059596E+001
 20
2.0975909E+002
 11
8.3059596E+001
 21
2.918591E+002
  0
LINE
  5
2fc
100
AcDbEntity
  8
1
100
AcDbLine
  6
CONTINUOUS
 62
40
 10
8.3059596E+001
 20
2.918591E+002
 11
3.6805955E+002
 21
2.918591E+002
  0
LINE
  5
2fd
100
AcDbEntity
  8
1
100
AcDbLine
  6
CONTINUOUS
 62
40
 10
3.6805955E+002
 20
2.918591E+002
 11
3.6805955E+002
 21
2.0975909E+002
  0
LINE
  5
2fe
100
AcDbEntity
  8
1
100
AcDbLine
  6
CONTINUOUS
 62
40
 10
3.6655955E+002
 20
2.1125909E+002
 11
8.4559596E+001
 21
2.1125909E+002
  0
LINE
  5
2ff
100
AcDbEntity
  8
1
100
AcDbLine
  6
CONTINUOUS
 62
40
 10
8.4559596E+001
 20
2.1125909E+002
 11
8.4559596E+001
 21
2.903591E+002
  0
LINE
  5
300
100
AcDbEntity
  8
1
100
AcDbLine
  6
CONTINUOUS
 62
40
 10
8.4559596E+001
 20
2.903591E+002
 11
3.6655955E+002
 21
2.903591E+002
  0
LINE
  5
301
100
AcDbEntity
  8
1
100
AcDbLine
  6
CONTINUOUS
 62
40
 10
3.6655955E+002
 20
2.903591E+002
 11
3.6655955E+002
 21
2.1125909E+002
  0
LINE
  5
302
100
AcDbEntity
  8
1
100
AcDbLine
  6
CONTINUOUS
 62
40
 10
1.1705959E+002
 20
2.1125909E+002
 11
1.1705959E+002
 21
2.16259E+002
  0
LINE
  5
303
100
AcDbEntity
  8
1
100
AcDbLine
  6
CONTINUOUS
 62
40
 10
1.040596E+002
 20
2.1125909E+002
 11
1.040596E+002
 21
2.1625902E+002
  0
LINE
  5
304
100
AcDbEntity
  8
1
100
AcDbLine
  6
CONTINUOUS
 62
40
 10
1.040596E+002
 20
2.1625902E+002
 11
1.040596E+002
 21
2.1125909E+002
  0
LINE
  5
305
100
AcDbEntity
  8
1
100
AcDbLine
  6
CONTINUOUS
 62
40
 10
3.4855957E+002
 20
2.903591E+002
 11
3.4855957E+002
 21
2.8885907E+002
  0
LINE
  5
306
100
AcDbEntity
  8
1
100
AcDbLine
  6
CONTINUOUS
 62
40
 10
3.4855957E+002
 20
2.8885907E+002
 11
3.4855957E+002
 21
2.8850909E+002
  0
LINE
  5
307
100
AcDbEntity
  8
1
100
AcDbLine
  6
CONTINUOUS
 62
40
 10
3.4855957E+002
 20
2.8850909E+002
 11
3.5768974E+002
 21
2.8850909E+002
  0
LINE
  5
308
100
AcDbEntity
  8
1
100
AcDbLine
  6
CONTINUOUS
 62
40
 10
3.5768974E+002
 20
2.8850909E+002
 11
3.6255957E+002
 21
2.8850909E+002
  0
LINE
  5
309
100
AcDbEntity
  8
1
100
AcDbLine
  6
CONTINUOUS
 62
40
 10
3.6255957E+002
 20
2.8850909E+002
 11
3.6255957E+002
 21
2.903591E+002
  0
LINE
  5
30a
100
AcDbEntity
  8
1
100
AcDbLine
  6
CONTINUOUS
 62
40
 10
3.4855957E+002
 20
2.1125909E+002
 11
3.4855957E+002
 21
2.131091E+002
  0
LINE
  5
30b
100
AcDbEntity
  8
1
100
AcDbLine
  6
CONTINUOUS
 62
40
 10
3.4855957E+002
 20
2.131091E+002
 11
3.6255957E+002
 21
2.131091E+002
  0
LINE
  5
30c
100
AcDbEntity
  8
1
100
AcDbLine
  6
CONTINUOUS
 62
40
 10
3.6255957E+002
 20
2.131091E+002
 11
3.6255957E+002
 21
2.1125909E+002
  0
LINE
  5
30d
100
AcDbEntity
  8
1
100
AcDbLine
  6
CONTINUOUS
 62
40
 10
8.4559601E+001
 20
2.233091E+002
 11
8.3059601E+001
 21
2.233091E+002
  0
LINE
  5
30e
100
AcDbEntity
  8
1
100
AcDbLine
  6
CONTINUOUS
 62
40
 10
3.5105957E+002
 20
2.131091E+002
 11
3.5105955E+002
 21
2.177591E+002
  0
LINE
  5
30f
100
AcDbEntity
  8
1
100
AcDbLine
  6
CONTINUOUS
 62
40
 10
3.5105952E+002
 20
2.8375909E+002
 11
3.5105955E+002
 21
2.8850909E+002
  0
LINE
  5
310
100
AcDbEntity
  8
1
100
AcDbLine
  6
CONTINUOUS
 62
40
 10
1.1705959E+002
 20
2.903591E+002
 11
1.1705959E+002
 21
2.8525911E+002
  0
LINE
  5
311
100
AcDbEntity
  8
1
100
AcDbLine
  6
CONTINUOUS
 62
40
 10
1.040596E+002
 20
2.903591E+002
 11
1.040596E+002
 21
2.8525913E+002
  0
LINE
  5
312
100
AcDbEntity
  8
1
100
AcDbLine
  6
CENTERLINE
 62
1
 10
1.3405957E+002
 20
3.076256E+002
 11
1.3405957E+002
 21
3.7336946E+002
  0
LINE
  5
313
100
AcDbEntity
  8
1
100
AcDbLine
  6
CONTINUOUS
 62
40
 10
8.3059596E+001
 20
3.6414917E+002
 11
8.3059596E+001
 21
3.1464918E+002
  0
LINE
  5
314
100
AcDbEntity
  8
1
100
AcDbLine
  6
CONTINUOUS
 62
40
 10
8.3059596E+001
 20
3.1464918E+002
 11
3.680596E+002
 21
3.1464918E+002
  0
LINE
  5
315
100
AcDbEntity
  8
1
100
AcDbLine
  6
CONTINUOUS
 62
40
 10
3.680596E+002
 20
3.1464918E+002
 11
3.680596E+002
 21
3.6414917E+002
  0
LINE
  5
316
100
AcDbEntity
  8
1
100
AcDbLine
  6
CONTINUOUS
 62
40
 10
3.680596E+002
 20
3.6414917E+002
 11
8.3059596E+001
 21
3.6414917E+002
  0
LINE
  5
317
100
AcDbEntity
  8
1
100
AcDbLine
  6
CENTERLINE
 62
1
 10
4.6788769E+002
 20
3.7336946E+002
 11
4.6788768E+002
 21
3.0925562E+002
  0
LINE
  5
318
100
AcDbEntity
  8
1
100
AcDbLine
  6
CONTINUOUS
 62
40
 10
4.2688771E+002
 20
3.6414917E+002
 11
4.2688771E+002
 21
3.1464918E+002
  0
LINE
  5
319
100
AcDbEntity
  8
1
100
AcDbLine
  6
CONTINUOUS
 62
40
 10
4.2688771E+002
 20
3.1464918E+002
 11
5.0888771E+002
 21
3.1464918E+002
  0
LINE
  5
31a
100
AcDbEntity
  8
1
100
AcDbLine
  6
CONTINUOUS
 62
40
 10
5.0888771E+002
 20
3.1464918E+002
 11
5.0888771E+002
 21
3.6414917E+002
  0
LINE
  5
31b
100
AcDbEntity
  8
1
100
AcDbLine
  6
CONTINUOUS
 62
40
 10
5.0888771E+002
 20
3.6414917E+002
 11
4.2688771E+002
 21
3.6414917E+002
  0
LINE
  5
31c
100
AcDbEntity
  8
1
100
AcDbLine
  6
CONTINUOUS
 62
40
 10
4.3012931E+002
 20
1.0616869E+002
 11
4.3212931E+002
 21
1.0616869E+002
  0
LINE
  5
31d
100
AcDbEntity
  8
1
100
AcDbLine
  6
CONTINUOUS
 62
40
 10
4.3012931E+002
 20
8.1244927E+001
 11
4.3212931E+002
 21
8.1244927E+001
  0
LINE
  5
31e
100
AcDbEntity
  8
1
100
AcDbLine
  6
CENTERLINE
 62
1
 10
4.2825663E+002
 20
9.3744927E+001
 11
4.3458915E+002
 21
9.3744927E+001
  0
LINE
  5
31f
100
AcDbEntity
  8
1
100
AcDbLine
  6
CONTINUOUS
 62
40
 10
4.3012931E+002
 20
4.6630059E+001
 11
4.3012931E+002
 21
1.4085973E+002
  0
LINE
  5
320
100
AcDbEntity
  8
1
100
AcDbLine
  6
CONTINUOUS
 62
40
 10
4.3012931E+002
 20
1.4085973E+002
 11
4.2827232E+002
 21
1.4550213E+002
  0
LINE
  5
321
100
AcDbEntity
  8
1
100
AcDbLine
  6
CONTINUOUS
 62
40
 10
4.2827232E+002
 20
1.4550213E+002
 11
4.3012931E+002
 21
1.4624493E+002
  0
LINE
  5
322
100
AcDbEntity
  8
1
100
AcDbLine
  6
CONTINUOUS
 62
40
 10
4.3012931E+002
 20
1.4624493E+002
 11
4.3212931E+002
 21
1.4124493E+002
  0
LINE
  5
323
100
AcDbEntity
  8
1
100
AcDbLine
  6
CONTINUOUS
 62
40
 10
4.3212931E+002
 20
1.4124493E+002
 11
4.3212931E+002
 21
4.6244927E+001
  0
LINE
  5
324
100
AcDbEntity
  8
1
100
AcDbLine
  6
CONTINUOUS
 62
40
 10
4.3212931E+002
 20
4.6244927E+001
 11
4.3012931E+002
 21
4.1244927E+001
  0
LINE
  5
325
100
AcDbEntity
  8
1
100
AcDbLine
  6
CONTINUOUS
 62
40
 10
4.3012931E+002
 20
4.1244927E+001
 11
4.2827238E+002
 21
4.1987695E+001
  0
LINE
  5
326
100
AcDbEntity
  8
1
100
AcDbLine
  6
CONTINUOUS
 62
40
 10
4.2827238E+002
 20
4.1987695E+001
 11
4.3012931E+002
 21
4.6630059E+001
  0
CIRCLE
  5
327
100
AcDbEntity
  8
1
100
AcDbCircle
  6
CONTINUOUS
 62
40
 10
1.7405958E+002
 20
6.6744927E+001
 40
2.5
  0
CIRCLE
  5
328
100
AcDbEntity
  8
1
100
AcDbCircle
  6
CONTINUOUS
 62
40
 10
3.3405958E+002
 20
6.6744927E+001
 40
2.5
  0
CIRCLE
  5
329
100
AcDbEntity
  8
1
100
AcDbCircle
  6
CONTINUOUS
 62
40
 10
3.3405958E+002
 20
1.2074493E+002
 40
2.5
  0
CIRCLE
  5
32a
100
AcDbEntity
  8
1
100
AcDbCircle
  6
CONTINUOUS
 62
40
 10
1.7405958E+002
 20
1.2074493E+002
 40
2.5
  0
LINE
  5
32b
100
AcDbEntity
  8
1
100
AcDbLine
  6
CONTINUOUS
 62
40
 10
7.6059577E+001
 20
1.0624493E+002
 11
1.1693681E+002
 21
1.0624493E+002
  0
ARC
  5
32c
100
AcDbEntity
  8
1
100
AcDbCircle
  6
CONTINUOUS
 62
40
 10
1.3405958E+002
 20
9.3744927E+001
 40
2.1199984E+001
100
AcDbArc
 50
1.4386973E+002
 51
2.1613027E+002
  0
LINE
  5
32d
100
AcDbEntity
  8
1
100
AcDbLine
  6
CONTINUOUS
 62
40
 10
1.1693681E+002
 20
8.1244927E+001
 11
7.6059577E+001
 21
8.1244927E+001
  0
LINE
  5
32e
100
AcDbEntity
  8
1
100
AcDbLine
  6
CONTINUOUS
 62
40
 10
7.6059577E+001
 20
8.1244927E+001
 11
7.6059577E+001
 21
1.0624493E+002
  0
LINE
  5
32f
100
AcDbEntity
  8
1
100
AcDbLine
  6
CONTINUOUS
 62
1
 10
1.7405958E+002
 20
1.2903008E+002
 11
1.7405958E+002
 21
1.1124102E+002
  0
LINE
  5
330
100
AcDbEntity
  8
1
100
AcDbLine
  6
CONTINUOUS
 62
1
 10
1.7405958E+002
 20
7.5662896E+001
 11
1.7405958E+002
 21
5.8260552E+001
  0
LINE
  5
331
100
AcDbEntity
  8
1
100
AcDbLine
  6
CONTINUOUS
 62
1
 10
1.6650098E+002
 20
6.6744927E+001
 11
1.8429005E+002
 21
6.6744927E+001
  0
LINE
  5
332
100
AcDbEntity
  8
1
100
AcDbLine
  6
CONTINUOUS
 62
1
 10
3.2532911E+002
 20
6.6744927E+001
 11
3.4389161E+002
 21
6.6744927E+001
  0
LINE
  5
333
100
AcDbEntity
  8
1
100
AcDbLine
  6
CONTINUOUS
 62
1
 10
3.3405958E+002
 20
5.903399E+001
 11
3.3405958E+002
 21
7.5276177E+001
  0
LINE
  5
334
100
AcDbEntity
  8
1
100
AcDbLine
  6
CONTINUOUS
 62
1
 10
3.3405958E+002
 20
1.1124102E+002
 11
3.3405958E+002
 21
1.2903008E+002
  0
LINE
  5
335
100
AcDbEntity
  8
1
100
AcDbLine
  6
CONTINUOUS
 62
1
 10
3.4273145E+002
 20
1.2074493E+002
 11
3.2416895E+002
 21
1.2074493E+002
  0
LINE
  5
336
100
AcDbEntity
  8
1
100
AcDbLine
  6
CONTINUOUS
 62
1
 10
1.8467676E+002
 20
1.2074493E+002
 11
1.6456739E+002
 21
1.2074493E+002
  0
CIRCLE
  5
337
100
AcDbEntity
  8
1
100
AcDbCircle
  6
CONTINUOUS
 62
40
 10
1.7405958E+002
 20
1.2074493E+002
 40
4.75
  0
CIRCLE
  5
338
100
AcDbEntity
  8
1
100
AcDbCircle
  6
CONTINUOUS
 62
40
 10
3.3405958E+002
 20
6.6744927E+001
 40
4.75
  0
CIRCLE
  5
339
100
AcDbEntity
  8
1
100
AcDbCircle
  6
CONTINUOUS
 62
40
 10
3.3405958E+002
 20
1.2074493E+002
 40
4.75
  0
CIRCLE
  5
33a
100
AcDbEntity
  8
1
100
AcDbCircle
  6
CONTINUOUS
 62
40
 10
1.7405958E+002
 20
6.6744927E+001
 40
4.75
  0
LINE
  5
33b
100
AcDbEntity
  8
1
100
AcDbLine
  6
CONTINUOUS
 62
1
 10
7.6059577E+001
 20
1.4124493E+002
 11
1.5305958E+002
 21
1.4124493E+002
  0
LINE
  5
33c
100
AcDbEntity
  8
1
100
AcDbLine
  6
CONTINUOUS
 62
1
 10
1.5505958E+002
 20
1.4124493E+002
 11
3.7905958E+002
 21
1.4124493E+002
  0
LINE
  5
33d
100
AcDbEntity
  8
1
100
AcDbLine
  6
CONTINUOUS
 62
1
 10
3.7905958E+002
 20
1.4124493E+002
 11
3.7905958E+002
 21
4.6244927E+001
  0
LINE
  5
33e
100
AcDbEntity
  8
1
100
AcDbLine
  6
CONTINUOUS
 62
1
 10
3.7905958E+002
 20
4.6244927E+001
 11
1.5505958E+002
 21
4.6244927E+001
  0
LINE
  5
33f
100
AcDbEntity
  8
1
100
AcDbLine
  6
CONTINUOUS
 62
1
 10
1.5305958E+002
 20
4.6244927E+001
 11
7.6059577E+001
 21
4.6244927E+001
  0
LINE
  5
340
100
AcDbEntity
  8
1
100
AcDbLine
  6
CONTINUOUS
 62
1
 10
3.7905958E+002
 20
1.4124493E+002
 11
3.8405958E+002
 21
1.4624493E+002
  0
LINE
  5
341
100
AcDbEntity
  8
1
100
AcDbLine
  6
CONTINUOUS
 62
1
 10
3.8405958E+002
 20
4.1244927E+001
 11
3.7905958E+002
 21
4.6244927E+001
  0
LINE
  5
342
100
AcDbEntity
  8
1
100
AcDbLine
  6
CENTERLINE
 62
1
 10
1.3405958E+002
 20
1.2099789E+002
 11
1.3405958E+002
 21
6.7492425E+001
  0
LINE
  5
343
100
AcDbEntity
  8
1
100
AcDbLine
  6
CENTERLINE
 62
1
 10
7.3301764E+001
 20
9.3744927E+001
 11
1.5954005E+002
 21
9.3744927E+001
  0
LINE
  5
344
100
AcDbEntity
  8
1
100
AcDbLine
  6
CONTINUOUS
 62
40
 10
7.6059577E+001
 20
5.8744927E+001
 11
7.6059577E+001
 21
4.1244927E+001
  0
LINE
  5
345
100
AcDbEntity
  8
1
100
AcDbLine
  6
CONTINUOUS
 62
40
 10
7.6059577E+001
 20
4.1244927E+001
 11
1.5305958E+002
 21
4.1244927E+001
  0
LINE
  5
346
100
AcDbEntity
  8
1
100
AcDbLine
  6
CONTINUOUS
 62
40
 10
1.5305958E+002
 20
4.1244927E+001
 11
1.5305958E+002
 21
5.8744927E+001
  0
LINE
  5
347
100
AcDbEntity
  8
1
100
AcDbLine
  6
CONTINUOUS
 62
40
 10
7.6059577E+001
 20
1.2874493E+002
 11
1.5505958E+002
 21
1.2874493E+002
  0
LINE
  5
348
100
AcDbEntity
  8
1
100
AcDbLine
  6
CONTINUOUS
 62
40
 10
1.5505958E+002
 20
1.2874493E+002
 11
1.5505958E+002
 21
1.4624493E+002
  0
LINE
  5
349
100
AcDbEntity
  8
1
100
AcDbLine
  6
CONTINUOUS
 62
40
 10
1.5505958E+002
 20
1.4624493E+002
 11
3.8405958E+002
 21
1.4624493E+002
  0
LINE
  5
34a
100
AcDbEntity
  8
1
100
AcDbLine
  6
CONTINUOUS
 62
40
 10
3.8405958E+002
 20
1.4624493E+002
 11
3.8405958E+002
 21
4.1244927E+001
  0
LINE
  5
34b
100
AcDbEntity
  8
1
100
AcDbLine
  6
CONTINUOUS
 62
40
 10
3.8405958E+002
 20
4.1244927E+001
 11
1.5505958E+002
 21
4.1244927E+001
  0
LINE
  5
34c
100
AcDbEntity
  8
1
100
AcDbLine
  6
CONTINUOUS
 62
40
 10
1.5505958E+002
 20
4.1244927E+001
 11
1.5505958E+002
 21
5.8744927E+001
  0
LINE
  5
34d
100
AcDbEntity
  8
1
100
AcDbLine
  6
CONTINUOUS
 62
40
 10
1.5505958E+002
 20
5.8744927E+001
 11
7.6059577E+001
 21
5.8744927E+001
  0
LINE
  5
34e
100
AcDbEntity
  8
1
100
AcDbLine
  6
CONTINUOUS
 62
40
 10
7.6059577E+001
 20
5.8744927E+001
 11
7.6059577E+001
 21
8.1244927E+001
  0
LINE
  5
34f
100
AcDbEntity
  8
1
100
AcDbLine
  6
CONTINUOUS
 62
40
 10
7.6059577E+001
 20
8.1244927E+001
 11
1.1693681E+002
 21
8.1244927E+001
  0
ARC
  5
350
100
AcDbEntity
  8
1
100
AcDbCircle
  6
CONTINUOUS
 62
40
 10
1.3405958E+002
 20
9.3744927E+001
 40
2.1199984E+001
100
AcDbArc
 50
2.1613027E+002
 51
5.0386973E+002
  0
LINE
  5
351
100
AcDbEntity
  8
1
100
AcDbLine
  6
CONTINUOUS
 62
40
 10
1.1693681E+002
 20
1.0624493E+002
 11
7.6059577E+001
 21
1.0624493E+002
  0
LINE
  5
352
100
AcDbEntity
  8
1
100
AcDbLine
  6
CONTINUOUS
 62
40
 10
7.6059577E+001
 20
1.0624493E+002
 11
7.6059577E+001
 21
1.2874493E+002
  0
LINE
  5
353
100
AcDbEntity
  8
1
100
AcDbLine
  6
CONTINUOUS
 62
40
 10
1.5305958E+002
 20
1.2874493E+002
 11
1.5305958E+002
 21
1.4624493E+002
  0
LINE
  5
354
100
AcDbEntity
  8
1
100
AcDbLine
  6
CONTINUOUS
 62
40
 10
1.5305958E+002
 20
1.4624493E+002
 11
7.6059577E+001
 21
1.4624493E+002
  0
LINE
  5
355
100
AcDbEntity
  8
1
100
AcDbLine
  6
CONTINUOUS
 62
40
 10
7.6059577E+001
 20
1.4624493E+002
 11
7.6059577E+001
 21
1.2874493E+002
  0
LINE
  5
356
100
AcDbEntity
  8
1
100
AcDbLine
  6
CONTINUOUS
 62
1
 10
2.7900153E+002
 20
1.104562E+002
 11
2.7900153E+002
 21
1.1196447E+002
  0
LINE
  5
357
100
AcDbEntity
  8
1
100
AcDbLine
  6
CONTINUOUS
 62
1
 10
2.7900153E+002
 20
1.1196447E+002
 11
2.7606623E+002
 21
1.1143615E+002
  0
LINE
  5
358
100
AcDbEntity
  8
1
100
AcDbLine
  6
CONTINUOUS
 62
1
 10
2.7606623E+002
 20
1.1143615E+002
 11
2.7606623E+002
 21
1.1098452E+002
  0
LINE
  5
359
100
AcDbEntity
  8
1
100
AcDbLine
  6
CONTINUOUS
 62
1
 10
2.7606623E+002
 20
1.1098452E+002
 11
2.7900153E+002
 21
1.104562E+002
  0
LINE
  5
35a
100
AcDbEntity
  8
1
100
AcDbLine
  6
CONTINUOUS
 62
1
 10
2.8171104E+002
 20
1.07259E+002
 11
2.7403413E+002
 21
1.090653E+002
  0
LINE
  5
35b
100
AcDbEntity
  8
1
100
AcDbLine
  6
CONTINUOUS
 62
1
 10
2.7403413E+002
 20
1.090653E+002
 11
2.7403413E+002
 21
1.1335534E+002
  0
LINE
  5
35c
100
AcDbEntity
  8
1
100
AcDbLine
  6
CONTINUOUS
 62
1
 10
2.7403413E+002
 20
1.1335534E+002
 11
2.8171104E+002
 21
1.1516168E+002
  0
LINE
  5
35d
100
AcDbEntity
  8
1
100
AcDbLine
  6
CONTINUOUS
 62
1
 10
2.8171104E+002
 20
1.1516168E+002
 11
2.8171104E+002
 21
1.124522E+002
  0
LINE
  5
35e
100
AcDbEntity
  8
1
100
AcDbLine
  6
CONTINUOUS
 62
1
 10
2.8171104E+002
 20
1.124522E+002
 11
2.803563E+002
 21
1.1220831E+002
  0
LINE
  5
35f
100
AcDbEntity
  8
1
100
AcDbLine
  6
CONTINUOUS
 62
1
 10
2.803563E+002
 20
1.1220831E+002
 11
2.803563E+002
 21
1.102123E+002
  0
LINE
  5
360
100
AcDbEntity
  8
1
100
AcDbLine
  6
CONTINUOUS
 62
1
 10
2.803563E+002
 20
1.102123E+002
 11
2.8171104E+002
 21
1.0996847E+002
  0
LINE
  5
361
100
AcDbEntity
  8
1
100
AcDbLine
  6
CONTINUOUS
 62
1
 10
2.8171104E+002
 20
1.0996847E+002
 11
2.8171104E+002
 21
1.07259E+002
  0
LINE
  5
362
100
AcDbEntity
  8
1
100
AcDbLine
  6
CONTINUOUS
 62
1
 10
2.8171104E+002
 20
9.9582024E+001
 11
2.8171104E+002
 21
9.732412E+001
  0
LINE
  5
363
100
AcDbEntity
  8
1
100
AcDbLine
  6
CONTINUOUS
 62
1
 10
2.8171104E+002
 20
9.732412E+001
 11
2.7403413E+002
 21
9.732412E+001
  0
LINE
  5
364
100
AcDbEntity
  8
1
100
AcDbLine
  6
CONTINUOUS
 62
1
 10
2.7403413E+002
 20
9.732412E+001
 11
2.7403413E+002
 21
1.0093676E+002
  0
LINE
  5
365
100
AcDbEntity
  8
1
100
AcDbLine
  6
CONTINUOUS
 62
1
 10
2.7403413E+002
 20
1.0093676E+002
 11
2.7854993E+002
 21
1.0193029E+002
  0
LINE
  5
366
100
AcDbEntity
  8
1
100
AcDbLine
  6
CONTINUOUS
 62
1
 10
2.7854993E+002
 20
1.0193029E+002
 11
2.7854993E+002
 21
1.0206573E+002
  0
LINE
  5
367
100
AcDbEntity
  8
1
100
AcDbLine
  6
CONTINUOUS
 62
1
 10
2.7854993E+002
 20
1.0206573E+002
 11
2.7854993E+002
 21
1.0220123E+002
  0
LINE
  5
368
100
AcDbEntity
  8
1
100
AcDbLine
  6
CONTINUOUS
 62
1
 10
2.7854993E+002
 20
1.0220123E+002
 11
2.7403413E+002
 21
1.0319473E+002
  0
LINE
  5
369
100
AcDbEntity
  8
1
100
AcDbLine
  6
CONTINUOUS
 62
1
 10
2.7403413E+002
 20
1.0319473E+002
 11
2.7403413E+002
 21
1.0680737E+002
  0
LINE
  5
36a
100
AcDbEntity
  8
1
100
AcDbLine
  6
CONTINUOUS
 62
1
 10
2.7403413E+002
 20
1.0680737E+002
 11
2.8171104E+002
 21
1.0680737E+002
  0
LINE
  5
36b
100
AcDbEntity
  8
1
100
AcDbLine
  6
CONTINUOUS
 62
1
 10
2.8171104E+002
 20
1.0680737E+002
 11
2.8171104E+002
 21
1.0454946E+002
  0
LINE
  5
36c
100
AcDbEntity
  8
1
100
AcDbLine
  6
CONTINUOUS
 62
1
 10
2.8171104E+002
 20
1.0454946E+002
 11
2.7606623E+002
 21
1.0454946E+002
  0
LINE
  5
36d
100
AcDbEntity
  8
1
100
AcDbLine
  6
CONTINUOUS
 62
1
 10
2.7606623E+002
 20
1.0454946E+002
 11
2.7606623E+002
 21
1.0432369E+002
  0
LINE
  5
36e
100
AcDbEntity
  8
1
100
AcDbLine
  6
CONTINUOUS
 62
1
 10
2.7606623E+002
 20
1.0432369E+002
 11
2.8171104E+002
 21
1.0308178E+002
  0
LINE
  5
36f
100
AcDbEntity
  8
1
100
AcDbLine
  6
CONTINUOUS
 62
1
 10
2.8171104E+002
 20
1.0308178E+002
 11
2.8171104E+002
 21
1.0104968E+002
  0
LINE
  5
370
100
AcDbEntity
  8
1
100
AcDbLine
  6
CONTINUOUS
 62
1
 10
2.8171104E+002
 20
1.0104968E+002
 11
2.7606623E+002
 21
9.9807824E+001
  0
LINE
  5
371
100
AcDbEntity
  8
1
100
AcDbLine
  6
CONTINUOUS
 62
1
 10
2.7606623E+002
 20
9.9807824E+001
 11
2.7606623E+002
 21
9.9582024E+001
  0
LINE
  5
372
100
AcDbEntity
  8
1
100
AcDbLine
  6
CONTINUOUS
 62
1
 10
2.7606623E+002
 20
9.9582024E+001
 11
2.8171104E+002
 21
9.9582024E+001
  0
ARC
  5
373
100
AcDbEntity
  8
1
100
AcDbCircle
  6
CONTINUOUS
 62
1
 10
2.7637104E+002
 20
9.2943715E+001
 40
7.677043E-001
100
AcDbArc
 50
2.581863E-003
 51
8.9997441E+001
  0
LINE
  5
374
100
AcDbEntity
  8
1
100
AcDbLine
  6
CONTINUOUS
 62
1
 10
2.7713874E+002
 20
9.2943749E+001
 11
2.7713874E+002
 21
9.1905144E+001
  0
LINE
  5
375
100
AcDbEntity
  8
1
100
AcDbLine
  6
CONTINUOUS
 62
1
 10
2.7713874E+002
 20
9.1905144E+001
 11
2.7544532E+002
 21
9.1905144E+001
  0
LINE
  5
376
100
AcDbEntity
  8
1
100
AcDbLine
  6
CONTINUOUS
 62
1
 10
2.7544532E+002
 20
9.1905144E+001
 11
2.7544532E+002
 21
9.2943749E+001
  0
ARC
  5
377
100
AcDbEntity
  8
1
100
AcDbCircle
  6
CONTINUOUS
 62
1
 10
2.7621304E+002
 20
9.2943744E+001
 40
7.6772051E-001
100
AcDbArc
 50
9.000153E+001
 51
1.7999962E+002
  0
LINE
  5
378
100
AcDbEntity
  8
1
100
AcDbLine
  6
CONTINUOUS
 62
1
 10
2.7621302E+002
 20
9.3711465E+001
 11
2.7637107E+002
 21
9.3711419E+001
  0
LINE
  5
379
100
AcDbEntity
  8
1
100
AcDbLine
  6
CONTINUOUS
 62
1
 10
2.8171104E+002
 20
8.9647179E+001
 11
2.7403413E+002
 21
8.9647179E+001
  0
LINE
  5
37a
100
AcDbEntity
  8
1
100
AcDbLine
  6
CONTINUOUS
 62
1
 10
2.7403413E+002
 20
8.9647179E+001
 11
2.7403413E+002
 21
9.4163049E+001
  0
ARC
  5
37b
100
AcDbEntity
  8
1
100
AcDbCircle
  6
CONTINUOUS
 62
1
 10
2.7629204E+002
 20
9.4163033E+001
 40
2.2579195
100
AcDbArc
 50
8.9999607E+001
 51
1.7999961E+002
  0
ARC
  5
37c
100
AcDbEntity
  8
1
100
AcDbCircle
  6
CONTINUOUS
 62
1
 10
2.7629422E+002
 20
9.3941664E+001
 40
2.4792891
100
AcDbArc
 50
7.2241841E+001
 51
9.0049854E+001
  0
ARC
  5
37d
100
AcDbEntity
  8
1
100
AcDbCircle
  6
CONTINUOUS
 62
1
 10
2.7632968E+002
 20
9.4047478E+001
 40
2.3677009
100
AcDbArc
 50
5.3914642E+001
 51
7.2278193E+001
  0
ARC
  5
37e
100
AcDbEntity
  8
1
100
AcDbCircle
  6
CONTINUOUS
 62
1
 10
2.7640867E+002
 20
9.4155554E+001
 40
2.2338393
100
AcDbArc
 50
3.4829135E+001
 51
5.3919132E+001
  0
ARC
  5
37f
100
AcDbEntity
  8
1
100
AcDbCircle
  6
CONTINUOUS
 62
1
 10
2.7649094E+002
 20
9.4214448E+001
 40
2.1326727
100
AcDbArc
 50
1.5104071E+001
 51
3.4792655E+001
  0
LINE
  5
380
100
AcDbEntity
  8
1
100
AcDbLine
  6
CONTINUOUS
 62
1
 10
2.7854993E+002
 20
9.4770165E+001
 11
2.8171104E+002
 21
9.6420952E+001
  0
LINE
  5
381
100
AcDbEntity
  8
1
100
AcDbLine
  6
CONTINUOUS
 62
1
 10
2.8171104E+002
 20
9.6420952E+001
 11
2.8171104E+002
 21
9.3937249E+001
  0
LINE
  5
382
100
AcDbEntity
  8
1
100
AcDbLine
  6
CONTINUOUS
 62
1
 10
2.8171104E+002
 20
9.3937249E+001
 11
2.7854993E+002
 21
9.2672814E+001
  0
LINE
  5
383
100
AcDbEntity
  8
1
100
AcDbLine
  6
CONTINUOUS
 62
1
 10
2.7854993E+002
 20
9.2672814E+001
 11
2.7854993E+002
 21
9.1905144E+001
  0
LINE
  5
384
100
AcDbEntity
  8
1
100
AcDbLine
  6
CONTINUOUS
 62
1
 10
2.7854993E+002
 20
9.1905144E+001
 11
2.8171104E+002
 21
9.1905144E+001
  0
LINE
  5
385
100
AcDbEntity
  8
1
100
AcDbLine
  6
CONTINUOUS
 62
1
 10
2.8171104E+002
 20
9.1905144E+001
 11
2.8171104E+002
 21
8.9647179E+001
  0
ARC
  5
386
100
AcDbEntity
  8
1
100
AcDbCircle
  6
CONTINUOUS
 62
1
 10
2.7936279E+002
 20
8.5436174E+001
 40
7.6767651E-001
100
AcDbArc
 50
5.0834E-004
 51
8.9999439E+001
  0
LINE
  5
387
100
AcDbEntity
  8
1
100
AcDbLine
  6
CONTINUOUS
 62
1
 10
2.8013047E+002
 20
8.5436181E+001
 11
2.8013047E+002
 21
8.527813E+001
  0
ARC
  5
388
100
AcDbEntity
  8
1
100
AcDbCircle
  6
CONTINUOUS
 62
1
 10
2.7936279E+002
 20
8.5278128E+001
 40
7.6768273E-001
100
AcDbArc
 50
2.7000102E+002
 51
3.6000017E+002
  0
LINE
  5
389
100
AcDbEntity
  8
1
100
AcDbLine
  6
CONTINUOUS
 62
1
 10
2.793628E+002
 20
8.4510445E+001
 11
2.7638233E+002
 21
8.4510445E+001
  0
ARC
  5
38a
100
AcDbEntity
  8
1
100
AcDbCircle
  6
CONTINUOUS
 62
1
 10
2.7638233E+002
 20
8.5278128E+001
 40
7.6768274E-001
100
AcDbArc
 50
1.7999983E+002
 51
2.7000017E+002
  0
LINE
  5
38b
100
AcDbEntity
  8
1
100
AcDbLine
  6
CONTINUOUS
 62
1
 10
2.7561465E+002
 20
8.527813E+001
 11
2.7561465E+002
 21
8.5436181E+001
  0
ARC
  5
38c
100
AcDbEntity
  8
1
100
AcDbCircle
  6
CONTINUOUS
 62
1
 10
2.7638232E+002
 20
8.5436174E+001
 40
7.6767652E-001
100
AcDbArc
 50
8.9999367E+001
 51
1.7999949E+002
  0
LINE
  5
38d
100
AcDbEntity
  8
1
100
AcDbLine
  6
CONTINUOUS
 62
1
 10
2.7638233E+002
 20
8.6203851E+001
 11
2.793628E+002
 21
8.6203851E+001
  0
ARC
  5
38e
100
AcDbEntity
  8
1
100
AcDbCircle
  6
CONTINUOUS
 62
1
 10
2.7900154E+002
 20
8.6034533E+001
 40
2.7094787
100
AcDbArc
 50
1.284667E-004
 51
9.0000197E+001
  0
LINE
  5
38f
100
AcDbEntity
  8
1
100
AcDbLine
  6
CONTINUOUS
 62
1
 10
2.8171102E+002
 20
8.6034539E+001
 11
2.8171102E+002
 21
8.4679803E+001
  0
ARC
  5
390
100
AcDbEntity
  8
1
100
AcDbCircle
  6
CONTINUOUS
 62
1
 10
2.7900149E+002
 20
8.4679757E+001
 40
2.7095337
100
AcDbArc
 50
2.7000097E+002
 51
3.6000097E+002
  0
LINE
  5
391
100
AcDbEntity
  8
1
100
AcDbLine
  6
CONTINUOUS
 62
1
 10
2.7900153E+002
 20
8.1970223E+001
 11
2.7674363E+002
 21
8.1970223E+001
  0
ARC
  5
392
100
AcDbEntity
  8
1
100
AcDbCircle
  6
CONTINUOUS
 62
1
 10
2.7674364E+002
 20
8.4679771E+001
 40
2.7095483
100
AcDbArc
 50
1.7999934E+002
 51
2.6999968E+002
  0
LINE
  5
393
100
AcDbEntity
  8
1
100
AcDbLine
  6
CONTINUOUS
 62
1
 10
2.7403409E+002
 20
8.4679803E+001
 11
2.7403409E+002
 21
8.6034539E+001
  0
ARC
  5
394
100
AcDbEntity
  8
1
100
AcDbCircle
  6
CONTINUOUS
 62
1
 10
2.767436E+002
 20
8.6034506E+001
 40
2.7095051
100
AcDbArc
 50
8.9999411E+001
 51
1.7999931E+002
  0
LINE
  5
395
100
AcDbEntity
  8
1
100
AcDbLine
  6
CONTINUOUS
 62
1
 10
2.7674363E+002
 20
8.8744012E+001
 11
2.7900153E+002
 21
8.8744012E+001
  0
ARC
  5
396
100
AcDbEntity
  8
1
100
AcDbCircle
  6
CONTINUOUS
 62
1
 10
2.7922731E+002
 20
7.8583387E+001
 40
2.4837138
100
AcDbArc
 50
2.351621E-004
 51
9.0000097E+001
  0
LINE
  5
397
100
AcDbEntity
  8
1
100
AcDbLine
  6
CONTINUOUS
 62
1
 10
2.8171102E+002
 20
7.8583398E+001
 11
2.8171102E+002
 21
7.4519158E+001
  0
LINE
  5
398
100
AcDbEntity
  8
1
100
AcDbLine
  6
CONTINUOUS
 62
1
 10
2.8171102E+002
 20
7.4519158E+001
 11
2.7403413E+002
 21
7.4519158E+001
  0
LINE
  5
399
100
AcDbEntity
  8
1
100
AcDbLine
  6
CONTINUOUS
 62
1
 10
2.7403413E+002
 20
7.4519158E+001
 11
2.7403413E+002
 21
7.8583398E+001
  0
ARC
  5
39a
100
AcDbEntity
  8
1
100
AcDbCircle
  6
CONTINUOUS
 62
1
 10
2.7651784E+002
 20
7.8583372E+001
 40
2.4837138
100
AcDbArc
 50
9.0000226E+001
 51
1.7999941E+002
  0
LINE
  5
39b
100
AcDbEntity
  8
1
100
AcDbLine
  6
CONTINUOUS
 62
1
 10
2.7651783E+002
 20
8.1067086E+001
 11
2.792273E+002
 21
8.1067101E+001
  0
ARC
  5
39c
100
AcDbEntity
  8
1
100
AcDbCircle
  6
CONTINUOUS
 62
1
 10
2.7967889E+002
 20
7.8131817E+001
 40
4.5158014E-001
100
AcDbArc
 50
3.5999759E+002
 51
4.4999846E+002
  0
LINE
  5
39d
100
AcDbEntity
  8
1
100
AcDbLine
  6
CONTINUOUS
 62
1
 10
2.8013047E+002
 20
7.8131799E+001
 11
2.8013047E+002
 21
7.7002831E+001
  0
LINE
  5
39e
100
AcDbEntity
  8
1
100
AcDbLine
  6
CONTINUOUS
 62
1
 10
2.8013047E+002
 20
7.7002831E+001
 11
2.7561463E+002
 21
7.7002831E+001
  0
LINE
  5
39f
100
AcDbEntity
  8
1
100
AcDbLine
  6
CONTINUOUS
 62
1
 10
2.7561463E+002
 20
7.7002831E+001
 11
2.7561463E+002
 21
7.8131799E+001
  0
ARC
  5
3a0
100
AcDbEntity
  8
1
100
AcDbCircle
  6
CONTINUOUS
 62
1
 10
2.7606621E+002
 20
7.8131787E+001
 40
4.5158015E-001
100
AcDbArc
 50
8.9997608E+001
 51
1.7999853E+002
  0
LINE
  5
3a1
100
AcDbEntity
  8
1
100
AcDbLine
  6
CONTINUOUS
 62
1
 10
2.7606623E+002
 20
7.8583367E+001
 11
2.796789E+002
 21
7.8583398E+001
  0
ARC
  5
3a2
100
AcDbEntity
  8
1
100
AcDbCircle
  6
CONTINUOUS
 62
1
 10
2.3025813E+002
 20
9.374495E+001
 40
3.6863999E+001
100
AcDbArc
 50
3.2080496E+002
 51
3.5231279E+002
  0
LINE
  5
3a3
100
AcDbEntity
  8
1
100
AcDbLine
  6
CONTINUOUS
 62
1
 10
2.588277E+002
 20
7.0448296E+001
 11
2.7265171E+002
 21
7.439132E+001
  0
LINE
  5
3a4
100
AcDbEntity
  8
1
100
AcDbLine
  6
CONTINUOUS
 62
1
 10
2.7265171E+002
 20
7.439132E+001
 11
2.7265171E+002
 21
7.7288476E+001
  0
LINE
  5
3a5
100
AcDbEntity
  8
1
100
AcDbLine
  6
CONTINUOUS
 62
1
 10
2.7265171E+002
 20
7.7288476E+001
 11
2.6587611E+002
 21
7.5345605E+001
  0
ARC
  5
3a6
100
AcDbEntity
  8
1
100
AcDbCircle
  6
CONTINUOUS
 62
1
 10
2.3025811E+002
 20
9.3744893E+001
 40
4.008959E+001
100
AcDbArc
 50
3.3268035E+002
 51
3.504333E+002
  0
ARC
  5
3a7
100
AcDbEntity
  8
1
100
AcDbCircle
  6
CONTINUOUS
 62
1
 10
2.3025814E+002
 20
9.3745031E+001
 40
4.0089588E+001
100
AcDbArc
 50
3.504331E+002
 51
3.5471335E+002
  0
LINE
  5
3a8
100
AcDbEntity
  8
1
100
AcDbLine
  6
CONTINUOUS
 62
1
 10
2.7017719E+002
 20
9.0051232E+001
 11
2.6377955E+002
 21
9.3744927E+001
  0
LINE
  5
3a9
100
AcDbEntity
  8
1
100
AcDbLine
  6
CONTINUOUS
 62
1
 10
2.6377955E+002
 20
9.3744927E+001
 11
2.7017719E+002
 21
9.7438622E+001
  0
ARC
  5
3aa
100
AcDbEntity
  8
1
100
AcDbCircle
  6
CONTINUOUS
 62
1
 10
2.3025812E+002
 20
9.3744927E+001
 40
4.0089592E+001
100
AcDbArc
 50
5.2865021
 51
2.73197E+001
  0
LINE
  5
3ab
100
AcDbEntity
  8
1
100
AcDbLine
  6
CONTINUOUS
 62
1
 10
2.6587611E+002
 20
1.1214425E+002
 11
2.7265171E+002
 21
1.1020138E+002
  0
LINE
  5
3ac
100
AcDbEntity
  8
1
100
AcDbLine
  6
CONTINUOUS
 62
1
 10
2.7265171E+002
 20
1.1020138E+002
 11
2.7265171E+002
 21
1.1309853E+002
  0
LINE
  5
3ad
100
AcDbEntity
  8
1
100
AcDbLine
  6
CONTINUOUS
 62
1
 10
2.7265171E+002
 20
1.1309853E+002
 11
2.588277E+002
 21
1.1704156E+002
  0
ARC
  5
3ae
100
AcDbEntity
  8
1
100
AcDbCircle
  6
CONTINUOUS
 62
1
 10
2.3025813E+002
 20
9.3744904E+001
 40
3.6863999E+001
100
AcDbArc
 50
7.6872148
 51
3.9195039E+001
  0
LINE
  5
3af
100
AcDbEntity
  8
1
100
AcDbLine
  6
CONTINUOUS
 62
1
 10
2.6679084E+002
 20
9.8676018E+001
 11
2.5824995E+002
 21
9.3744927E+001
  0
LINE
  5
3b0
100
AcDbEntity
  8
1
100
AcDbLine
  6
CONTINUOUS
 62
1
 10
2.5824995E+002
 20
9.3744927E+001
 11
2.6679084E+002
 21
8.8813836E+001
  0
LINE
  5
3b1
100
AcDbEntity
  8
1
100
AcDbLine
  6
HIDDEN
 62
40
 10
2.6741364E+002
 20
7.5786523E+001
 11
2.7102375E+002
 21
7.6821679E+001
  0
TEXT
  5
3b2
100
AcDbEntity
  8
1
100
AcDbText
  6
CONTINUOUS
 62
40
 10
1.3023949E+001
 20
4.0444302E+002
 40
5.0
  1
M 1:1
 41
6.3E-001
 72
1
 11
2.0898949E+001
 21
4.0694302E+002
100
AcDbText
 73
2
  0
LINE
  5
3b3
100
AcDbEntity
  8
1
100
AcDbLine
  6
CONTINUOUS
 62
1
 10
5.0
 20
5.0
 11
5.89E+002
 21
5.0
  0
LINE
  5
3b4
100
AcDbEntity
  8
1
100
AcDbLine
  6
CONTINUOUS
 62
1
 10
5.89E+002
 20
5.0
 11
5.89E+002
 21
4.15E+002
  0
LINE
  5
3b5
100
AcDbEntity
  8
1
100
AcDbLine
  6
CONTINUOUS
 62
1
 10
5.89E+002
 20
4.15E+002
 11
5.0
 21
4.15E+002
  0
LINE
  5
3b6
100
AcDbEntity
  8
1
100
AcDbLine
  6
CONTINUOUS
 62
1
 10
5.0
 20
4.15E+002
 11
5.0
 21
5.0
  0
DIMENSION
  5
3b7
100
AcDbEntity
  8
1
100
AcDbDimension
  6
CONTINUOUS
 62
1
  2
*D693
  3
DSTYLE1
 10
4.8100145E+001
 20
4.1244927E+001
 11
4.4849145E+001
 21
9.4447023E+001
 70
128
100
AcDbAlignedDimension
 13
7.6059577E+001
 23
1.4624493E+002
 14
7.6059577E+001
 24
4.1244927E+001
 40
5.0
 50
9.0E+001
100
AcDbRotatedDimension
1001
ACAD
1000
DSTYLE
1002
{
1070
173
1070
0
1070
5
1000
_AH13
1002
}
  0
DIMENSION
  5
3b8
100
AcDbEntity
  8
1
100
AcDbDimension
  6
CONTINUOUS
 62
1
  2
*D694
  3
DSTYLE1
 10
3.8405958E+002
 20
1.5978883E+002
 11
2.3163264E+002
 21
1.6303983E+002
 70
128
100
AcDbAlignedDimension
 13
7.6059577E+001
 23
1.4624493E+002
 14
3.8405958E+002
 24
1.4624493E+002
 40
5.0
 50
0.0
100
AcDbRotatedDimension
1001
ACAD
1000
DSTYLE
1002
{
1070
173
1070
0
1070
5
1000
_AH13
1002
}
  0
DIMENSION
  5
3b9
100
AcDbEntity
  8
1
100
AcDbDimension
  6
CONTINUOUS
 62
1
  1
<>-57
  2
*D695
  3
DSTYLE1
 10
8.3059596E+001
 20
1.9144705E+002
 11
1.0499976E+002
 21
1.9469805E+002
 70
128
100
AcDbAlignedDimension
 13
1.3405958E+002
 23
2.1100717E+002
 14
8.3059596E+001
 24
2.0975909E+002
 40
5.0
 50
0.0
100
AcDbRotatedDimension
1001
ACAD
1000
DSTYLE
1002
{
1070
173
1070
0
1070
5
1000
_AH13
1002
}
  0
DIMENSION
  5
3ba
100
AcDbEntity
  8
1
100
AcDbDimension
  6
CONTINUOUS
 62
1
  2
*D696
  3
DSTYLE1
 10
3.6805955E+002
 20
1.793114E+002
 11
2.3638138E+002
 21
1.825624E+002
 70
128
100
AcDbAlignedDimension
 13
8.3059596E+001
 23
2.0975909E+002
 14
3.6805955E+002
 24
2.0975909E+002
 40
5.0
 50
0.0
100
AcDbRotatedDimension
1001
ACAD
1000
DSTYLE
1002
{
1070
173
1070
0
1070
5
1000
_AH13
1002
}
  0
TEXT
  5
3bb
100
AcDbEntity
  8
2
100
AcDbText
  6
CONTINUOUS
 62
40
 10
0.0
 20
5.0
 40
1.5
  1
5
100
AcDbText
  0
TEXT
  5
3bc
100
AcDbEntity
  8
2
100
AcDbText
  6
CONTINUOUS
 62
40
 10
0.0
 20
5.0
 40
1.5
  1
0 
100
AcDbText
  0
DIMENSION
  5
3bd
100
AcDbEntity
  8
1
100
AcDbDimension
  6
CONTINUOUS
 62
1
  1
36-42
  2
*D699
  3
DSTYLE1
 10
6.2873981E+001
 20
2.5075908E+002
 11
5.9622981E+001
 21
2.3163264E+002
 70
128
100
AcDbAlignedDimension
 13
8.3059596E+001
 23
2.0975909E+002
 14
7.5361743E+001
 24
2.5075908E+002
 40
5.0
 50
9.0E+001
100
AcDbRotatedDimension
1001
ACAD
1000
DSTYLE
1002
{
1070
173
1070
0
1070
5
1000
_AH13
1002
}
  0
DIMENSION
  5
3be
100
AcDbEntity
  8
1
100
AcDbDimension
  6
CONTINUOUS
 62
1
  1
36-42
  2
*D700
  3
DSTYLE1
 10
6.2346344E+001
 20
2.918591E+002
 11
5.9095344E+001
 21
2.7437124E+002
 70
128
100
AcDbAlignedDimension
 13
7.5361743E+001
 23
2.5075908E+002
 14
8.3059596E+001
 24
2.918591E+002
 40
5.0
 50
9.0E+001
100
AcDbRotatedDimension
1001
ACAD
1000
DSTYLE
1002
{
1070
173
1070
0
1070
5
1000
_AH13
1002
}
  0
DIMENSION
  5
3bf
100
AcDbEntity
  8
1
100
AcDbDimension
  6
CONTINUOUS
 62
1
  1
50
  2
*D701
  3
DSTYLE1
 10
3.8737074E+002
 20
3.1464918E+002
 11
3.8411974E+002
 21
3.3768768E+002
 70
128
100
AcDbAlignedDimension
 13
3.680596E+002
 23
3.6414917E+002
 14
3.680596E+002
 24
3.1464918E+002
 40
5.0
 50
9.0E+001
100
AcDbRotatedDimension
1001
ACAD
1000
DSTYLE
1002
{
1070
173
1070
0
1070
5
1000
_AH13
1002
}
  0
DIMENSION
  5
3c0
100
AcDbEntity
  8
1
100
AcDbDimension
  6
CONTINUOUS
 62
1
  2
*D702
  3
DSTYLE1
 10
5.0888771E+002
 20
2.9433627E+002
 11
4.6801402E+002
 21
2.9758727E+002
 70
128
100
AcDbAlignedDimension
 13
4.2688771E+002
 23
3.1464918E+002
 14
5.0888771E+002
 24
3.1464918E+002
 40
5.0
 50
0.0
100
AcDbRotatedDimension
1001
ACAD
1000
DSTYLE
1002
{
1070
173
1070
0
1070
5
1000
_AH13
1002
}
  0
TEXT
  5
3c1
100
AcDbEntity
  8
1
100
AcDbText
  6
CONTINUOUS
 62
40
 10
4.6576105E+002
 20
1.6629271E+001
 40
7.0
  1
BTS75V bridge-type fixing
 41
6.609375E-001
 72
1
 11
5.2359308E+002
 21
2.0129271E+001
100
AcDbText
 73
2
  0
VIEWPORT
  5
3c2
100
AcDbEntity
 67
1
  8
0
  6
CONTINUOUS
 62
3
100
AcDbViewport
 10
2.97E+002
 20
2.1E+002
 30
0.0
 40
4.2E+002
 41
4.2E+002
 68
1
 69
1
1001
ACAD
1000
MVIEW
1002
{
1070
16
1010
0.0
1020
0.0
1030
0.0
1010
0.0
1020
0.0
1030
1.0
1040
0.0
1040
4.2E+002
1040
1.6335E+002
1040
2.1E+002
1040
5.0E+001
1040
0.0
1040
0.0
1070
0
1070
1000
1070
1
1070
0
1070
0
1070
0
1070
0
1070
0
1040
0.0
1040
0.0
1040
0.0
1040
5.0E-001
1040
5.0E-001
1040
5.0E-001
1040
5.0E-001
1070
0
1002
{
1002
}
1002
}
  0
VIEWPORT
  5
3c3
100
AcDbEntity
 67
1
  8
0
  6
CONTINUOUS
 62
3
100
AcDbViewport
 10
2.97E+002
 20
2.1E+002
 30
0.0
 40
5.94E+002
 41
4.2E+002
 68
2
 69
2
1001
ACAD
1000
MVIEW
1002
{
1070
16
1010
0.0
1020
0.0
1030
0.0
1010
0.0
1020
0.0
1030
1.0
1040
0.0
1040
4.2E+002
1040
2.97E+002
1040
2.1E+002
1040
5.0E+001
1040
0.0
1040
0.0
1070
0
1070
1000
1070
1
1070
0
1070
0
1070
0
1070
0
1070
0
1040
0.0
1040
0.0
1040
0.0
1040
5.0E-001
1040
5.0E-001
1040
5.0E-001
1040
5.0E-001
1070
0
1002
{
1003
2
1002
}
1002
}
  0
VIEWPORT
  5
3c4
100
AcDbEntity
 67
1
  8
0
  6
CONTINUOUS
 62
3
100
AcDbViewport
 10
2.5
 20
2.5
 30
0.0
 40
5.0
 41
5.0
 68
3
 69
3
1001
ACAD
1000
MVIEW
1002
{
1070
16
1010
0.0
1020
0.0
1030
0.0
1010
0.0
1020
0.0
1030
1.0
1040
0.0
1040
5.0
1040
2.5
1040
2.5
1040
5.0E+001
1040
0.0
1040
0.0
1070
0
1070
1000
1070
1
1070
0
1070
0
1070
0
1070
0
1070
0
1040
0.0
1040
0.0
1040
0.0
1040
5.0E-001
1040
5.0E-001
1040
5.0E-001
1040
5.0E-001
1070
0
1002
{
1003
1
1002
}
1002
}
  0
ENDSEC
  0
SECTION
  2
OBJECTS
  0
DICTIONARY
  5
3c5
100
AcDbDictionary
  3
ACAD_GROUP
350
3c6
  3
ACAD_MLINESTYLE
350
3c7
  0
DICTIONARY
  5
3c6
102
{ACAD_REACTORS
330
3c5
102
}
100
AcDbDictionary
  0
DICTIONARY
  5
3c7
102
{ACAD_REACTORS
330
3c5
102
}
100
AcDbDictionary
  3
STANDARD
350
3c8
  0
MLINESTYLE
  5
3c8
102
{ACAD_REACTORS
330
3c7
102
}
100
AcDbMlineStyle
  2
STANDARD
 70
0
  3

 62
256
 51
9.0E+001
 52
9.0E+001
 71
2
 49
5.0E-001
 62
256
  6
BYLAYER
 49
-5.0E-001
 62
256
  6
BYLAYER
  0
ENDSEC
  0
EOF
